osu file format v14

[General]
AudioFilename: audio.mp3
AudioLeadIn: 0
PreviewTime: 41360
Countdown: 0
SampleSet: Soft
StackLeniency: 0.7
Mode: 3
LetterboxInBreaks: 0
SpecialStyle: 0
WidescreenStoryboard: 1

[Editor]
DistanceSpacing: 0.8
BeatDivisor: 3
GridSize: 32
TimelineZoom: 1.4

[Metadata]
Title:Crazy Scary Holy Fantasy - Chiptune Version
TitleUnicode:Crazy Scary Holy Fantasy - Chiptune Version
Artist:MYTH & ROID
ArtistUnicode:MYTH & ROID
Creator:OliBomby
Version:Overlord
Source:
Tags:
BeatmapID:1762967
BeatmapSetID:842530

[Difficulty]
HPDrainRate:5
CircleSize:4
OverallDifficulty:9
ApproachRate:5
SliderMultiplier:1.4
SliderTickRate:1

[Events]
//Background and Video events
0,0,"ace18bbb-98dc-4efd-a67c-6b4bee7a0ce4.png",0,0
//Break Periods
//Storyboard Layer 0 (Background)
//Storyboard Layer 1 (Fail)
//Storyboard Layer 2 (Pass)
//Storyboard Layer 3 (Foreground)
//Storyboard Sound Samples

[TimingPoints]
218,285.714285714286,4,2,0,100,1,0

[HitObjects]
64,192,218,5,0,0:0:0:0:
64,192,504,1,0,0:0:0:0:
64,192,694,1,0,0:0:0:0:
192,192,1075,1,0,0:0:0:0:
448,192,1075,1,0,0:0:0:0:
320,192,1647,1,0,0:0:0:0:
448,192,1647,1,0,0:0:0:0:
320,192,1932,1,0,0:0:0:0:
192,192,2123,1,0,0:0:0:0:
320,192,2504,1,0,0:0:0:0:
64,192,2789,1,0,0:0:0:0:
64,192,2980,1,0,0:0:0:0:
448,192,3361,1,0,0:0:0:0:
192,192,3361,1,0,0:0:0:0:
320,192,3647,1,0,0:0:0:0:
320,192,3932,1,0,0:0:0:0:
192,192,4218,1,0,0:0:0:0:
448,192,4789,1,0,0:0:0:0:
320,192,5266,1,0,0:0:0:0:
64,192,5361,1,0,0:0:0:0:
320,192,5647,1,0,0:0:0:0:
448,192,5932,1,0,0:0:0:0:
320,192,6218,1,0,0:0:0:0:
448,192,6504,1,0,0:0:0:0:
64,192,6789,1,0,0:0:0:0:
320,192,7075,1,0,0:0:0:0:
192,192,7266,1,0,0:0:0:0:
192,192,7551,1,0,0:0:0:0:
448,192,7647,1,0,0:0:0:0:
64,192,7932,1,0,0:0:0:0:
64,192,8218,1,0,0:0:0:0:
64,192,8504,1,0,0:0:0:0:
448,192,8789,1,0,0:0:0:0:
320,192,8789,1,0,0:0:0:0:
192,192,9361,1,0,0:0:0:0:
448,192,9837,1,0,0:0:0:0:
64,192,10218,1,0,0:0:0:0:
192,192,10789,1,0,0:0:0:0:
192,192,11075,1,0,0:0:0:0:
320,192,11266,1,0,0:0:0:0:
320,192,11647,1,0,0:0:0:0:
448,192,11932,1,0,0:0:0:0:
448,192,12504,1,0,0:0:0:0:
320,192,12789,1,0,0:0:0:0:
448,192,13075,1,0,0:0:0:0:
448,192,13361,1,0,0:0:0:0:
448,192,13932,1,0,0:0:0:0:
448,192,14123,1,0,0:0:0:0:
448,192,14408,1,0,0:0:0:0:
64,192,14504,1,0,0:0:0:0:
192,192,14789,1,0,0:0:0:0:
64,192,15075,1,0,0:0:0:0:
64,192,15361,1,0,0:0:0:0:
320,192,15647,1,0,0:0:0:0:
192,192,15932,1,0,0:0:0:0:
64,192,16218,1,0,0:0:0:0:
64,192,16408,1,0,0:0:0:0:
320,192,16694,1,0,0:0:0:0:
64,192,16789,1,0,0:0:0:0:
320,192,17075,1,0,0:0:0:0:
64,192,17361,1,0,0:0:0:0:
448,192,17647,1,0,0:0:0:0:
448,192,17932,1,0,0:0:0:0:
320,192,17932,1,0,0:0:0:0:
192,192,18504,1,0,0:0:0:0:
448,192,18980,1,0,0:0:0:0:
320,192,19361,1,0,0:0:0:0:
192,192,19932,1,0,0:0:0:0:
320,192,19932,1,0,0:0:0:0:
448,192,20218,1,0,0:0:0:0:
448,192,20408,1,0,0:0:0:0:
64,192,20789,1,0,0:0:0:0:
64,192,21075,1,0,0:0:0:0:
448,192,21266,1,0,0:0:0:0:
448,192,21647,1,0,0:0:0:0:
320,192,22218,1,0,0:0:0:0:
192,192,22504,1,0,0:0:0:0:
64,192,23075,1,0,0:0:0:0:
64,192,23361,1,0,0:0:0:0:
64,192,23551,1,0,0:0:0:0:
320,192,23647,1,0,0:0:0:0:
320,192,23837,1,0,0:0:0:0:
64,192,23932,1,0,0:0:0:0:
192,192,24123,1,0,0:0:0:0:
448,192,24218,1,0,0:0:0:0:
192,192,24408,1,0,0:0:0:0:
320,192,24504,1,0,0:0:0:0:
320,192,24694,1,0,0:0:0:0:
192,192,24789,1,0,0:0:0:0:
64,192,24980,1,0,0:0:0:0:
448,192,25075,1,0,0:0:0:0:
448,192,25266,1,0,0:0:0:0:
192,192,25361,1,0,0:0:0:0:
320,192,25551,1,0,0:0:0:0:
448,192,25837,1,0,0:0:0:0:
192,192,25932,1,0,0:0:0:0:
64,192,26123,1,0,0:0:0:0:
448,192,26218,1,0,0:0:0:0:
448,192,26408,1,0,0:0:0:0:
320,192,26504,1,0,0:0:0:0:
64,192,26789,1,0,0:0:0:0:
192,192,27075,1,0,0:0:0:0:
448,192,27361,1,0,0:0:0:0:
320,192,27647,1,0,0:0:0:0:
320,192,27837,1,0,0:0:0:0:
64,192,27932,1,0,0:0:0:0:
448,192,28123,1,0,0:0:0:0:
64,192,28218,1,0,0:0:0:0:
192,192,28408,1,0,0:0:0:0:
448,192,28504,1,0,0:0:0:0:
192,192,28694,1,0,0:0:0:0:
448,192,28789,1,0,0:0:0:0:
64,192,28980,1,0,0:0:0:0:
448,192,29075,1,0,0:0:0:0:
320,192,29266,1,0,0:0:0:0:
64,192,29361,1,0,0:0:0:0:
64,192,29551,1,0,0:0:0:0:
448,192,29647,1,0,0:0:0:0:
64,192,29837,1,0,0:0:0:0:
320,192,29932,1,0,0:0:0:0:
448,192,30504,1,0,0:0:0:0:
448,192,31075,1,0,0:0:0:0:
64,192,31361,1,0,0:0:0:0:
192,192,31647,1,0,0:0:0:0:
192,192,31932,1,0,0:0:0:0:
448,192,32218,1,0,0:0:0:0:
192,192,32218,1,0,0:0:0:0:
320,192,32504,1,0,0:0:0:0:
448,192,32789,1,0,0:0:0:0:
448,192,32980,1,0,0:0:0:0:
448,192,33551,1,0,0:0:0:0:
64,192,33647,1,0,0:0:0:0:
64,192,33837,1,0,0:0:0:0:
64,192,34218,1,0,0:0:0:0:
64,192,34789,1,0,0:0:0:0:
320,192,35075,1,0,0:0:0:0:
64,192,35932,1,0,0:0:0:0:
64,192,36789,1,0,0:0:0:0:
192,192,37075,1,0,0:0:0:0:
448,192,37361,1,0,0:0:0:0:
192,192,37551,1,0,0:0:0:0:
448,192,38218,1,0,0:0:0:0:
64,192,38504,1,0,0:0:0:0:
64,192,38789,1,0,0:0:0:0:
192,192,38789,1,0,0:0:0:0:
192,192,39075,128,0,40027:0:0:0:0:
448,192,40504,1,0,0:0:0:0:
320,192,40789,1,0,0:0:0:0:
64,192,41075,1,0,0:0:0:0:
448,192,41361,1,0,0:0:0:0:
64,192,41647,1,0,0:0:0:0:
448,192,41932,1,0,0:0:0:0:
64,192,42218,1,0,0:0:0:0:
192,192,42504,1,0,0:0:0:0:
192,192,42694,1,0,0:0:0:0:
64,192,42789,1,0,0:0:0:0:
320,192,42980,1,0,0:0:0:0:
192,192,43266,1,0,0:0:0:0:
64,192,43361,1,0,0:0:0:0:
192,192,43647,1,0,0:0:0:0:
448,192,43647,1,0,0:0:0:0:
320,192,43932,1,0,0:0:0:0:
448,192,43932,1,0,0:0:0:0:
192,192,44504,1,0,0:0:0:0:
320,192,44789,1,0,0:0:0:0:
192,192,44980,1,0,0:0:0:0:
64,192,45075,1,0,0:0:0:0:
64,192,45551,1,0,0:0:0:0:
192,192,45932,1,0,0:0:0:0:
320,192,46218,1,0,0:0:0:0:
192,192,46218,1,0,0:0:0:0:
448,192,46504,1,0,0:0:0:0:
320,192,46789,1,0,0:0:0:0:
448,192,47075,1,0,0:0:0:0:
448,192,47266,1,0,0:0:0:0:
64,192,47361,1,0,0:0:0:0:
320,192,47551,1,0,0:0:0:0:
448,192,47837,1,0,0:0:0:0:
64,192,47932,1,0,0:0:0:0:
64,192,48218,1,0,0:0:0:0:
64,192,48504,1,0,0:0:0:0:
64,192,48694,1,0,0:0:0:0:
64,192,48980,1,0,0:0:0:0:
320,192,49075,1,0,0:0:0:0:
320,192,49361,1,0,0:0:0:0:
64,192,49837,1,0,0:0:0:0:
192,192,50504,1,0,0:0:0:0:
192,192,50980,1,0,0:0:0:0:
192,192,51361,1,0,0:0:0:0:
64,192,51932,1,0,0:0:0:0:
448,192,52218,1,0,0:0:0:0:
448,192,52408,1,0,0:0:0:0:
320,192,52789,1,0,0:0:0:0:
448,192,53075,1,0,0:0:0:0:
192,192,53266,1,0,0:0:0:0:
64,192,53647,1,0,0:0:0:0:
192,192,53932,1,0,0:0:0:0:
448,192,54218,1,0,0:0:0:0:
64,192,54504,1,0,0:0:0:0:
64,192,54980,1,0,0:0:0:0:
448,192,55075,1,0,0:0:0:0:
448,192,55361,1,0,0:0:0:0:
320,192,55551,1,0,0:0:0:0:
448,192,55932,1,0,0:0:0:0:
64,192,56218,1,0,0:0:0:0:
192,192,56504,1,0,0:0:0:0:
448,192,56504,1,0,0:0:0:0:
320,192,56789,1,0,0:0:0:0:
192,192,56980,1,0,0:0:0:0:
192,192,57361,1,0,0:0:0:0:
192,192,57647,1,0,0:0:0:0:
320,192,57837,1,0,0:0:0:0:
192,192,58218,1,0,0:0:0:0:
448,192,58504,1,0,0:0:0:0:
448,192,58789,1,0,0:0:0:0:
320,192,59075,1,0,0:0:0:0:
