osu file format v14

[General]
AudioFilename: audio.mp3
AudioLeadIn: 0
PreviewTime: 19037
Countdown: 1
SampleSet: Normal
StackLeniency: 0.7
Mode: 0
LetterboxInBreaks: 0
WidescreenStoryboard: 0

[Editor]
Bookmarks: 34643,38550,42452,48302,75623,89281
DistanceSpacing: 0.6
BeatDivisor: 4
GridSize: 16
TimelineZoom: 5.9

[Metadata]
Title:STYX HELIX [Instrumental]
TitleUnicode:STYX HELIX [Instrumental]
Artist:MYTH & ROID (dj-Jo Remix)
ArtistUnicode:MYTH & ROID (dj-Jo Remix)
Creator:dretland2
Version:Revival
Source:Re:Zero
Tags:rem ram emilia subaru toyota
BeatmapID:1555116
BeatmapSetID:736894

[Difficulty]
HPDrainRate:7.9
CircleSize:4
OverallDifficulty:8.5
ApproachRate:9.5
SliderMultiplier:2.1
SliderTickRate:1

[Events]
//Background and Video events
0,0,"Atelier-20.jpg",0,0
//Break Periods
2,36798,38025
2,42530,43878
//Storyboard Layer 0 (Background)
//Storyboard Layer 1 (Fail)
//Storyboard Layer 2 (Pass)
//Storyboard Layer 3 (Foreground)
//Storyboard Sound Samples

[TimingPoints]
1476.88913644967,487.80487804878,4,1,0,100,1,0
19037,-151.515151515152,4,1,0,100,0,0
31720,-151.515151515152,4,1,0,50,0,0
32208,-151.515151515152,4,1,0,25,0,0
38550,-100,4,1,0,100,0,0
44403,-100,4,1,0,100,0,1
48306,-100,4,1,0,100,0,0
48793,-100,4,1,0,100,0,1
49281,-100,4,1,0,100,0,0
49769,-100,4,1,0,100,0,1

[HitObjects]
62,125,1476,5,0,0:0:0:0:
160,87,1598,2,0,L|220:74,2,52.5
149,184,1964,1,0,0:0:0:0:
247,222,2086,2,0,L|307:235,2,52.5
208,144,2452,6,0,P|228:127|252:116,1,52.5
399,30,2696,2,0,P|404:56|400:82,1,52.5
271,31,2940,2,0,P|296:40|317:56,1,52.5
464,141,3184,2,0,P|443:157|419:168,1,52.5
304,192,3428,5,0,0:0:0:0:
192,224,3550,2,0,L|176:288,2,52.5
229,143,3915,1,0,0:0:0:0:
117,110,4037,2,0,L|104:59,2,52.5
208,160,4403,2,0,L|208:212,1,52.5
176,336,4647,2,0,L|176:283,1,52.5
112,192,4891,2,0,L|112:244,1,52.5
272,304,5135,2,0,L|272:251,1,52.5
352,160,5379,5,0,0:0:0:0:
439,213,5501,2,0,L|430:278,2,52.5
256,171,5867,1,0,0:0:0:0:
185,244,5989,2,0,L|203:293,2,52.5
296,102,6354,6,0,P|274:86|250:77,1,52.5
154,64,6598,2,0,P|127:61|102:65,1,52.5
193,172,6842,2,0,P|222:178|248:191,1,52.5
345,243,7086,2,0,P|367:261|384:284,1,52.5
415,361,7330,5,0,0:0:0:0:
306,338,7452,2,0,L|244:356,2,52.5
250,259,7818,1,0,0:0:0:0:
153,214,7940,2,0,L|102:199,2,52.5
190,353,8306,6,0,L|118:341,1,52.5
25,148,8550,2,0,L|42:98,1,52.5
60,289,8793,2,0,L|32:244,1,52.5
110,30,9037,2,0,L|178:4,1,52.5
255,19,9281,5,0,0:0:0:0:
304,116,9403,2,0,L|378:125,2,52.5
188,148,9769,1,0,0:0:0:0:
139,245,9891,2,0,L|86:251,2,52.5
278,241,10257,6,0,L|313:284,1,52.5
414,275,10501,2,0,L|381:235,1,52.5
313,111,10745,2,0,L|346:70,1,52.5
449,76,10989,2,0,L|416:117,1,52.5
361,337,11232,5,0,0:0:0:0:
249,266,11354,2,0,L|245:337,2,52.5
478,264,11720,1,0,0:0:0:0:
366,193,11842,2,0,L|362:264,2,52.5
405,86,12208,6,0,L|340:89,1,52.5
186,56,12452,2,0,L|239:54,1,52.5
363,245,12696,5,0,0:0:0:0:
297,191,12818,1,0,0:0:0:0:
216,162,12940,1,0,0:0:0:0:
129,162,13062,1,0,0:0:0:0:
47,190,13184,5,0,0:0:0:0:
113,245,13306,2,0,L|96:294,2,52.5
194,274,13672,1,0,0:0:0:0:
281,274,13793,2,0,L|264:323,2,52.5
363,245,14159,6,0,L|415:242,1,52.5
440,136,14403,2,0,L|387:138,1,52.5
203,187,14647,2,0,L|255:184,1,52.5
317,87,14891,2,0,L|264:89,1,52.5
116,119,15135,5,0,0:0:0:0:
200,130,15257,1,0,0:0:0:0:
284,141,15379,1,0,0:0:0:0:
368,153,15501,1,0,0:0:0:0:
452,166,15623,6,0,P|437:220|394:256,1,105
316,254,15989,1,0,0:0:0:0:
231,248,16111,2,0,L|139:254,1,52.5
131,180,16354,2,0,L|183:176,1,52.5
268,167,16598,6,0,P|319:158|357:123,1,105
382,32,16964,1,0,0:0:0:0:
455,74,17086,2,0,B|467:135|467:135|444:250|446:305,1,210
57,74,18062,2,0,B|45:135|45:135|68:250|66:305,1,210
145,187,19037,6,0,B|196:254|240:208|240:208|263:178|240:144|240:144|170:73,1,277.199999154053
258,229,20989,6,0,B|244:260|244:260|231:295|193:321|193:321|133:351|87:287|140:239|140:239|170:190|123:164|144:186,1,346.499998942566
307,279,22940,6,0,B|319:255|319:255|337:228|327:162|267:169|267:169|144:185,1,277.199999154053
339,141,24891,6,0,B|375:26|457:56|485:100|450:167|450:167|382:269|313:298,1,415.799998731079
403,188,26842,6,0,L|332:206,2,46.1999998590088
394,105,27330,5,0,0:0:0:0:
369,105,27452,1,0,0:0:0:0:
344,105,27574,1,0,0:0:0:0:
319,105,27696,1,0,0:0:0:0:
294,106,27818,2,0,B|247:110|247:110|218:151,1,69.2999997885132
109,191,28306,6,0,L|101:168,1,17.3249999471283
202,191,28550,2,0,L|207:174,1,17.3249999471283
298,205,28793,6,0,L|286:238,5,23.0999999295044
377,187,29281,2,0,L|365:220,5,23.0999999295044
444,211,29769,5,0,0:0:0:0:
444,211,30745,6,0,L|433:287,1,69.2999997885132
358,322,31111,1,0,0:0:0:0:
268,347,31232,2,0,L|192:336,1,69.2999997885132
272,232,31720,5,0,0:0:0:0:
300,124,31964,1,0,0:0:0:0:
224,222,32208,5,0,0:0:0:0:
238,168,32452,1,0,0:0:0:0:
186,178,32696,5,0,0:0:0:0:
189,163,32940,1,0,0:0:0:0:
269,122,33184,5,0,0:0:0:0:
285,125,33428,1,0,0:0:0:0:
326,205,33672,6,0,P|367:203|402:200,3,69.2999997885132
256,80,34647,5,0,0:0:0:0:
256,192,35623,5,0,0:0:0:0:
256,288,36598,5,0,0:0:0:0:
256,144,38550,5,0,0:0:0:0:
256,192,38672,12,0,42330,0:0:0:0:
69,327,44403,6,0,L|61:247,1,52.5
87,191,44647,1,0,0:0:0:0:
155,137,44769,1,0,0:0:0:0:
154,323,44891,6,0,P|199:337|246:282,1,105
248,221,45257,1,0,0:0:0:0:
367,106,45379,6,0,L|367:54,1,52.5
346,262,45623,2,0,L|347:315,1,52.5
279,123,45867,2,0,B|276:58|276:58|245:32,1,105
188,157,46232,1,0,0:0:0:0:
250,241,46354,6,0,L|250:305,1,52.5
86,265,46598,2,0,L|86:213,1,52.5
147,50,46842,2,0,P|185:17|234:31,1,105
288,133,47208,1,0,0:0:0:0:
328,261,47330,6,0,L|337:319,1,52.5
451,208,47574,2,0,L|442:156,1,52.5
308,95,47818,6,0,L|230:100,1,52.5
196,165,48062,2,0,L|118:170,1,52.5
103,322,48306,1,0,0:0:0:0:
257,98,48793,6,0,L|181:132,1,52.5
369,168,49037,2,0,L|293:202,1,52.5
409,322,49281,1,0,0:0:0:0:
308,95,49769,6,0,L|328:36,1,52.5
196,165,50013,2,0,L|216:106,1,52.5
103,322,50257,6,0,L|172:320,1,52.5
270,261,50501,2,0,L|339:259,1,52.5
428,306,50745,2,0,B|444:253|444:253|400:191,1,105
320,112,51111,1,0,0:0:0:0:
211,109,51232,6,0,L|199:174,1,52.5
96,197,51476,2,0,L|147:206,1,52.5
236,89,51720,6,0,L|219:184,1,52.5
70,216,51964,2,0,L|144:230,1,52.5
309,134,52208,6,0,L|296:205,1,52.5
251,261,52452,1,0,0:0:0:0:
147,230,52574,1,0,0:0:0:0:
269,59,52696,2,0,P|312:47|370:71,1,105
416,145,53062,1,0,0:0:0:0:
241,210,53184,6,0,L|201:272,1,52.5
358,266,53428,2,0,L|386:221,1,52.5
252,364,53672,2,0,P|176:360|134:311,1,105
133,261,54037,1,0,0:0:0:0:
351,169,54159,6,0,L|418:122,1,52.5
241,174,54403,2,0,L|199:205,1,52.5
468,71,54647,2,0,B|493:132|493:132|479:178,1,105
337,57,55013,1,0,0:0:0:0:
154,65,55135,6,0,L|144:127,1,52.5
258,79,55379,2,0,L|249:27,1,52.5
358,74,55623,6,0,P|428:103|436:163,1,105
430,229,55989,1,0,0:0:0:0:
313,330,56111,6,0,L|250:337,1,52.5
81,350,56354,2,0,L|133:344,1,52.5
358,246,56598,2,0,L|352:193,1,52.5
17,256,56842,2,0,L|11:203,1,52.5
268,153,57086,6,0,L|262:100,1,52.5
143,35,57330,1,0,0:0:0:0:
28,93,57452,1,0,0:0:0:0:
58,214,57574,2,0,P|78:278|37:321,1,105
176,259,57940,1,0,0:0:0:0:
293,329,58062,6,0,P|272:264|313:221,1,105
401,212,58428,1,0,0:0:0:0:
259,52,58550,2,0,B|183:63|183:63|155:113,1,105
84,56,58915,1,0,0:0:0:0:
234,308,59037,6,0,B|252:329|252:329|302:224,1,105
340,193,59403,1,0,0:0:0:0:
228,143,59525,5,0,0:0:0:0:
193,223,59647,1,0,0:0:0:0:
108,245,59769,1,0,0:0:0:0:
37,194,59891,1,0,0:0:0:0:
173,304,60013,6,0,L|212:340,1,52.5
70,324,60257,2,0,L|31:288,1,52.5
287,353,60501,2,0,P|334:361|415:322,1,105
424,273,60867,1,0,0:0:0:0:
303,49,60989,6,0,L|229:48,1,52.5
420,139,61232,2,0,L|472:139,1,52.5
306,186,61476,2,0,L|165:184,1,105
111,141,61842,1,0,0:0:0:0:
42,288,61964,6,0,P|72:334|155:354,1,105
211,349,62330,1,0,0:0:0:0:
482,313,62452,2,0,P|395:348|346:337,1,105
297,342,62818,1,0,0:0:0:0:
61,165,62940,2,0,P|115:178|177:252,1,105
216,266,63306,1,0,0:0:0:0:
471,197,63428,2,0,P|447:245|391:272,1,105
298,276,63793,1,0,0:0:0:0:
202,169,63915,6,0,L|149:133,1,52.5
371,210,64159,2,0,L|414:239,1,52.5
141,59,64403,2,0,P|98:89|87:148,1,105
101,232,64769,1,0,0:0:0:0:
222,329,64891,6,0,L|276:348,1,52.5
215,152,65135,2,0,L|165:134,1,52.5
375,289,65379,2,0,B|447:328|447:328|439:264,1,105
443,213,65745,1,0,0:0:0:0:
262,267,65867,6,0,L|264:332,1,52.5
124,106,66111,2,0,L|122:53,1,52.5
340,221,66354,2,0,P|357:263|422:308,1,105
443,213,66720,1,0,0:0:0:0:
192,256,66842,6,0,L|160:320,1,52.5
320,128,67086,2,0,L|352:64,1,52.5
192,128,67330,2,0,L|128:96,1,52.5
320,256,67574,2,0,L|384:288,1,52.5
305,81,67818,6,0,L|225:83,1,52.5
397,111,68062,2,0,L|449:109,1,52.5
319,176,68306,2,0,P|323:239|282:301,1,105
224,336,68672,1,0,0:0:0:0:
150,263,68793,6,0,L|74:203,1,52.5
372,244,69037,2,0,L|407:205,1,52.5
131,223,69281,2,0,L|81:141,1,52.5
383,201,69525,2,0,L|419:111,1,52.5
230,124,69769,6,0,P|200:171|236:236,1,105
287,283,70135,1,0,0:0:0:0:
416,312,70257,2,0,B|459:266|459:266|461:204,1,105
455,106,70623,1,0,0:0:0:0:
344,52,70745,2,0,P|349:120|327:173,1,105
264,117,71111,2,0,P|257:168|270:219,1,105
354,227,71476,2,0,P|348:252|334:274,1,52.5
230,308,71720,6,0,P|158:268|99:287,1,105
151,349,72086,2,0,P|99:343|59:310,1,105
77,235,72452,2,0,P|51:230|27:241,1,52.5
94,137,72696,6,0,B|76:98|76:98|110:7,1,105
196,98,73062,2,0,B|214:137|214:137|180:228,1,105
162,269,73428,1,0,0:0:0:0:
103,328,73550,1,0,0:0:0:0:
234,312,73672,6,0,L|298:285,1,52.5
289,199,73915,2,0,L|350:230,1,52.5
410,168,74159,2,0,L|425:235,1,52.5
512,241,74403,2,0,L|470:296,1,52.5
344,349,74647,6,0,L|366:289,1,52.5
272,232,74891,2,0,L|291:183,1,52.5
234,312,75135,2,0,B|172:338|172:338|136:327,1,105
170,226,75501,1,0,0:0:0:0:
49,336,75623,5,0,0:0:0:0:
97,266,75745,1,0,0:0:0:0:
78,183,75867,1,0,0:0:0:0:
117,110,75989,2,0,P|186:123|243:109,1,105
367,47,76354,2,0,L|307:87,1,52.5
289,162,76598,5,0,0:0:0:0:
239,237,76720,1,0,0:0:0:0:
154,216,76842,1,0,0:0:0:0:
124,69,76964,2,0,B|91:52|91:52|30:134,1,105
44,213,77330,2,0,L|43:265,1,52.5
234,267,77574,5,0,0:0:0:0:
179,336,77696,2,0,L|129:321,1,52.5
465,273,77940,2,0,P|439:317|390:333,1,105
377,234,78306,2,0,L|375:162,1,52.5
269,183,78550,5,0,0:0:0:0:
177,305,78672,2,0,L|194:256,1,52.5
246,59,78915,2,0,B|233:39|189:52|189:52|168:94,1,105
98,208,79281,2,0,L|150:200,1,52.5
334,88,79525,6,0,L|389:79,1,52.5
324,100,79769,2,0,L|272:108,1,52.5
295,227,80013,2,0,P|305:246|345:273,1,52.5
213,176,80257,2,0,P|204:195|209:243,1,52.5
446,150,80501,5,0,0:0:0:0:
354,151,80623,1,0,0:0:0:0:
272,107,80745,1,0,0:0:0:0:
190,210,80867,2,0,B|129:207|129:207|74:263,1,105
246,317,81232,2,0,L|330:322,1,52.5
436,239,81476,6,0,L|428:169,2,52.5
338,248,81842,2,0,L|325:143,1,105
223,139,82208,2,0,L|228:191,1,52.5
115,324,82452,6,0,L|35:294,2,52.5
176,245,82818,2,0,L|285:293,1,105
384,254,83184,1,0,0:0:0:0:
408,167,83306,1,0,0:0:0:0:
332,67,83428,6,0,B|304:106|256:125|219:136|219:136|144:145|143:256|233:257|233:257|312:244|309:135|218:134|218:134|169:104|139:45,1,630
112,230,85379,6,0,B|147:188|195:184|195:184|287:176|211:29|211:29|79:159|189:188|189:188|258:241|289:242|329:221,1,630
123,247,87330,6,0,L|100:193,1,52.5
242,141,87574,2,0,L|221:189,1,52.5
220,311,87818,6,0,L|197:257,1,52.5
339,205,88062,2,0,L|318:253,1,52.5
150,112,88306,6,0,L|129:63,1,52.5
269,121,88550,2,0,L|248:169,1,52.5
376,79,88793,5,0,0:0:0:0:
370,163,88915,1,0,0:0:0:0:
470,187,89037,5,0,0:0:0:0:
441,270,89159,1,0,0:0:0:0:
