osu file format v14

[General]
AudioFilename: audio.mp3
AudioLeadIn: 0
PreviewTime: -1
Countdown: 1
SampleSet: Soft
StackLeniency: 0.7
Mode: 0
LetterboxInBreaks: 0
WidescreenStoryboard: 0

[Editor]
DistanceSpacing: 1
BeatDivisor: 3
GridSize: 4
TimelineZoom: 1

[Metadata]
Title:Crazy Scary Holy Fantasy
TitleUnicode:Crazy Scary Holy Fantasy
Artist:MYTH & LOID
ArtistUnicode:MYTH & LOID
Creator:Dassssho
Version:Normal
Source:オーバーロード
Tags:オーバーロード
BeatmapID:1389267
BeatmapSetID:655599

[Difficulty]
HPDrainRate:6
CircleSize:3
OverallDifficulty:3
ApproachRate:8
SliderMultiplier:1.40000000596046
SliderTickRate:3

[Events]
//Background and Video events
0,0,"maxresdefault.jpg",0,0
//Break Periods
//Storyboard Layer 0 (Background)
//Storyboard Layer 1 (Fail)
//Storyboard Layer 2 (Pass)
//Storyboard Layer 3 (Foreground)
//Storyboard Sound Samples

[TimingPoints]
17722,285.614285714286,4,2,0,100,1,0
26864,-133.333333333333,4,2,0,100,0,0
31436,-100,4,2,0,100,0,0
36007,-133.333333333333,4,2,0,100,0,0
40579,-100,4,2,0,100,0,0
45140,-200,4,2,0,100,0,0
54280,-133.333333333333,4,2,0,100,0,0
63420,-100,4,2,0,100,0,0

[HitObjects]
116,88,17864,6,0,L|104:136,1,46.6666668653487
92,224,18150,2,0,L|96:276,1,46.6666668653487
148,356,18436,1,0,0:0:0:0:
288,356,18721,6,0,L|288:296,1,46.6666668653487
284,216,19007,2,0,L|284:152,1,46.6666668653487
288,76,19292,1,0,0:0:0:0:
356,80,19435,2,0,L|436:80,1,70.0000002980232
432,148,19721,2,0,L|348:148,1,70.0000002980232
504,152,20149,6,0,L|504:216,1,46.6666668653487
504,292,20435,2,0,L|504:344,1,46.6666668653487
400,328,20720,1,0,0:0:0:0:
396,188,21006,6,0,L|344:188,1,46.6666668653487
256,188,21292,2,0,L|256:252,1,46.6666668653487
256,328,21577,1,0,0:0:0:0:
188,328,21720,2,0,L|223:287,2,46.6666668653487
188,328,22006,2,0,L|144:272,2,46.6666668653487
96,344,22482,6,0,L|96:276,1,46.6666668653487
96,204,22767,2,0,L|96:148,1,46.6666668653487
96,64,23053,1,0,0:0:0:0:
236,64,23339,6,0,L|236:112,1,46.6666668653487
236,204,23624,2,0,L|236:264,1,46.6666668653487
236,344,23910,1,0,0:0:0:0:
284,344,24005,2,0,L|392:344,1,93.3333337306973
372,248,24291,2,0,L|256:248,1,93.3333337306973
276,156,24683,6,0,L|276:92,1,46.6666668653487
276,16,24969,2,0,L|356:16,1,46.6666668653487
416,16,25255,1,0,0:0:0:0:
416,156,25540,2,0,L|416:208,1,46.6666668653487
416,296,25826,2,0,L|416:352,1,46.6666668653487
324,344,26111,2,0,L|76:344,1,233.333334326743
80,240,26861,6,0,L|108:172,1,70.0000029683112
96,144,27147,1,0,0:0:0:0:
76,76,27432,2,0,L|188:76,1,105.000004452467
288,72,28004,1,0,0:0:0:0:
284,176,28289,1,0,0:0:0:0:
288,280,28575,2,0,P|352:280|348:236,1,105.000004452467
356,148,29146,6,0,P|368:96|400:84,1,70.0000029683112
484,88,29610,2,0,L|484:128,1,35.0000014841556
488,228,30003,1,0,0:0:0:0:
488,332,30289,2,0,L|368:332,1,105.000004452467
280,336,30860,2,0,B|224:332|196:324|176:292|184:248|196:220|204:168,1,210.000008904934
192,96,31609,6,0,L|140:96,1,46.6666668653487
52,100,31895,2,0,L|88:176,1,46.6666668653487
124,220,32181,1,0,0:0:0:0:
48,340,32466,2,0,L|96:340,1,46.6666668653487
188,344,32752,2,0,L|216:276,1,46.6666668653487
212,208,33038,1,0,0:0:0:0:
212,208,33145,2,0,L|152:188,2,46.6666668653487
212,208,33430,2,0,L|264:172,2,46.6666668653487
224,68,33894,6,0,L|272:112,1,46.6666668653487
320,28,34180,2,0,L|380:84,1,46.6666668653487
324,140,34466,1,0,0:0:0:0:
272,268,34751,2,0,L|328:316,1,46.6666668653487
376,236,35037,2,0,L|432:284,1,46.6666668653487
484,204,35322,2,0,B|456:128|408:92|312:92|264:92|212:96|184:96,1,326.666668057441
168,96,36108,5,0,0:0:0:0:
164,200,36394,2,0,L|216:200,1,35.0000014841556
280,312,36858,1,0,0:0:0:0:
280,208,37143,2,0,L|336:116,2,105.000004452467
280,208,38000,1,0,0:0:0:0:
172,216,38286,2,0,L|172:128,1,70.0000029683112
172,76,38678,2,0,L|172:116,1,35.0000014841556
68,204,39143,1,0,0:0:0:0:
140,280,39428,1,0,0:0:0:0:
212,204,39714,1,0,0:0:0:0:
144,124,39999,2,0,B|176:72|192:56|240:48|296:48|304:144,1,210.000008904934
312,208,40749,6,0,L|252:208,1,46.6666668653487
172,212,41035,2,0,L|172:152,1,46.6666668653487
240,100,41320,1,0,0:0:0:0:
364,160,41606,2,0,L|364:220,1,46.6666668653487
288,260,41892,2,0,L|200:260,1,46.6666668653487
148,260,42177,1,0,0:0:0:0:
136,304,42284,2,0,L|248:304,1,93.3333337306973
276,304,42570,2,0,L|380:304,1,93.3333337306973
304,180,43034,6,0,L|304:120,1,46.6666668653487
300,40,43320,2,0,L|360:40,1,46.6666668653487
432,76,43605,1,0,0:0:0:0:
364,200,43891,2,0,L|364:256,1,46.6666668653487
272,248,44177,2,0,L|272:188,1,46.6666668653487
256,192,44284,12,0,44855,0:0:0:0:
92,88,45140,6,0,L|92:136,1,46.6666668653487
92,160,45426,2,0,L|92:212,1,46.6666668653487
92,232,45712,2,0,L|92:288,1,46.6666668653487
92,300,45997,2,0,L|92:352,1,46.6666668653487
116,348,46283,2,0,L|168:348,1,46.6666668653487
162,348,46569,2,0,L|228:348,1,46.6666668653487
232,348,46854,2,0,L|284:348,1,46.6666668653487
304,348,47140,2,0,L|356:348,1,46.6666668653487
372,348,47425,6,0,L|436:348,1,46.6666668653487
444,348,47711,2,0,L|444:288,1,46.6666668653487
440,276,47997,2,0,L|440:208,1,46.6666668653487
436,208,48282,2,0,L|436:152,1,46.6666668653487
436,136,48568,2,0,L|436:64,2,70.000000298023
324,56,49710,6,0,L|356:96,1,46.6666668653487
353,92,49996,2,0,L|312:136,1,46.6666668653487
321,126,50282,2,0,L|360:159,1,46.6666668653487
356,156,50567,2,0,L|316:200,1,46.6666668653487
324,190,50853,2,0,L|368:228,1,46.6666668653487
360,221,51138,2,0,L|316:264,1,46.6666668653487
326,253,51424,2,0,L|372:288,1,46.6666668653487
363,281,51710,2,0,L|316:324,1,46.6666668653487
304,316,51995,6,0,B|236:260|240:264,1,70.000000298023
196,228,52566,2,0,L|256:176,1,70.000000298023
304,140,53138,2,0,L|236:92,1,70.000000298023
256,32,53709,2,0,L|256:120,1,70.000000298023
352,60,54280,6,0,B|404:96|420:116|432:140|444:208|440:244,1,210.000008904934
152,84,55423,2,0,B|124:108|100:136|96:180|80:216|84:256|88:292,1,210.000008904934
256,324,56565,2,0,L|256:104,2,210.000008904934
256,188,58279,1,0,0:0:0:0:
88,192,58850,6,0,B|108:232|140:272|180:308|216:320|252:328,1,210.000008904934
432,192,59992,2,0,B|424:152|396:108|356:72|304:56|264:56,1,210.000008904934
76,56,61135,6,0,L|148:112,1,70.0000029683112
216,160,61611,2,0,L|256:188,1,35.0000014841556
324,248,61992,1,0,0:0:0:0:
384,164,62277,2,0,B|420:140|424:112|396:92|372:92,2,105.000004452467
116,80,63420,6,0,L|80:228,1,140.000000596046
196,132,63991,2,0,P|284:184|264:228,1,140.000000596046
160,268,64562,2,0,P|184:316|228:256,1,140.000000596046
248,276,64943,2,0,P|288:328|320:264,1,140.000000596046
327,286,65419,1,0,0:0:0:0:
408,172,65705,6,0,L|288:84,1,140.000000596046
156,64,66276,2,0,L|96:196,1,140.000000596046
236,192,66847,1,0,0:0:0:0:
332,92,67133,1,0,0:0:0:0:
332,92,67323,1,0,0:0:0:0:
428,196,67609,2,0,P|376:256|320:272,1,140.000000596046
272,272,67990,6,0,P|188:272|140:224,1,140.000000596046
136,100,68561,2,0,P|196:56|256:96,1,140.000000596046
388,80,69132,2,0,B|352:156|324:176,1,93.3333337306973
340,160,69418,1,0,0:0:0:0:
248,168,69608,1,0,0:0:0:0:
124,104,69894,2,0,B|104:160|128:248,1,140.000000596046
126,241,70275,6,0,P|200:328|248:332,1,140.000000596046
268,336,70751,2,0,P|344:320|388:240,1,140.000000596046
392,228,71131,2,0,B|384:156|292:92,1,140.000000596046
276,92,71512,2,0,B|208:96|136:156|108:228,1,186.666667461395
114,201,71988,2,0,B|120:268|148:296|212:328|296:344|328:308|356:264,1,280.000001192092
