osu file format v14

[General]
AudioFilename: audio.mp3
AudioLeadIn: 0
PreviewTime: 154969
Countdown: 0
SampleSet: Normal
StackLeniency: 0.7
Mode: 1
LetterboxInBreaks: 0
WidescreenStoryboard: 0

[Editor]
Bookmarks: 36931,81238,110777,140315,169854,262161
DistanceSpacing: 0.1
BeatDivisor: 4
GridSize: 32
TimelineZoom: 0.6999999

[Metadata]
Title:Smile (Original Mix)
TitleUnicode:Smile (Original Mix)
Artist:MYLK
ArtistUnicode:MYLK
Creator:Nardoxyribonucleic
Version:Oni
Source:
Tags:Taiko Dream Catcher EP Electronic Japanese Cynplytholowazy
BeatmapID:2232423
BeatmapSetID:1065517

[Difficulty]
HPDrainRate:5
CircleSize:5
OverallDifficulty:5
ApproachRate:6
SliderMultiplier:1.4
SliderTickRate:1

[Events]
//Background and Video events
0,0,"bg.jpeg",0,0
//Break Periods
2,214361,227881
//Storyboard Layer 0 (Background)
//Storyboard Layer 1 (Fail)
//Storyboard Layer 2 (Pass)
//Storyboard Layer 3 (Foreground)
//Storyboard Layer 4 (Overlay)
//Storyboard Sound Samples

[TimingPoints]
8,461.538461538462,4,1,0,30,1,0
8,-125,4,1,0,30,0,0
20777,-117.647058823529,4,1,0,40,0,0
21354,-117.647058823529,4,1,0,45,0,0
21931,-117.647058823529,4,1,0,50,0,0
22161,-111.111111111111,4,1,0,65,0,0
51238,-105.263157894737,4,1,0,65,0,0
51700,-100,4,1,0,75,0,0
66469,-95.2380952380952,4,1,0,80,0,1
96008,-100,4,1,0,70,0,0
96815,-111.111111111111,4,1,0,70,0,0
123815,-109.58904109589,4,1,0,70,0,0
123931,-108.108108108108,4,1,0,70,0,0
124161,-105.263157894737,4,1,0,70,0,0
124277,-103.896103896104,4,1,0,70,0,0
124392,-102.564102564103,4,1,0,70,0,0
124508,-101.26582278481,4,1,0,70,0,0
124623,-100,4,1,0,70,0,0
124738,-98.7654320987654,4,1,0,70,0,0
124854,-97.5609756097561,4,1,0,70,0,0
125084,-90.9090909090909,4,1,0,70,0,0
125546,-100,4,1,0,75,0,0
155084,-95.2380952380952,4,1,0,80,0,1
184392,-97.5609756097561,4,1,0,80,0,1
184623,-100,4,1,0,70,0,0
199392,-100,4,1,0,75,0,0
214161,-100,4,1,0,60,0,0
214623,-142.857142857143,4,1,0,60,0,0
228931,-125,4,1,0,70,0,0
243931,-121.951219512195,4,1,0,70,0,0
244046,-120.481927710843,4,1,0,70,0,0
244161,-119.047619047619,4,1,0,70,0,0
244392,-116.279069767442,4,1,0,70,0,0
244508,-114.942528735632,4,1,0,70,0,0
244623,-113.636363636364,4,1,0,70,0,0
244854,-111.111111111111,4,1,0,70,0,0
244969,-109.89010989011,4,1,0,70,0,0
245084,-108.695652173913,4,1,0,70,0,0
245200,-107.52688172043,4,1,0,70,0,0
245315,-106.382978723404,4,1,0,70,0,0
245431,-105.263157894737,4,1,0,70,0,0
245546,-104.166666666667,4,1,0,70,0,0
245777,-102.040816326531,4,1,0,70,0,0
245892,-101.010101010101,4,1,0,70,0,0
246008,-100,4,1,0,70,0,0
246238,-98.0392156862745,4,1,0,70,0,0
246354,-97.0873786407767,4,1,0,70,0,0
246469,-96.1538461538461,4,1,0,70,0,0
246700,-90.9090909090909,4,1,0,70,0,0
246931,-83.3333333333333,4,1,0,70,0,0
247392,-90.9090909090909,4,1,0,85,0,1
276931,-100,4,1,0,60,0,0
277392,-111.111111111111,4,1,0,60,0,0
289854,-111.111111111111,4,1,0,50,0,0
290315,-111.111111111111,4,1,0,40,0,0
290777,-111.111111111111,4,1,0,30,0,0
291238,-111.111111111111,4,1,0,20,0,0
291700,-111.111111111111,4,1,0,10,0,0

[HitObjects]
256,192,7392,5,0,0:0:0:0:
256,192,7854,1,8,0:0:0:0:
256,192,8315,1,8,0:0:0:0:
256,192,8661,1,0,0:0:0:0:
256,192,9008,1,0,0:0:0:0:
256,192,10161,1,8,0:0:0:0:
256,192,10508,1,8,0:0:0:0:
256,192,10854,1,0,0:0:0:0:
256,192,11084,1,8,0:0:0:0:
256,192,11546,1,8,0:0:0:0:
256,192,12008,1,0,0:0:0:0:
256,192,12354,1,8,0:0:0:0:
256,192,12700,1,0,0:0:0:0:
256,192,13854,1,8,0:0:0:0:
256,192,14200,1,8,0:0:0:0:
256,192,14546,1,0,0:0:0:0:
256,192,14777,1,8,0:0:0:0:
256,192,15238,1,8,0:0:0:0:
256,192,15700,1,8,0:0:0:0:
256,192,16046,1,8,0:0:0:0:
256,192,16392,1,0,0:0:0:0:
256,192,17546,1,8,0:0:0:0:
256,192,17892,1,8,0:0:0:0:
256,192,18238,1,0,0:0:0:0:
256,192,18469,1,0,0:0:0:0:
256,192,18931,1,8,0:0:0:0:
256,192,19392,1,8,0:0:0:0:
256,192,19738,1,0,0:0:0:0:
256,192,20084,1,0,0:0:0:0:
256,192,20777,12,0,21931,0:0:0:0:
256,192,22161,5,4,0:0:0:0:
256,192,22623,1,8,0:0:0:0:
256,192,22854,1,0,0:0:0:0:
256,192,23084,1,8,0:0:0:0:
256,192,23431,1,0,0:0:0:0:
256,192,23777,1,0,0:0:0:0:
256,192,24008,1,8,0:0:0:0:
256,192,24700,1,8,0:0:0:0:
256,192,24931,1,8,0:0:0:0:
256,192,25161,1,8,0:0:0:0:
256,192,25392,1,0,0:0:0:0:
256,192,25623,1,8,0:0:0:0:
256,192,25854,1,0,0:0:0:0:
256,192,26315,1,8,0:0:0:0:
256,192,26546,1,0,0:0:0:0:
256,192,26777,1,8,0:0:0:0:
256,192,27123,1,8,0:0:0:0:
256,192,27469,1,0,0:0:0:0:
256,192,27700,1,8,0:0:0:0:
256,192,28392,1,0,0:0:0:0:
256,192,28623,1,8,0:0:0:0:
256,192,28854,1,8,0:0:0:0:
256,192,29084,1,0,0:0:0:0:
256,192,29315,1,8,0:0:0:0:
256,192,29546,1,0,0:0:0:0:
256,192,30008,1,8,0:0:0:0:
256,192,30238,1,0,0:0:0:0:
256,192,30469,1,8,0:0:0:0:
256,192,30815,1,0,0:0:0:0:
256,192,31161,1,0,0:0:0:0:
256,192,31392,1,8,0:0:0:0:
256,192,32084,1,8,0:0:0:0:
256,192,32315,1,8,0:0:0:0:
256,192,32546,1,8,0:0:0:0:
256,192,32777,1,0,0:0:0:0:
256,192,33008,1,8,0:0:0:0:
256,192,33238,1,0,0:0:0:0:
256,192,33700,1,8,0:0:0:0:
256,192,33931,1,0,0:0:0:0:
256,192,34161,1,8,0:0:0:0:
256,192,34508,1,8,0:0:0:0:
256,192,34854,1,0,0:0:0:0:
256,192,35084,1,8,0:0:0:0:
256,192,35777,1,0,0:0:0:0:
256,192,36008,1,8,0:0:0:0:
256,192,36238,1,8,0:0:0:0:
256,192,36469,1,0,0:0:0:0:
256,192,36700,1,8,0:0:0:0:
256,192,36931,1,4,0:0:0:0:
256,192,37392,1,8,0:0:0:0:
256,192,37623,1,0,0:0:0:0:
256,192,37854,1,8,0:0:0:0:
256,192,38200,1,0,0:0:0:0:
256,192,38315,1,8,0:0:0:0:
256,192,38546,1,0,0:0:0:0:
256,192,38777,1,8,0:0:0:0:
256,192,39469,1,8,0:0:0:0:
256,192,39700,1,8,0:0:0:0:
256,192,39815,1,8,0:0:0:0:
256,192,40046,1,0,0:0:0:0:
256,192,40161,1,0,0:0:0:0:
256,192,40392,1,8,0:0:0:0:
256,192,40623,1,0,0:0:0:0:
256,192,41084,1,8,0:0:0:0:
256,192,41315,1,0,0:0:0:0:
256,192,41546,1,8,0:0:0:0:
256,192,41892,1,8,0:0:0:0:
256,192,42008,1,0,0:0:0:0:
256,192,42238,1,0,0:0:0:0:
256,192,42469,1,8,0:0:0:0:
256,192,43161,1,0,0:0:0:0:
256,192,43392,1,8,0:0:0:0:
256,192,43623,1,8,0:0:0:0:
256,192,43738,1,8,0:0:0:0:
256,192,43854,1,0,0:0:0:0:
256,192,44084,1,8,0:0:0:0:
256,192,44315,1,0,0:0:0:0:
256,192,44777,1,8,0:0:0:0:
256,192,45008,1,0,0:0:0:0:
256,192,45238,1,8,0:0:0:0:
256,192,45584,1,0,0:0:0:0:
256,192,45700,1,8,0:0:0:0:
256,192,45931,1,0,0:0:0:0:
256,192,46161,1,8,0:0:0:0:
256,192,46854,1,8,0:0:0:0:
256,192,47084,1,8,0:0:0:0:
256,192,47200,1,8,0:0:0:0:
256,192,47431,1,0,0:0:0:0:
256,192,47546,1,0,0:0:0:0:
256,192,47777,1,8,0:0:0:0:
256,192,48008,1,0,0:0:0:0:
256,192,48469,1,8,0:0:0:0:
256,192,48700,1,0,0:0:0:0:
256,192,48931,1,8,0:0:0:0:
256,192,49277,1,8,0:0:0:0:
256,192,49392,1,0,0:0:0:0:
256,192,49623,1,0,0:0:0:0:
256,192,49854,1,8,0:0:0:0:
256,192,50546,1,0,0:0:0:0:
256,192,50777,1,8,0:0:0:0:
256,192,51238,1,8,0:0:0:0:
256,192,51700,1,4,0:0:0:0:
256,192,51931,1,8,0:0:0:0:
256,192,52161,1,8,0:0:0:0:
256,192,52277,1,8,0:0:0:0:
256,192,52392,1,0,0:0:0:0:
256,192,52623,1,0,0:0:0:0:
256,192,52969,1,0,0:0:0:0:
256,192,53084,1,8,0:0:0:0:
256,192,53315,1,0,0:0:0:0:
256,192,53546,1,0,0:0:0:0:
256,192,53777,1,8,0:0:0:0:
256,192,53892,1,0,0:0:0:0:
256,192,54008,1,8,0:0:0:0:
256,192,54238,1,0,0:0:0:0:
256,192,54354,1,8,0:0:0:0:
256,192,54469,1,0,0:0:0:0:
256,192,54815,1,0,0:0:0:0:
256,192,54931,1,8,0:0:0:0:
256,192,55161,1,0,0:0:0:0:
256,192,55392,1,0,0:0:0:0:
256,192,55623,1,8,0:0:0:0:
256,192,55854,1,8,0:0:0:0:
256,192,55969,1,8,0:0:0:0:
256,192,56084,1,0,0:0:0:0:
256,192,56315,1,0,0:0:0:0:
256,192,56661,1,0,0:0:0:0:
256,192,56777,1,8,0:0:0:0:
256,192,57008,1,0,0:0:0:0:
256,192,57238,1,0,0:0:0:0:
256,192,57469,1,8,0:0:0:0:
256,192,57584,1,0,0:0:0:0:
256,192,57700,1,8,0:0:0:0:
256,192,57931,1,0,0:0:0:0:
256,192,58046,1,8,0:0:0:0:
256,192,58161,1,0,0:0:0:0:
256,192,58392,1,8,0:0:0:0:
256,192,58508,1,8,0:0:0:0:
256,192,58623,1,8,0:0:0:0:
256,192,58738,1,8,0:0:0:0:
256,192,58854,1,0,0:0:0:0:
256,192,59084,1,4,0:0:0:0:
256,192,59315,1,8,0:0:0:0:
256,192,59546,1,8,0:0:0:0:
256,192,59661,1,8,0:0:0:0:
256,192,59777,1,0,0:0:0:0:
256,192,60008,1,0,0:0:0:0:
256,192,60354,1,0,0:0:0:0:
256,192,60469,1,8,0:0:0:0:
256,192,60700,1,0,0:0:0:0:
256,192,60931,1,0,0:0:0:0:
256,192,61161,1,8,0:0:0:0:
256,192,61277,1,0,0:0:0:0:
256,192,61392,1,8,0:0:0:0:
256,192,61623,1,0,0:0:0:0:
256,192,61738,1,8,0:0:0:0:
256,192,61854,1,0,0:0:0:0:
256,192,62200,1,0,0:0:0:0:
256,192,62315,1,8,0:0:0:0:
256,192,62546,1,0,0:0:0:0:
256,192,62777,1,0,0:0:0:0:
256,192,63008,1,8,0:0:0:0:
256,192,63238,1,8,0:0:0:0:
256,192,63354,1,8,0:0:0:0:
256,192,63469,1,0,0:0:0:0:
256,192,63700,1,8,0:0:0:0:
256,192,63931,1,0,0:0:0:0:
256,192,64046,1,8,0:0:0:0:
256,192,64277,1,8,0:0:0:0:
256,192,64392,1,0,0:0:0:0:
256,192,64623,1,0,0:0:0:0:
256,192,64738,1,0,0:0:0:0:
256,192,64854,1,8,0:0:0:0:
256,192,64969,1,0,0:0:0:0:
256,192,65084,1,8,0:0:0:0:
256,192,65315,1,0,0:0:0:0:
256,192,65431,1,0,0:0:0:0:
256,192,65546,1,8,0:0:0:0:
256,192,65661,1,0,0:0:0:0:
256,192,65892,1,0,0:0:0:0:
256,192,66008,1,8,0:0:0:0:
256,192,66469,1,12,0:0:0:0:
256,192,66700,1,0,0:0:0:0:
256,192,66815,1,0,0:0:0:0:
256,192,66931,1,8,0:0:0:0:
256,192,67161,1,0,0:0:0:0:
256,192,67277,1,8,0:0:0:0:
256,192,67392,1,8,0:0:0:0:
256,192,67738,1,0,0:0:0:0:
256,192,67854,1,8,0:0:0:0:
256,192,68084,1,0,0:0:0:0:
256,192,68315,1,0,0:0:0:0:
256,192,68431,1,0,0:0:0:0:
256,192,68546,1,8,0:0:0:0:
256,192,68661,1,0,0:0:0:0:
256,192,68777,1,8,0:0:0:0:
256,192,69123,1,8,0:0:0:0:
256,192,69238,1,8,0:0:0:0:
256,192,69584,1,0,0:0:0:0:
256,192,69700,1,8,0:0:0:0:
256,192,69931,1,0,0:0:0:0:
256,192,70161,1,8,0:0:0:0:
256,192,70392,1,0,0:0:0:0:
256,192,70508,1,0,0:0:0:0:
256,192,70623,1,8,0:0:0:0:
256,192,70854,1,0,0:0:0:0:
256,192,71084,1,8,0:0:0:0:
256,192,71200,1,8,0:0:0:0:
256,192,71431,1,0,0:0:0:0:
256,192,71546,1,8,0:0:0:0:
256,192,71777,1,0,0:0:0:0:
256,192,72008,1,8,0:0:0:0:
256,192,72123,1,0,0:0:0:0:
256,192,72354,1,0,0:0:0:0:
256,192,72469,1,8,0:0:0:0:
256,192,72700,1,0,0:0:0:0:
256,192,72931,1,8,0:0:0:0:
256,192,73046,1,8,0:0:0:0:
256,192,73277,1,0,0:0:0:0:
256,192,73392,1,8,0:0:0:0:
256,192,73508,1,8,0:0:0:0:
256,192,73623,1,0,0:0:0:0:
256,192,73854,1,8,0:0:0:0:
256,192,74084,1,0,0:0:0:0:
256,192,74200,1,0,0:0:0:0:
256,192,74315,1,8,0:0:0:0:
256,192,74546,1,0,0:0:0:0:
256,192,74661,1,8,0:0:0:0:
256,192,74777,1,8,0:0:0:0:
256,192,75123,1,0,0:0:0:0:
256,192,75238,1,8,0:0:0:0:
256,192,75469,1,0,0:0:0:0:
256,192,75700,1,8,0:0:0:0:
256,192,75931,1,8,0:0:0:0:
256,192,76046,1,0,0:0:0:0:
256,192,76161,1,8,0:0:0:0:
256,192,76277,1,8,0:0:0:0:
256,192,76392,1,0,0:0:0:0:
256,192,76508,1,8,0:0:0:0:
256,192,76623,1,0,0:0:0:0:
256,192,76969,1,0,0:0:0:0:
256,192,77084,1,8,0:0:0:0:
256,192,77315,1,0,0:0:0:0:
256,192,77546,1,8,0:0:0:0:
256,192,77777,1,0,0:0:0:0:
256,192,77892,1,0,0:0:0:0:
256,192,78008,1,8,0:0:0:0:
256,192,78238,1,0,0:0:0:0:
256,192,78354,1,8,0:0:0:0:
256,192,78469,1,8,0:0:0:0:
256,192,78700,1,0,0:0:0:0:
256,192,78815,1,0,0:0:0:0:
256,192,78931,1,8,0:0:0:0:
256,192,79046,1,0,0:0:0:0:
256,192,79161,1,8,0:0:0:0:
256,192,79392,1,0,0:0:0:0:
256,192,79623,1,8,0:0:0:0:
256,192,79854,1,8,0:0:0:0:
256,192,79969,1,0,0:0:0:0:
256,192,80084,1,0,0:0:0:0:
256,192,80200,1,8,0:0:0:0:
256,192,80315,1,0,0:0:0:0:
256,192,80546,1,0,0:0:0:0:
256,192,80777,1,8,0:0:0:0:
256,192,81238,1,12,0:0:0:0:
256,192,81469,1,0,0:0:0:0:
256,192,81584,1,0,0:0:0:0:
256,192,81700,1,8,0:0:0:0:
256,192,81931,1,0,0:0:0:0:
256,192,82046,1,8,0:0:0:0:
256,192,82161,1,8,0:0:0:0:
256,192,82508,1,0,0:0:0:0:
256,192,82623,1,8,0:0:0:0:
256,192,82738,1,8,0:0:0:0:
256,192,82854,1,0,0:0:0:0:
256,192,83084,1,0,0:0:0:0:
256,192,83200,1,0,0:0:0:0:
256,192,83315,1,8,0:0:0:0:
256,192,83431,1,0,0:0:0:0:
256,192,83546,1,8,0:0:0:0:
256,192,83892,1,8,0:0:0:0:
256,192,84008,1,8,0:0:0:0:
256,192,84354,1,0,0:0:0:0:
256,192,84469,1,8,0:0:0:0:
256,192,84584,1,0,0:0:0:0:
256,192,84700,1,0,0:0:0:0:
256,192,84931,1,8,0:0:0:0:
256,192,85161,1,0,0:0:0:0:
256,192,85392,1,8,0:0:0:0:
256,192,85508,1,8,0:0:0:0:
256,192,85623,1,0,0:0:0:0:
256,192,85854,1,0,0:0:0:0:
256,192,85969,1,8,0:0:0:0:
256,192,86200,1,0,0:0:0:0:
256,192,86315,1,8,0:0:0:0:
256,192,86431,1,8,0:0:0:0:
256,192,86546,1,0,0:0:0:0:
256,192,86777,1,0,0:0:0:0:
256,192,87008,1,8,0:0:0:0:
256,192,87123,1,0,0:0:0:0:
256,192,87238,1,8,0:0:0:0:
256,192,87469,1,0,0:0:0:0:
256,192,87584,1,8,0:0:0:0:
256,192,87700,1,8,0:0:0:0:
256,192,87931,1,8,0:0:0:0:
256,192,88046,1,0,0:0:0:0:
256,192,88161,1,8,0:0:0:0:
256,192,88277,1,8,0:0:0:0:
256,192,88392,1,0,0:0:0:0:
256,192,88623,1,8,0:0:0:0:
256,192,88854,1,0,0:0:0:0:
256,192,88969,1,0,0:0:0:0:
256,192,89084,1,8,0:0:0:0:
256,192,89315,1,0,0:0:0:0:
256,192,89431,1,8,0:0:0:0:
256,192,89546,1,8,0:0:0:0:
256,192,89892,1,0,0:0:0:0:
256,192,90008,1,8,0:0:0:0:
256,192,90123,1,8,0:0:0:0:
256,192,90238,1,0,0:0:0:0:
256,192,90469,1,8,0:0:0:0:
256,192,90700,1,8,0:0:0:0:
256,192,90815,1,0,0:0:0:0:
256,192,90931,1,8,0:0:0:0:
256,192,91046,1,8,0:0:0:0:
256,192,91161,1,0,0:0:0:0:
256,192,91277,1,8,0:0:0:0:
256,192,91392,1,0,0:0:0:0:
256,192,91738,1,0,0:0:0:0:
256,192,91854,1,8,0:0:0:0:
256,192,91969,1,0,0:0:0:0:
256,192,92084,1,0,0:0:0:0:
256,192,92315,1,8,0:0:0:0:
256,192,92546,1,0,0:0:0:0:
256,192,92777,1,8,0:0:0:0:
256,192,92892,1,8,0:0:0:0:
256,192,93008,1,0,0:0:0:0:
256,192,93238,1,0,0:0:0:0:
256,192,93354,1,8,0:0:0:0:
256,192,93584,1,0,0:0:0:0:
256,192,93700,1,8,0:0:0:0:
256,192,93815,1,8,0:0:0:0:
256,192,93931,1,0,0:0:0:0:
256,192,94161,1,8,0:0:0:0:
256,192,94392,1,8,0:0:0:0:
256,192,94508,1,0,0:0:0:0:
256,192,94623,1,8,0:0:0:0:
256,192,94854,1,0,0:0:0:0:
256,192,94969,1,8,0:0:0:0:
256,192,95084,1,0,0:0:0:0:
256,192,95200,1,0,0:0:0:0:
256,192,95431,1,0,0:0:0:0:
256,192,95546,1,8,0:0:0:0:
256,192,96008,1,4,0:0:0:0:
256,192,96815,1,0,0:0:0:0:
256,192,96931,1,8,0:0:0:0:
256,192,97392,1,0,0:0:0:0:
256,192,97854,1,8,0:0:0:0:
256,192,98200,1,8,0:0:0:0:
256,192,98315,1,0,0:0:0:0:
256,192,98546,1,0,0:0:0:0:
256,192,98777,1,8,0:0:0:0:
256,192,99123,1,0,0:0:0:0:
256,192,99238,1,8,0:0:0:0:
256,192,99469,1,8,0:0:0:0:
256,192,99700,1,0,0:0:0:0:
256,192,100508,1,0,0:0:0:0:
256,192,100623,1,8,0:0:0:0:
256,192,100854,1,0,0:0:0:0:
256,192,101084,1,8,0:0:0:0:
256,192,101315,1,8,0:0:0:0:
256,192,101546,1,0,0:0:0:0:
256,192,101892,1,8,0:0:0:0:
256,192,102008,1,0,0:0:0:0:
256,192,102354,1,0,0:0:0:0:
256,192,102469,1,0,0:0:0:0:
256,192,102815,1,8,0:0:0:0:
256,192,102931,1,8,0:0:0:0:
256,192,103392,1,0,0:0:0:0:
256,192,104200,1,0,0:0:0:0:
256,192,104315,1,8,0:0:0:0:
256,192,104777,1,0,0:0:0:0:
256,192,105238,1,8,0:0:0:0:
256,192,105584,1,8,0:0:0:0:
256,192,105700,1,0,0:0:0:0:
256,192,105931,1,0,0:0:0:0:
256,192,106161,1,8,0:0:0:0:
256,192,106508,1,0,0:0:0:0:
256,192,106623,1,8,0:0:0:0:
256,192,106854,1,8,0:0:0:0:
256,192,107084,1,0,0:0:0:0:
256,192,107892,1,0,0:0:0:0:
256,192,108008,1,8,0:0:0:0:
256,192,108238,1,0,0:0:0:0:
256,192,108469,1,8,0:0:0:0:
256,192,108700,1,0,0:0:0:0:
256,192,108931,1,8,0:0:0:0:
256,192,109277,1,8,0:0:0:0:
256,192,109392,1,0,0:0:0:0:
256,192,109738,1,0,0:0:0:0:
256,192,109854,1,0,0:0:0:0:
256,192,110200,1,8,0:0:0:0:
256,192,110315,1,8,0:0:0:0:
256,192,110777,1,4,0:0:0:0:
256,192,111238,1,8,0:0:0:0:
256,192,111584,1,0,0:0:0:0:
256,192,111700,1,8,0:0:0:0:
256,192,112161,1,0,0:0:0:0:
256,192,112392,1,8,0:0:0:0:
256,192,112623,1,8,0:0:0:0:
256,192,112854,1,0,0:0:0:0:
256,192,113084,1,8,0:0:0:0:
256,192,113315,1,8,0:0:0:0:
256,192,113431,1,8,0:0:0:0:
256,192,113546,1,0,0:0:0:0:
256,192,114008,1,8,0:0:0:0:
256,192,114238,1,0,0:0:0:0:
256,192,114469,1,0,0:0:0:0:
256,192,114931,1,8,0:0:0:0:
256,192,115277,1,0,0:0:0:0:
256,192,115392,1,8,0:0:0:0:
256,192,115623,1,0,0:0:0:0:
256,192,115854,1,8,0:0:0:0:
256,192,116084,1,8,0:0:0:0:
256,192,116315,1,8,0:0:0:0:
256,192,116546,1,0,0:0:0:0:
256,192,116777,1,8,0:0:0:0:
256,192,117008,1,8,0:0:0:0:
256,192,117123,1,8,0:0:0:0:
256,192,117238,1,0,0:0:0:0:
256,192,117700,1,8,0:0:0:0:
256,192,117931,1,8,0:0:0:0:
256,192,118161,1,0,0:0:0:0:
256,192,118623,1,8,0:0:0:0:
256,192,118969,1,8,0:0:0:0:
256,192,119084,1,0,0:0:0:0:
256,192,119315,1,0,0:0:0:0:
256,192,119546,1,8,0:0:0:0:
256,192,119777,1,0,0:0:0:0:
256,192,120008,1,8,0:0:0:0:
256,192,120123,1,8,0:0:0:0:
256,192,120238,1,0,0:0:0:0:
256,192,120469,1,8,0:0:0:0:
256,192,120815,1,8,0:0:0:0:
256,192,120931,1,0,0:0:0:0:
256,192,121161,1,0,0:0:0:0:
256,192,121392,1,8,0:0:0:0:
256,192,121623,1,0,0:0:0:0:
256,192,121854,1,0,0:0:0:0:
256,192,122084,1,0,0:0:0:0:
256,192,122200,1,0,0:0:0:0:
256,192,122315,1,8,0:0:0:0:
256,192,122546,1,0,0:0:0:0:
256,192,122661,1,8,0:0:0:0:
256,192,122777,1,0,0:0:0:0:
256,192,123008,1,8,0:0:0:0:
256,192,123123,1,8,0:0:0:0:
256,192,123238,1,0,0:0:0:0:
256,192,123354,1,8,0:0:0:0:
256,192,123469,1,0,0:0:0:0:
256,192,123700,1,8,0:0:0:0:
256,192,123815,1,8,0:0:0:0:
256,192,123931,1,0,0:0:0:0:
256,192,124161,1,8,0:0:0:0:
256,192,124277,1,0,0:0:0:0:
256,192,124392,1,8,0:0:0:0:
256,192,124508,1,0,0:0:0:0:
256,192,124623,1,8,0:0:0:0:
256,192,124738,1,8,0:0:0:0:
256,192,124854,1,0,0:0:0:0:
256,192,125084,1,12,0:0:0:0:
256,192,125546,1,4,0:0:0:0:
256,192,125777,1,8,0:0:0:0:
256,192,125892,1,0,0:0:0:0:
256,192,126008,1,8,0:0:0:0:
256,192,126238,1,8,0:0:0:0:
256,192,126469,1,0,0:0:0:0:
256,192,126931,1,0,0:0:0:0:
256,192,127161,1,8,0:0:0:0:
256,192,127392,1,8,0:0:0:0:
256,192,127623,1,0,0:0:0:0:
256,192,127738,1,8,0:0:0:0:
256,192,128084,1,8,0:0:0:0:
256,192,128315,1,0,0:0:0:0:
256,192,128431,1,0,0:0:0:0:
256,192,128546,1,8,0:0:0:0:
256,192,129008,1,8,0:0:0:0:
256,192,129238,1,0,0:0:0:0:
256,192,129469,1,8,0:0:0:0:
256,192,129584,1,0,0:0:0:0:
256,192,129700,1,8,0:0:0:0:
256,192,129931,1,0,0:0:0:0:
256,192,130161,1,8,0:0:0:0:
256,192,130392,1,8,0:0:0:0:
256,192,130623,1,0,0:0:0:0:
256,192,130738,1,0,0:0:0:0:
256,192,130854,1,8,0:0:0:0:
256,192,131084,1,0,0:0:0:0:
256,192,131546,1,8,0:0:0:0:
256,192,131661,1,0,0:0:0:0:
256,192,131892,1,0,0:0:0:0:
256,192,132008,1,8,0:0:0:0:
256,192,132238,1,0,0:0:0:0:
256,192,132469,1,8,0:0:0:0:
256,192,132584,1,8,0:0:0:0:
256,192,132700,1,0,0:0:0:0:
256,192,132931,1,8,0:0:0:0:
256,192,133161,1,0,0:0:0:0:
256,192,133508,1,8,0:0:0:0:
256,192,133623,1,0,0:0:0:0:
256,192,133738,1,0,0:0:0:0:
256,192,133854,1,8,0:0:0:0:
256,192,134084,1,0,0:0:0:0:
256,192,134315,1,8,0:0:0:0:
256,192,134777,1,0,0:0:0:0:
256,192,134892,1,0,0:0:0:0:
256,192,135008,1,0,0:0:0:0:
256,192,135238,1,8,0:0:0:0:
256,192,135469,1,0,0:0:0:0:
256,192,135700,1,8,0:0:0:0:
256,192,135931,1,0,0:0:0:0:
256,192,136046,1,8,0:0:0:0:
256,192,136161,1,8,0:0:0:0:
256,192,136392,1,0,0:0:0:0:
256,192,136508,1,0,0:0:0:0:
256,192,136623,1,8,0:0:0:0:
256,192,136854,1,0,0:0:0:0:
256,192,137084,1,8,0:0:0:0:
256,192,137315,1,8,0:0:0:0:
256,192,137431,1,0,0:0:0:0:
256,192,137777,1,8,0:0:0:0:
256,192,137892,1,8,0:0:0:0:
256,192,138008,1,8,0:0:0:0:
256,192,138238,1,0,0:0:0:0:
256,192,138469,1,8,0:0:0:0:
256,192,138700,1,0,0:0:0:0:
256,192,138931,1,8,0:0:0:0:
256,192,139161,1,0,0:0:0:0:
256,192,139277,1,8,0:0:0:0:
256,192,139392,1,0,0:0:0:0:
256,192,139623,1,0,0:0:0:0:
256,192,139854,1,8,0:0:0:0:
256,192,140315,1,4,0:0:0:0:
256,192,140777,1,8,0:0:0:0:
256,192,141008,1,8,0:0:0:0:
256,192,141123,1,8,0:0:0:0:
256,192,141238,1,0,0:0:0:0:
256,192,141469,1,8,0:0:0:0:
256,192,141700,1,0,0:0:0:0:
256,192,142161,1,0,0:0:0:0:
256,192,142623,1,0,0:0:0:0:
256,192,142854,1,8,0:0:0:0:
256,192,142969,1,8,0:0:0:0:
256,192,143084,1,0,0:0:0:0:
256,192,143315,1,0,0:0:0:0:
256,192,143546,1,8,0:0:0:0:
256,192,144008,1,0,0:0:0:0:
256,192,144123,1,8,0:0:0:0:
256,192,144354,1,0,0:0:0:0:
256,192,144469,1,8,0:0:0:0:
256,192,144584,1,8,0:0:0:0:
256,192,144700,1,0,0:0:0:0:
256,192,144931,1,0,0:0:0:0:
256,192,145161,1,8,0:0:0:0:
256,192,145392,1,0,0:0:0:0:
256,192,145854,1,0,0:0:0:0:
256,192,146084,1,0,0:0:0:0:
256,192,146200,1,8,0:0:0:0:
256,192,146431,1,8,0:0:0:0:
256,192,146546,1,0,0:0:0:0:
256,192,146777,1,0,0:0:0:0:
256,192,147008,1,8,0:0:0:0:
256,192,147123,1,0,0:0:0:0:
256,192,147469,1,8,0:0:0:0:
256,192,147700,1,0,0:0:0:0:
256,192,148161,1,0,0:0:0:0:
256,192,148392,1,8,0:0:0:0:
256,192,148623,1,0,0:0:0:0:
256,192,148854,1,0,0:0:0:0:
256,192,148969,1,0,0:0:0:0:
256,192,149200,1,0,0:0:0:0:
256,192,149315,1,8,0:0:0:0:
256,192,149546,1,0,0:0:0:0:
256,192,149719,1,8,0:0:0:0:
256,192,149892,1,8,0:0:0:0:
256,192,150008,1,0,0:0:0:0:
256,192,150238,1,8,0:0:0:0:
256,192,150354,1,0,0:0:0:0:
256,192,150469,1,8,0:0:0:0:
256,192,150700,1,0,0:0:0:0:
256,192,150931,1,8,0:0:0:0:
256,192,151161,1,8,0:0:0:0:
256,192,151392,1,0,0:0:0:0:
256,192,151508,1,0,0:0:0:0:
256,192,151738,1,0,0:0:0:0:
256,192,151854,1,8,0:0:0:0:
256,192,152084,1,0,0:0:0:0:
256,192,152315,1,8,0:0:0:0:
256,192,152546,1,0,0:0:0:0:
256,192,152661,1,8,0:0:0:0:
256,192,152777,1,8,0:0:0:0:
256,192,153008,1,0,0:0:0:0:
256,192,153123,1,8,0:0:0:0:
256,192,153238,1,0,0:0:0:0:
256,192,153469,1,0,0:0:0:0:
256,192,153584,1,8,0:0:0:0:
256,192,153815,1,8,0:0:0:0:
256,192,153931,1,0,0:0:0:0:
256,192,154161,1,8,0:0:0:0:
256,192,154277,1,0,0:0:0:0:
256,192,154392,1,8,0:0:0:0:
256,192,154508,1,0,0:0:0:0:
256,192,154623,1,8,0:0:0:0:
256,192,155084,1,4,0:0:0:0:
256,192,155431,1,8,0:0:0:0:
256,192,155546,1,0,0:0:0:0:
256,192,155777,1,8,0:0:0:0:
256,192,156008,1,0,0:0:0:0:
256,192,156123,1,8,0:0:0:0:
256,192,156354,1,8,0:0:0:0:
256,192,156469,1,0,0:0:0:0:
256,192,156584,1,8,0:0:0:0:
256,192,156700,1,8,0:0:0:0:
256,192,156931,1,8,0:0:0:0:
256,192,157046,1,0,0:0:0:0:
256,192,157277,1,8,0:0:0:0:
256,192,157508,1,0,0:0:0:0:
256,192,157623,1,8,0:0:0:0:
256,192,157854,1,8,0:0:0:0:
256,192,157969,1,0,0:0:0:0:
256,192,158200,1,8,0:0:0:0:
256,192,158315,1,8,0:0:0:0:
256,192,158431,1,0,0:0:0:0:
256,192,158546,1,8,0:0:0:0:
256,192,158777,1,0,0:0:0:0:
256,192,159123,1,8,0:0:0:0:
256,192,159238,1,0,0:0:0:0:
256,192,159469,1,8,0:0:0:0:
256,192,159584,1,8,0:0:0:0:
256,192,159700,1,0,0:0:0:0:
256,192,159931,1,8,0:0:0:0:
256,192,160046,1,8,0:0:0:0:
256,192,160161,1,0,0:0:0:0:
256,192,160277,1,8,0:0:0:0:
256,192,160392,1,8,0:0:0:0:
256,192,160623,1,0,0:0:0:0:
256,192,160738,1,0,0:0:0:0:
256,192,160969,1,0,0:0:0:0:
256,192,161084,1,8,0:0:0:0:
256,192,161315,1,8,0:0:0:0:
256,192,161431,1,0,0:0:0:0:
256,192,161546,1,8,0:0:0:0:
256,192,161777,1,8,0:0:0:0:
256,192,161892,1,8,0:0:0:0:
256,192,162008,1,0,0:0:0:0:
256,192,162238,1,8,0:0:0:0:
256,192,162469,1,0,0:0:0:0:
256,192,162815,1,8,0:0:0:0:
256,192,162931,1,0,0:0:0:0:
256,192,163161,1,8,0:0:0:0:
256,192,163392,1,0,0:0:0:0:
256,192,163508,1,8,0:0:0:0:
256,192,163738,1,8,0:0:0:0:
256,192,163854,1,0,0:0:0:0:
256,192,163969,1,8,0:0:0:0:
256,192,164084,1,8,0:0:0:0:
256,192,164315,1,8,0:0:0:0:
256,192,164431,1,0,0:0:0:0:
256,192,164661,1,8,0:0:0:0:
256,192,164892,1,0,0:0:0:0:
256,192,165008,1,8,0:0:0:0:
256,192,165238,1,8,0:0:0:0:
256,192,165354,1,0,0:0:0:0:
256,192,165584,1,8,0:0:0:0:
256,192,165700,1,8,0:0:0:0:
256,192,165815,1,0,0:0:0:0:
256,192,165931,1,8,0:0:0:0:
256,192,166161,1,0,0:0:0:0:
256,192,166508,1,8,0:0:0:0:
256,192,166623,1,0,0:0:0:0:
256,192,166854,1,8,0:0:0:0:
256,192,166969,1,8,0:0:0:0:
256,192,167084,1,0,0:0:0:0:
256,192,167315,1,8,0:0:0:0:
256,192,167431,1,8,0:0:0:0:
256,192,167546,1,0,0:0:0:0:
256,192,167661,1,8,0:0:0:0:
256,192,167777,1,8,0:0:0:0:
256,192,168008,1,0,0:0:0:0:
256,192,168123,1,0,0:0:0:0:
256,192,168354,1,0,0:0:0:0:
256,192,168469,1,8,0:0:0:0:
256,192,168700,1,8,0:0:0:0:
256,192,168931,1,8,0:0:0:0:
256,192,169046,1,0,0:0:0:0:
256,192,169161,1,8,0:0:0:0:
256,192,169277,1,8,0:0:0:0:
256,192,169392,1,0,0:0:0:0:
256,192,169854,1,4,0:0:0:0:
256,192,170200,1,8,0:0:0:0:
256,192,170315,1,0,0:0:0:0:
256,192,170546,1,0,0:0:0:0:
256,192,170661,1,8,0:0:0:0:
256,192,170777,1,8,0:0:0:0:
256,192,170892,1,0,0:0:0:0:
256,192,171123,1,0,0:0:0:0:
256,192,171238,1,8,0:0:0:0:
256,192,171469,1,8,0:0:0:0:
256,192,171584,1,0,0:0:0:0:
256,192,171700,1,8,0:0:0:0:
256,192,171931,1,0,0:0:0:0:
256,192,172046,1,8,0:0:0:0:
256,192,172161,1,8,0:0:0:0:
256,192,172277,1,0,0:0:0:0:
256,192,172392,1,8,0:0:0:0:
256,192,172508,1,8,0:0:0:0:
256,192,172623,1,0,0:0:0:0:
256,192,172854,1,8,0:0:0:0:
256,192,173084,1,8,0:0:0:0:
256,192,173200,1,0,0:0:0:0:
256,192,173315,1,8,0:0:0:0:
256,192,173431,1,0,0:0:0:0:
256,192,173546,1,0,0:0:0:0:
256,192,173892,1,8,0:0:0:0:
256,192,174008,1,0,0:0:0:0:
256,192,174238,1,8,0:0:0:0:
256,192,174354,1,8,0:0:0:0:
256,192,174469,1,0,0:0:0:0:
256,192,174700,1,8,0:0:0:0:
256,192,174815,1,8,0:0:0:0:
256,192,174931,1,0,0:0:0:0:
256,192,175046,1,8,0:0:0:0:
256,192,175161,1,8,0:0:0:0:
256,192,175392,1,0,0:0:0:0:
256,192,175623,1,0,0:0:0:0:
256,192,175738,1,0,0:0:0:0:
256,192,175854,1,8,0:0:0:0:
256,192,175969,1,8,0:0:0:0:
256,192,176084,1,0,0:0:0:0:
256,192,176200,1,8,0:0:0:0:
256,192,176315,1,0,0:0:0:0:
256,192,176546,1,8,0:0:0:0:
256,192,176777,1,8,0:0:0:0:
256,192,176892,1,0,0:0:0:0:
256,192,177008,1,0,0:0:0:0:
256,192,177123,1,8,0:0:0:0:
256,192,177238,1,0,0:0:0:0:
256,192,177584,1,8,0:0:0:0:
256,192,177700,1,0,0:0:0:0:
256,192,177931,1,0,0:0:0:0:
256,192,178046,1,8,0:0:0:0:
256,192,178161,1,8,0:0:0:0:
256,192,178277,1,0,0:0:0:0:
256,192,178508,1,0,0:0:0:0:
256,192,178623,1,8,0:0:0:0:
256,192,178854,1,8,0:0:0:0:
256,192,178969,1,0,0:0:0:0:
256,192,179084,1,8,0:0:0:0:
256,192,179315,1,0,0:0:0:0:
256,192,179431,1,8,0:0:0:0:
256,192,179546,1,8,0:0:0:0:
256,192,179661,1,0,0:0:0:0:
256,192,179777,1,8,0:0:0:0:
256,192,179892,1,8,0:0:0:0:
256,192,180008,1,0,0:0:0:0:
256,192,180238,1,8,0:0:0:0:
256,192,180469,1,8,0:0:0:0:
256,192,180584,1,0,0:0:0:0:
256,192,180700,1,8,0:0:0:0:
256,192,180815,1,0,0:0:0:0:
256,192,180931,1,0,0:0:0:0:
256,192,181277,1,8,0:0:0:0:
256,192,181392,1,0,0:0:0:0:
256,192,181623,1,8,0:0:0:0:
256,192,181738,1,8,0:0:0:0:
256,192,181854,1,0,0:0:0:0:
256,192,182084,1,8,0:0:0:0:
256,192,182200,1,8,0:0:0:0:
256,192,182315,1,0,0:0:0:0:
256,192,182431,1,0,0:0:0:0:
256,192,182546,1,8,0:0:0:0:
256,192,182777,1,0,0:0:0:0:
256,192,183008,1,8,0:0:0:0:
256,192,183123,1,0,0:0:0:0:
256,192,183238,1,8,0:0:0:0:
256,192,183469,1,8,0:0:0:0:
256,192,183584,1,8,0:0:0:0:
256,192,183700,1,0,0:0:0:0:
256,192,183815,1,8,0:0:0:0:
256,192,183931,1,0,0:0:0:0:
256,192,184046,1,0,0:0:0:0:
256,192,184161,1,8,0:0:0:0:
256,192,184392,1,8,0:0:0:0:
256,192,184623,1,4,0:0:0:0:
256,192,184854,1,8,0:0:0:0:
256,192,184969,1,0,0:0:0:0:
256,192,185200,1,8,0:0:0:0:
256,192,185315,1,0,0:0:0:0:
256,192,185546,1,8,0:0:0:0:
256,192,185719,1,8,0:0:0:0:
256,192,185892,1,0,0:0:0:0:
256,192,186065,1,0,0:0:0:0:
256,192,186469,1,0,0:0:0:0:
256,192,186700,1,8,0:0:0:0:
256,192,186815,1,0,0:0:0:0:
256,192,187046,1,8,0:0:0:0:
256,192,187161,1,0,0:0:0:0:
256,192,187392,1,8,0:0:0:0:
256,192,187565,1,0,0:0:0:0:
256,192,187738,1,8,0:0:0:0:
256,192,187911,1,0,0:0:0:0:
256,192,188315,1,0,0:0:0:0:
256,192,188546,1,8,0:0:0:0:
256,192,188661,1,0,0:0:0:0:
256,192,188892,1,8,0:0:0:0:
256,192,189008,1,0,0:0:0:0:
256,192,189238,1,8,0:0:0:0:
256,192,189411,1,8,0:0:0:0:
256,192,189584,1,0,0:0:0:0:
256,192,189758,1,0,0:0:0:0:
256,192,190161,1,0,0:0:0:0:
256,192,190392,1,8,0:0:0:0:
256,192,190508,1,0,0:0:0:0:
256,192,190738,1,8,0:0:0:0:
256,192,190854,1,0,0:0:0:0:
256,192,191084,1,0,0:0:0:0:
256,192,191315,1,8,0:0:0:0:
256,192,191546,1,0,0:0:0:0:
256,192,191777,1,8,0:0:0:0:
256,192,192008,1,4,0:0:0:0:
256,192,192238,1,8,0:0:0:0:
256,192,192353,1,0,0:0:0:0:
256,192,192584,1,8,0:0:0:0:
256,192,192699,1,0,0:0:0:0:
256,192,192930,1,8,0:0:0:0:
256,192,193103,1,8,0:0:0:0:
256,192,193276,1,0,0:0:0:0:
256,192,193449,1,0,0:0:0:0:
256,192,193853,1,0,0:0:0:0:
256,192,194084,1,8,0:0:0:0:
256,192,194199,1,0,0:0:0:0:
256,192,194430,1,8,0:0:0:0:
256,192,194545,1,0,0:0:0:0:
256,192,194776,1,8,0:0:0:0:
256,192,194949,1,0,0:0:0:0:
256,192,195122,1,8,0:0:0:0:
256,192,195295,1,0,0:0:0:0:
256,192,195699,1,0,0:0:0:0:
256,192,195930,1,8,0:0:0:0:
256,192,196045,1,0,0:0:0:0:
256,192,196276,1,8,0:0:0:0:
256,192,196392,1,0,0:0:0:0:
256,192,196622,1,8,0:0:0:0:
256,192,196795,1,8,0:0:0:0:
256,192,196968,1,0,0:0:0:0:
256,192,197142,1,0,0:0:0:0:
256,192,197545,1,0,0:0:0:0:
256,192,197776,1,8,0:0:0:0:
256,192,197892,1,0,0:0:0:0:
256,192,198122,1,8,0:0:0:0:
256,192,198238,1,0,0:0:0:0:
256,192,198469,1,0,0:0:0:0:
256,192,198700,1,8,0:0:0:0:
256,192,198931,1,8,0:0:0:0:
256,192,199161,1,0,0:0:0:0:
256,192,199392,1,12,0:0:0:0:
256,192,199623,1,0,0:0:0:0:
256,192,199738,1,8,0:0:0:0:
256,192,199854,1,8,0:0:0:0:
256,192,200084,1,8,0:0:0:0:
256,192,200200,1,0,0:0:0:0:
256,192,200315,1,8,0:0:0:0:
256,192,200488,1,8,0:0:0:0:
256,192,200661,1,0,0:0:0:0:
256,192,200834,1,0,0:0:0:0:
256,192,201008,1,0,0:0:0:0:
256,192,201123,1,8,0:0:0:0:
256,192,201238,1,0,0:0:0:0:
256,192,201469,1,8,0:0:0:0:
256,192,201584,1,8,0:0:0:0:
256,192,201700,1,0,0:0:0:0:
256,192,201931,1,8,0:0:0:0:
256,192,202046,1,0,0:0:0:0:
256,192,202161,1,8,0:0:0:0:
256,192,202334,1,0,0:0:0:0:
256,192,202508,1,8,0:0:0:0:
256,192,202681,1,8,0:0:0:0:
256,192,203084,1,0,0:0:0:0:
256,192,203315,1,0,0:0:0:0:
256,192,203431,1,8,0:0:0:0:
256,192,203546,1,8,0:0:0:0:
256,192,203777,1,8,0:0:0:0:
256,192,203892,1,0,0:0:0:0:
256,192,204008,1,8,0:0:0:0:
256,192,204181,1,8,0:0:0:0:
256,192,204354,1,0,0:0:0:0:
256,192,204527,1,0,0:0:0:0:
256,192,204700,1,0,0:0:0:0:
256,192,204815,1,8,0:0:0:0:
256,192,204931,1,0,0:0:0:0:
256,192,205161,1,8,0:0:0:0:
256,192,205277,1,8,0:0:0:0:
256,192,205392,1,0,0:0:0:0:
256,192,205623,1,8,0:0:0:0:
256,192,205738,1,0,0:0:0:0:
256,192,205854,1,0,0:0:0:0:
256,192,206084,1,8,0:0:0:0:
256,192,206315,1,0,0:0:0:0:
256,192,206546,1,8,0:0:0:0:
256,192,206777,1,4,0:0:0:0:
256,192,207008,1,8,0:0:0:0:
256,192,207123,1,0,0:0:0:0:
256,192,207238,1,0,0:0:0:0:
256,192,207469,1,8,0:0:0:0:
256,192,207584,1,0,0:0:0:0:
256,192,207700,1,8,0:0:0:0:
256,192,207873,1,8,0:0:0:0:
256,192,208046,1,0,0:0:0:0:
256,192,208219,1,0,0:0:0:0:
256,192,208392,1,0,0:0:0:0:
256,192,208508,1,8,0:0:0:0:
256,192,208623,1,0,0:0:0:0:
256,192,208854,1,0,0:0:0:0:
256,192,208969,1,0,0:0:0:0:
256,192,209084,1,8,0:0:0:0:
256,192,209315,1,8,0:0:0:0:
256,192,209431,1,0,0:0:0:0:
256,192,209546,1,8,0:0:0:0:
256,192,209719,1,0,0:0:0:0:
256,192,209892,1,8,0:0:0:0:
256,192,210065,1,8,0:0:0:0:
256,192,210469,1,0,0:0:0:0:
256,192,210700,1,8,0:0:0:0:
256,192,210815,1,0,0:0:0:0:
256,192,210931,1,0,0:0:0:0:
256,192,211161,1,8,0:0:0:0:
256,192,211277,1,0,0:0:0:0:
256,192,211392,1,8,0:0:0:0:
256,192,211565,1,8,0:0:0:0:
256,192,211738,1,0,0:0:0:0:
256,192,211911,1,0,0:0:0:0:
256,192,212084,1,0,0:0:0:0:
256,192,212200,1,8,0:0:0:0:
256,192,212315,1,0,0:0:0:0:
256,192,212431,1,0,0:0:0:0:
256,192,212546,1,8,0:0:0:0:
256,192,212661,1,0,0:0:0:0:
256,192,212892,1,0,0:0:0:0:
256,192,213008,1,0,0:0:0:0:
256,192,213238,1,0,0:0:0:0:
256,192,213354,1,8,0:0:0:0:
256,192,213469,1,8,0:0:0:0:
256,192,213584,1,0,0:0:0:0:
256,192,213700,1,8,0:0:0:0:
256,192,213815,1,8,0:0:0:0:
256,192,213931,1,0,0:0:0:0:
256,192,214161,1,4,0:0:0:0:
256,192,228931,5,4,0:0:0:0:
256,192,229277,1,8,0:0:0:0:
256,192,229623,1,8,0:0:0:0:
256,192,229854,1,0,0:0:0:0:
256,192,230008,1,0,0:0:0:0:
256,192,230084,1,8,0:0:0:0:
256,192,230315,1,0,0:0:0:0:
256,192,230777,1,0,0:0:0:0:
256,192,231123,1,8,0:0:0:0:
256,192,231469,1,0,0:0:0:0:
256,192,231700,1,8,0:0:0:0:
256,192,231931,1,0,0:0:0:0:
256,192,232084,1,8,0:0:0:0:
256,192,232161,1,0,0:0:0:0:
256,192,232392,1,0,0:0:0:0:
256,192,232623,1,0,0:0:0:0:
256,192,232969,1,8,0:0:0:0:
256,192,233315,1,8,0:0:0:0:
256,192,233546,1,0,0:0:0:0:
256,192,233700,1,0,0:0:0:0:
256,192,233777,1,8,0:0:0:0:
256,192,234008,1,0,0:0:0:0:
256,192,234469,1,0,0:0:0:0:
256,192,234815,1,8,0:0:0:0:
256,192,235161,1,0,0:0:0:0:
256,192,235392,1,8,0:0:0:0:
256,192,235623,1,0,0:0:0:0:
256,192,235777,1,8,0:0:0:0:
256,192,235854,1,0,0:0:0:0:
256,192,236084,1,0,0:0:0:0:
256,192,236315,1,0,0:0:0:0:
256,192,236661,1,8,0:0:0:0:
256,192,237008,1,8,0:0:0:0:
256,192,237238,1,0,0:0:0:0:
256,192,237392,1,0,0:0:0:0:
256,192,237469,1,8,0:0:0:0:
256,192,237700,1,0,0:0:0:0:
256,192,238161,1,0,0:0:0:0:
256,192,238508,1,8,0:0:0:0:
256,192,238854,1,0,0:0:0:0:
256,192,239084,1,8,0:0:0:0:
256,192,239315,1,0,0:0:0:0:
256,192,239469,1,8,0:0:0:0:
256,192,239546,1,0,0:0:0:0:
256,192,239777,1,0,0:0:0:0:
256,192,240008,1,0,0:0:0:0:
256,192,240354,1,8,0:0:0:0:
256,192,240700,1,8,0:0:0:0:
256,192,240931,1,0,0:0:0:0:
256,192,241084,1,0,0:0:0:0:
256,192,241161,1,8,0:0:0:0:
256,192,241392,1,0,0:0:0:0:
256,192,241854,1,0,0:0:0:0:
256,192,242084,1,0,0:0:0:0:
256,192,242315,1,8,0:0:0:0:
256,192,242546,1,0,0:0:0:0:
256,192,242777,1,0,0:0:0:0:
256,192,242892,1,0,0:0:0:0:
256,192,243008,1,0,0:0:0:0:
256,192,243123,1,0,0:0:0:0:
256,192,243238,1,8,0:0:0:0:
256,192,243469,1,0,0:0:0:0:
256,192,243700,1,12,0:0:0:0:
256,192,243931,1,0,0:0:0:0:
256,192,244046,1,0,0:0:0:0:
256,192,244161,1,8,0:0:0:0:
256,192,244392,1,8,0:0:0:0:
256,192,244508,1,8,0:0:0:0:
256,192,244623,1,0,0:0:0:0:
256,192,244854,1,8,0:0:0:0:
256,192,244969,1,8,0:0:0:0:
256,192,245084,1,0,0:0:0:0:
256,192,245200,1,0,0:0:0:0:
256,192,245315,1,8,0:0:0:0:
256,192,245431,1,8,0:0:0:0:
256,192,245546,1,8,0:0:0:0:
256,192,245777,1,0,0:0:0:0:
256,192,245892,1,0,0:0:0:0:
256,192,246008,1,8,0:0:0:0:
256,192,246238,1,0,0:0:0:0:
256,192,246354,1,0,0:0:0:0:
256,192,246469,1,8,0:0:0:0:
256,192,246700,1,0,0:0:0:0:
256,192,246931,1,12,0:0:0:0:
256,192,247392,1,4,0:0:0:0:
256,192,247623,1,0,0:0:0:0:
256,192,247738,1,8,0:0:0:0:
256,192,247854,1,0,0:0:0:0:
256,192,248084,1,8,0:0:0:0:
256,192,248200,1,0,0:0:0:0:
256,192,248431,1,8,0:0:0:0:
256,192,248661,1,0,0:0:0:0:
256,192,248777,1,8,0:0:0:0:
256,192,249008,1,0,0:0:0:0:
256,192,249123,1,8,0:0:0:0:
256,192,249238,1,8,0:0:0:0:
256,192,249469,1,0,0:0:0:0:
256,192,249700,1,8,0:0:0:0:
256,192,249815,1,0,0:0:0:0:
256,192,249931,1,8,0:0:0:0:
256,192,250046,1,8,0:0:0:0:
256,192,250161,1,0,0:0:0:0:
256,192,250392,1,8,0:0:0:0:
256,192,250623,1,0,0:0:0:0:
256,192,250738,1,8,0:0:0:0:
256,192,250969,1,8,0:0:0:0:
256,192,251084,1,0,0:0:0:0:
256,192,251315,1,0,0:0:0:0:
256,192,251431,1,0,0:0:0:0:
256,192,251546,1,8,0:0:0:0:
256,192,251777,1,8,0:0:0:0:
256,192,251892,1,0,0:0:0:0:
256,192,252008,1,8,0:0:0:0:
256,192,252123,1,8,0:0:0:0:
256,192,252354,1,0,0:0:0:0:
256,192,252469,1,8,0:0:0:0:
256,192,252700,1,0,0:0:0:0:
256,192,252931,1,8,0:0:0:0:
256,192,253161,1,0,0:0:0:0:
256,192,253392,1,8,0:0:0:0:
256,192,253508,1,0,0:0:0:0:
256,192,253623,1,8,0:0:0:0:
256,192,253738,1,8,0:0:0:0:
256,192,253854,1,0,0:0:0:0:
256,192,254084,1,0,0:0:0:0:
256,192,254315,1,8,0:0:0:0:
256,192,254777,1,4,0:0:0:0:
256,192,255008,1,0,0:0:0:0:
256,192,255123,1,8,0:0:0:0:
256,192,255238,1,0,0:0:0:0:
256,192,255469,1,8,0:0:0:0:
256,192,255584,1,0,0:0:0:0:
256,192,255815,1,8,0:0:0:0:
256,192,256046,1,0,0:0:0:0:
256,192,256161,1,8,0:0:0:0:
256,192,256392,1,0,0:0:0:0:
256,192,256508,1,8,0:0:0:0:
256,192,256623,1,8,0:0:0:0:
256,192,256854,1,0,0:0:0:0:
256,192,257084,1,8,0:0:0:0:
256,192,257200,1,0,0:0:0:0:
256,192,257315,1,8,0:0:0:0:
256,192,257431,1,8,0:0:0:0:
256,192,257546,1,0,0:0:0:0:
256,192,257777,1,8,0:0:0:0:
256,192,258008,1,0,0:0:0:0:
256,192,258123,1,8,0:0:0:0:
256,192,258354,1,8,0:0:0:0:
256,192,258469,1,0,0:0:0:0:
256,192,258700,1,0,0:0:0:0:
256,192,258815,1,0,0:0:0:0:
256,192,258931,1,8,0:0:0:0:
256,192,259161,1,8,0:0:0:0:
256,192,259277,1,0,0:0:0:0:
256,192,259392,1,8,0:0:0:0:
256,192,259508,1,8,0:0:0:0:
256,192,259738,1,0,0:0:0:0:
256,192,259854,1,8,0:0:0:0:
256,192,260084,1,0,0:0:0:0:
256,192,260315,1,0,0:0:0:0:
256,192,260546,1,8,0:0:0:0:
256,192,260777,1,8,0:0:0:0:
256,192,260892,1,0,0:0:0:0:
256,192,261008,1,0,0:0:0:0:
256,192,261123,1,8,0:0:0:0:
256,192,261238,1,0,0:0:0:0:
256,192,261469,1,0,0:0:0:0:
256,192,261700,1,8,0:0:0:0:
256,192,262161,1,4,0:0:0:0:
256,192,262392,1,0,0:0:0:0:
256,192,262507,1,8,0:0:0:0:
256,192,262623,1,0,0:0:0:0:
256,192,262738,1,0,0:0:0:0:
256,192,262853,1,8,0:0:0:0:
256,192,263084,1,8,0:0:0:0:
256,192,263200,1,0,0:0:0:0:
256,192,263430,1,0,0:0:0:0:
256,192,263546,1,8,0:0:0:0:
256,192,263777,1,0,0:0:0:0:
256,192,263892,1,8,0:0:0:0:
256,192,264007,1,8,0:0:0:0:
256,192,264238,1,0,0:0:0:0:
256,192,264354,1,0,0:0:0:0:
256,192,264469,1,8,0:0:0:0:
256,192,264584,1,0,0:0:0:0:
256,192,264700,1,8,0:0:0:0:
256,192,264815,1,8,0:0:0:0:
256,192,264930,1,0,0:0:0:0:
256,192,265161,1,8,0:0:0:0:
256,192,265392,1,8,0:0:0:0:
256,192,265507,1,8,0:0:0:0:
256,192,265623,1,0,0:0:0:0:
256,192,265738,1,8,0:0:0:0:
256,192,265853,1,0,0:0:0:0:
256,192,266084,1,0,0:0:0:0:
256,192,266200,1,0,0:0:0:0:
256,192,266315,1,8,0:0:0:0:
256,192,266546,1,8,0:0:0:0:
256,192,266661,1,0,0:0:0:0:
256,192,266777,1,8,0:0:0:0:
256,192,266892,1,8,0:0:0:0:
256,192,267123,1,0,0:0:0:0:
256,192,267238,1,8,0:0:0:0:
256,192,267469,1,0,0:0:0:0:
256,192,267700,1,8,0:0:0:0:
256,192,267930,1,0,0:0:0:0:
256,192,268046,1,0,0:0:0:0:
256,192,268161,1,8,0:0:0:0:
256,192,268392,1,8,0:0:0:0:
256,192,268507,1,8,0:0:0:0:
256,192,268623,1,0,0:0:0:0:
256,192,268853,1,8,0:0:0:0:
256,192,269084,1,8,0:0:0:0:
256,192,269546,1,4,0:0:0:0:
256,192,269777,1,0,0:0:0:0:
256,192,269892,1,8,0:0:0:0:
256,192,270007,1,0,0:0:0:0:
256,192,270123,1,0,0:0:0:0:
256,192,270238,1,8,0:0:0:0:
256,192,270469,1,8,0:0:0:0:
256,192,270584,1,0,0:0:0:0:
256,192,270815,1,0,0:0:0:0:
256,192,270930,1,8,0:0:0:0:
256,192,271161,1,0,0:0:0:0:
256,192,271277,1,8,0:0:0:0:
256,192,271392,1,8,0:0:0:0:
256,192,271623,1,0,0:0:0:0:
256,192,271738,1,0,0:0:0:0:
256,192,271853,1,8,0:0:0:0:
256,192,271969,1,0,0:0:0:0:
256,192,272084,1,8,0:0:0:0:
256,192,272200,1,8,0:0:0:0:
256,192,272315,1,0,0:0:0:0:
256,192,272546,1,8,0:0:0:0:
256,192,272777,1,0,0:0:0:0:
256,192,272892,1,8,0:0:0:0:
256,192,273008,1,0,0:0:0:0:
256,192,273123,1,8,0:0:0:0:
256,192,273238,1,0,0:0:0:0:
256,192,273469,1,0,0:0:0:0:
256,192,273584,1,0,0:0:0:0:
256,192,273700,1,8,0:0:0:0:
256,192,273930,1,8,0:0:0:0:
256,192,274046,1,0,0:0:0:0:
256,192,274161,1,8,0:0:0:0:
256,192,274277,1,8,0:0:0:0:
256,192,274507,1,0,0:0:0:0:
256,192,274623,1,8,0:0:0:0:
256,192,274853,1,0,0:0:0:0:
256,192,275084,1,0,0:0:0:0:
256,192,275315,1,8,0:0:0:0:
256,192,275546,1,8,0:0:0:0:
256,192,275661,1,0,0:0:0:0:
256,192,275777,1,8,0:0:0:0:
256,192,275892,1,8,0:0:0:0:
256,192,276008,1,0,0:0:0:0:
256,192,276123,1,0,0:0:0:0:
256,192,276354,1,0,0:0:0:0:
256,192,276469,1,8,0:0:0:0:
256,192,276931,1,4,0:0:0:0:
256,192,277392,1,8,0:0:0:0:
256,192,277854,1,8,0:0:0:0:
256,192,278200,1,0,0:0:0:0:
256,192,278546,1,0,0:0:0:0:
256,192,279700,1,8,0:0:0:0:
256,192,280046,1,8,0:0:0:0:
256,192,280392,1,0,0:0:0:0:
256,192,280623,1,8,0:0:0:0:
256,192,281084,1,8,0:0:0:0:
256,192,281546,1,0,0:0:0:0:
256,192,281892,1,8,0:0:0:0:
256,192,282238,1,0,0:0:0:0:
256,192,283392,1,8,0:0:0:0:
256,192,283738,1,8,0:0:0:0:
256,192,284084,1,0,0:0:0:0:
256,192,284315,1,8,0:0:0:0:
256,192,284777,1,8,0:0:0:0:
256,192,285238,1,8,0:0:0:0:
256,192,285584,1,8,0:0:0:0:
256,192,285931,1,0,0:0:0:0:
256,192,287084,1,8,0:0:0:0:
256,192,287431,1,8,0:0:0:0:
256,192,287777,1,0,0:0:0:0:
256,192,288008,1,0,0:0:0:0:
256,192,288469,1,8,0:0:0:0:
256,192,288931,1,8,0:0:0:0:
256,192,289277,1,0,0:0:0:0:
256,192,289623,1,0,0:0:0:0:
256,192,289854,12,0,291700,0:0:0:0:
