osu file format v14

[General]
AudioFilename: audio.mp3
AudioLeadIn: 0
PreviewTime: 154969
Countdown: 0
SampleSet: Normal
StackLeniency: 0.7
Mode: 1
LetterboxInBreaks: 0
WidescreenStoryboard: 0

[Editor]
Bookmarks: 36931,81238,110777,140315,169854,262161
DistanceSpacing: 0.1
BeatDivisor: 4
GridSize: 32
TimelineZoom: 0.4999999

[Metadata]
Title:Smile (Original Mix)
TitleUnicode:Smile (Original Mix)
Artist:MYLK
ArtistUnicode:MYLK
Creator:Nardoxyribonucleic
Version:Futsuu
Source:
Tags:Taiko Dream Catcher EP Electronic Japanese Cynplytholowazy
BeatmapID:2235966
BeatmapSetID:1065517

[Difficulty]
HPDrainRate:7
CircleSize:5
OverallDifficulty:3
ApproachRate:4
SliderMultiplier:1.4
SliderTickRate:1

[Events]
//Background and Video events
0,0,"bg.jpeg",0,0
//Break Periods
2,214361,227611
//Storyboard Layer 0 (Background)
//Storyboard Layer 1 (Fail)
//Storyboard Layer 2 (Pass)
//Storyboard Layer 3 (Foreground)
//Storyboard Layer 4 (Overlay)
//Storyboard Sound Samples

[TimingPoints]
8,461.538461538462,4,1,0,30,1,0
8,-125,4,1,0,30,0,0
20777,-117.647058823529,4,1,0,40,0,0
21354,-117.647058823529,4,1,0,45,0,0
21931,-117.647058823529,4,1,0,50,0,0
22161,-111.111111111111,4,1,0,65,0,0
51238,-105.263157894737,4,1,0,65,0,0
51700,-100,4,1,0,75,0,0
66469,-100,4,1,0,80,0,1
96008,-100,4,1,0,70,0,0
96931,-111.111111111111,4,1,0,70,0,0
125084,-105.263157894737,4,1,0,70,0,0
125546,-100,4,1,0,75,0,0
155084,-100,4,1,0,80,0,1
184623,-100,4,1,0,70,0,0
199392,-100,4,1,0,75,0,0
214161,-100,4,1,0,60,0,0
214623,-142.857142857143,4,1,0,60,0,0
228931,-125,4,1,0,70,0,0
244161,-123.456790123457,4,1,0,70,0,0
244392,-121.951219512195,4,1,0,70,0,0
244623,-120.481927710843,4,1,0,70,0,0
244854,-119.047619047619,4,1,0,70,0,0
245084,-117.647058823529,4,1,0,70,0,0
245546,-114.942528735632,4,1,0,70,0,0
245777,-113.636363636364,4,1,0,70,0,0
246008,-112.359550561798,4,1,0,70,0,0
246238,-111.111111111111,4,1,0,70,0,0
246469,-109.89010989011,4,1,0,70,0,0
246700,-108.695652173913,4,1,0,70,0,0
246931,-104.166666666667,4,1,0,70,0,0
247392,-100,4,1,0,85,0,1
276931,-100,4,1,0,60,0,0
277854,-111.111111111111,4,1,0,60,0,0
289854,-111.111111111111,4,1,0,50,0,0
290315,-111.111111111111,4,1,0,40,0,0
290777,-111.111111111111,4,1,0,30,0,0
291238,-111.111111111111,4,1,0,20,0,0
291700,-111.111111111111,4,1,0,10,0,0

[HitObjects]
256,192,7392,5,0,0:0:0:0:
256,192,8315,1,8,0:0:0:0:
256,192,9008,1,0,0:0:0:0:
256,192,10161,1,8,0:0:0:0:
256,192,10854,1,0,0:0:0:0:
256,192,11084,1,8,0:0:0:0:
256,192,12008,1,0,0:0:0:0:
256,192,12700,1,0,0:0:0:0:
256,192,13854,1,8,0:0:0:0:
256,192,14546,1,0,0:0:0:0:
256,192,14777,1,8,0:0:0:0:
256,192,15700,1,8,0:0:0:0:
256,192,16392,1,0,0:0:0:0:
256,192,17546,1,8,0:0:0:0:
256,192,18238,1,0,0:0:0:0:
256,192,18469,1,0,0:0:0:0:
256,192,19392,1,8,0:0:0:0:
256,192,20084,1,0,0:0:0:0:
256,192,20777,12,0,21931,0:0:0:0:
256,192,22161,5,4,0:0:0:0:
256,192,22623,1,8,0:0:0:0:
256,192,23084,1,0,0:0:0:0:
256,192,23777,1,0,0:0:0:0:
256,192,24700,1,8,0:0:0:0:
256,192,24931,1,8,0:0:0:0:
256,192,25392,1,0,0:0:0:0:
256,192,25854,1,0,0:0:0:0:
256,192,26315,1,8,0:0:0:0:
256,192,26777,1,8,0:0:0:0:
256,192,27469,1,0,0:0:0:0:
256,192,28392,1,0,0:0:0:0:
256,192,28623,1,8,0:0:0:0:
256,192,29084,1,8,0:0:0:0:
256,192,29546,1,0,0:0:0:0:
256,192,30008,1,8,0:0:0:0:
256,192,30469,1,0,0:0:0:0:
256,192,31161,1,0,0:0:0:0:
256,192,32084,1,8,0:0:0:0:
256,192,32315,1,8,0:0:0:0:
256,192,32777,1,0,0:0:0:0:
256,192,33238,1,0,0:0:0:0:
256,192,33700,1,8,0:0:0:0:
256,192,34161,1,8,0:0:0:0:
256,192,34854,1,0,0:0:0:0:
256,192,35777,1,0,0:0:0:0:
256,192,36008,1,8,0:0:0:0:
256,192,36469,1,8,0:0:0:0:
256,192,36931,1,4,0:0:0:0:
256,192,37392,1,8,0:0:0:0:
256,192,37854,1,0,0:0:0:0:
256,192,38546,1,0,0:0:0:0:
256,192,38777,1,8,0:0:0:0:
256,192,39469,1,8,0:0:0:0:
256,192,39700,1,8,0:0:0:0:
256,192,40161,1,0,0:0:0:0:
256,192,40392,1,8,0:0:0:0:
256,192,40623,1,0,0:0:0:0:
256,192,41084,1,8,0:0:0:0:
256,192,41546,1,8,0:0:0:0:
256,192,42238,1,0,0:0:0:0:
256,192,42469,1,8,0:0:0:0:
256,192,43161,1,0,0:0:0:0:
256,192,43392,1,8,0:0:0:0:
256,192,43854,1,8,0:0:0:0:
256,192,44084,1,8,0:0:0:0:
256,192,44315,1,0,0:0:0:0:
256,192,44777,1,8,0:0:0:0:
256,192,45238,1,0,0:0:0:0:
256,192,45931,1,0,0:0:0:0:
256,192,46161,1,8,0:0:0:0:
256,192,46854,1,8,0:0:0:0:
256,192,47084,1,8,0:0:0:0:
256,192,47546,1,0,0:0:0:0:
256,192,47777,1,8,0:0:0:0:
256,192,48008,1,0,0:0:0:0:
256,192,48469,1,8,0:0:0:0:
256,192,48931,1,8,0:0:0:0:
256,192,49623,1,0,0:0:0:0:
256,192,49854,1,8,0:0:0:0:
256,192,50777,1,0,0:0:0:0:
256,192,51238,1,8,0:0:0:0:
256,192,51700,1,4,0:0:0:0:
256,192,52161,1,8,0:0:0:0:
256,192,52392,1,0,0:0:0:0:
256,192,52623,1,0,0:0:0:0:
256,192,53084,1,8,0:0:0:0:
256,192,53546,1,0,0:0:0:0:
256,192,53777,1,8,0:0:0:0:
256,192,54008,1,8,0:0:0:0:
256,192,54469,1,0,0:0:0:0:
256,192,55392,1,0,0:0:0:0:
256,192,55854,1,8,0:0:0:0:
256,192,56315,1,0,0:0:0:0:
256,192,56546,1,0,0:0:0:0:
256,192,56777,1,8,0:0:0:0:
256,192,57238,1,0,0:0:0:0:
256,192,57700,1,8,0:0:0:0:
256,192,57931,1,8,0:0:0:0:
256,192,58161,1,0,0:0:0:0:
256,192,58623,1,8,0:0:0:0:
256,192,59084,1,4,0:0:0:0:
256,192,59546,1,8,0:0:0:0:
256,192,59777,1,0,0:0:0:0:
256,192,60008,1,0,0:0:0:0:
256,192,60469,1,8,0:0:0:0:
256,192,60931,1,0,0:0:0:0:
256,192,61161,1,8,0:0:0:0:
256,192,61392,1,8,0:0:0:0:
256,192,61854,1,0,0:0:0:0:
256,192,62777,1,0,0:0:0:0:
256,192,63238,1,8,0:0:0:0:
256,192,63700,1,0,0:0:0:0:
256,192,63931,1,0,0:0:0:0:
256,192,64161,1,8,0:0:0:0:
256,192,64623,1,0,0:0:0:0:
256,192,64854,1,0,0:0:0:0:
256,192,65084,1,8,0:0:0:0:
256,192,65315,1,8,0:0:0:0:
256,192,65546,1,0,0:0:0:0:
256,192,66008,1,8,0:0:0:0:
256,192,66469,1,4,0:0:0:0:
256,192,66931,1,8,0:0:0:0:
256,192,67161,1,0,0:0:0:0:
256,192,67392,1,8,0:0:0:0:
256,192,67854,1,8,0:0:0:0:
256,192,68084,1,8,0:0:0:0:
256,192,68315,1,0,0:0:0:0:
256,192,68777,1,8,0:0:0:0:
256,192,69700,1,8,0:0:0:0:
256,192,69931,1,0,0:0:0:0:
256,192,70161,1,8,0:0:0:0:
256,192,70623,1,8,0:0:0:0:
256,192,71084,1,0,0:0:0:0:
256,192,71315,1,0,0:0:0:0:
256,192,71546,1,8,0:0:0:0:
256,192,72008,1,0,0:0:0:0:
256,192,72469,1,8,0:0:0:0:
256,192,72700,1,0,0:0:0:0:
256,192,72931,1,0,0:0:0:0:
256,192,73392,1,8,0:0:0:0:
256,192,73854,1,0,0:0:0:0:
256,192,74315,1,8,0:0:0:0:
256,192,74546,1,8,0:0:0:0:
256,192,74777,1,0,0:0:0:0:
256,192,75238,1,8,0:0:0:0:
256,192,75469,1,0,0:0:0:0:
256,192,75700,1,8,0:0:0:0:
256,192,76161,1,8,0:0:0:0:
256,192,77084,1,8,0:0:0:0:
256,192,77315,1,0,0:0:0:0:
256,192,77546,1,0,0:0:0:0:
256,192,78008,1,8,0:0:0:0:
256,192,78469,1,0,0:0:0:0:
256,192,78931,1,8,0:0:0:0:
256,192,79161,1,8,0:0:0:0:
256,192,79392,1,0,0:0:0:0:
256,192,79854,1,8,0:0:0:0:
256,192,80084,1,0,0:0:0:0:
256,192,80315,1,0,0:0:0:0:
256,192,80546,1,0,0:0:0:0:
256,192,80777,1,8,0:0:0:0:
256,192,81238,1,4,0:0:0:0:
256,192,81700,1,8,0:0:0:0:
256,192,81931,1,0,0:0:0:0:
256,192,82161,1,8,0:0:0:0:
256,192,82623,1,8,0:0:0:0:
256,192,82854,1,8,0:0:0:0:
256,192,83084,1,0,0:0:0:0:
256,192,83546,1,8,0:0:0:0:
256,192,84008,1,0,0:0:0:0:
256,192,84238,1,0,0:0:0:0:
256,192,84469,1,8,0:0:0:0:
256,192,84931,1,8,0:0:0:0:
256,192,85854,1,0,0:0:0:0:
256,192,86315,1,8,0:0:0:0:
256,192,86777,1,0,0:0:0:0:
256,192,87008,1,0,0:0:0:0:
256,192,87238,1,8,0:0:0:0:
256,192,87469,1,0,0:0:0:0:
256,192,87700,1,8,0:0:0:0:
256,192,88161,1,8,0:0:0:0:
256,192,88623,1,0,0:0:0:0:
256,192,89084,1,8,0:0:0:0:
256,192,89315,1,8,0:0:0:0:
256,192,89546,1,0,0:0:0:0:
256,192,90008,1,8,0:0:0:0:
256,192,90238,1,0,0:0:0:0:
256,192,90469,1,8,0:0:0:0:
256,192,90931,1,8,0:0:0:0:
256,192,91392,1,0,0:0:0:0:
256,192,91623,1,0,0:0:0:0:
256,192,91854,1,8,0:0:0:0:
256,192,92315,1,0,0:0:0:0:
256,192,93238,1,8,0:0:0:0:
256,192,93700,1,8,0:0:0:0:
256,192,94161,1,8,0:0:0:0:
256,192,94392,1,0,0:0:0:0:
256,192,94623,1,8,0:0:0:0:
256,192,94854,1,0,0:0:0:0:
256,192,95084,1,0,0:0:0:0:
256,192,95546,1,8,0:0:0:0:
256,192,96008,1,4,0:0:0:0:
256,192,96931,1,8,0:0:0:0:
256,192,97854,1,0,0:0:0:0:
256,192,98777,1,8,0:0:0:0:
256,192,99238,1,8,0:0:0:0:
256,192,99700,1,0,0:0:0:0:
256,192,100623,1,8,0:0:0:0:
256,192,101084,1,8,0:0:0:0:
256,192,101315,1,8,0:0:0:0:
256,192,101546,1,0,0:0:0:0:
256,192,102008,1,0,0:0:0:0:
256,192,102469,1,8,0:0:0:0:
256,192,102931,1,8,0:0:0:0:
256,192,103392,1,0,0:0:0:0:
256,192,104315,1,8,0:0:0:0:
256,192,105238,1,0,0:0:0:0:
256,192,106161,1,8,0:0:0:0:
256,192,106623,1,8,0:0:0:0:
256,192,107084,1,0,0:0:0:0:
256,192,108008,1,8,0:0:0:0:
256,192,108469,1,8,0:0:0:0:
256,192,108700,1,0,0:0:0:0:
256,192,108931,1,8,0:0:0:0:
256,192,109392,1,0,0:0:0:0:
256,192,109854,1,8,0:0:0:0:
256,192,110315,1,8,0:0:0:0:
256,192,110777,1,4,0:0:0:0:
256,192,111238,1,8,0:0:0:0:
256,192,112392,1,0,0:0:0:0:
256,192,112623,1,8,0:0:0:0:
256,192,113084,1,0,0:0:0:0:
256,192,113546,1,8,0:0:0:0:
256,192,114008,1,8,0:0:0:0:
256,192,114469,1,0,0:0:0:0:
256,192,114931,1,8,0:0:0:0:
256,192,116084,1,0,0:0:0:0:
256,192,116315,1,8,0:0:0:0:
256,192,116777,1,0,0:0:0:0:
256,192,117238,1,8,0:0:0:0:
256,192,117700,1,8,0:0:0:0:
256,192,118161,1,0,0:0:0:0:
256,192,118623,1,8,0:0:0:0:
256,192,119084,1,0,0:0:0:0:
256,192,120008,1,0,0:0:0:0:
256,192,120469,1,8,0:0:0:0:
256,192,120931,1,0,0:0:0:0:
256,192,121392,1,8,0:0:0:0:
256,192,121623,1,0,0:0:0:0:
256,192,121854,1,0,0:0:0:0:
256,192,122315,1,8,0:0:0:0:
256,192,122777,1,0,0:0:0:0:
256,192,123008,1,0,0:0:0:0:
256,192,123238,1,8,0:0:0:0:
256,192,123700,1,8,0:0:0:0:
256,192,123931,1,8,0:0:0:0:
256,192,124161,1,0,0:0:0:0:
256,192,124392,1,0,0:0:0:0:
256,192,124623,1,8,0:0:0:0:
256,192,125084,1,12,0:0:0:0:
256,192,125546,1,4,0:0:0:0:
256,192,126008,1,8,0:0:0:0:
256,192,126469,1,0,0:0:0:0:
256,192,126931,1,8,0:0:0:0:
256,192,127161,1,8,0:0:0:0:
256,192,127392,1,0,0:0:0:0:
256,192,127854,1,8,0:0:0:0:
256,192,128315,1,0,0:0:0:0:
256,192,128546,1,8,0:0:0:0:
256,192,129008,1,8,0:0:0:0:
256,192,129238,1,0,0:0:0:0:
256,192,130161,1,8,0:0:0:0:
256,192,130623,1,8,0:0:0:0:
256,192,130854,1,8,0:0:0:0:
256,192,131084,1,0,0:0:0:0:
256,192,131546,1,8,0:0:0:0:
256,192,132008,1,0,0:0:0:0:
256,192,132238,1,0,0:0:0:0:
256,192,132469,1,8,0:0:0:0:
256,192,132931,1,8,0:0:0:0:
256,192,133161,1,0,0:0:0:0:
256,192,133623,1,0,0:0:0:0:
256,192,133854,1,8,0:0:0:0:
256,192,134315,1,8,0:0:0:0:
256,192,134777,1,0,0:0:0:0:
256,192,135700,1,0,0:0:0:0:
256,192,136161,1,8,0:0:0:0:
256,192,136392,1,0,0:0:0:0:
256,192,136623,1,8,0:0:0:0:
256,192,137084,1,8,0:0:0:0:
256,192,137546,1,0,0:0:0:0:
256,192,137777,1,8,0:0:0:0:
256,192,138008,1,8,0:0:0:0:
256,192,138469,1,0,0:0:0:0:
256,192,138931,1,8,0:0:0:0:
256,192,139161,1,0,0:0:0:0:
256,192,139392,1,0,0:0:0:0:
256,192,139854,1,8,0:0:0:0:
256,192,140315,1,4,0:0:0:0:
256,192,140777,1,8,0:0:0:0:
256,192,141008,1,8,0:0:0:0:
256,192,141238,1,0,0:0:0:0:
256,192,141700,1,8,0:0:0:0:
256,192,142161,1,0,0:0:0:0:
256,192,142392,1,0,0:0:0:0:
256,192,142623,1,8,0:0:0:0:
256,192,142854,1,0,0:0:0:0:
256,192,143084,1,0,0:0:0:0:
256,192,143546,1,8,0:0:0:0:
256,192,144008,1,0,0:0:0:0:
256,192,144931,1,0,0:0:0:0:
256,192,145161,1,0,0:0:0:0:
256,192,145392,1,8,0:0:0:0:
256,192,145854,1,0,0:0:0:0:
256,192,146315,1,8,0:0:0:0:
256,192,146546,1,0,0:0:0:0:
256,192,146777,1,0,0:0:0:0:
256,192,147238,1,8,0:0:0:0:
256,192,147700,1,0,0:0:0:0:
256,192,147931,1,8,0:0:0:0:
256,192,148392,1,8,0:0:0:0:
256,192,148623,1,0,0:0:0:0:
256,192,149084,1,8,0:0:0:0:
256,192,149315,1,8,0:0:0:0:
256,192,149546,1,0,0:0:0:0:
256,192,150469,1,8,0:0:0:0:
256,192,150700,1,0,0:0:0:0:
256,192,150931,1,8,0:0:0:0:
256,192,151392,1,0,0:0:0:0:
256,192,151854,1,8,0:0:0:0:
256,192,152084,1,0,0:0:0:0:
256,192,152315,1,0,0:0:0:0:
256,192,152777,1,8,0:0:0:0:
256,192,153238,1,0,0:0:0:0:
256,192,153700,1,8,0:0:0:0:
256,192,153931,1,0,0:0:0:0:
256,192,154161,1,8,0:0:0:0:
256,192,154392,1,8,0:0:0:0:
256,192,154623,1,8,0:0:0:0:
256,192,155084,1,4,0:0:0:0:
256,192,155546,1,8,0:0:0:0:
256,192,156008,1,0,0:0:0:0:
256,192,156238,1,0,0:0:0:0:
256,192,156469,1,8,0:0:0:0:
256,192,156931,1,0,0:0:0:0:
256,192,157392,1,8,0:0:0:0:
256,192,157623,1,8,0:0:0:0:
256,192,157854,1,0,0:0:0:0:
256,192,158315,1,8,0:0:0:0:
256,192,158777,1,0,0:0:0:0:
256,192,159700,1,0,0:0:0:0:
256,192,160161,1,8,0:0:0:0:
256,192,160392,1,0,0:0:0:0:
256,192,160623,1,0,0:0:0:0:
256,192,161084,1,8,0:0:0:0:
256,192,161546,1,0,0:0:0:0:
256,192,161777,1,8,0:0:0:0:
256,192,162008,1,0,0:0:0:0:
256,192,162469,1,0,0:0:0:0:
256,192,162931,1,8,0:0:0:0:
256,192,163392,1,0,0:0:0:0:
256,192,163623,1,0,0:0:0:0:
256,192,163854,1,8,0:0:0:0:
256,192,164315,1,0,0:0:0:0:
256,192,164777,1,8,0:0:0:0:
256,192,165008,1,8,0:0:0:0:
256,192,165238,1,0,0:0:0:0:
256,192,165700,1,8,0:0:0:0:
256,192,166161,1,0,0:0:0:0:
256,192,167084,1,0,0:0:0:0:
256,192,167546,1,8,0:0:0:0:
256,192,167777,1,0,0:0:0:0:
256,192,168008,1,0,0:0:0:0:
256,192,168469,1,8,0:0:0:0:
256,192,168700,1,8,0:0:0:0:
256,192,168931,1,0,0:0:0:0:
256,192,169161,1,8,0:0:0:0:
256,192,169392,1,0,0:0:0:0:
256,192,169854,1,4,0:0:0:0:
256,192,170315,1,8,0:0:0:0:
256,192,170777,1,0,0:0:0:0:
256,192,171238,1,8,0:0:0:0:
256,192,171469,1,0,0:0:0:0:
256,192,171700,1,8,0:0:0:0:
256,192,172161,1,8,0:0:0:0:
256,192,172623,1,0,0:0:0:0:
256,192,172854,1,8,0:0:0:0:
256,192,173084,1,8,0:0:0:0:
256,192,173315,1,8,0:0:0:0:
256,192,173546,1,0,0:0:0:0:
256,192,174469,1,0,0:0:0:0:
256,192,174931,1,8,0:0:0:0:
256,192,175392,1,0,0:0:0:0:
256,192,175623,1,0,0:0:0:0:
256,192,175854,1,8,0:0:0:0:
256,192,176315,1,0,0:0:0:0:
256,192,176546,1,8,0:0:0:0:
256,192,176777,1,8,0:0:0:0:
256,192,177008,1,0,0:0:0:0:
256,192,177238,1,0,0:0:0:0:
256,192,177700,1,8,0:0:0:0:
256,192,178161,1,0,0:0:0:0:
256,192,178623,1,8,0:0:0:0:
256,192,178854,1,0,0:0:0:0:
256,192,179084,1,8,0:0:0:0:
256,192,179546,1,8,0:0:0:0:
256,192,180008,1,0,0:0:0:0:
256,192,180238,1,8,0:0:0:0:
256,192,180469,1,8,0:0:0:0:
256,192,180700,1,8,0:0:0:0:
256,192,180931,1,0,0:0:0:0:
256,192,181854,1,0,0:0:0:0:
256,192,182315,1,8,0:0:0:0:
256,192,182777,1,0,0:0:0:0:
256,192,183008,1,0,0:0:0:0:
256,192,183238,1,8,0:0:0:0:
256,192,183469,1,8,0:0:0:0:
256,192,183700,1,0,0:0:0:0:
256,192,183931,1,0,0:0:0:0:
256,192,184161,1,8,0:0:0:0:
256,192,184623,1,4,0:0:0:0:
256,192,185546,1,8,0:0:0:0:
256,192,186008,1,0,0:0:0:0:
256,192,186238,1,0,0:0:0:0:
256,192,186469,1,0,0:0:0:0:
256,192,186931,1,0,0:0:0:0:
256,192,187392,1,8,0:0:0:0:
256,192,188315,1,0,0:0:0:0:
256,192,189238,1,8,0:0:0:0:
256,192,189700,1,0,0:0:0:0:
256,192,189931,1,0,0:0:0:0:
256,192,190161,1,0,0:0:0:0:
256,192,190623,1,0,0:0:0:0:
256,192,191084,1,8,0:0:0:0:
256,192,191315,1,8,0:0:0:0:
256,192,191546,1,8,0:0:0:0:
256,192,192008,1,4,0:0:0:0:
256,192,192931,1,8,0:0:0:0:
256,192,193392,1,0,0:0:0:0:
256,192,193623,1,0,0:0:0:0:
256,192,193854,1,0,0:0:0:0:
256,192,194315,1,0,0:0:0:0:
256,192,194777,1,8,0:0:0:0:
256,192,195700,1,0,0:0:0:0:
256,192,196623,1,8,0:0:0:0:
256,192,197084,1,0,0:0:0:0:
256,192,197315,1,0,0:0:0:0:
256,192,197546,1,0,0:0:0:0:
256,192,198008,1,0,0:0:0:0:
256,192,198469,1,8,0:0:0:0:
256,192,198700,1,8,0:0:0:0:
256,192,198931,1,8,0:0:0:0:
256,192,199392,1,4,0:0:0:0:
256,192,199854,1,8,0:0:0:0:
256,192,200315,1,0,0:0:0:0:
256,192,200777,1,8,0:0:0:0:
256,192,201008,1,0,0:0:0:0:
256,192,201238,1,0,0:0:0:0:
256,192,201700,1,8,0:0:0:0:
256,192,202623,1,8,0:0:0:0:
256,192,202854,1,8,0:0:0:0:
256,192,203084,1,0,0:0:0:0:
256,192,203546,1,8,0:0:0:0:
256,192,204008,1,0,0:0:0:0:
256,192,204469,1,8,0:0:0:0:
256,192,204700,1,0,0:0:0:0:
256,192,204931,1,0,0:0:0:0:
256,192,205392,1,8,0:0:0:0:
256,192,205854,1,8,0:0:0:0:
256,192,206084,1,8,0:0:0:0:
256,192,206315,1,8,0:0:0:0:
256,192,206546,1,8,0:0:0:0:
256,192,206777,1,4,0:0:0:0:
256,192,207238,1,8,0:0:0:0:
256,192,207700,1,0,0:0:0:0:
256,192,208161,1,8,0:0:0:0:
256,192,208392,1,0,0:0:0:0:
256,192,208623,1,0,0:0:0:0:
256,192,209084,1,8,0:0:0:0:
256,192,210008,1,8,0:0:0:0:
256,192,210238,1,8,0:0:0:0:
256,192,210469,1,0,0:0:0:0:
256,192,210931,1,8,0:0:0:0:
256,192,211392,1,0,0:0:0:0:
256,192,211854,1,8,0:0:0:0:
256,192,212315,1,0,0:0:0:0:
256,192,212546,1,0,0:0:0:0:
256,192,212777,1,0,0:0:0:0:
256,192,213008,1,0,0:0:0:0:
256,192,213238,1,8,0:0:0:0:
256,192,213700,1,8,0:0:0:0:
256,192,214161,1,4,0:0:0:0:
256,192,228931,5,4,0:0:0:0:
256,192,229392,1,8,0:0:0:0:
256,192,230084,1,0,0:0:0:0:
256,192,230315,1,8,0:0:0:0:
256,192,230777,1,0,0:0:0:0:
256,192,231238,1,8,0:0:0:0:
256,192,232161,1,8,0:0:0:0:
256,192,232392,1,0,0:0:0:0:
256,192,232623,1,0,0:0:0:0:
256,192,233084,1,8,0:0:0:0:
256,192,233777,1,0,0:0:0:0:
256,192,234008,1,8,0:0:0:0:
256,192,234469,1,0,0:0:0:0:
256,192,234931,1,8,0:0:0:0:
256,192,235392,1,0,0:0:0:0:
256,192,235854,1,8,0:0:0:0:
256,192,236084,1,0,0:0:0:0:
256,192,236315,1,0,0:0:0:0:
256,192,236777,1,8,0:0:0:0:
256,192,237469,1,0,0:0:0:0:
256,192,237700,1,8,0:0:0:0:
256,192,238161,1,0,0:0:0:0:
256,192,238623,1,8,0:0:0:0:
256,192,239546,1,8,0:0:0:0:
256,192,239777,1,0,0:0:0:0:
256,192,240008,1,0,0:0:0:0:
256,192,240469,1,8,0:0:0:0:
256,192,241161,1,0,0:0:0:0:
256,192,241392,1,8,0:0:0:0:
256,192,241854,1,0,0:0:0:0:
256,192,242315,1,8,0:0:0:0:
256,192,242777,1,0,0:0:0:0:
256,192,243238,1,8,0:0:0:0:
256,192,243469,1,0,0:0:0:0:
256,192,243700,1,4,0:0:0:0:
256,192,244161,1,0,0:0:0:0:
256,192,244392,1,0,0:0:0:0:
256,192,244623,1,0,0:0:0:0:
256,192,244854,1,0,0:0:0:0:
256,192,245084,1,8,0:0:0:0:
256,192,245546,1,8,0:0:0:0:
256,192,245777,1,0,0:0:0:0:
256,192,246008,1,8,0:0:0:0:
256,192,246238,1,0,0:0:0:0:
256,192,246469,1,8,0:0:0:0:
256,192,246700,1,0,0:0:0:0:
256,192,246931,1,12,0:0:0:0:
256,192,247392,1,4,0:0:0:0:
256,192,247854,1,8,0:0:0:0:
256,192,248777,1,8,0:0:0:0:
256,192,249238,1,0,0:0:0:0:
256,192,249700,1,8,0:0:0:0:
256,192,249931,1,8,0:0:0:0:
256,192,250161,1,0,0:0:0:0:
256,192,250623,1,8,0:0:0:0:
256,192,251084,1,0,0:0:0:0:
256,192,251546,1,8,0:0:0:0:
256,192,251777,1,0,0:0:0:0:
256,192,252008,1,8,0:0:0:0:
256,192,252469,1,8,0:0:0:0:
256,192,252931,1,0,0:0:0:0:
256,192,253161,1,8,0:0:0:0:
256,192,253392,1,8,0:0:0:0:
256,192,253623,1,8,0:0:0:0:
256,192,253854,1,0,0:0:0:0:
256,192,254315,1,8,0:0:0:0:
256,192,254777,1,4,0:0:0:0:
256,192,255238,1,8,0:0:0:0:
256,192,256161,1,8,0:0:0:0:
256,192,256623,1,0,0:0:0:0:
256,192,256854,1,8,0:0:0:0:
256,192,257084,1,8,0:0:0:0:
256,192,257546,1,0,0:0:0:0:
256,192,258008,1,8,0:0:0:0:
256,192,258469,1,0,0:0:0:0:
256,192,258700,1,0,0:0:0:0:
256,192,258931,1,8,0:0:0:0:
256,192,259392,1,0,0:0:0:0:
256,192,259854,1,8,0:0:0:0:
256,192,260315,1,0,0:0:0:0:
256,192,260546,1,8,0:0:0:0:
256,192,260777,1,0,0:0:0:0:
256,192,261008,1,8,0:0:0:0:
256,192,261238,1,0,0:0:0:0:
256,192,261700,1,8,0:0:0:0:
256,192,262161,1,4,0:0:0:0:
256,192,262623,1,8,0:0:0:0:
256,192,263546,1,8,0:0:0:0:
256,192,264008,1,0,0:0:0:0:
256,192,264469,1,8,0:0:0:0:
256,192,264700,1,8,0:0:0:0:
256,192,264931,1,0,0:0:0:0:
256,192,265392,1,8,0:0:0:0:
256,192,265854,1,0,0:0:0:0:
256,192,266315,1,8,0:0:0:0:
256,192,266546,1,0,0:0:0:0:
256,192,266777,1,8,0:0:0:0:
256,192,267238,1,8,0:0:0:0:
256,192,267469,1,0,0:0:0:0:
256,192,267700,1,0,0:0:0:0:
256,192,268161,1,8,0:0:0:0:
256,192,268392,1,8,0:0:0:0:
256,192,268623,1,0,0:0:0:0:
256,192,268854,1,8,0:0:0:0:
256,192,269084,1,8,0:0:0:0:
256,192,269546,1,4,0:0:0:0:
256,192,270008,1,8,0:0:0:0:
256,192,270931,1,8,0:0:0:0:
256,192,271392,1,0,0:0:0:0:
256,192,271623,1,8,0:0:0:0:
256,192,271854,1,8,0:0:0:0:
256,192,272315,1,0,0:0:0:0:
256,192,272777,1,8,0:0:0:0:
256,192,273238,1,0,0:0:0:0:
256,192,273469,1,0,0:0:0:0:
256,192,273700,1,8,0:0:0:0:
256,192,274161,1,0,0:0:0:0:
256,192,274623,1,8,0:0:0:0:
256,192,274854,1,0,0:0:0:0:
256,192,275084,1,0,0:0:0:0:
256,192,275315,1,8,0:0:0:0:
256,192,275546,1,0,0:0:0:0:
256,192,275777,1,8,0:0:0:0:
256,192,276008,1,0,0:0:0:0:
256,192,276469,1,8,0:0:0:0:
256,192,276931,1,4,0:0:0:0:
256,192,277854,1,8,0:0:0:0:
256,192,278546,1,0,0:0:0:0:
256,192,279700,1,8,0:0:0:0:
256,192,280392,1,0,0:0:0:0:
256,192,280623,1,8,0:0:0:0:
256,192,281546,1,0,0:0:0:0:
256,192,282238,1,0,0:0:0:0:
256,192,283392,1,8,0:0:0:0:
256,192,284084,1,0,0:0:0:0:
256,192,284315,1,8,0:0:0:0:
256,192,285238,1,8,0:0:0:0:
256,192,285931,1,0,0:0:0:0:
256,192,287084,1,8,0:0:0:0:
256,192,287777,1,0,0:0:0:0:
256,192,288008,1,0,0:0:0:0:
256,192,288931,1,8,0:0:0:0:
256,192,289623,1,0,0:0:0:0:
256,192,289854,12,0,291700,0:0:0:0:
