osu file format v14

[General]
AudioFilename: audio.mp3
AudioLeadIn: 0
PreviewTime: 68423
Countdown: 0
SampleSet: Normal
StackLeniency: 0.7
Mode: 1
LetterboxInBreaks: 0
WidescreenStoryboard: 0

[Editor]
Bookmarks: 13714,27428,41142,54857,68571,82285,96000,123428,178285,205714
DistanceSpacing: 1.1
BeatDivisor: 4
GridSize: 32
TimelineZoom: 1.9

[Metadata]
Title:SOAP (Original Mix)
TitleUnicode:SOAP (Original Mix)
Artist:MYLK
ArtistUnicode:MYLK
Creator:tasuke912
Version:Inner Oni
Source:
Tags:Nardoxyribonucleic HiroK Electronic Japanese
BeatmapID:2205809
BeatmapSetID:1055618

[Difficulty]
HPDrainRate:6
CircleSize:2
OverallDifficulty:6
ApproachRate:5
SliderMultiplier:1.4
SliderTickRate:1

[Events]
//Background and Video events
0,0,"bg.jpg",0,0
//Break Periods
2,151123,177151
//Storyboard Layer 0 (Background)
//Storyboard Layer 1 (Fail)
//Storyboard Layer 2 (Pass)
//Storyboard Layer 3 (Foreground)
//Storyboard Layer 4 (Overlay)
//Storyboard Sound Samples

[TimingPoints]
66,428.571428571429,4,1,0,40,1,0
13673,-100,4,1,0,75,0,0
54923,-117.647058823529,4,1,0,70,0,0
55030,-133.333333333333,4,1,0,70,0,0
68637,-75.0000000000019,4,1,0,80,0,0
96066,-75.0000000000019,4,1,0,80,0,1
123494,-75.0000000000019,4,1,0,70,0,0
123601,-100,4,1,0,70,0,0
137208,-133.333333333333,4,1,0,70,0,1
150923,-133.333333333333,4,1,0,70,0,0
151137,-133.333333333333,4,1,0,40,0,0
178244,-100,4,1,0,75,0,0
219066,-117.647058823529,4,1,0,75,0,0
219494,-133.333333333333,4,1,0,75,0,0

[HitObjects]
256,192,13780,5,4,0:0:0:0:
256,192,14423,1,0,0:0:0:0:
256,192,14637,1,2,0:0:0:0:
256,192,15066,1,0,0:0:0:0:
256,192,15708,1,0,0:0:0:0:
256,192,15923,1,0,0:0:0:0:
256,192,16351,1,2,0:0:0:0:
256,192,16566,1,0,0:0:0:0:
256,192,16673,1,0,0:0:0:0:
256,192,16780,1,2,0:0:0:0:
256,192,16994,1,2,0:0:0:0:
256,192,17101,1,2,0:0:0:0:
256,192,17208,1,0,0:0:0:0:
256,192,17851,1,0,0:0:0:0:
256,192,18066,1,2,0:0:0:0:
256,192,18494,1,0,0:0:0:0:
256,192,18923,1,0,0:0:0:0:
256,192,19137,1,0,0:0:0:0:
256,192,19244,1,0,0:0:0:0:
256,192,19351,1,0,0:0:0:0:
256,192,19566,1,0,0:0:0:0:
256,192,19673,1,0,0:0:0:0:
256,192,19780,1,2,0:0:0:0:
256,192,19994,1,0,0:0:0:0:
256,192,20208,1,2,0:0:0:0:
256,192,20637,1,0,0:0:0:0:
256,192,21280,1,0,0:0:0:0:
256,192,21494,1,2,0:0:0:0:
256,192,21923,1,0,0:0:0:0:
256,192,22566,1,0,0:0:0:0:
256,192,22780,1,0,0:0:0:0:
256,192,23208,1,2,0:0:0:0:
256,192,23423,1,0,0:0:0:0:
256,192,23530,1,0,0:0:0:0:
256,192,23637,1,2,0:0:0:0:
256,192,23851,1,2,0:0:0:0:
256,192,23958,1,2,0:0:0:0:
256,192,24066,1,0,0:0:0:0:
256,192,24708,1,0,0:0:0:0:
256,192,24923,1,2,0:0:0:0:
256,192,25351,1,0,0:0:0:0:
256,192,25780,1,0,0:0:0:0:
256,192,25994,1,0,0:0:0:0:
256,192,26101,1,0,0:0:0:0:
256,192,26208,1,0,0:0:0:0:
256,192,26423,1,0,0:0:0:0:
256,192,26530,1,0,0:0:0:0:
256,192,26637,1,2,0:0:0:0:
256,192,27066,1,2,0:0:0:0:
256,192,27494,5,4,0:0:0:0:
256,192,28137,1,0,0:0:0:0:
256,192,28351,1,2,0:0:0:0:
256,192,28673,1,2,0:0:0:0:
256,192,28780,1,0,0:0:0:0:
256,192,29101,1,2,0:0:0:0:
256,192,29208,1,2,0:0:0:0:
256,192,29423,1,0,0:0:0:0:
256,192,29637,1,0,0:0:0:0:
256,192,30066,1,2,0:0:0:0:
256,192,30280,1,0,0:0:0:0:
256,192,30387,1,0,0:0:0:0:
256,192,30494,1,2,0:0:0:0:
256,192,30708,1,2,0:0:0:0:
256,192,30816,1,2,0:0:0:0:
256,192,30923,1,0,0:0:0:0:
256,192,31351,1,2,0:0:0:0:
256,192,31566,1,0,0:0:0:0:
256,192,31780,1,2,0:0:0:0:
256,192,32101,1,2,0:0:0:0:
256,192,32208,1,0,0:0:0:0:
256,192,32530,1,2,0:0:0:0:
256,192,32637,1,0,0:0:0:0:
256,192,32851,1,0,0:0:0:0:
256,192,32958,1,0,0:0:0:0:
256,192,33066,1,2,0:0:0:0:
256,192,33280,1,0,0:0:0:0:
256,192,33387,1,2,0:0:0:0:
256,192,33494,1,2,0:0:0:0:
256,192,33708,1,2,0:0:0:0:
256,192,33816,1,0,0:0:0:0:
256,192,33923,1,2,0:0:0:0:
256,192,34030,1,2,0:0:0:0:
256,192,34137,1,2,0:0:0:0:
256,192,34351,1,0,0:0:0:0:
256,192,34994,1,0,0:0:0:0:
256,192,35208,1,2,0:0:0:0:
256,192,35530,1,2,0:0:0:0:
256,192,35637,1,0,0:0:0:0:
256,192,35958,1,2,0:0:0:0:
256,192,36066,1,2,0:0:0:0:
256,192,36280,1,0,0:0:0:0:
256,192,36494,1,0,0:0:0:0:
256,192,36923,1,2,0:0:0:0:
256,192,37137,1,0,0:0:0:0:
256,192,37244,1,0,0:0:0:0:
256,192,37351,1,2,0:0:0:0:
256,192,37566,1,2,0:0:0:0:
256,192,37673,1,2,0:0:0:0:
256,192,37780,1,0,0:0:0:0:
256,192,38208,1,2,0:0:0:0:
256,192,38423,1,0,0:0:0:0:
256,192,38637,1,2,0:0:0:0:
256,192,38958,1,2,0:0:0:0:
256,192,39066,1,0,0:0:0:0:
256,192,39387,1,2,0:0:0:0:
256,192,39494,1,0,0:0:0:0:
256,192,39708,1,0,0:0:0:0:
256,192,39816,1,2,0:0:0:0:
256,192,39923,1,2,0:0:0:0:
256,192,40137,1,0,0:0:0:0:
256,192,40244,1,0,0:0:0:0:
256,192,40351,1,2,0:0:0:0:
256,192,40566,1,0,0:0:0:0:
256,192,40780,1,2,0:0:0:0:
256,192,41208,1,4,0:0:0:0:
256,192,41423,1,2,0:0:0:0:
256,192,41530,1,2,0:0:0:0:
256,192,41637,1,2,0:0:0:0:
256,192,41851,1,0,0:0:0:0:
256,192,42066,1,2,0:0:0:0:
256,192,42387,1,2,0:0:0:0:
256,192,42494,1,0,0:0:0:0:
256,192,42708,1,2,0:0:0:0:
256,192,42816,1,2,0:0:0:0:
256,192,42923,1,2,0:0:0:0:
256,192,43137,1,0,0:0:0:0:
256,192,43351,1,0,0:0:0:0:
256,192,43780,1,2,0:0:0:0:
256,192,43994,1,0,0:0:0:0:
256,192,44101,1,0,0:0:0:0:
256,192,44208,1,2,0:0:0:0:
256,192,44316,1,0,0:0:0:0:
256,192,44423,1,2,0:0:0:0:
256,192,44530,1,2,0:0:0:0:
256,192,44637,1,0,0:0:0:0:
256,192,44851,1,0,0:0:0:0:
256,192,44958,1,2,0:0:0:0:
256,192,45066,1,2,0:0:0:0:
256,192,45280,1,0,0:0:0:0:
256,192,45494,1,2,0:0:0:0:
256,192,45816,1,2,0:0:0:0:
256,192,45923,1,0,0:0:0:0:
256,192,46137,1,2,0:0:0:0:
256,192,46351,1,0,0:0:0:0:
256,192,46566,1,0,0:0:0:0:
256,192,46673,1,0,0:0:0:0:
256,192,46780,1,0,0:0:0:0:
256,192,46994,1,0,0:0:0:0:
256,192,47101,1,0,0:0:0:0:
256,192,47208,1,2,0:0:0:0:
256,192,47423,1,0,0:0:0:0:
256,192,47637,1,2,0:0:0:0:
256,192,48066,1,0,0:0:0:0:
256,192,48280,1,2,0:0:0:0:
256,192,48387,1,2,0:0:0:0:
256,192,48494,1,2,0:0:0:0:
256,192,48708,1,0,0:0:0:0:
256,192,48923,1,2,0:0:0:0:
256,192,49244,1,2,0:0:0:0:
256,192,49351,1,0,0:0:0:0:
256,192,49566,1,2,0:0:0:0:
256,192,49673,1,2,0:0:0:0:
256,192,49780,1,2,0:0:0:0:
256,192,49994,1,0,0:0:0:0:
256,192,50208,1,0,0:0:0:0:
256,192,50637,1,2,0:0:0:0:
256,192,50851,1,0,0:0:0:0:
256,192,50958,1,2,0:0:0:0:
256,192,51066,1,0,0:0:0:0:
256,192,51173,1,0,0:0:0:0:
256,192,51280,1,2,0:0:0:0:
256,192,51387,1,2,0:0:0:0:
256,192,51494,1,0,0:0:0:0:
256,192,51708,1,0,0:0:0:0:
256,192,51816,1,2,0:0:0:0:
256,192,51923,1,2,0:0:0:0:
256,192,52137,1,0,0:0:0:0:
256,192,52351,1,2,0:0:0:0:
256,192,52673,1,2,0:0:0:0:
256,192,52780,1,0,0:0:0:0:
256,192,52994,1,2,0:0:0:0:
256,192,53101,1,2,0:0:0:0:
256,192,53208,1,0,0:0:0:0:
256,192,53423,1,0,0:0:0:0:
256,192,53530,1,0,0:0:0:0:
256,192,53637,1,0,0:0:0:0:
256,192,53851,1,0,0:0:0:0:
256,192,53958,1,0,0:0:0:0:
256,192,54066,1,2,0:0:0:0:
256,192,54280,1,0,0:0:0:0:
256,192,54494,1,2,0:0:0:0:
256,192,54923,5,6,0:0:0:0:
256,192,55244,1,0,0:0:0:0:
256,192,55458,1,0,0:0:0:0:
256,192,55566,1,0,0:0:0:0:
256,192,55780,1,2,0:0:0:0:
256,192,55887,1,0,0:0:0:0:
256,192,56208,1,2,0:0:0:0:
256,192,56423,1,2,0:0:0:0:
256,192,56637,1,2,0:0:0:0:
256,192,56851,1,2,0:0:0:0:
256,192,56958,1,0,0:0:0:0:
256,192,57173,1,0,0:0:0:0:
256,192,57280,1,0,0:0:0:0:
256,192,57494,1,2,0:0:0:0:
256,192,57601,1,2,0:0:0:0:
256,192,57923,1,2,0:0:0:0:
256,192,58030,1,0,0:0:0:0:
256,192,58351,1,2,0:0:0:0:
256,192,58673,1,0,0:0:0:0:
256,192,58887,1,0,0:0:0:0:
256,192,58994,1,2,0:0:0:0:
256,192,59208,1,2,0:0:0:0:
256,192,59316,1,0,0:0:0:0:
256,192,59637,1,2,0:0:0:0:
256,192,59851,1,2,0:0:0:0:
256,192,60066,1,2,0:0:0:0:
256,192,60280,1,2,0:0:0:0:
256,192,60387,1,0,0:0:0:0:
256,192,60601,1,0,0:0:0:0:
256,192,60708,1,0,0:0:0:0:
256,192,60923,1,2,0:0:0:0:
256,192,61030,1,2,0:0:0:0:
256,192,61137,1,0,0:0:0:0:
256,192,61351,1,2,0:0:0:0:
256,192,61780,1,6,0:0:0:0:
256,192,62101,1,0,0:0:0:0:
256,192,62316,1,0,0:0:0:0:
256,192,62423,1,0,0:0:0:0:
256,192,62637,1,2,0:0:0:0:
256,192,62744,1,0,0:0:0:0:
256,192,63066,1,2,0:0:0:0:
256,192,63280,1,2,0:0:0:0:
256,192,63494,1,2,0:0:0:0:
256,192,63708,1,2,0:0:0:0:
256,192,63816,1,0,0:0:0:0:
256,192,64030,1,0,0:0:0:0:
256,192,64137,1,0,0:0:0:0:
256,192,64351,1,2,0:0:0:0:
256,192,64458,1,2,0:0:0:0:
256,192,64780,1,2,0:0:0:0:
256,192,64887,1,0,0:0:0:0:
256,192,64994,1,2,0:0:0:0:
256,192,65101,1,2,0:0:0:0:
256,192,65208,1,0,0:0:0:0:
256,192,65423,1,0,0:0:0:0:
256,192,65530,1,2,0:0:0:0:
256,192,65744,1,2,0:0:0:0:
256,192,65851,1,0,0:0:0:0:
256,192,66066,1,2,0:0:0:0:
256,192,66173,1,0,0:0:0:0:
256,192,66387,1,0,0:0:0:0:
256,192,66494,1,2,0:0:0:0:
256,192,66708,1,2,0:0:0:0:
256,192,66816,1,2,0:0:0:0:
256,192,66923,1,0,0:0:0:0:
256,192,67137,1,0,0:0:0:0:
256,192,67244,1,2,0:0:0:0:
256,192,67351,1,0,0:0:0:0:
256,192,67458,1,0,0:0:0:0:
256,192,67566,1,2,0:0:0:0:
256,192,67673,1,2,0:0:0:0:
256,192,67780,1,0,0:0:0:0:
256,192,68208,1,6,0:0:0:0:
256,192,68637,5,4,0:0:0:0:
256,192,68851,1,0,0:0:0:0:
256,192,69066,1,2,0:0:0:0:
256,192,69280,1,2,0:0:0:0:
256,192,69387,1,2,0:0:0:0:
256,192,69441,1,2,0:0:0:0:
256,192,69494,1,2,0:0:0:0:
256,192,69601,1,2,0:0:0:0:
256,192,69708,1,0,0:0:0:0:
256,192,69923,1,2,0:0:0:0:
256,192,70030,1,0,0:0:0:0:
256,192,70244,1,2,0:0:0:0:
256,192,70351,1,0,0:0:0:0:
256,192,70458,1,2,0:0:0:0:
256,192,70566,1,0,0:0:0:0:
256,192,70780,1,2,0:0:0:0:
256,192,70994,1,0,0:0:0:0:
256,192,71048,1,0,0:0:0:0:
256,192,71101,1,2,0:0:0:0:
256,192,71316,1,2,0:0:0:0:
256,192,71423,1,0,0:0:0:0:
256,192,71637,1,2,0:0:0:0:
256,192,71744,1,0,0:0:0:0:
256,192,71851,1,2,0:0:0:0:
256,192,71958,1,2,0:0:0:0:
256,192,72012,1,2,0:0:0:0:
256,192,72066,1,0,0:0:0:0:
256,192,72173,1,2,0:0:0:0:
256,192,72280,1,0,0:0:0:0:
256,192,72494,1,2,0:0:0:0:
256,192,72708,1,0,0:0:0:0:
256,192,72762,1,0,0:0:0:0:
256,192,72816,1,2,0:0:0:0:
256,192,73030,1,2,0:0:0:0:
256,192,73137,1,0,0:0:0:0:
256,192,73244,1,2,0:0:0:0:
256,192,73351,1,2,0:0:0:0:
256,192,73458,1,0,0:0:0:0:
256,192,73673,1,2,0:0:0:0:
256,192,73780,1,0,0:0:0:0:
256,192,73994,1,0,0:0:0:0:
256,192,74101,1,0,0:0:0:0:
256,192,74208,1,2,0:0:0:0:
256,192,74423,1,0,0:0:0:0:
256,192,74637,1,2,0:0:0:0:
256,192,74744,1,2,0:0:0:0:
256,192,74851,1,0,0:0:0:0:
256,192,75066,1,2,0:0:0:0:
256,192,75173,1,0,0:0:0:0:
256,192,75494,1,0,0:0:0:0:
256,192,75708,1,0,0:0:0:0:
256,192,75923,1,2,0:0:0:0:
256,192,76137,1,0,0:0:0:0:
256,192,76244,1,2,0:0:0:0:
256,192,76298,1,2,0:0:0:0:
256,192,76351,1,2,0:0:0:0:
256,192,76458,1,2,0:0:0:0:
256,192,76565,1,0,0:0:0:0:
256,192,76780,1,2,0:0:0:0:
256,192,76887,1,0,0:0:0:0:
256,192,77101,1,2,0:0:0:0:
256,192,77208,1,0,0:0:0:0:
256,192,77315,1,2,0:0:0:0:
256,192,77423,1,0,0:0:0:0:
256,192,77530,1,0,0:0:0:0:
256,192,77637,1,2,0:0:0:0:
256,192,77851,1,0,0:0:0:0:
256,192,77958,1,0,0:0:0:0:
256,192,78066,1,2,0:0:0:0:
256,192,78280,1,0,0:0:0:0:
256,192,78494,1,2,0:0:0:0:
256,192,78601,1,0,0:0:0:0:
256,192,78816,1,2,0:0:0:0:
256,192,78923,1,0,0:0:0:0:
256,192,79030,1,2,0:0:0:0:
256,192,79137,1,0,0:0:0:0:
256,192,79351,1,2,0:0:0:0:
256,192,79566,1,0,0:0:0:0:
256,192,79673,1,2,0:0:0:0:
256,192,79726,1,2,0:0:0:0:
256,192,79780,1,2,0:0:0:0:
256,192,79887,1,2,0:0:0:0:
256,192,79994,1,0,0:0:0:0:
256,192,80208,1,2,0:0:0:0:
256,192,80316,1,0,0:0:0:0:
256,192,80423,1,2,0:0:0:0:
256,192,80530,1,2,0:0:0:0:
256,192,80637,1,0,0:0:0:0:
256,192,80744,1,2,0:0:0:0:
256,192,80851,1,0,0:0:0:0:
256,192,81066,1,2,0:0:0:0:
256,192,81280,1,0,0:0:0:0:
256,192,81387,1,0,0:0:0:0:
256,192,81494,1,2,0:0:0:0:
256,192,81601,1,2,0:0:0:0:
256,192,81708,1,0,0:0:0:0:
256,192,81923,1,2,0:0:0:0:
256,192,82351,1,4,0:0:0:0:
256,192,82566,1,0,0:0:0:0:
256,192,82673,1,2,0:0:0:0:
256,192,82780,1,2,0:0:0:0:
256,192,82994,1,2,0:0:0:0:
256,192,83101,1,2,0:0:0:0:
256,192,83155,1,2,0:0:0:0:
256,192,83208,1,2,0:0:0:0:
256,192,83316,1,2,0:0:0:0:
256,192,83423,1,0,0:0:0:0:
256,192,83637,1,2,0:0:0:0:
256,192,83744,1,0,0:0:0:0:
256,192,83958,1,2,0:0:0:0:
256,192,84065,1,0,0:0:0:0:
256,192,84172,1,2,0:0:0:0:
256,192,84280,1,0,0:0:0:0:
256,192,84494,1,2,0:0:0:0:
256,192,84708,1,0,0:0:0:0:
256,192,84762,1,0,0:0:0:0:
256,192,84815,1,2,0:0:0:0:
256,192,85030,1,2,0:0:0:0:
256,192,85137,1,0,0:0:0:0:
256,192,85351,1,2,0:0:0:0:
256,192,85458,1,0,0:0:0:0:
256,192,85565,1,2,0:0:0:0:
256,192,85672,1,2,0:0:0:0:
256,192,85780,1,0,0:0:0:0:
256,192,85887,1,2,0:0:0:0:
256,192,85994,1,0,0:0:0:0:
256,192,86208,1,2,0:0:0:0:
256,192,86422,1,0,0:0:0:0:
256,192,86476,1,0,0:0:0:0:
256,192,86530,1,0,0:0:0:0:
256,192,86637,1,2,0:0:0:0:
256,192,86744,1,2,0:0:0:0:
256,192,86851,1,0,0:0:0:0:
256,192,87065,1,2,0:0:0:0:
256,192,87172,1,0,0:0:0:0:
256,192,87387,1,2,0:0:0:0:
256,192,87494,1,0,0:0:0:0:
256,192,87601,1,2,0:0:0:0:
256,192,87708,1,0,0:0:0:0:
256,192,87815,1,0,0:0:0:0:
256,192,87922,1,2,0:0:0:0:
256,192,88137,1,0,0:0:0:0:
256,192,88244,1,0,0:0:0:0:
256,192,88351,1,2,0:0:0:0:
256,192,88458,1,2,0:0:0:0:
256,192,88565,1,0,0:0:0:0:
256,192,88780,1,2,0:0:0:0:
256,192,88887,1,0,0:0:0:0:
256,192,89208,1,0,0:0:0:0:
256,192,89422,1,0,0:0:0:0:
256,192,89637,1,2,0:0:0:0:
256,192,89851,1,0,0:0:0:0:
256,192,89958,1,2,0:0:0:0:
256,192,90012,1,2,0:0:0:0:
256,192,90065,1,2,0:0:0:0:
256,192,90172,1,2,0:0:0:0:
256,192,90279,1,0,0:0:0:0:
256,192,90494,1,2,0:0:0:0:
256,192,90601,1,0,0:0:0:0:
256,192,90815,1,2,0:0:0:0:
256,192,90922,1,0,0:0:0:0:
256,192,91029,1,2,0:0:0:0:
256,192,91137,1,0,0:0:0:0:
256,192,91244,1,0,0:0:0:0:
256,192,91351,1,2,0:0:0:0:
256,192,91565,1,2,0:0:0:0:
256,192,91672,1,0,0:0:0:0:
256,192,91780,1,2,0:0:0:0:
256,192,91887,1,2,0:0:0:0:
256,192,91994,1,0,0:0:0:0:
256,192,92208,1,2,0:0:0:0:
256,192,92315,1,0,0:0:0:0:
256,192,92530,1,2,0:0:0:0:
256,192,92637,1,0,0:0:0:0:
256,192,92744,1,2,0:0:0:0:
256,192,92851,1,0,0:0:0:0:
256,192,92958,1,0,0:0:0:0:
256,192,93065,1,2,0:0:0:0:
256,192,93280,1,0,0:0:0:0:
256,192,93387,1,2,0:0:0:0:
256,192,93440,1,2,0:0:0:0:
256,192,93494,1,2,0:0:0:0:
256,192,93601,1,2,0:0:0:0:
256,192,93708,1,0,0:0:0:0:
256,192,93922,1,2,0:0:0:0:
256,192,94030,1,0,0:0:0:0:
256,192,94137,1,2,0:0:0:0:
256,192,94244,1,2,0:0:0:0:
256,192,94351,1,0,0:0:0:0:
256,192,94458,1,0,0:0:0:0:
256,192,94673,1,0,0:0:0:0:
256,192,94780,1,2,0:0:0:0:
256,192,94994,1,0,0:0:0:0:
256,192,95101,1,0,0:0:0:0:
256,192,95208,1,2,0:0:0:0:
256,192,95315,1,2,0:0:0:0:
256,192,95422,1,0,0:0:0:0:
256,192,95637,1,2,0:0:0:0:
256,192,95744,1,0,0:0:0:0:
256,192,96066,5,4,0:0:0:0:
256,192,96280,1,0,0:0:0:0:
256,192,96494,1,2,0:0:0:0:
256,192,96708,1,2,0:0:0:0:
256,192,96816,1,2,0:0:0:0:
256,192,96869,1,2,0:0:0:0:
256,192,96923,1,2,0:0:0:0:
256,192,97030,1,2,0:0:0:0:
256,192,97137,1,0,0:0:0:0:
256,192,97351,1,2,0:0:0:0:
256,192,97458,1,0,0:0:0:0:
256,192,97566,1,2,0:0:0:0:
256,192,97673,1,2,0:0:0:0:
256,192,97780,1,0,0:0:0:0:
256,192,97887,1,2,0:0:0:0:
256,192,97994,1,0,0:0:0:0:
256,192,98208,1,2,0:0:0:0:
256,192,98423,1,0,0:0:0:0:
256,192,98530,1,0,0:0:0:0:
256,192,98583,1,0,0:0:0:0:
256,192,98637,1,2,0:0:0:0:
256,192,98851,1,0,0:0:0:0:
256,192,98958,1,2,0:0:0:0:
256,192,99066,1,2,0:0:0:0:
256,192,99173,1,0,0:0:0:0:
256,192,99280,1,2,0:0:0:0:
256,192,99387,1,2,0:0:0:0:
256,192,99494,1,0,0:0:0:0:
256,192,99708,1,0,0:0:0:0:
256,192,99816,1,2,0:0:0:0:
256,192,99923,1,2,0:0:0:0:
256,192,100137,1,0,0:0:0:0:
256,192,100244,1,2,0:0:0:0:
256,192,100298,1,2,0:0:0:0:
256,192,100351,1,2,0:0:0:0:
256,192,100458,1,2,0:0:0:0:
256,192,100566,1,0,0:0:0:0:
256,192,100780,1,2,0:0:0:0:
256,192,100887,1,0,0:0:0:0:
256,192,100994,1,2,0:0:0:0:
256,192,101101,1,2,0:0:0:0:
256,192,101208,1,0,0:0:0:0:
256,192,101316,1,2,0:0:0:0:
256,192,101423,1,0,0:0:0:0:
256,192,101637,1,2,0:0:0:0:
256,192,101851,1,0,0:0:0:0:
256,192,101958,1,2,0:0:0:0:
256,192,102012,1,2,0:0:0:0:
256,192,102066,1,0,0:0:0:0:
256,192,102173,1,2,0:0:0:0:
256,192,102280,1,0,0:0:0:0:
256,192,102494,1,2,0:0:0:0:
256,192,102601,1,0,0:0:0:0:
256,192,102816,1,2,0:0:0:0:
256,192,102923,1,0,0:0:0:0:
256,192,103137,1,0,0:0:0:0:
256,192,103244,1,0,0:0:0:0:
256,192,103351,1,2,0:0:0:0:
256,192,103566,1,0,0:0:0:0:
256,192,103673,1,2,0:0:0:0:
256,192,103726,1,2,0:0:0:0:
256,192,103780,1,2,0:0:0:0:
256,192,103887,1,2,0:0:0:0:
256,192,103994,1,0,0:0:0:0:
256,192,104208,1,2,0:0:0:0:
256,192,104316,1,0,0:0:0:0:
256,192,104423,1,2,0:0:0:0:
256,192,104530,1,2,0:0:0:0:
256,192,104637,1,0,0:0:0:0:
256,192,104744,1,2,0:0:0:0:
256,192,104851,1,0,0:0:0:0:
256,192,105066,1,2,0:0:0:0:
256,192,105280,1,0,0:0:0:0:
256,192,105387,1,0,0:0:0:0:
256,192,105441,1,0,0:0:0:0:
256,192,105494,1,2,0:0:0:0:
256,192,105601,1,2,0:0:0:0:
256,192,105708,1,0,0:0:0:0:
256,192,105923,1,2,0:0:0:0:
256,192,106030,1,0,0:0:0:0:
256,192,106137,1,2,0:0:0:0:
256,192,106244,1,2,0:0:0:0:
256,192,106351,1,0,0:0:0:0:
256,192,106458,1,2,0:0:0:0:
256,192,106566,1,0,0:0:0:0:
256,192,106673,1,0,0:0:0:0:
256,192,106780,1,2,0:0:0:0:
256,192,106994,1,2,0:0:0:0:
256,192,107101,1,2,0:0:0:0:
256,192,107155,1,2,0:0:0:0:
256,192,107208,1,0,0:0:0:0:
256,192,107316,1,2,0:0:0:0:
256,192,107423,1,0,0:0:0:0:
256,192,107637,1,2,0:0:0:0:
256,192,107744,1,0,0:0:0:0:
256,192,107851,1,2,0:0:0:0:
256,192,107958,1,2,0:0:0:0:
256,192,108066,1,0,0:0:0:0:
256,192,108173,1,2,0:0:0:0:
256,192,108280,1,0,0:0:0:0:
256,192,108387,1,2,0:0:0:0:
256,192,108494,1,2,0:0:0:0:
256,192,108601,1,0,0:0:0:0:
256,192,108708,1,2,0:0:0:0:
256,192,108762,1,2,0:0:0:0:
256,192,108816,1,2,0:0:0:0:
256,192,108869,1,2,0:0:0:0:
256,192,108923,1,0,0:0:0:0:
256,192,109030,1,2,0:0:0:0:
256,192,109137,1,0,0:0:0:0:
256,192,109351,1,6,0:0:0:0:
256,192,109780,5,4,0:0:0:0:
256,192,109994,1,0,0:0:0:0:
256,192,110208,1,2,0:0:0:0:
256,192,110422,1,2,0:0:0:0:
256,192,110530,1,2,0:0:0:0:
256,192,110583,1,2,0:0:0:0:
256,192,110637,1,2,0:0:0:0:
256,192,110744,1,2,0:0:0:0:
256,192,110851,1,0,0:0:0:0:
256,192,111065,1,2,0:0:0:0:
256,192,111172,1,0,0:0:0:0:
256,192,111280,1,2,0:0:0:0:
256,192,111387,1,2,0:0:0:0:
256,192,111494,1,0,0:0:0:0:
256,192,111601,1,2,0:0:0:0:
256,192,111708,1,0,0:0:0:0:
256,192,111816,1,0,0:0:0:0:
256,192,111922,1,2,0:0:0:0:
256,192,112137,1,0,0:0:0:0:
256,192,112244,1,2,0:0:0:0:
256,192,112297,1,2,0:0:0:0:
256,192,112351,1,0,0:0:0:0:
256,192,112458,1,2,0:0:0:0:
256,192,112565,1,0,0:0:0:0:
256,192,112672,1,2,0:0:0:0:
256,192,112780,1,2,0:0:0:0:
256,192,112887,1,0,0:0:0:0:
256,192,112994,1,2,0:0:0:0:
256,192,113101,1,2,0:0:0:0:
256,192,113208,1,0,0:0:0:0:
256,192,113422,1,0,0:0:0:0:
256,192,113530,1,2,0:0:0:0:
256,192,113637,1,2,0:0:0:0:
256,192,113851,1,0,0:0:0:0:
256,192,113958,1,2,0:0:0:0:
256,192,114012,1,2,0:0:0:0:
256,192,114065,1,2,0:0:0:0:
256,192,114172,1,2,0:0:0:0:
256,192,114280,1,0,0:0:0:0:
256,192,114494,1,2,0:0:0:0:
256,192,114601,1,0,0:0:0:0:
256,192,114708,1,2,0:0:0:0:
256,192,114815,1,2,0:0:0:0:
256,192,114922,1,0,0:0:0:0:
256,192,115030,1,2,0:0:0:0:
256,192,115137,1,0,0:0:0:0:
256,192,115244,1,0,0:0:0:0:
256,192,115351,1,2,0:0:0:0:
256,192,115458,1,2,0:0:0:0:
256,192,115565,1,0,0:0:0:0:
256,192,115672,1,2,0:0:0:0:
256,192,115726,1,2,0:0:0:0:
256,192,115780,1,2,0:0:0:0:
256,192,115887,1,2,0:0:0:0:
256,192,115994,1,0,0:0:0:0:
256,192,116208,1,2,0:0:0:0:
256,192,116315,1,0,0:0:0:0:
256,192,116530,1,2,0:0:0:0:
256,192,116637,1,0,0:0:0:0:
256,192,116851,1,0,0:0:0:0:
256,192,116958,1,0,0:0:0:0:
256,192,117066,1,2,0:0:0:0:
256,192,117280,1,0,0:0:0:0:
256,192,117387,1,0,0:0:0:0:
256,192,117441,1,0,0:0:0:0:
256,192,117494,1,2,0:0:0:0:
256,192,117601,1,2,0:0:0:0:
256,192,117708,1,0,0:0:0:0:
256,192,117923,1,2,0:0:0:0:
256,192,118030,1,0,0:0:0:0:
256,192,118244,1,2,0:0:0:0:
256,192,118351,1,0,0:0:0:0:
256,192,118458,1,2,0:0:0:0:
256,192,118566,1,0,0:0:0:0:
256,192,118673,1,0,0:0:0:0:
256,192,118780,1,2,0:0:0:0:
256,192,118887,1,0,0:0:0:0:
256,192,118994,1,2,0:0:0:0:
256,192,119101,1,2,0:0:0:0:
256,192,119155,1,2,0:0:0:0:
256,192,119208,1,0,0:0:0:0:
256,192,119316,1,2,0:0:0:0:
256,192,119423,1,0,0:0:0:0:
256,192,119637,1,2,0:0:0:0:
256,192,119744,1,0,0:0:0:0:
256,192,119851,1,2,0:0:0:0:
256,192,119958,1,2,0:0:0:0:
256,192,120066,1,4,0:0:0:0:
256,192,120280,1,4,0:0:0:0:
256,192,120494,1,2,0:0:0:0:
256,192,120708,1,4,0:0:0:0:
256,192,120923,1,4,0:0:0:0:
256,192,121137,1,2,0:0:0:0:
256,192,121244,1,2,0:0:0:0:
256,192,121351,1,0,0:0:0:0:
256,192,121566,1,0,0:0:0:0:
256,192,121673,1,2,0:0:0:0:
256,192,121780,1,2,0:0:0:0:
256,192,121994,1,4,0:0:0:0:
256,192,122208,1,4,0:0:0:0:
256,192,122423,1,4,0:0:0:0:
256,192,122637,1,0,0:0:0:0:
256,192,122744,1,2,0:0:0:0:
256,192,122851,1,0,0:0:0:0:
256,192,122958,1,2,0:0:0:0:
256,192,123066,1,0,0:0:0:0:
256,192,123173,1,2,0:0:0:0:
256,192,123226,1,0,0:0:0:0:
256,192,123280,1,2,0:0:0:0:
256,192,123333,1,0,0:0:0:0:
256,192,123387,1,2,0:0:0:0:
256,192,123494,5,4,0:0:0:0:
256,192,123816,1,0,0:0:0:0:
256,192,123923,1,2,0:0:0:0:
256,192,124137,1,0,0:0:0:0:
256,192,124351,1,0,0:0:0:0:
256,192,124458,1,2,0:0:0:0:
256,192,124673,1,0,0:0:0:0:
256,192,124780,1,2,0:0:0:0:
256,192,124994,1,2,0:0:0:0:
256,192,125101,1,2,0:0:0:0:
256,192,125208,1,0,0:0:0:0:
256,192,125530,1,0,0:0:0:0:
256,192,125637,1,2,0:0:0:0:
256,192,125851,1,0,0:0:0:0:
256,192,126066,1,0,0:0:0:0:
256,192,126173,1,2,0:0:0:0:
256,192,126387,1,0,0:0:0:0:
256,192,126494,1,2,0:0:0:0:
256,192,126601,1,2,0:0:0:0:
256,192,126708,1,0,0:0:0:0:
256,192,126923,1,4,0:0:0:0:
256,192,127244,1,0,0:0:0:0:
256,192,127351,1,2,0:0:0:0:
256,192,127566,1,0,0:0:0:0:
256,192,127780,1,0,0:0:0:0:
256,192,127887,1,2,0:0:0:0:
256,192,128101,1,0,0:0:0:0:
256,192,128208,1,2,0:0:0:0:
256,192,128316,1,2,0:0:0:0:
256,192,128423,1,2,0:0:0:0:
256,192,128637,1,0,0:0:0:0:
256,192,128958,1,0,0:0:0:0:
256,192,129066,1,2,0:0:0:0:
256,192,129280,1,0,0:0:0:0:
256,192,129494,1,0,0:0:0:0:
256,192,129601,1,2,0:0:0:0:
256,192,129816,1,0,0:0:0:0:
256,192,129923,1,2,0:0:0:0:
256,192,130030,1,0,0:0:0:0:
256,192,130137,1,0,0:0:0:0:
256,192,130351,1,4,0:0:0:0:
256,192,130673,1,0,0:0:0:0:
256,192,130780,1,2,0:0:0:0:
256,192,130994,1,0,0:0:0:0:
256,192,131208,1,0,0:0:0:0:
256,192,131316,1,2,0:0:0:0:
256,192,131530,1,2,0:0:0:0:
256,192,131637,1,2,0:0:0:0:
256,192,131851,1,2,0:0:0:0:
256,192,131958,1,2,0:0:0:0:
256,192,132066,1,0,0:0:0:0:
256,192,132387,1,0,0:0:0:0:
256,192,132494,1,2,0:0:0:0:
256,192,132708,1,0,0:0:0:0:
256,192,132923,1,0,0:0:0:0:
256,192,133030,1,2,0:0:0:0:
256,192,133244,1,0,0:0:0:0:
256,192,133351,1,2,0:0:0:0:
256,192,133458,1,2,0:0:0:0:
256,192,133566,1,0,0:0:0:0:
256,192,133780,1,4,0:0:0:0:
256,192,134101,1,0,0:0:0:0:
256,192,134208,1,2,0:0:0:0:
256,192,134423,1,0,0:0:0:0:
256,192,134637,1,0,0:0:0:0:
256,192,134744,1,2,0:0:0:0:
256,192,134958,1,0,0:0:0:0:
256,192,135066,1,2,0:0:0:0:
256,192,135173,1,2,0:0:0:0:
256,192,135280,1,2,0:0:0:0:
256,192,135494,1,0,0:0:0:0:
256,192,135816,1,0,0:0:0:0:
256,192,135923,1,2,0:0:0:0:
256,192,136137,1,0,0:0:0:0:
256,192,136351,1,0,0:0:0:0:
256,192,136458,1,2,0:0:0:0:
256,192,136673,1,0,0:0:0:0:
256,192,136780,1,2,0:0:0:0:
256,192,137208,5,4,0:0:0:0:
256,192,137530,1,0,0:0:0:0:
256,192,137637,1,2,0:0:0:0:
256,192,137744,1,0,0:0:0:0:
256,192,137851,1,0,0:0:0:0:
256,192,138066,1,2,0:0:0:0:
256,192,138173,1,0,0:0:0:0:
256,192,138387,1,0,0:0:0:0:
256,192,138494,1,2,0:0:0:0:
256,192,138708,1,2,0:0:0:0:
256,192,138816,1,2,0:0:0:0:
256,192,138923,1,0,0:0:0:0:
256,192,139137,1,2,0:0:0:0:
256,192,139244,1,0,0:0:0:0:
256,192,139351,1,2,0:0:0:0:
256,192,139458,1,2,0:0:0:0:
256,192,139566,1,0,0:0:0:0:
256,192,139780,1,0,0:0:0:0:
256,192,139887,1,2,0:0:0:0:
256,192,140101,1,0,0:0:0:0:
256,192,140208,1,2,0:0:0:0:
256,192,140316,1,2,0:0:0:0:
256,192,140423,1,0,0:0:0:0:
256,192,140637,1,0,0:0:0:0:
256,192,140744,1,0,0:0:0:0:
256,192,140958,1,0,0:0:0:0:
256,192,141066,1,2,0:0:0:0:
256,192,141280,1,0,0:0:0:0:
256,192,141494,1,2,0:0:0:0:
256,192,141601,1,0,0:0:0:0:
256,192,141816,1,0,0:0:0:0:
256,192,141923,1,2,0:0:0:0:
256,192,142137,1,2,0:0:0:0:
256,192,142244,1,2,0:0:0:0:
256,192,142351,1,0,0:0:0:0:
256,192,142566,1,0,0:0:0:0:
256,192,142673,1,2,0:0:0:0:
256,192,142780,1,0,0:0:0:0:
256,192,142887,1,0,0:0:0:0:
256,192,142994,1,2,0:0:0:0:
256,192,143208,5,2,0:0:0:0:
256,192,143316,1,0,0:0:0:0:
256,192,143423,1,2,0:0:0:0:
256,192,143530,1,2,0:0:0:0:
256,192,143637,1,0,0:0:0:0:
256,192,143744,1,0,0:0:0:0:
256,192,143851,1,2,0:0:0:0:
256,192,143905,1,2,0:0:0:0:
256,192,143958,1,2,0:0:0:0:
256,192,144012,1,2,0:0:0:0:
256,192,144066,5,0,0:0:0:0:
256,192,144388,1,0,0:0:0:0:
256,192,144495,1,2,0:0:0:0:
256,192,144602,1,0,0:0:0:0:
256,192,144709,1,0,0:0:0:0:
256,192,144924,1,2,0:0:0:0:
256,192,145031,1,0,0:0:0:0:
256,192,145245,1,0,0:0:0:0:
256,192,145352,1,2,0:0:0:0:
256,192,145566,1,2,0:0:0:0:
256,192,145674,1,2,0:0:0:0:
256,192,145781,1,0,0:0:0:0:
256,192,145995,1,2,0:0:0:0:
256,192,146102,1,0,0:0:0:0:
256,192,146209,1,2,0:0:0:0:
256,192,146316,1,2,0:0:0:0:
256,192,146424,1,0,0:0:0:0:
256,192,146638,1,0,0:0:0:0:
256,192,146745,1,2,0:0:0:0:
256,192,146959,1,0,0:0:0:0:
256,192,147066,1,2,0:0:0:0:
256,192,147174,1,2,0:0:0:0:
256,192,147281,1,0,0:0:0:0:
256,192,147494,1,0,0:0:0:0:
256,192,147708,1,0,0:0:0:0:
256,192,147816,1,2,0:0:0:0:
256,192,147923,1,0,0:0:0:0:
256,192,148030,1,2,0:0:0:0:
256,192,148137,1,0,0:0:0:0:
256,192,148351,1,2,0:0:0:0:
256,192,148458,1,2,0:0:0:0:
256,192,148566,1,0,0:0:0:0:
256,192,148673,1,0,0:0:0:0:
256,192,148780,1,2,0:0:0:0:
256,192,148887,1,0,0:0:0:0:
256,192,148994,1,2,0:0:0:0:
256,192,149101,1,2,0:0:0:0:
256,192,149208,1,0,0:0:0:0:
256,192,149316,1,2,0:0:0:0:
256,192,149530,1,0,0:0:0:0:
256,192,149637,1,2,0:0:0:0:
256,192,149744,1,2,0:0:0:0:
256,192,149851,1,0,0:0:0:0:
256,192,150066,1,0,0:0:0:0:
256,192,150173,1,0,0:0:0:0:
256,192,150280,1,0,0:0:0:0:
256,192,150387,1,0,0:0:0:0:
256,192,150494,1,2,0:0:0:0:
256,192,150923,5,4,0:0:0:0:
256,192,178351,5,0,0:0:0:0:
256,192,178994,1,0,0:0:0:0:
256,192,179208,1,2,0:0:0:0:
256,192,179637,1,0,0:0:0:0:
256,192,179851,1,2,0:0:0:0:
256,192,179958,1,2,0:0:0:0:
256,192,180066,1,2,0:0:0:0:
256,192,180280,1,0,0:0:0:0:
256,192,180494,1,0,0:0:0:0:
256,192,180923,1,2,0:0:0:0:
256,192,181351,1,2,0:0:0:0:
256,192,181458,1,2,0:0:0:0:
256,192,181566,1,0,0:0:0:0:
256,192,181673,1,0,0:0:0:0:
256,192,181780,1,0,0:0:0:0:
256,192,182423,1,0,0:0:0:0:
256,192,182637,1,2,0:0:0:0:
256,192,183066,1,0,0:0:0:0:
256,192,183494,1,0,0:0:0:0:
256,192,183708,1,0,0:0:0:0:
256,192,183816,1,0,0:0:0:0:
256,192,183923,1,0,0:0:0:0:
256,192,184137,1,0,0:0:0:0:
256,192,184244,1,0,0:0:0:0:
256,192,184351,1,2,0:0:0:0:
256,192,184780,1,2,0:0:0:0:
256,192,184887,1,2,0:0:0:0:
256,192,184994,1,2,0:0:0:0:
256,192,185101,1,2,0:0:0:0:
256,192,185208,1,0,0:0:0:0:
256,192,185851,1,0,0:0:0:0:
256,192,186066,1,2,0:0:0:0:
256,192,186494,1,0,0:0:0:0:
256,192,186708,1,2,0:0:0:0:
256,192,186816,1,2,0:0:0:0:
256,192,186923,1,2,0:0:0:0:
256,192,187137,1,0,0:0:0:0:
256,192,187351,1,0,0:0:0:0:
256,192,187780,1,2,0:0:0:0:
256,192,188208,1,2,0:0:0:0:
256,192,188316,1,2,0:0:0:0:
256,192,188423,1,0,0:0:0:0:
256,192,188530,1,0,0:0:0:0:
256,192,188637,1,0,0:0:0:0:
256,192,189280,1,0,0:0:0:0:
256,192,189494,1,2,0:0:0:0:
256,192,189923,1,0,0:0:0:0:
256,192,190137,1,2,0:0:0:0:
256,192,190244,1,2,0:0:0:0:
256,192,190351,1,0,0:0:0:0:
256,192,190566,1,0,0:0:0:0:
256,192,190673,1,0,0:0:0:0:
256,192,190780,1,0,0:0:0:0:
256,192,190994,1,0,0:0:0:0:
256,192,191101,1,0,0:0:0:0:
256,192,191208,1,2,0:0:0:0:
256,192,191637,1,2,0:0:0:0:
256,192,191744,1,2,0:0:0:0:
256,192,191851,1,2,0:0:0:0:
256,192,191958,1,2,0:0:0:0:
256,192,192066,1,0,0:0:0:0:
256,192,192708,1,0,0:0:0:0:
256,192,192762,1,0,0:0:0:0:
256,192,192816,5,2,0:0:0:0:
256,192,192869,1,2,0:0:0:0:
256,192,192923,1,2,0:0:0:0:
256,192,193351,1,0,0:0:0:0:
256,192,193566,1,2,0:0:0:0:
256,192,193673,1,2,0:0:0:0:
256,192,193780,1,2,0:0:0:0:
256,192,193994,1,0,0:0:0:0:
256,192,194208,1,0,0:0:0:0:
256,192,194423,1,2,0:0:0:0:
256,192,194476,1,2,0:0:0:0:
256,192,194530,1,2,0:0:0:0:
256,192,194583,1,2,0:0:0:0:
256,192,194637,1,2,0:0:0:0:
256,192,195066,1,2,0:0:0:0:
256,192,195173,1,2,0:0:0:0:
256,192,195280,1,0,0:0:0:0:
256,192,195387,1,0,0:0:0:0:
256,192,195494,1,0,0:0:0:0:
256,192,196137,1,0,0:0:0:0:
256,192,196191,1,2,0:0:0:0:
256,192,196244,1,2,0:0:0:0:
256,192,196298,1,2,0:0:0:0:
256,192,196351,1,2,0:0:0:0:
256,192,196780,1,0,0:0:0:0:
256,192,196887,1,2,0:0:0:0:
256,192,196994,1,2,0:0:0:0:
256,192,197101,1,2,0:0:0:0:
256,192,197208,1,0,0:0:0:0:
256,192,197423,1,0,0:0:0:0:
256,192,197530,1,0,0:0:0:0:
256,192,197637,1,0,0:0:0:0:
256,192,197851,1,0,0:0:0:0:
256,192,197958,1,0,0:0:0:0:
256,192,198066,1,2,0:0:0:0:
256,192,198280,1,0,0:0:0:0:
256,192,198494,1,2,0:0:0:0:
256,192,198601,1,2,0:0:0:0:
256,192,198708,1,2,0:0:0:0:
256,192,198816,1,2,0:0:0:0:
256,192,198923,1,0,0:0:0:0:
256,192,199137,1,2,0:0:0:0:
256,192,199244,1,2,0:0:0:0:
256,192,199351,1,2,0:0:0:0:
256,192,199566,1,0,0:0:0:0:
256,192,199619,1,0,0:0:0:0:
256,192,199673,1,2,0:0:0:0:
256,192,199726,1,2,0:0:0:0:
256,192,199780,1,2,0:0:0:0:
256,192,200208,1,0,0:0:0:0:
256,192,200423,1,2,0:0:0:0:
256,192,200530,1,2,0:0:0:0:
256,192,200637,1,2,0:0:0:0:
256,192,200851,1,0,0:0:0:0:
256,192,200958,1,2,0:0:0:0:
256,192,201066,1,0,0:0:0:0:
256,192,201280,1,2,0:0:0:0:
256,192,201494,1,2,0:0:0:0:
256,192,201708,1,2,0:0:0:0:
256,192,201816,1,0,0:0:0:0:
256,192,201923,1,2,0:0:0:0:
256,192,202030,1,2,0:0:0:0:
256,192,202137,1,0,0:0:0:0:
256,192,202244,1,0,0:0:0:0:
256,192,202351,1,0,0:0:0:0:
256,192,202566,1,2,0:0:0:0:
256,192,202673,1,2,0:0:0:0:
256,192,202780,1,2,0:0:0:0:
256,192,202994,1,0,0:0:0:0:
256,192,203048,1,2,0:0:0:0:
256,192,203101,1,2,0:0:0:0:
256,192,203155,1,2,0:0:0:0:
256,192,203208,1,2,0:0:0:0:
256,192,203423,1,0,0:0:0:0:
256,192,203637,1,2,0:0:0:0:
256,192,203744,1,0,0:0:0:0:
256,192,203851,1,2,0:0:0:0:
256,192,203958,1,2,0:0:0:0:
256,192,204066,1,0,0:0:0:0:
256,192,204173,1,2,0:0:0:0:
256,192,204280,1,0,0:0:0:0:
256,192,204387,1,0,0:0:0:0:
256,192,204494,1,0,0:0:0:0:
256,192,204708,1,2,0:0:0:0:
256,192,204816,1,2,0:0:0:0:
256,192,204923,1,2,0:0:0:0:
256,192,205137,1,0,0:0:0:0:
256,192,205351,1,2,0:0:0:0:
256,192,205780,5,4,0:0:0:0:
256,192,206423,1,0,0:0:0:0:
256,192,206637,1,2,0:0:0:0:
256,192,206958,1,2,0:0:0:0:
256,192,207066,1,0,0:0:0:0:
256,192,207280,1,2,0:0:0:0:
256,192,207387,1,2,0:0:0:0:
256,192,207494,1,2,0:0:0:0:
256,192,207708,1,0,0:0:0:0:
256,192,207923,1,0,0:0:0:0:
256,192,208351,1,2,0:0:0:0:
256,192,208566,1,2,0:0:0:0:
256,192,208673,1,0,0:0:0:0:
256,192,208780,1,2,0:0:0:0:
256,192,208887,1,2,0:0:0:0:
256,192,208994,1,2,0:0:0:0:
256,192,209101,1,2,0:0:0:0:
256,192,209208,1,0,0:0:0:0:
256,192,209423,1,2,0:0:0:0:
256,192,209530,1,2,0:0:0:0:
256,192,209637,1,2,0:0:0:0:
256,192,209851,1,0,0:0:0:0:
256,192,210066,1,2,0:0:0:0:
256,192,210387,1,2,0:0:0:0:
256,192,210494,1,0,0:0:0:0:
256,192,210708,1,2,0:0:0:0:
256,192,210816,1,2,0:0:0:0:
256,192,210923,1,0,0:0:0:0:
256,192,211137,1,0,0:0:0:0:
256,192,211244,1,0,0:0:0:0:
256,192,211351,1,0,0:0:0:0:
256,192,211566,1,0,0:0:0:0:
256,192,211673,1,0,0:0:0:0:
256,192,211780,1,2,0:0:0:0:
256,192,211994,1,2,0:0:0:0:
256,192,212101,1,0,0:0:0:0:
256,192,212208,1,0,0:0:0:0:
256,192,212316,1,2,0:0:0:0:
256,192,212423,1,2,0:0:0:0:
256,192,212530,1,2,0:0:0:0:
256,192,212637,1,0,0:0:0:0:
256,192,212851,1,2,0:0:0:0:
256,192,212958,1,2,0:0:0:0:
256,192,213066,1,2,0:0:0:0:
256,192,213280,1,0,0:0:0:0:
256,192,213494,1,2,0:0:0:0:
256,192,213816,1,2,0:0:0:0:
256,192,213923,1,0,0:0:0:0:
256,192,214137,1,2,0:0:0:0:
256,192,214244,1,2,0:0:0:0:
256,192,214351,1,2,0:0:0:0:
256,192,214566,1,0,0:0:0:0:
256,192,214673,1,2,0:0:0:0:
256,192,214780,1,0,0:0:0:0:
256,192,214994,1,2,0:0:0:0:
256,192,215208,1,2,0:0:0:0:
256,192,215423,1,2,0:0:0:0:
256,192,215530,1,0,0:0:0:0:
256,192,215637,1,2,0:0:0:0:
256,192,215744,1,2,0:0:0:0:
256,192,215851,1,0,0:0:0:0:
256,192,215958,1,2,0:0:0:0:
256,192,216066,1,0,0:0:0:0:
256,192,216280,1,2,0:0:0:0:
256,192,216387,1,2,0:0:0:0:
256,192,216494,1,2,0:0:0:0:
256,192,216708,1,0,0:0:0:0:
256,192,216923,1,2,0:0:0:0:
256,192,217244,1,2,0:0:0:0:
256,192,217351,1,0,0:0:0:0:
256,192,217566,1,2,0:0:0:0:
256,192,217673,1,2,0:0:0:0:
256,192,217780,1,0,0:0:0:0:
256,192,217994,1,0,0:0:0:0:
256,192,218101,1,0,0:0:0:0:
256,192,218208,1,0,0:0:0:0:
256,192,218423,1,0,0:0:0:0:
256,192,218530,1,0,0:0:0:0:
256,192,218637,1,2,0:0:0:0:
256,192,219066,1,2,0:0:0:0:
256,192,219494,5,4,0:0:0:0:
256,192,220137,1,0,0:0:0:0:
256,192,220351,1,2,0:0:0:0:
256,192,220780,1,0,0:0:0:0:
256,192,220994,1,2,0:0:0:0:
256,192,221101,1,2,0:0:0:0:
256,192,221208,1,2,0:0:0:0:
256,192,221423,1,0,0:0:0:0:
256,192,221637,1,0,0:0:0:0:
256,192,222066,1,2,0:0:0:0:
256,192,222494,1,2,0:0:0:0:
256,192,222601,1,2,0:0:0:0:
256,192,222708,1,2,0:0:0:0:
256,192,222816,1,2,0:0:0:0:
256,192,222923,1,0,0:0:0:0:
256,192,223137,1,2,0:0:0:0:
256,192,223244,1,2,0:0:0:0:
256,192,223351,1,2,0:0:0:0:
256,192,223566,1,0,0:0:0:0:
256,192,223780,1,2,0:0:0:0:
256,192,224208,1,0,0:0:0:0:
256,192,224423,1,2,0:0:0:0:
256,192,224637,1,0,0:0:0:0:
256,192,224851,1,0,0:0:0:0:
256,192,224958,1,0,0:0:0:0:
256,192,225066,1,0,0:0:0:0:
256,192,225280,1,0,0:0:0:0:
256,192,225387,1,0,0:0:0:0:
256,192,225494,1,2,0:0:0:0:
256,192,225923,1,0,0:0:0:0:
256,192,226030,1,2,0:0:0:0:
256,192,226137,1,2,0:0:0:0:
256,192,226244,1,2,0:0:0:0:
256,192,226351,1,0,0:0:0:0:
256,192,226994,1,0,0:0:0:0:
256,192,227208,1,2,0:0:0:0:
256,192,227637,1,0,0:0:0:0:
256,192,227851,1,2,0:0:0:0:
256,192,227958,1,2,0:0:0:0:
256,192,228066,1,2,0:0:0:0:
256,192,228280,1,0,0:0:0:0:
256,192,228494,1,0,0:0:0:0:
256,192,228923,1,2,0:0:0:0:
256,192,229351,1,2,0:0:0:0:
256,192,229458,1,2,0:0:0:0:
256,192,229566,1,2,0:0:0:0:
256,192,229673,1,2,0:0:0:0:
256,192,229780,1,0,0:0:0:0:
256,192,229994,1,2,0:0:0:0:
256,192,230101,1,2,0:0:0:0:
256,192,230208,1,2,0:0:0:0:
256,192,230423,1,0,0:0:0:0:
256,192,230637,1,2,0:0:0:0:
256,192,231066,1,0,0:0:0:0:
256,192,231280,1,2,0:0:0:0:
256,192,231494,1,0,0:0:0:0:
256,192,231708,1,0,0:0:0:0:
256,192,231816,1,0,0:0:0:0:
256,192,231923,1,0,0:0:0:0:
256,192,232137,1,0,0:0:0:0:
256,192,232244,1,0,0:0:0:0:
256,192,232351,1,2,0:0:0:0:
256,192,232780,1,2,0:0:0:0:
