osu file format v14

[General]
AudioFilename: audio.mp3
AudioLeadIn: 0
PreviewTime: 68423
Countdown: 0
SampleSet: Normal
StackLeniency: 0.7
Mode: 1
LetterboxInBreaks: 0
WidescreenStoryboard: 1

[Editor]
Bookmarks: 13714,27428,41142,54857,68571,82285,96000,123428,178285,205714
DistanceSpacing: 1.1
BeatDivisor: 2
GridSize: 32
TimelineZoom: 0.6999997

[Metadata]
Title:SOAP (Original Mix)
TitleUnicode:SOAP (Original Mix)
Artist:MYLK
ArtistUnicode:MYLK
Creator:tasuke912
Version:Futsuu
Source:
Tags:Nardoxyribonucleic HiroK Electronic Japanese
BeatmapID:2205807
BeatmapSetID:1055618

[Difficulty]
HPDrainRate:6
CircleSize:2
OverallDifficulty:4
ApproachRate:5
SliderMultiplier:1.4
SliderTickRate:1

[Events]
//Background and Video events
0,0,"bg.jpg",0,0
//Break Periods
2,151123,177151
//Storyboard Layer 0 (Background)
//Storyboard Layer 1 (Fail)
//Storyboard Layer 2 (Pass)
//Storyboard Layer 3 (Foreground)
//Storyboard Layer 4 (Overlay)
//Storyboard Sound Samples

[TimingPoints]
66,428.571428571429,4,1,0,40,1,0
13673,-100,4,1,0,75,0,0
54923,-100,4,1,0,70,0,0
55030,-117.647058823529,4,1,0,70,0,0
68637,-86.9565217391304,4,1,0,80,0,0
96066,-86.9565217391304,4,1,0,80,0,1
123494,-86.9565217391304,4,1,0,70,0,0
123601,-100,4,1,0,70,0,0
137208,-100,4,1,0,70,0,1
150923,-100,4,1,0,70,0,0
151137,-100,4,1,0,40,0,0
178244,-100,4,1,0,75,0,0
219066,-108.695652173913,4,1,0,75,0,0
219494,-117.647058823529,4,1,0,75,0,0

[HitObjects]
256,192,13780,5,4,0:0:0:0:
256,192,14423,1,0,0:0:0:0:
256,192,14637,1,2,0:0:0:0:
256,192,15066,1,0,0:0:0:0:
256,192,15923,1,0,0:0:0:0:
256,192,16351,1,2,0:0:0:0:
256,192,17208,1,0,0:0:0:0:
256,192,17851,1,0,0:0:0:0:
256,192,18066,1,2,0:0:0:0:
256,192,18494,1,0,0:0:0:0:
256,192,19780,1,2,0:0:0:0:
256,192,20208,1,2,0:0:0:0:
256,192,20637,1,0,0:0:0:0:
256,192,21280,1,0,0:0:0:0:
256,192,21494,1,2,0:0:0:0:
256,192,21923,1,0,0:0:0:0:
256,192,22780,1,0,0:0:0:0:
256,192,23208,1,2,0:0:0:0:
256,192,24066,1,0,0:0:0:0:
256,192,24708,1,0,0:0:0:0:
256,192,24923,1,2,0:0:0:0:
256,192,25351,1,0,0:0:0:0:
256,192,26637,1,2,0:0:0:0:
256,192,27066,1,2,0:0:0:0:
256,192,27494,1,4,0:0:0:0:
256,192,28137,1,0,0:0:0:0:
256,192,28351,1,2,0:0:0:0:
256,192,28780,1,0,0:0:0:0:
256,192,29637,1,0,0:0:0:0:
256,192,30066,1,2,0:0:0:0:
256,192,30494,1,2,0:0:0:0:
256,192,30923,1,0,0:0:0:0:
256,192,31566,1,0,0:0:0:0:
256,192,31780,1,2,0:0:0:0:
256,192,32208,1,0,0:0:0:0:
256,192,33494,1,2,0:0:0:0:
256,192,33923,1,2,0:0:0:0:
256,192,34351,1,0,0:0:0:0:
256,192,34994,1,0,0:0:0:0:
256,192,35208,1,2,0:0:0:0:
256,192,35637,1,0,0:0:0:0:
256,192,36494,1,0,0:0:0:0:
256,192,36923,1,2,0:0:0:0:
256,192,37351,1,2,0:0:0:0:
256,192,37780,1,0,0:0:0:0:
256,192,38423,1,0,0:0:0:0:
256,192,38637,1,2,0:0:0:0:
256,192,39066,1,0,0:0:0:0:
256,192,40351,1,2,0:0:0:0:
256,192,40780,1,2,0:0:0:0:
256,192,41208,5,4,0:0:0:0:
256,192,41851,1,0,0:0:0:0:
256,192,42066,1,2,0:0:0:0:
256,192,42494,1,0,0:0:0:0:
256,192,43137,1,0,0:0:0:0:
256,192,43351,1,0,0:0:0:0:
256,192,43780,1,2,0:0:0:0:
256,192,44637,1,0,0:0:0:0:
256,192,45280,1,0,0:0:0:0:
256,192,45494,1,2,0:0:0:0:
256,192,45923,1,0,0:0:0:0:
256,192,46351,1,2,0:0:0:0:
256,192,46994,1,2,0:0:0:0:
256,192,47637,1,2,0:0:0:0:
256,192,48066,1,0,0:0:0:0:
256,192,48708,1,0,0:0:0:0:
256,192,48923,1,2,0:0:0:0:
256,192,49351,1,0,0:0:0:0:
256,192,49994,1,0,0:0:0:0:
256,192,50208,1,0,0:0:0:0:
256,192,50637,1,2,0:0:0:0:
256,192,51494,1,0,0:0:0:0:
256,192,52137,1,0,0:0:0:0:
256,192,52351,1,2,0:0:0:0:
256,192,52780,1,0,0:0:0:0:
256,192,53208,1,2,0:0:0:0:
256,192,53851,1,2,0:0:0:0:
256,192,54494,1,2,0:0:0:0:
256,192,54923,1,4,0:0:0:0:
256,192,55780,1,2,0:0:0:0:
256,192,56208,1,2,0:0:0:0:
256,192,56637,1,0,0:0:0:0:
256,192,57280,1,0,0:0:0:0:
256,192,57494,1,2,0:0:0:0:
256,192,57923,1,0,0:0:0:0:
256,192,58351,1,0,0:0:0:0:
256,192,59208,1,2,0:0:0:0:
256,192,59637,1,2,0:0:0:0:
256,192,60066,1,0,0:0:0:0:
256,192,60708,1,0,0:0:0:0:
256,192,60923,1,2,0:0:0:0:
256,192,61351,1,2,0:0:0:0:
256,192,61780,1,6,0:0:0:0:
256,192,62637,1,2,0:0:0:0:
256,192,63066,1,2,0:0:0:0:
256,192,63494,1,0,0:0:0:0:
256,192,64137,1,0,0:0:0:0:
256,192,64351,1,2,0:0:0:0:
256,192,64780,1,2,0:0:0:0:
256,192,65208,1,0,0:0:0:0:
256,192,66066,1,2,0:0:0:0:
256,192,66494,1,2,0:0:0:0:
256,192,66923,1,0,0:0:0:0:
256,192,67566,1,0,0:0:0:0:
256,192,67780,1,2,0:0:0:0:
256,192,68637,5,4,0:0:0:0:
256,192,69066,1,2,0:0:0:0:
256,192,69708,1,0,0:0:0:0:
256,192,69923,1,2,0:0:0:0:
256,192,70351,1,0,0:0:0:0:
256,192,70566,1,0,0:0:0:0:
256,192,70780,1,2,0:0:0:0:
256,192,71208,1,2,0:0:0:0:
256,192,71637,1,2,0:0:0:0:
256,192,72066,1,0,0:0:0:0:
256,192,72494,1,2,0:0:0:0:
256,192,73137,1,0,0:0:0:0:
256,192,73351,1,2,0:0:0:0:
256,192,73780,1,0,0:0:0:0:
256,192,74208,1,2,0:0:0:0:
256,192,74637,1,2,0:0:0:0:
256,192,74851,1,0,0:0:0:0:
256,192,75066,1,2,0:0:0:0:
256,192,75494,1,0,0:0:0:0:
256,192,75923,1,2,0:0:0:0:
256,192,76566,1,0,0:0:0:0:
256,192,76780,1,2,0:0:0:0:
256,192,77208,1,0,0:0:0:0:
256,192,77423,1,0,0:0:0:0:
256,192,77637,1,2,0:0:0:0:
256,192,78066,1,2,0:0:0:0:
256,192,78494,1,2,0:0:0:0:
256,192,78923,1,0,0:0:0:0:
256,192,79351,1,2,0:0:0:0:
256,192,79994,1,0,0:0:0:0:
256,192,80208,1,2,0:0:0:0:
256,192,80637,1,0,0:0:0:0:
256,192,80851,1,0,0:0:0:0:
256,192,81066,1,2,0:0:0:0:
256,192,81494,1,2,0:0:0:0:
256,192,82351,1,4,0:0:0:0:
256,192,82780,1,2,0:0:0:0:
256,192,83423,1,0,0:0:0:0:
256,192,83637,1,2,0:0:0:0:
256,192,84066,1,0,0:0:0:0:
256,192,84280,1,0,0:0:0:0:
256,192,84494,1,2,0:0:0:0:
256,192,84923,1,2,0:0:0:0:
256,192,85351,1,2,0:0:0:0:
256,192,85780,1,0,0:0:0:0:
256,192,86208,1,2,0:0:0:0:
256,192,86851,1,0,0:0:0:0:
256,192,87066,1,2,0:0:0:0:
256,192,87494,1,0,0:0:0:0:
256,192,87923,1,2,0:0:0:0:
256,192,88351,1,2,0:0:0:0:
256,192,88566,1,0,0:0:0:0:
256,192,88780,1,2,0:0:0:0:
256,192,89208,1,0,0:0:0:0:
256,192,89637,1,2,0:0:0:0:
256,192,90280,1,0,0:0:0:0:
256,192,90494,1,2,0:0:0:0:
256,192,90923,1,0,0:0:0:0:
256,192,91137,1,0,0:0:0:0:
256,192,91351,1,2,0:0:0:0:
256,192,91780,1,2,0:0:0:0:
256,192,92208,1,2,0:0:0:0:
256,192,92637,1,0,0:0:0:0:
256,192,93066,1,2,0:0:0:0:
256,192,93708,1,0,0:0:0:0:
256,192,93923,1,2,0:0:0:0:
256,192,94351,1,0,0:0:0:0:
256,192,94780,1,2,0:0:0:0:
256,192,94994,1,0,0:0:0:0:
256,192,95208,1,2,0:0:0:0:
256,192,95637,1,2,0:0:0:0:
256,192,96066,5,4,0:0:0:0:
256,192,96494,1,2,0:0:0:0:
256,192,97137,1,0,0:0:0:0:
256,192,97351,1,2,0:0:0:0:
256,192,97780,1,0,0:0:0:0:
256,192,98208,1,2,0:0:0:0:
256,192,98637,1,0,0:0:0:0:
256,192,98851,1,0,0:0:0:0:
256,192,99066,1,2,0:0:0:0:
256,192,99280,1,2,0:0:0:0:
256,192,99494,1,0,0:0:0:0:
256,192,99923,1,2,0:0:0:0:
256,192,100566,1,0,0:0:0:0:
256,192,100780,1,2,0:0:0:0:
256,192,101208,1,0,0:0:0:0:
256,192,101637,1,2,0:0:0:0:
256,192,101851,1,2,0:0:0:0:
256,192,102066,1,0,0:0:0:0:
256,192,102494,1,2,0:0:0:0:
256,192,102923,1,0,0:0:0:0:
256,192,103351,1,2,0:0:0:0:
256,192,103994,1,0,0:0:0:0:
256,192,104208,1,2,0:0:0:0:
256,192,104637,1,0,0:0:0:0:
256,192,105066,1,2,0:0:0:0:
256,192,105494,1,0,0:0:0:0:
256,192,105708,1,0,0:0:0:0:
256,192,105923,1,2,0:0:0:0:
256,192,106137,1,2,0:0:0:0:
256,192,106351,1,0,0:0:0:0:
256,192,106780,1,2,0:0:0:0:
256,192,107423,1,0,0:0:0:0:
256,192,107637,1,2,0:0:0:0:
256,192,108066,1,0,0:0:0:0:
256,192,108280,1,0,0:0:0:0:
256,192,108494,1,2,0:0:0:0:
256,192,108923,1,2,0:0:0:0:
256,192,109351,1,6,0:0:0:0:
256,192,109780,5,4,0:0:0:0:
256,192,110208,1,2,0:0:0:0:
256,192,110851,1,0,0:0:0:0:
256,192,111065,1,2,0:0:0:0:
256,192,111494,1,0,0:0:0:0:
256,192,111922,1,2,0:0:0:0:
256,192,112351,1,0,0:0:0:0:
256,192,112566,1,2,0:0:0:0:
256,192,112780,1,2,0:0:0:0:
256,192,112994,1,2,0:0:0:0:
256,192,113208,1,0,0:0:0:0:
256,192,113637,1,2,0:0:0:0:
256,192,114280,1,0,0:0:0:0:
256,192,114494,1,2,0:0:0:0:
256,192,114922,1,0,0:0:0:0:
256,192,115351,1,2,0:0:0:0:
256,192,115565,1,2,0:0:0:0:
256,192,115780,1,0,0:0:0:0:
256,192,116208,1,2,0:0:0:0:
256,192,116637,1,0,0:0:0:0:
256,192,117065,1,2,0:0:0:0:
256,192,117708,1,0,0:0:0:0:
256,192,117922,1,2,0:0:0:0:
256,192,118351,1,0,0:0:0:0:
256,192,118780,1,2,0:0:0:0:
256,192,119208,1,0,0:0:0:0:
256,192,119422,1,2,0:0:0:0:
256,192,119637,1,2,0:0:0:0:
256,192,120065,1,0,0:0:0:0:
256,192,120280,1,0,0:0:0:0:
256,192,120708,1,0,0:0:0:0:
256,192,120923,1,0,0:0:0:0:
256,192,121351,1,0,0:0:0:0:
256,192,121566,1,0,0:0:0:0:
256,192,121994,1,0,0:0:0:0:
256,192,122208,1,0,0:0:0:0:
256,192,122423,1,0,0:0:0:0:
256,192,122637,1,2,0:0:0:0:
256,192,123066,1,2,0:0:0:0:
256,192,123494,5,4,0:0:0:0:
256,192,124351,1,2,0:0:0:0:
256,192,125208,1,0,0:0:0:0:
256,192,126066,1,2,0:0:0:0:
256,192,126923,1,4,0:0:0:0:
256,192,127780,1,2,0:0:0:0:
256,192,128637,1,0,0:0:0:0:
256,192,129494,1,2,0:0:0:0:
256,192,130351,1,4,0:0:0:0:
256,192,130994,1,0,0:0:0:0:
256,192,131208,1,2,0:0:0:0:
256,192,132066,1,0,0:0:0:0:
256,192,132708,1,0,0:0:0:0:
256,192,132923,1,2,0:0:0:0:
256,192,133780,1,4,0:0:0:0:
256,192,134423,1,0,0:0:0:0:
256,192,134637,1,2,0:0:0:0:
256,192,135494,1,0,0:0:0:0:
256,192,136137,1,0,0:0:0:0:
256,192,136351,1,0,0:0:0:0:
256,192,136780,1,2,0:0:0:0:
256,192,137208,5,4,0:0:0:0:
256,192,137851,1,0,0:0:0:0:
256,192,138066,1,0,0:0:0:0:
256,192,138494,1,2,0:0:0:0:
256,192,138923,1,0,0:0:0:0:
256,192,139566,1,0,0:0:0:0:
256,192,139780,1,2,0:0:0:0:
256,192,140208,1,2,0:0:0:0:
256,192,140637,1,0,0:0:0:0:
256,192,141280,1,0,0:0:0:0:
256,192,141494,1,0,0:0:0:0:
256,192,141923,1,2,0:0:0:0:
256,192,142351,1,0,0:0:0:0:
256,192,142994,1,2,0:0:0:0:
256,192,143208,1,0,0:0:0:0:
256,192,143637,1,2,0:0:0:0:
256,192,143851,1,2,0:0:0:0:
256,192,144066,1,0,0:0:0:0:
256,192,144708,1,0,0:0:0:0:
256,192,144923,1,0,0:0:0:0:
256,192,145351,1,2,0:0:0:0:
256,192,145780,1,0,0:0:0:0:
256,192,146423,1,0,0:0:0:0:
256,192,146637,1,2,0:0:0:0:
256,192,147066,1,2,0:0:0:0:
256,192,147494,1,0,0:0:0:0:
256,192,147708,1,0,0:0:0:0:
256,192,147923,1,0,0:0:0:0:
256,192,148351,1,0,0:0:0:0:
256,192,148566,1,0,0:0:0:0:
256,192,148780,1,0,0:0:0:0:
256,192,149208,1,0,0:0:0:0:
256,192,149530,1,0,0:0:0:0:
256,192,149851,1,0,0:0:0:0:
256,192,150066,1,0,0:0:0:0:
256,192,150923,5,4,0:0:0:0:
256,192,178351,5,4,0:0:0:0:
256,192,178994,1,0,0:0:0:0:
256,192,179208,1,2,0:0:0:0:
256,192,179637,1,0,0:0:0:0:
256,192,180280,1,0,0:0:0:0:
256,192,180494,1,0,0:0:0:0:
256,192,180923,1,2,0:0:0:0:
256,192,181780,1,0,0:0:0:0:
256,192,182423,1,0,0:0:0:0:
256,192,182637,1,2,0:0:0:0:
256,192,183066,1,0,0:0:0:0:
256,192,183494,1,0,0:0:0:0:
256,192,183708,1,0,0:0:0:0:
256,192,183923,1,0,0:0:0:0:
256,192,184351,1,2,0:0:0:0:
256,192,185208,1,0,0:0:0:0:
256,192,185851,1,0,0:0:0:0:
256,192,186066,1,2,0:0:0:0:
256,192,186494,1,0,0:0:0:0:
256,192,187351,1,0,0:0:0:0:
256,192,187780,1,2,0:0:0:0:
256,192,188637,1,0,0:0:0:0:
256,192,189280,1,0,0:0:0:0:
256,192,189494,1,2,0:0:0:0:
256,192,189923,1,0,0:0:0:0:
256,192,190351,1,0,0:0:0:0:
256,192,190566,1,0,0:0:0:0:
256,192,190780,1,0,0:0:0:0:
256,192,191208,1,2,0:0:0:0:
256,192,192066,1,4,0:0:0:0:
256,192,192708,1,2,0:0:0:0:
256,192,192923,1,2,0:0:0:0:
256,192,193351,1,0,0:0:0:0:
256,192,193994,1,0,0:0:0:0:
256,192,194208,1,0,0:0:0:0:
256,192,194637,1,2,0:0:0:0:
256,192,195066,1,2,0:0:0:0:
256,192,195494,1,0,0:0:0:0:
256,192,196137,1,0,0:0:0:0:
256,192,196351,1,2,0:0:0:0:
256,192,196780,1,0,0:0:0:0:
256,192,197208,1,0,0:0:0:0:
256,192,197423,1,0,0:0:0:0:
256,192,197637,1,2,0:0:0:0:
256,192,198066,1,2,0:0:0:0:
256,192,198923,1,0,0:0:0:0:
256,192,199566,1,2,0:0:0:0:
256,192,199780,1,2,0:0:0:0:
256,192,200208,1,0,0:0:0:0:
256,192,200851,1,0,0:0:0:0:
256,192,201066,1,0,0:0:0:0:
256,192,201494,1,2,0:0:0:0:
256,192,201923,1,2,0:0:0:0:
256,192,202351,1,0,0:0:0:0:
256,192,202994,1,0,0:0:0:0:
256,192,203208,1,2,0:0:0:0:
256,192,203637,1,0,0:0:0:0:
256,192,204066,1,0,0:0:0:0:
256,192,204280,1,0,0:0:0:0:
256,192,204494,1,2,0:0:0:0:
256,192,204923,1,2,0:0:0:0:
256,192,205780,5,4,0:0:0:0:
256,192,206423,1,0,0:0:0:0:
256,192,206637,1,2,0:0:0:0:
256,192,207066,1,0,0:0:0:0:
256,192,207708,1,0,0:0:0:0:
256,192,207923,1,0,0:0:0:0:
256,192,208351,1,2,0:0:0:0:
256,192,209208,1,0,0:0:0:0:
256,192,209851,1,2,0:0:0:0:
256,192,210066,1,2,0:0:0:0:
256,192,210494,1,0,0:0:0:0:
256,192,210923,1,0,0:0:0:0:
256,192,211137,1,0,0:0:0:0:
256,192,211351,1,0,0:0:0:0:
256,192,211780,1,2,0:0:0:0:
256,192,212208,1,2,0:0:0:0:
256,192,212637,1,0,0:0:0:0:
256,192,213280,1,0,0:0:0:0:
256,192,213494,1,2,0:0:0:0:
256,192,213923,1,0,0:0:0:0:
256,192,214566,1,0,0:0:0:0:
256,192,214780,1,0,0:0:0:0:
256,192,215208,1,2,0:0:0:0:
256,192,216066,1,0,0:0:0:0:
256,192,216708,1,2,0:0:0:0:
256,192,216923,1,2,0:0:0:0:
256,192,217351,1,0,0:0:0:0:
256,192,217780,1,0,0:0:0:0:
256,192,217994,1,0,0:0:0:0:
256,192,218208,1,0,0:0:0:0:
256,192,218637,1,2,0:0:0:0:
256,192,219066,1,2,0:0:0:0:
256,192,219494,5,4,0:0:0:0:
256,192,220137,1,0,0:0:0:0:
256,192,220351,1,2,0:0:0:0:
256,192,220780,1,0,0:0:0:0:
256,192,221637,1,0,0:0:0:0:
256,192,222066,1,2,0:0:0:0:
256,192,222923,1,0,0:0:0:0:
256,192,223566,1,2,0:0:0:0:
256,192,223780,1,2,0:0:0:0:
256,192,224208,1,0,0:0:0:0:
256,192,225494,1,2,0:0:0:0:
256,192,225923,1,2,0:0:0:0:
256,192,226351,1,0,0:0:0:0:
256,192,226994,1,0,0:0:0:0:
256,192,227208,1,2,0:0:0:0:
256,192,227637,1,0,0:0:0:0:
256,192,228280,1,0,0:0:0:0:
256,192,228494,1,0,0:0:0:0:
256,192,228923,1,2,0:0:0:0:
256,192,229780,1,0,0:0:0:0:
256,192,230423,1,2,0:0:0:0:
256,192,230637,1,2,0:0:0:0:
256,192,231066,1,0,0:0:0:0:
256,192,232351,1,2,0:0:0:0:
256,192,232780,1,2,0:0:0:0:
