osu file format v14

[General]
AudioFilename: audio.mp3
AudioLeadIn: 0
PreviewTime: 68469
Countdown: 0
SampleSet: Normal
StackLeniency: 0.7
Mode: 1
LetterboxInBreaks: 0
WidescreenStoryboard: 1

[Editor]
Bookmarks: 13719,27433,41147,54862,68576,82290,96005,109719,123433,137147,150862,164576,178290
DistanceSpacing: 0.7
BeatDivisor: 4
GridSize: 32
TimelineZoom: 0.4999999

[Metadata]
Title:Let You Go (Original Mix)
TitleUnicode:Let You Go (Original Mix)
Artist:MYLK
ArtistUnicode:MYLK
Creator:Nepuri
Version:Futsuu
Source:
Tags:Cynplytholowazy Nardoxyribonucleic mylkofficial Dream Catcher EP Daily Earfood Electronic -GN Junior
BeatmapID:2218935
BeatmapSetID:1053583

[Difficulty]
HPDrainRate:7
CircleSize:2
OverallDifficulty:4
ApproachRate:0
SliderMultiplier:1.4
SliderTickRate:1

[Events]
//Background and Video events
0,0,"art-big-data-bright-158826.jpg",0,0
//Break Periods
//Storyboard Layer 0 (Background)
//Storyboard Layer 1 (Fail)
//Storyboard Layer 2 (Pass)
//Storyboard Layer 3 (Foreground)
//Storyboard Layer 4 (Overlay)
//Storyboard Sound Samples

[TimingPoints]
5,428.571428571429,4,1,0,50,1,0
5,-142.857142857143,4,1,0,50,0,0
13612,-125,4,1,0,75,0,0
27433,-100,4,1,0,100,0,1
41147,-100,4,1,0,100,0,0
41255,-125,4,1,0,75,0,0
53147,-117.647058823529,4,1,0,75,0,0
54005,-111.111111111111,4,1,0,80,0,0
54433,-105.263157894737,4,1,0,85,0,0
54647,-102.564102564103,4,1,0,90,0,0
54755,-101.781170483461,4,1,0,95,0,0
54862,-100,4,1,0,100,0,0
82290,-90.9090909090909,4,1,0,100,0,1
96005,-90.9090909090909,4,1,0,100,0,0
96112,-125,4,1,0,75,0,0
108647,-100,4,1,0,100,0,0
164683,-125,4,1,0,75,0,0

[HitObjects]
256,192,12862,12,0,13505,0:0:0:0:
176,101,13719,5,4,0:0:0:0:
121,110,15433,1,0,0:0:0:0:
121,110,17147,1,0,0:0:0:0:
331,311,18433,1,8,0:0:0:0:
260,243,18862,1,8,0:0:0:0:
22,121,20576,1,8,0:0:0:0:
212,139,21433,1,0,0:0:0:0:
263,145,21647,1,8,0:0:0:0:
291,149,21862,1,8,0:0:0:0:
268,236,22290,1,0,0:0:0:0:
319,50,23147,1,8,0:0:0:0:
172,71,24005,1,8,0:0:0:0:
253,159,24862,1,0,0:0:0:0:
371,4,25719,1,8,0:0:0:0:
326,169,27005,1,0,0:0:0:0:
229,157,27433,1,4,0:0:0:0:
192,160,27647,1,8,0:0:0:0:
181,112,28076,1,0,0:0:0:0:
197,103,28290,1,8,0:0:0:0:
184,70,28933,1,0,0:0:0:0:
184,70,29147,1,8,0:0:0:0:
181,118,29362,1,0,0:0:0:0:
270,134,29790,1,0,0:0:0:0:
270,134,30005,1,8,0:0:0:0:
270,134,30862,1,0,0:0:0:0:
160,139,31076,1,8,0:0:0:0:
181,112,31505,1,8,0:0:0:0:
197,103,31719,1,0,0:0:0:0:
184,70,32362,1,0,0:0:0:0:
184,70,32576,1,0,0:0:0:0:
181,118,32791,1,8,0:0:0:0:
270,134,33219,1,8,0:0:0:0:
270,134,33434,1,8,0:0:0:0:
156,189,34290,1,4,0:0:0:0:
181,112,34934,1,8,0:0:0:0:
197,103,35148,1,0,0:0:0:0:
184,70,35576,1,8,0:0:0:0:
192,87,36005,1,0,0:0:0:0:
181,118,36220,1,8,0:0:0:0:
270,134,36648,1,8,0:0:0:0:
270,134,36863,1,0,0:0:0:0:
270,134,37720,1,0,0:0:0:0:
143,135,38147,1,8,0:0:0:0:
181,112,38363,1,0,0:0:0:0:
197,103,38790,1,8,0:0:0:0:
168,69,39005,1,8,0:0:0:0:
184,70,39434,1,0,0:0:0:0:
225,126,39863,1,8,0:0:0:0:
270,134,40077,1,0,0:0:0:0:
270,134,40290,1,0,0:0:0:0:
270,134,40506,1,0,0:0:0:0:
270,134,40719,1,8,0:0:0:0:
132,123,41147,1,4,0:0:0:0:
287,10,42005,1,8,0:0:0:0:
273,22,43719,1,8,0:0:0:0:
283,30,45433,1,8,0:0:0:0:
292,47,47147,1,8,0:0:0:0:
145,31,48005,1,4,0:0:0:0:
270,24,48862,1,8,0:0:0:0:
269,27,50576,1,8,0:0:0:0:
269,27,52290,1,8,0:0:0:0:
268,32,54005,1,8,0:0:0:0:
202,108,54433,1,8,0:0:0:0:
268,39,54862,1,4,0:0:0:0:
144,148,55290,1,8,0:0:0:0:
306,213,55719,1,0,0:0:0:0:
306,213,56362,1,8,0:0:0:0:
306,213,56576,1,8,0:0:0:0:
306,213,57005,1,8,0:0:0:0:
306,213,57433,1,0,0:0:0:0:
306,213,57755,1,8,0:0:0:0:
306,213,58290,1,0,0:0:0:0:
306,213,58719,1,8,0:0:0:0:
306,213,59147,1,0,0:0:0:0:
306,213,60005,1,8,0:0:0:0:
283,169,60647,1,0,0:0:0:0:
264,132,60862,1,8,0:0:0:0:
313,114,61076,1,8,0:0:0:0:
353,99,61290,1,0,0:0:0:0:
279,157,61719,1,4,0:0:0:0:
144,148,62147,1,8,0:0:0:0:
306,213,62576,1,0,0:0:0:0:
306,213,63219,1,8,0:0:0:0:
306,213,63433,1,8,0:0:0:0:
306,213,63862,1,0,0:0:0:0:
306,213,64290,1,8,0:0:0:0:
306,213,64612,1,8,0:0:0:0:
306,213,65147,1,0,0:0:0:0:
306,213,65576,1,8,0:0:0:0:
260,163,65790,1,8,0:0:0:0:
306,213,66004,1,0,0:0:0:0:
306,213,66862,5,8,0:0:0:0:
268,157,67183,1,0,0:0:0:0:
283,169,67504,1,8,0:0:0:0:
264,132,67719,1,8,0:0:0:0:
353,99,68040,1,0,0:0:0:0:
256,128,68576,1,12,0:0:0:0:
131,89,69005,1,8,0:0:0:0:
160,128,69433,1,0,0:0:0:0:
109,2,69647,1,8,0:0:0:0:
160,128,69862,1,8,0:0:0:0:
160,128,70290,1,0,0:0:0:0:
160,128,70612,1,8,0:0:0:0:
192,64,71147,1,0,0:0:0:0:
128,96,71576,1,8,0:0:0:0:
224,128,72005,1,8,0:0:0:0:
224,96,72862,1,0,0:0:0:0:
154,56,73505,1,0,0:0:0:0:
160,160,73719,1,8,0:0:0:0:
384,160,74576,1,0,0:0:0:0:
224,160,75433,1,12,0:0:0:0:
160,160,75863,1,8,0:0:0:0:
160,128,76290,1,0,0:0:0:0:
160,128,76505,1,8,0:0:0:0:
160,128,76720,1,8,0:0:0:0:
160,128,77577,1,8,0:0:0:0:
192,64,78005,1,0,0:0:0:0:
128,96,78434,1,8,0:0:0:0:
224,128,78863,1,0,0:0:0:0:
224,96,79720,1,0,0:0:0:0:
160,160,80362,1,0,0:0:0:0:
160,160,80577,1,8,0:0:0:0:
53,164,81005,1,0,0:0:0:0:
384,160,81434,1,8,0:0:0:0:
256,96,82290,1,12,0:0:0:0:
193,150,83147,1,8,0:0:0:0:
118,99,83362,1,0,0:0:0:0:
196,84,83576,1,8,0:0:0:0:
158,33,83790,1,8,0:0:0:0:
196,41,84005,1,0,0:0:0:0:
260,125,84862,1,8,0:0:0:0:
106,73,85076,1,8,0:0:0:0:
199,147,85290,1,0,0:0:0:0:
199,147,85719,1,0,0:0:0:0:
290,201,86576,1,0,0:0:0:0:
109,23,86790,1,8,0:0:0:0:
290,201,87005,1,0,0:0:0:0:
170,85,87219,1,8,0:0:0:0:
290,201,87433,1,0,0:0:0:0:
210,85,88290,1,0,0:0:0:0:
220,106,88719,1,8,0:0:0:0:
256,96,89147,1,12,0:0:0:0:
193,150,90004,1,8,0:0:0:0:
106,157,90219,1,8,0:0:0:0:
196,84,90433,1,0,0:0:0:0:
158,33,90647,1,8,0:0:0:0:
196,41,90862,1,0,0:0:0:0:
260,125,91719,1,8,0:0:0:0:
136,32,91933,1,0,0:0:0:0:
199,147,92147,1,8,0:0:0:0:
199,147,92576,1,0,0:0:0:0:
290,201,93433,1,0,0:0:0:0:
290,201,93862,1,8,0:0:0:0:
170,85,94076,1,0,0:0:0:0:
290,201,94290,5,8,0:0:0:0:
236,147,94719,1,8,0:0:0:0:
236,147,95147,1,8,0:0:0:0:
236,147,95362,1,0,0:0:0:0:
236,147,95576,1,0,0:0:0:0:
226,147,95790,1,0,0:0:0:0:
149,194,96005,5,12,0:0:0:0:
287,10,96862,1,8,0:0:0:0:
273,22,98576,1,12,0:0:0:0:
162,178,99433,1,4,0:0:0:0:
283,30,100290,1,8,0:0:0:0:
292,47,102004,1,8,0:0:0:0:
195,203,102862,1,4,0:0:0:0:
270,24,103719,1,8,0:0:0:0:
269,27,105433,1,12,0:0:0:0:
197,206,106290,1,4,0:0:0:0:
269,27,107147,1,8,0:0:0:0:
268,32,108862,1,8,0:0:0:0:
236,186,109290,1,8,0:0:0:0:
242,178,109505,1,8,0:0:0:0:
242,178,109719,1,4,0:0:0:0:
243,120,110576,1,0,0:0:0:0:
243,120,110790,1,0,0:0:0:0:
243,120,111005,1,8,0:0:0:0:
146,10,111219,1,12,0:0:0:0:
160,155,112076,1,0,0:0:0:0:
216,98,112290,1,8,0:0:0:0:
379,223,112505,1,8,0:0:0:0:
379,223,112719,1,12,0:0:0:0:
243,165,113147,1,12,0:0:0:0:
256,145,113790,1,0,0:0:0:0:
256,145,114005,1,8,0:0:0:0:
494,285,114219,1,0,0:0:0:0:
494,285,114433,1,0,0:0:0:0:
494,285,114647,1,12,0:0:0:0:
216,143,115505,1,0,0:0:0:0:
216,143,115719,1,0,0:0:0:0:
226,119,115933,1,0,0:0:0:0:
226,119,116147,1,12,0:0:0:0:
337,86,116576,1,4,0:0:0:0:
243,120,117433,1,8,0:0:0:0:
243,120,117647,1,8,0:0:0:0:
243,120,117862,1,0,0:0:0:0:
243,120,118076,1,12,0:0:0:0:
160,155,118933,1,0,0:0:0:0:
216,98,119147,1,8,0:0:0:0:
379,223,119362,1,0,0:0:0:0:
379,223,119576,1,12,0:0:0:0:
243,165,120004,1,12,0:0:0:0:
256,145,120647,1,0,0:0:0:0:
256,145,120862,1,8,0:0:0:0:
494,285,121076,1,0,0:0:0:0:
494,285,121290,1,8,0:0:0:0:
216,143,121719,1,0,0:0:0:0:
310,108,122147,1,0,0:0:0:0:
310,108,122576,1,8,0:0:0:0:
285,105,123433,1,4,0:0:0:0:
116,115,124290,1,8,0:0:0:0:
201,187,124933,1,0,0:0:0:0:
116,138,125147,1,8,0:0:0:0:
156,283,126005,1,8,0:0:0:0:
149,70,126862,5,0,0:0:0:0:
266,141,127719,1,8,0:0:0:0:
266,141,128147,1,0,0:0:0:0:
156,56,128576,5,0,0:0:0:0:
202,174,129433,1,8,0:0:0:0:
202,174,129862,1,0,0:0:0:0:
238,171,130290,1,12,0:0:0:0:
276,167,131148,1,8,0:0:0:0:
234,117,131576,1,8,0:0:0:0:
237,24,131790,1,0,0:0:0:0:
244,176,132005,1,8,0:0:0:0:
36,113,132863,1,0,0:0:0:0:
36,113,133720,1,12,0:0:0:0:
156,56,134577,1,8,0:0:0:0:
166,74,135005,1,0,0:0:0:0:
156,56,135434,5,8,0:0:0:0:
215,99,135862,1,8,0:0:0:0:
202,174,136291,1,8,0:0:0:0:
202,174,136505,1,8,0:0:0:0:
238,171,136719,1,0,0:0:0:0:
162,129,136933,5,8,0:0:0:0:
186,101,137147,5,4,0:0:0:0:
174,99,138005,1,8,0:0:0:0:
196,124,138433,1,0,0:0:0:0:
196,124,138862,1,8,0:0:0:0:
129,117,139290,1,0,0:0:0:0:
129,117,139719,1,8,0:0:0:0:
184,159,139933,1,8,0:0:0:0:
184,159,140147,1,0,0:0:0:0:
123,165,140576,1,8,0:0:0:0:
174,99,141433,1,8,0:0:0:0:
196,124,141861,1,0,0:0:0:0:
174,99,142075,1,0,0:0:0:0:
196,124,142290,1,8,0:0:0:0:
129,117,142719,1,0,0:0:0:0:
129,117,143147,1,8,0:0:0:0:
184,159,143575,1,12,0:0:0:0:
123,165,144004,1,4,0:0:0:0:
174,99,144862,1,8,0:0:0:0:
196,124,145290,1,0,0:0:0:0:
196,124,145719,1,8,0:0:0:0:
129,117,145933,1,8,0:0:0:0:
129,117,146147,1,0,0:0:0:0:
129,117,146576,1,8,0:0:0:0:
184,159,147004,1,0,0:0:0:0:
123,165,147433,1,8,0:0:0:0:
174,99,148290,1,8,0:0:0:0:
196,124,148718,1,0,0:0:0:0:
196,124,149147,1,8,0:0:0:0:
129,117,149575,1,8,0:0:0:0:
469,292,149790,1,0,0:0:0:0:
129,117,150004,1,8,0:0:0:0:
184,159,150218,1,8,0:0:0:0:
184,159,150432,1,4,0:0:0:0:
100,107,150862,1,12,0:0:0:0:
130,87,151183,1,0,0:0:0:0:
160,128,151719,1,0,0:0:0:0:
160,128,151933,1,8,0:0:0:0:
160,128,152148,1,8,0:0:0:0:
160,128,152898,1,8,0:0:0:0:
192,64,153433,1,8,0:0:0:0:
128,96,153862,1,0,0:0:0:0:
224,128,154291,1,8,0:0:0:0:
237,93,154719,1,8,0:0:0:0:
101,130,154933,1,8,0:0:0:0:
224,96,155148,1,0,0:0:0:0:
160,128,155791,1,0,0:0:0:0:
160,160,156005,5,8,0:0:0:0:
320,160,156648,1,8,0:0:0:0:
384,160,156862,1,0,0:0:0:0:
106,139,157290,1,0,0:0:0:0:
224,160,157719,5,12,0:0:0:0:
160,160,158040,1,0,0:0:0:0:
160,128,158576,1,0,0:0:0:0:
160,128,158790,1,8,0:0:0:0:
160,128,159005,1,8,0:0:0:0:
192,64,160290,1,8,0:0:0:0:
128,96,160719,1,8,0:0:0:0:
224,128,161148,1,0,0:0:0:0:
237,93,161576,1,8,0:0:0:0:
224,96,161790,1,8,0:0:0:0:
224,96,162005,1,0,0:0:0:0:
160,128,162648,1,0,0:0:0:0:
160,160,162862,5,8,0:0:0:0:
320,160,163505,1,0,0:0:0:0:
384,160,163719,1,8,0:0:0:0:
80,98,164040,1,8,0:0:0:0:
80,98,164362,1,8,0:0:0:0:
153,152,164576,5,4,0:0:0:0:
150,160,165433,1,8,0:0:0:0:
163,132,167147,1,8,0:0:0:0:
163,132,168862,1,8,0:0:0:0:
163,132,170576,1,8,0:0:0:0:
163,132,171433,1,4,0:0:0:0:
189,148,172290,1,8,0:0:0:0:
189,148,174005,1,8,0:0:0:0:
189,148,175719,1,8,0:0:0:0:
189,148,177433,1,8,0:0:0:0:
