osu file format v14

[General]
AudioFilename: audio.mp3
AudioLeadIn: 0
PreviewTime: 94537
Countdown: 0
SampleSet: Soft
StackLeniency: 0.7
Mode: 3
LetterboxInBreaks: 0
SpecialStyle: 0
WidescreenStoryboard: 1

[Editor]
Bookmarks: 10491,38628,51870,66766,94904,108146,121387,147456,184284,210766,237249
DistanceSpacing: 1.4
BeatDivisor: 2
GridSize: 4
TimelineZoom: 1.5

[Metadata]
Title:Dream Catcher (Blue Satellite Remix)
TitleUnicode:Dream Catcher (Blue Satellite Remix)
Artist:MYLK
ArtistUnicode:MYLK
Creator:Salty Mermaid
Version:Easy
Source:
Tags:catch the dream jpop j-pop daily earfood
BeatmapID:1475147
BeatmapSetID:696380

[Difficulty]
HPDrainRate:7
CircleSize:4
OverallDifficulty:7
ApproachRate:5
SliderMultiplier:1.4
SliderTickRate:1

[Events]
//Background and Video events
0,0,"DreamCatcher.jpg",0,0
//Break Periods
//Storyboard Layer 0 (Background)
//Storyboard Layer 1 (Fail)
//Storyboard Layer 2 (Pass)
//Storyboard Layer 3 (Foreground)
//Storyboard Sound Samples
Sample,13796,0,"Key7.wav",70
Sample,14830,0,"Key6.wav",70
Sample,15244,0,"Key8.wav",70
Sample,15451,0,"Key7.wav",70
Sample,20417,0,"Key7.wav",70
Sample,21451,0,"Key6.wav",70
Sample,21865,0,"Key8.wav",70
Sample,22072,0,"Key7.wav",70
Sample,39037,0,"ClapClap.wav",70
Sample,41520,0,"ClapClap.wav",70
Sample,42348,0,"ClapClap.wav",70
Sample,46486,0,"ClapClap.wav",70
Sample,47313,0,"ClapClap.wav",70
Sample,49796,0,"ClapClap.wav",70
Sample,50623,0,"ClapClap.wav",70
Sample,52279,0,"ClapClap.wav",70
Sample,54761,0,"ClapClap.wav",70
Sample,55589,0,"ClapClap.wav",70
Sample,59727,0,"ClapClap.wav",70
Sample,60555,0,"ClapClap.wav",70
Sample,62210,0,"ClapClap.wav",70
Sample,63037,0,"ClapClap.wav",70
Sample,63865,0,"ClapClap.wav",70
Sample,66761,0,"Kick2.wav",70
Sample,70072,0,"Key7.wav",70
Sample,71106,0,"Key6.wav",70
Sample,71520,0,"Key8.wav",70
Sample,71727,0,"Key7.wav",70
Sample,72555,0,"Key5.wav",70
Sample,76692,0,"Key7.wav",70
Sample,77727,0,"Key6.wav",70
Sample,78141,0,"Key8.wav",70
Sample,78348,0,"Key7.wav",70
Sample,95313,0,"ClapClap.wav",70
Sample,97796,0,"ClapClap.wav",70
Sample,98623,0,"ClapClap.wav",70
Sample,102761,0,"ClapClap.wav",70
Sample,103589,0,"ClapClap.wav",70
Sample,106072,0,"ClapClap.wav",70
Sample,106899,0,"ClapClap.wav",70
Sample,108555,0,"ClapClap.wav",70
Sample,111037,0,"ClapClap.wav",70
Sample,111865,0,"ClapClap.wav",70
Sample,116003,0,"ClapClap.wav",70
Sample,116830,0,"ClapClap.wav",70
Sample,118486,0,"ClapClap.wav",70
Sample,119313,0,"ClapClap.wav",70
Sample,120141,0,"ClapClap.wav",70
Sample,120968,0,"ClapClap.wav",70
Sample,121382,0,"Kick2.wav",70
Sample,146210,0,"Key6.wav",70
Sample,146623,0,"Key7.wav",70
Sample,146623,0,"Kick2.wav",70
Sample,147037,0,"Key7.wav",70
Sample,147451,0,"E.wav",70
Sample,147451,0,"ClapClap.wav",70
Sample,184279,0,"ClapClap.wav",70
Sample,184692,0,"ClapClap.wav",70
Sample,185106,0,"ClapClap.wav",70
Sample,185520,0,"ClapClap.wav",70
Sample,187175,0,"ClapClap.wav",70
Sample,188003,0,"ClapClap.wav",70
Sample,192141,0,"ClapClap.wav",70
Sample,192968,0,"ClapClap.wav",70
Sample,195451,0,"ClapClap.wav",70
Sample,196279,0,"ClapClap.wav",70
Sample,200417,0,"ClapClap.wav",70
Sample,201244,0,"ClapClap.wav",70
Sample,205382,0,"ClapClap.wav",70
Sample,206210,0,"ClapClap.wav",70
Sample,207865,0,"ClapClap.wav",70
Sample,208692,0,"ClapClap.wav",70
Sample,209520,0,"ClapClap.wav",70
Sample,210348,0,"ClapClap.wav",70
Sample,211175,0,"ClapClap.wav",70
Sample,211589,0,"Kick2.wav",70
Sample,213658,0,"ClapClap.wav",70
Sample,214486,0,"ClapClap.wav",70
Sample,216141,0,"ClapClap.wav",70
Sample,218623,0,"ClapClap.wav",70
Sample,219451,0,"ClapClap.wav",70
Sample,221934,0,"ClapClap.wav",70
Sample,222761,0,"ClapClap.wav",70
Sample,223589,0,"ClapClap.wav",70
Sample,224417,0,"ClapClap.wav",70
Sample,226899,0,"ClapClap.wav",70
Sample,227727,0,"ClapClap.wav",70
Sample,229382,0,"ClapClap.wav",70
Sample,231865,0,"ClapClap.wav",70
Sample,232692,0,"ClapClap.wav",70
Sample,235175,0,"ClapClap.wav",70
Sample,236003,0,"ClapClap.wav",70
Sample,237244,0,"Kick2.wav",70

[TimingPoints]
555,413.793103448276,3,2,22,60,1,0
10486,413.793103448276,4,2,24,60,1,0
37589,-100,4,2,24,30,0,0
38623,-100,4,2,24,60,0,1
65003,-100,4,2,24,30,0,0
66761,-100,4,2,24,60,0,0
93865,-100,4,2,24,30,0,0
94899,-100,4,2,24,60,0,1
144554,-100,4,2,24,60,0,0
146210,-100,4,2,24,60,0,1
147451,-100,4,2,24,60,0,0
149520,-100,4,2,24,20,0,0
175175,-100,4,2,24,40,0,0
175382,-100,4,2,24,30,0,0
183865,-100,4,2,24,60,0,0
185520,-100,4,2,24,60,0,1
237244,-100,4,2,22,60,0,0

[HitObjects]
192,192,555,5,0,0:0:0:100:Key1.wav
448,192,968,1,0,0:0:0:0:
448,192,1382,1,0,0:0:0:0:
192,192,1796,1,0,0:0:0:100:Key1.wav
448,192,2210,1,0,0:0:0:0:
448,192,2623,1,0,0:0:0:0:
64,192,3037,1,0,0:0:0:100:Key2.wav
448,192,3451,1,0,0:0:0:0:
448,192,3865,1,0,0:0:0:0:
64,192,4279,1,0,0:0:0:100:Key2.wav
448,192,4692,1,0,0:0:0:0:
448,192,5106,1,0,0:0:0:0:
320,192,5313,1,0,0:0:0:100:Key3.wav
64,192,5520,1,0,0:0:0:100:Key4.wav
192,192,5934,1,0,0:0:0:0:
192,192,6348,1,0,0:0:0:0:
192,192,6761,1,0,0:0:0:0:
320,192,6761,1,0,0:0:0:0:
448,192,7175,128,0,10486:0:0:0:0:
64,192,10486,1,0,0:0:0:0:Crush.wav
192,192,10486,1,0,0:0:0:0:Kick2.wav
192,192,10899,1,0,0:0:0:0:ClapClap.wav
320,192,10899,1,0,0:0:0:0:
64,192,11520,1,0,0:0:0:0:Kick2.wav
320,192,11727,1,0,0:0:0:0:ClapClap.wav
448,192,11727,1,0,0:0:0:0:
192,192,11934,1,0,0:0:0:0:Kick2.wav
64,192,12141,1,0,0:0:0:0:Kick2.wav
320,192,12554,1,0,0:0:0:0:ClapClap.wav
448,192,12554,1,0,0:0:0:0:
64,192,13175,1,0,0:0:0:0:Kick2.wav
192,192,13382,1,0,0:0:0:0:ClapClap.wav
448,192,13382,1,0,0:0:0:0:Key5.wav
320,192,13796,1,0,0:0:0:0:Kick2.wav
64,192,14210,1,0,0:0:0:0:ClapClap.wav
192,192,14210,1,0,0:0:0:0:Key6.wav
320,192,14830,1,0,0:0:0:0:Kick2.wav
64,192,15037,1,0,0:0:0:0:ClapClap.wav
192,192,15037,1,0,0:0:0:70:Key7.wav
448,192,15244,1,0,0:0:0:0:Kick2.wav
320,192,15451,1,0,0:0:0:0:Kick2.wav
64,192,15865,1,0,0:0:0:0:ClapClap.wav
448,192,15865,1,0,0:0:0:0:Key6.wav
192,192,16486,1,0,0:0:0:0:Kick2.wav
64,192,16692,1,0,0:0:0:0:ClapClap.wav
320,192,16692,1,0,0:0:0:0:Key6.wav
448,192,17106,1,0,0:0:0:0:Kick2.wav
192,192,17520,1,0,0:0:0:0:ClapClap.wav
320,192,17520,1,0,0:0:0:0:
64,192,18141,1,0,0:0:0:0:Kick2.wav
192,192,18348,1,0,0:0:0:0:ClapClap.wav
448,192,18348,1,0,0:0:0:0:
320,192,18554,1,0,0:0:0:0:Kick2.wav
192,192,18761,1,0,0:0:0:0:Kick2.wav
64,192,19175,1,0,0:0:0:0:ClapClap.wav
448,192,19175,1,0,0:0:0:0:
64,192,19796,1,0,0:0:0:0:Kick2.wav
192,192,20003,1,0,0:0:0:0:ClapClap.wav
320,192,20003,1,0,0:0:0:0:Key5.wav
448,192,20417,1,0,0:0:0:0:Kick2.wav
64,192,20830,1,0,0:0:0:0:ClapClap.wav
320,192,20830,1,0,0:0:0:0:Key6.wav
192,192,21451,1,0,0:0:0:0:Kick2.wav
64,192,21658,1,0,0:0:0:0:ClapClap.wav
448,192,21658,1,0,0:0:0:0:Key5.wav
320,192,21865,1,0,0:0:0:0:Kick2.wav
192,192,22072,1,0,0:0:0:0:Kick2.wav
320,192,22486,1,0,0:0:0:0:ClapClap.wav
448,192,22486,1,0,0:0:0:0:Key6.wav
64,192,23106,1,0,0:0:0:0:Kick2.wav
192,192,23313,1,0,0:0:0:0:ClapClap.wav
448,192,23313,1,0,0:0:0:70:Key6.wav
320,192,23727,128,0,25382:0:0:0:0:Crush.wav
448,192,23727,1,0,0:0:0:0:Kick2.wav
64,192,25382,128,0,27037:0:0:0:0:Crush.wav
192,192,25382,1,0,0:0:0:0:Kick2.wav
448,192,27037,1,0,0:0:0:0:Kick2.wav
192,192,27451,1,0,0:0:0:0:
64,192,27451,1,0,0:0:0:70:ClapClap.wav
320,192,28072,1,0,0:0:0:70:Kick2.wav
64,192,28279,1,0,0:0:0:0:ClapClap.wav
448,192,28279,1,0,0:0:0:0:
192,192,28486,1,0,0:0:0:0:Kick2.wav
320,192,28692,1,0,0:0:0:0:Kick2.wav
64,192,29106,1,0,0:0:0:70:ClapClap.wav
192,192,29106,1,0,0:0:0:0:
448,192,29727,1,0,0:0:0:70:Kick2.wav
64,192,29934,1,0,0:0:0:0:ClapClap.wav
320,192,29934,1,0,0:0:0:0:
320,192,30348,1,0,0:0:0:0:Crush.wav
448,192,30348,128,0,32003:0:0:0:0:Kick2.wav
64,192,32003,1,0,0:0:0:0:Crush.wav
192,192,32003,128,0,33658:0:0:0:0:Kick2.wav
448,192,33658,1,0,0:0:0:0:ClapClap.wav
64,192,33865,1,0,0:0:0:0:ClapClap.wav
320,192,34072,1,0,0:0:0:0:Kick2.wav
64,192,34279,1,0,0:0:0:0:ClapClap.wav
192,192,34692,1,0,0:0:0:0:Kick2.wav
448,192,34899,1,0,0:0:0:0:ClapClap.wav
192,192,35106,1,0,0:0:0:0:Kick2.wav
320,192,35313,128,0,36968:0:0:0:0:Kick2.wav
64,192,37589,128,0,37796:0:0:0:0:
448,192,37796,128,0,38210:0:0:0:0:
320,192,38210,128,0,38623:0:0:0:0:
64,192,38623,1,0,0:0:0:0:Crush.wav
192,192,38623,1,0,0:0:0:0:Kick2.wav
448,192,39037,1,0,0:0:0:0:Kick2.wav
64,192,39451,128,0,39865:0:0:0:0:Kick2.wav
320,192,40072,1,0,0:0:0:0:
320,192,40486,1,0,0:0:0:0:
64,192,40899,128,0,41313:0:0:0:0:
448,192,41313,1,0,0:0:0:0:
320,192,41520,1,0,0:0:0:0:Kick2.wav
192,192,41727,1,0,0:0:0:0:
320,192,42348,1,0,0:0:0:0:Kick2.wav
192,192,42761,128,0,43175:0:0:0:0:Kick2.wav
320,192,43382,1,0,0:0:0:0:
448,192,43796,1,0,0:0:0:0:
64,192,44210,128,0,44830:0:0:0:0:
192,192,45244,128,0,45865:0:0:0:0:Kick2.wav
320,192,45865,1,0,0:0:0:0:
64,192,46279,1,0,0:0:0:0:
448,192,46486,128,0,46899:0:0:0:0:Kick2.wav
320,192,46899,1,0,0:0:0:0:Kick2.wav
64,192,47106,1,0,0:0:0:0:
320,192,47313,1,0,0:0:0:0:Kick2.wav
192,192,47520,128,0,48141:0:0:0:0:
64,192,48554,128,0,49175:0:0:0:0:Kick2.wav
320,192,49175,128,0,49589:0:0:0:0:
64,192,49796,128,0,50210:0:0:0:0:Kick2.wav
192,192,50210,1,0,0:0:0:0:Kick2.wav
448,192,50417,1,0,0:0:0:0:
320,192,50623,1,0,0:0:0:0:Kick2.wav
192,192,50830,1,0,0:0:0:0:
64,192,51037,1,0,0:0:0:0:Kick2.wav
320,192,51244,1,0,0:0:0:0:ClapClap.wav
448,192,51244,1,0,0:0:0:0:
64,192,51451,1,0,0:0:0:0:ClapClap.wav
192,192,51451,1,0,0:0:0:0:
448,192,51865,1,0,0:0:0:0:Kick2.wav
320,192,52279,1,0,0:0:0:0:Kick2.wav
192,192,52692,128,0,53106:0:0:0:0:Kick2.wav
448,192,53313,1,0,0:0:0:0:
448,192,53727,1,0,0:0:0:0:
64,192,54141,128,0,54554:0:0:0:0:
192,192,54554,1,0,0:0:0:0:
448,192,54761,1,0,0:0:0:0:Kick2.wav
320,192,54968,1,0,0:0:0:0:
448,192,55589,1,0,0:0:0:0:Kick2.wav
192,192,56003,128,0,56417:0:0:0:0:Kick2.wav
320,192,56623,1,0,0:0:0:0:
448,192,57037,1,0,0:0:0:0:
64,192,57451,128,0,57968:0:0:0:0:
448,192,58486,128,0,59106:0:0:0:0:Kick2.wav
64,192,59106,1,0,0:0:0:0:
192,192,59520,1,0,0:0:0:0:
320,192,59727,128,0,60141:0:0:0:0:Kick2.wav
192,192,60141,1,0,0:0:0:0:Kick2.wav
64,192,60348,1,0,0:0:0:0:
448,192,60554,1,0,0:0:0:0:Kick2.wav
320,192,60761,128,0,61382:0:0:0:0:
64,192,61796,128,0,62210:0:0:0:0:Kick2.wav
448,192,62210,1,0,0:0:0:0:Kick2.wav
320,192,62417,128,0,63037:0:0:0:0:
192,192,63037,128,0,63451:0:0:0:0:Kick2.wav
448,192,63451,1,0,0:0:0:0:Kick2.wav
320,192,63658,1,0,0:0:0:0:
192,192,63865,1,0,0:0:0:0:Kick2.wav
64,192,64072,128,0,64692:0:0:0:0:
320,192,64899,1,0,0:0:0:0:
64,192,65934,128,0,66761:0:0:0:0:
448,192,66761,1,0,0:0:0:0:Crush.wav
320,192,66761,1,0,0:0:0:0:
64,192,67175,1,0,0:0:0:0:ClapClap.wav
192,192,67175,1,0,0:0:0:0:
320,192,67796,1,0,0:0:0:0:Kick2.wav
64,192,68003,1,0,0:0:0:0:ClapClap.wav
448,192,68003,1,0,0:0:0:0:
320,192,68210,1,0,0:0:0:0:Kick2.wav
192,192,68417,1,0,0:0:0:0:Kick2.wav
64,192,68830,1,0,0:0:0:0:ClapClap.wav
448,192,68830,1,0,0:0:0:0:
192,192,69451,1,0,0:0:0:0:Kick2.wav
320,192,69658,1,0,0:0:0:0:ClapClap.wav
448,192,69658,1,0,0:0:0:0:Key5.wav
64,192,70072,1,0,0:0:0:0:Kick2.wav
192,192,70486,1,0,0:0:0:0:ClapClap.wav
320,192,70486,1,0,0:0:0:0:Key6.wav
448,192,71106,1,0,0:0:0:0:Kick2.wav
64,192,71313,1,0,0:0:0:0:ClapClap.wav
320,192,71313,1,0,0:0:0:70:Key7.wav
192,192,71520,1,0,0:0:0:0:Kick2.wav
320,192,71727,1,0,0:0:0:0:Kick2.wav
64,192,72554,1,0,0:0:0:70:CrushCrush.wav
448,192,72554,1,0,0:0:0:0:ClapClap.wav
320,192,72761,1,0,0:0:0:0:Kick2.wav
64,192,72968,1,0,0:0:0:0:ClapClap.wav
192,192,72968,1,0,0:0:0:0:Key6.wav
320,192,73382,1,0,0:0:0:0:Kick2.wav
192,192,73796,1,0,0:0:0:0:ClapClap.wav
448,192,73796,1,0,0:0:0:0:
64,192,74417,1,0,0:0:0:0:Kick2.wav
192,192,74623,1,0,0:0:0:0:ClapClap.wav
448,192,74623,1,0,0:0:0:0:
320,192,74830,1,0,0:0:0:0:Kick2.wav
64,192,75037,1,0,0:0:0:0:Kick2.wav
192,192,75451,1,0,0:0:0:0:ClapClap.wav
320,192,75451,1,0,0:0:0:0:
64,192,76072,1,0,0:0:0:0:Kick2.wav
320,192,76279,1,0,0:0:0:0:ClapClap.wav
448,192,76279,1,0,0:0:0:0:Key5.wav
192,192,76692,1,0,0:0:0:0:Kick2.wav
64,192,77106,1,0,0:0:0:0:ClapClap.wav
448,192,77106,1,0,0:0:0:0:Key6.wav
192,192,77727,1,0,0:0:0:0:Kick2.wav
320,192,77934,1,0,0:0:0:0:ClapClap.wav
448,192,77934,1,0,0:0:0:0:Key5.wav
192,192,78141,1,0,0:0:0:0:Kick2.wav
64,192,78348,1,0,0:0:0:0:Kick2.wav
192,192,78761,1,0,0:0:0:0:ClapClap.wav
320,192,78761,1,0,0:0:0:0:Key6.wav
192,192,79382,1,0,0:0:0:0:Kick2.wav
64,192,79589,1,0,0:0:0:0:ClapClap.wav
320,192,79589,1,0,0:0:0:70:Key6.wav
192,192,80003,1,0,0:0:0:0:Crush.wav
448,192,80003,128,0,81658:0:0:0:0:Kick2.wav
64,192,81658,128,0,83313:0:0:0:0:Crush.wav
320,192,81658,1,0,0:0:0:0:Kick2.wav
192,192,83313,1,0,0:0:0:0:Kick2.wav
448,192,83727,1,0,0:0:0:0:
64,192,83727,1,0,0:0:0:70:ClapClap.wav
448,192,84348,1,0,0:0:0:70:Kick2.wav
192,192,84554,1,0,0:0:0:0:ClapClap.wav
64,192,84554,1,0,0:0:0:0:
320,192,84761,1,0,0:0:0:0:Kick2.wav
448,192,84968,1,0,0:0:0:0:Kick2.wav
320,192,85382,1,0,0:0:0:70:ClapClap.wav
192,192,85382,1,0,0:0:0:0:
448,192,86003,1,0,0:0:0:70:Kick2.wav
192,192,86210,1,0,0:0:0:0:ClapClap.wav
64,192,86210,1,0,0:0:0:0:
64,192,86623,1,0,0:0:0:0:Kick2.wav
448,192,86623,128,0,88279:0:0:0:0:Crush.wav
320,192,88279,1,0,0:0:0:0:Crush.wav
192,192,88279,128,0,89934:0:0:0:0:Kick2.wav
448,192,89934,1,0,0:0:0:0:ClapClap.wav
64,192,90141,1,0,0:0:0:0:ClapClap.wav
320,192,90348,1,0,0:0:0:0:Kick2.wav
192,192,90554,1,0,0:0:0:0:ClapClap.wav
64,192,90968,1,0,0:0:0:0:Kick2.wav
320,192,91175,1,0,0:0:0:0:ClapClap.wav
192,192,91382,1,0,0:0:0:0:Kick2.wav
448,192,91589,128,0,93244:0:0:0:0:Kick2.wav
64,192,93244,1,0,0:0:0:0:
192,192,93865,128,0,94072:0:0:0:0:
320,192,94072,128,0,94486:0:0:0:0:
64,192,94486,128,0,94899:0:0:0:0:
320,192,94899,1,0,0:0:0:0:Crush.wav
448,192,94899,1,0,0:0:0:0:Kick2.wav
192,192,95313,1,0,0:0:0:0:Kick2.wav
64,192,95727,128,0,96141:0:0:0:0:Kick2.wav
448,192,96348,1,0,0:0:0:0:
448,192,96761,1,0,0:0:0:0:
64,192,97175,128,0,97589:0:0:0:0:
320,192,97589,1,0,0:0:0:0:
448,192,97796,1,0,0:0:0:0:Kick2.wav
192,192,98003,1,0,0:0:0:0:
320,192,98623,1,0,0:0:0:0:Kick2.wav
64,192,99037,128,0,99451:0:0:0:0:Kick2.wav
320,192,99658,1,0,0:0:0:0:
448,192,100072,1,0,0:0:0:0:
192,192,100486,128,0,101106:0:0:0:0:
320,192,101520,128,0,102141:0:0:0:0:Kick2.wav
64,192,102141,1,0,0:0:0:0:
192,192,102554,1,0,0:0:0:0:
448,192,102761,128,0,103175:0:0:0:0:Kick2.wav
320,192,103175,1,0,0:0:0:0:Kick2.wav
192,192,103382,1,0,0:0:0:0:
320,192,103589,1,0,0:0:0:0:Kick2.wav
64,192,103796,128,0,104417:0:0:0:0:
192,192,104830,128,0,105451:0:0:0:0:Kick2.wav
320,192,105451,128,0,105865:0:0:0:0:
64,192,106072,128,0,106486:0:0:0:0:Kick2.wav
448,192,106486,1,0,0:0:0:0:Kick2.wav
192,192,106692,1,0,0:0:0:0:
320,192,106899,1,0,0:0:0:0:Kick2.wav
64,192,107106,1,0,0:0:0:0:
192,192,107313,1,0,0:0:0:0:Kick2.wav
320,192,107520,1,0,0:0:0:0:ClapClap.wav
448,192,107520,1,0,0:0:0:0:
64,192,107727,1,0,0:0:0:0:ClapClap.wav
192,192,107727,1,0,0:0:0:0:
64,192,108141,1,0,0:0:0:0:Kick2.wav
448,192,108554,1,0,0:0:0:0:Kick2.wav
64,192,108968,128,0,109382:0:0:0:0:Kick2.wav
448,192,109589,1,0,0:0:0:0:
448,192,110003,1,0,0:0:0:0:
192,192,110417,128,0,110830:0:0:0:0:
320,192,110830,1,0,0:0:0:0:
448,192,111037,1,0,0:0:0:0:Kick2.wav
64,192,111244,1,0,0:0:0:0:
320,192,111865,1,0,0:0:0:0:Kick2.wav
64,192,112279,128,0,112692:0:0:0:0:Kick2.wav
320,192,112899,1,0,0:0:0:0:
448,192,113313,1,0,0:0:0:0:
192,192,113727,128,0,114348:0:0:0:0:
448,192,114761,128,0,115382:0:0:0:0:Kick2.wav
64,192,115382,1,0,0:0:0:0:
192,192,115796,1,0,0:0:0:0:
448,192,116003,128,0,116417:0:0:0:0:Kick2.wav
320,192,116417,1,0,0:0:0:0:Kick2.wav
64,192,116623,1,0,0:0:0:0:
448,192,116830,1,0,0:0:0:0:Kick2.wav
192,192,117037,128,0,117658:0:0:0:0:
448,192,118072,128,0,118486:0:0:0:0:Kick2.wav
320,192,118486,1,0,0:0:0:0:Kick2.wav
192,192,118692,128,0,119313:0:0:0:0:
64,192,119313,128,0,119727:0:0:0:0:Kick2.wav
448,192,119727,1,0,0:0:0:0:Kick2.wav
320,192,119934,1,0,0:0:0:0:
192,192,120141,1,0,0:0:0:0:Kick2.wav
64,192,120348,1,0,0:0:0:0:
320,192,120554,128,0,120968:0:0:0:0:Kick2.wav
192,192,120968,128,0,121382:0:0:0:0:Kick2.wav
448,192,121382,128,0,121796:0:0:0:0:Crush.wav
320,192,121382,1,0,0:0:0:70:Kick2.wav
64,192,121796,1,0,0:0:0:0:Kick2.wav
192,192,121796,1,0,0:0:0:0:ClapClap.wav
192,192,122210,1,0,0:0:0:0:Kick2.wav
320,192,122623,1,0,0:0:0:0:Kick2.wav
448,192,122623,1,0,0:0:0:0:ClapClap.wav
64,192,123037,1,0,0:0:0:0:Kick2.wav
192,192,123451,1,0,0:0:0:0:Kick2.wav
448,192,123451,1,0,0:0:0:0:ClapClap.wav
320,192,123865,1,0,0:0:0:0:Kick2.wav
64,192,124279,1,0,0:0:0:0:Kick2.wav
448,192,124279,1,0,0:0:0:0:ClapClap.wav
192,192,124692,1,0,0:0:0:0:Kick2.wav
64,192,125106,1,0,0:0:0:0:Kick2.wav
320,192,125106,1,0,0:0:0:0:ClapClap.wav
448,192,125520,1,0,0:0:0:0:Kick2.wav
64,192,125934,1,0,0:0:0:0:Kick2.wav
192,192,125934,1,0,0:0:0:0:ClapClap.wav
320,192,126348,1,0,0:0:0:0:Kick2.wav
64,192,126761,1,0,0:0:0:0:Kick2.wav
448,192,126761,1,0,0:0:0:0:ClapClap.wav
192,192,127175,1,0,0:0:0:0:Kick2.wav
320,192,127589,1,0,0:0:0:0:Kick2.wav
448,192,127589,1,0,0:0:0:0:ClapClap.wav
192,192,128003,1,0,0:0:0:0:Kick2.wav
64,192,128417,1,0,0:0:0:0:Kick2.wav
448,192,128417,1,0,0:0:0:0:ClapClap.wav
320,192,128830,1,0,0:0:0:0:Kick2.wav
64,192,129244,1,0,0:0:0:0:Kick2.wav
192,192,129244,1,0,0:0:0:0:ClapClap.wav
320,192,129658,1,0,0:0:0:0:Kick2.wav
192,192,130072,1,0,0:0:0:0:Kick2.wav
448,192,130072,1,0,0:0:0:0:ClapClap.wav
64,192,130486,1,0,0:0:0:0:Kick2.wav
320,192,130899,1,0,0:0:0:0:Kick2.wav
448,192,130899,1,0,0:0:0:0:ClapClap.wav
192,192,131313,1,0,0:0:0:0:Kick2.wav
64,192,131727,1,0,0:0:0:0:Kick2.wav
320,192,131727,1,0,0:0:0:0:ClapClap.wav
448,192,132141,1,0,0:0:0:0:Kick2.wav
192,192,132554,1,0,0:0:0:0:Kick2.wav
320,192,132554,1,0,0:0:0:0:ClapClap.wav
64,192,132968,1,0,0:0:0:0:Kick2.wav
192,192,133382,1,0,0:0:0:0:Kick2.wav
448,192,133382,1,0,0:0:0:0:ClapClap.wav
320,192,133796,1,0,0:0:0:0:Kick2.wav
64,192,134210,1,0,0:0:0:0:Kick2.wav
448,192,134210,1,0,0:0:0:0:ClapClap.wav
320,192,134623,1,0,0:0:0:0:Kick2.wav
64,192,135037,1,0,0:0:0:0:Kick2.wav
192,192,135037,1,0,0:0:0:0:ClapClap.wav
448,192,135451,1,0,0:0:0:0:Kick2.wav
64,192,135865,1,0,0:0:0:0:Kick2.wav
320,192,135865,1,0,0:0:0:0:ClapClap.wav
192,192,136279,1,0,0:0:0:0:Kick2.wav
64,192,136692,1,0,0:0:0:0:Kick2.wav
448,192,136692,1,0,0:0:0:0:ClapClap.wav
320,192,137106,1,0,0:0:0:0:Kick2.wav
192,192,137520,1,0,0:0:0:0:Kick2.wav
448,192,137520,1,0,0:0:0:0:ClapClap.wav
64,192,137934,1,0,0:0:0:0:Kick2.wav
320,192,138348,1,0,0:0:0:0:Kick2.wav
448,192,138348,1,0,0:0:0:0:ClapClap.wav
192,192,138761,1,0,0:0:0:0:Kick2.wav
64,192,139175,1,0,0:0:0:0:Kick2.wav
320,192,139175,1,0,0:0:0:0:ClapClap.wav
448,192,139589,1,0,0:0:0:0:Kick2.wav
64,192,140003,1,0,0:0:0:0:Kick2.wav
192,192,140003,1,0,0:0:0:0:ClapClap.wav
320,192,140417,1,0,0:0:0:0:Kick2.wav
192,192,140830,1,0,0:0:0:0:Kick2.wav
448,192,140830,1,0,0:0:0:0:ClapClap.wav
64,192,141244,1,0,0:0:0:0:Kick2.wav
320,192,141658,1,0,0:0:0:0:Kick2.wav
448,192,141658,1,0,0:0:0:0:ClapClap.wav
192,192,142072,1,0,0:0:0:0:Kick2.wav
64,192,142486,1,0,0:0:0:0:Kick2.wav
448,192,142486,1,0,0:0:0:0:ClapClap.wav
320,192,142899,1,0,0:0:0:0:Kick2.wav
64,192,143313,1,0,0:0:0:0:Kick2.wav
448,192,143313,1,0,0:0:0:0:ClapClap.wav
320,192,143727,1,0,0:0:0:0:Kick2.wav
64,192,144141,1,0,0:0:0:0:Kick2.wav
192,192,144141,1,0,0:0:0:0:ClapClap.wav
448,192,146210,128,0,146623:0:0:0:0:Kick2.wav
192,192,146623,128,0,147037:0:0:0:70:ClapClap.wav
448,192,147037,128,0,147451:0:0:0:70:Kick2.wav
64,192,147451,1,0,0:0:0:0:Crush.wav
192,192,147451,128,0,149520:0:0:0:0:Kick2.wav
320,192,149520,128,0,150761:0:0:0:0:
448,192,150761,128,0,151175:0:0:0:0:
192,192,151175,128,0,152003:0:0:0:0:
320,192,152417,128,0,152830:0:0:0:0:
192,192,152830,128,0,153658:0:0:0:0:
448,192,154072,128,0,154486:0:0:0:0:
64,192,154486,128,0,155520:0:0:0:0:
192,192,156141,128,0,157382:0:0:0:0:
448,192,157382,128,0,157796:0:0:0:0:
320,192,157796,128,0,158623:0:0:0:0:
64,192,158623,128,0,159037:0:0:0:0:
320,192,159451,128,0,160279:0:0:0:0:
192,192,160279,128,0,161106:0:0:0:0:
448,192,161106,128,0,161520:0:0:0:0:
320,192,161520,128,0,161934:0:0:0:0:
192,192,161934,128,0,162348:0:0:0:0:
64,192,162761,128,0,164003:0:0:0:0:
448,192,162761,128,0,164003:0:0:0:0:
320,192,164003,128,0,164417:0:0:0:0:
192,192,164417,128,0,165244:0:0:0:0:
448,192,164417,128,0,165244:0:0:0:0:
448,192,165658,128,0,166072:0:0:0:0:
192,192,166072,128,0,166899:0:0:0:0:
320,192,166072,128,0,166899:0:0:0:0:
448,192,167313,128,0,167727:0:0:0:0:
64,192,167727,128,0,168761:0:0:0:0:
192,192,167727,128,0,168761:0:0:0:0:
448,192,169175,1,0,0:0:0:0:
320,192,169382,1,0,0:0:0:0:
192,192,169589,1,0,0:0:0:0:
64,192,169796,1,0,0:0:0:0:
192,192,170003,128,0,170417:0:0:0:0:
448,192,170830,1,0,0:0:0:0:
320,192,171037,1,0,0:0:0:0:
64,192,171244,1,0,0:0:0:0:
192,192,171451,1,0,0:0:0:0:
320,192,171658,128,0,172072:0:0:0:0:
192,192,172072,1,0,0:0:0:0:
448,192,172279,1,0,0:0:0:0:
64,192,172486,1,0,0:0:0:0:
320,192,172692,128,0,174348:0:0:0:0:
192,192,175175,1,0,0:0:0:0:CrushCrush.wav
64,192,175175,1,0,0:0:0:0:
448,192,175382,1,0,0:0:0:0:
64,192,175589,1,0,0:0:0:0:
320,192,175796,1,0,0:0:0:0:
448,192,176003,128,0,177658:0:0:0:0:
320,192,177658,128,0,179313:0:0:0:0:
192,192,179313,128,0,180968:0:0:0:0:
64,192,180968,128,0,182623:0:0:0:0:
320,192,183244,128,0,183451:0:0:0:0:
448,192,183451,128,0,183865:0:0:0:0:
64,192,183865,1,0,0:0:0:0:ClapClap.wav
192,192,183865,128,0,184279:0:0:0:0:
320,192,184279,1,0,0:0:0:0:Kick2.wav
192,192,184486,1,0,0:0:0:0:Kick2.wav
448,192,184692,1,0,0:0:0:0:Kick2.wav
448,192,185106,1,0,0:0:0:0:Kick2.wav
64,192,185520,1,0,0:0:0:0:Crush.wav
448,192,185520,1,0,0:0:0:0:Kick2.wav
320,192,185727,1,0,0:0:0:0:
320,192,186141,1,0,0:0:0:0:
192,192,186554,128,0,186968:0:0:0:0:
64,192,186968,1,0,0:0:0:0:
448,192,187175,1,0,0:0:0:0:Kick2.wav
320,192,187382,1,0,0:0:0:0:
448,192,188003,1,0,0:0:0:0:Kick2.wav
192,192,188417,128,0,188830:0:0:0:0:Kick2.wav
64,192,189037,1,0,0:0:0:0:
448,192,189451,1,0,0:0:0:0:
320,192,189865,128,0,190486:0:0:0:0:
192,192,190899,128,0,191520:0:0:0:0:Kick2.wav
448,192,191520,1,0,0:0:0:0:
64,192,191934,1,0,0:0:0:0:
320,192,192141,128,0,192554:0:0:0:0:Kick2.wav
192,192,192554,1,0,0:0:0:0:Kick2.wav
64,192,192761,1,0,0:0:0:0:
448,192,192968,1,0,0:0:0:0:Kick2.wav
64,192,193175,128,0,193796:0:0:0:0:
192,192,194210,128,0,194830:0:0:0:0:Kick2.wav
320,192,194830,128,0,195244:0:0:0:0:
64,192,195451,128,0,195865:0:0:0:0:Kick2.wav
192,192,195865,1,0,0:0:0:0:Kick2.wav
448,192,196072,1,0,0:0:0:0:
64,192,196279,1,0,0:0:0:0:Kick2.wav
320,192,196486,1,0,0:0:0:0:
448,192,196692,1,0,0:0:0:0:Kick2.wav
64,192,196899,1,0,0:0:0:0:ClapClap.wav
192,192,196899,1,0,0:0:0:0:
320,192,197106,1,0,0:0:0:0:ClapClap.wav
448,192,197106,1,0,0:0:0:0:
64,192,197520,1,0,0:0:0:0:Kick2.wav
192,192,197727,1,0,0:0:0:0:Kick2.wav
320,192,197727,1,0,0:0:0:0:
64,192,197934,1,0,0:0:0:0:Crush.wav
448,192,197934,1,0,0:0:0:0:ClapClap.wav
192,192,198348,128,0,198761:0:0:0:0:Kick2.wav
320,192,198968,1,0,0:0:0:0:
320,192,199382,1,0,0:0:0:0:
64,192,199796,128,0,200210:0:0:0:0:
192,192,200210,1,0,0:0:0:0:
448,192,200417,1,0,0:0:0:0:Kick2.wav
320,192,200623,1,0,0:0:0:0:
448,192,201244,1,0,0:0:0:0:Kick2.wav
320,192,201658,128,0,202072:0:0:0:0:Kick2.wav
64,192,202279,1,0,0:0:0:0:
448,192,202692,1,0,0:0:0:0:
192,192,203106,128,0,203727:0:0:0:0:
448,192,204141,128,0,204761:0:0:0:0:Kick2.wav
64,192,204761,1,0,0:0:0:0:
192,192,205175,1,0,0:0:0:0:
320,192,205382,128,0,205796:0:0:0:0:Kick2.wav
448,192,205796,1,0,0:0:0:0:Kick2.wav
192,192,206003,1,0,0:0:0:0:
320,192,206210,1,0,0:0:0:0:Kick2.wav
64,192,206417,128,0,207037:0:0:0:0:
192,192,207451,128,0,207865:0:0:0:0:Kick2.wav
448,192,207865,1,0,0:0:0:0:Kick2.wav
320,192,208072,128,0,208692:0:0:0:0:
64,192,208692,128,0,209106:0:0:0:0:Kick2.wav
448,192,209106,1,0,0:0:0:0:Kick2.wav
320,192,209313,1,0,0:0:0:0:
192,192,209520,1,0,0:0:0:0:Kick2.wav
64,192,209727,1,0,0:0:0:0:
192,192,209934,128,0,210348:0:0:0:0:Kick2.wav
320,192,210348,128,0,210761:0:0:0:0:Kick2.wav
448,192,210761,128,0,211175:0:0:0:0:Kick2.wav
320,192,211175,128,0,211589:0:0:0:0:Kick2.wav
64,192,211589,128,0,212003:0:0:0:0:Crush.wav
448,192,212210,128,0,212417:0:0:0:0:
448,192,212623,128,0,212830:0:0:0:0:
320,192,213037,128,0,213451:0:0:0:0:
64,192,213451,128,0,213658:0:0:0:0:
320,192,213658,128,0,213865:0:0:0:0:Kick2.wav
64,192,213865,128,0,214072:0:0:0:0:
448,192,214486,128,0,214899:0:0:0:0:Kick2.wav
320,192,214899,128,0,215313:0:0:0:0:Kick2.wav
192,192,215520,128,0,215727:0:0:0:0:
448,192,215934,128,0,216141:0:0:0:0:
320,192,216141,128,0,216348:0:0:0:0:Kick2.wav
64,192,216348,128,0,217382:0:0:0:0:
192,192,217382,128,0,218003:0:0:0:0:Kick2.wav
320,192,218003,128,0,218623:0:0:0:0:
448,192,218623,128,0,219037:0:0:0:0:Kick2.wav
192,192,219037,128,0,219451:0:0:0:0:Kick2.wav
320,192,219451,128,0,219658:0:0:0:0:Kick2.wav
192,192,219658,128,0,220279:0:0:0:0:
192,192,220692,128,0,221106:0:0:0:0:Kick2.wav
320,192,221313,128,0,221520:0:0:0:0:
448,192,221520,128,0,221727:0:0:0:0:Kick2.wav
64,192,221934,128,0,222348:0:0:0:0:Kick2.wav
320,192,222348,128,0,222554:0:0:0:0:Kick2.wav
448,192,222554,128,0,222761:0:0:0:0:
192,192,222761,128,0,222968:0:0:0:0:Kick2.wav
64,192,222968,128,0,223589:0:0:0:0:
192,192,223589,128,0,223796:0:0:0:70:Kick2.wav
448,192,223796,128,0,224003:0:0:0:0:
320,192,224417,128,0,224830:0:0:0:0:Kick2.wav
192,192,224830,128,0,225244:0:0:0:0:Kick2.wav
448,192,225451,128,0,225658:0:0:0:0:
448,192,225865,128,0,226072:0:0:0:0:
320,192,226279,128,0,226692:0:0:0:0:
64,192,226692,128,0,226899:0:0:0:0:
448,192,226899,128,0,227106:0:0:0:0:Kick2.wav
64,192,227106,128,0,227313:0:0:0:0:
320,192,227727,128,0,228141:0:0:0:0:Kick2.wav
192,192,228141,128,0,228554:0:0:0:0:Kick2.wav
64,192,228761,128,0,228968:0:0:0:0:
192,192,229175,128,0,229382:0:0:0:0:
320,192,229382,128,0,229589:0:0:0:0:Kick2.wav
448,192,229589,128,0,230210:0:0:0:0:
64,192,230623,128,0,231244:0:0:0:0:Kick2.wav
192,192,231244,128,0,231865:0:0:0:0:
448,192,231865,128,0,232279:0:0:0:0:Kick2.wav
64,192,232279,128,0,232692:0:0:0:0:Kick2.wav
320,192,232692,128,0,232899:0:0:0:0:Kick2.wav
64,192,232899,128,0,233520:0:0:0:0:
320,192,233934,128,0,234348:0:0:0:0:Kick2.wav
192,192,234554,128,0,234761:0:0:0:0:
448,192,234761,128,0,234968:0:0:0:0:Kick2.wav
64,192,235175,128,0,235589:0:0:0:0:Kick2.wav
448,192,235589,128,0,235796:0:0:0:0:Kick2.wav
320,192,235796,128,0,236003:0:0:0:0:
192,192,236003,128,0,236210:0:0:0:0:Kick2.wav
64,192,236210,128,0,237244:0:0:0:0:
192,192,237244,128,0,240554:0:0:0:0:CrushCrush.wav
448,192,240554,1,0,0:0:0:100:Key11.wav
192,192,241382,1,0,0:0:0:90:Key9.wav
320,192,242210,1,0,0:0:0:90:Key10.wav
64,192,243037,1,0,0:0:0:90:Key12.wav
