osu file format v14

[General]
AudioFilename: audio.mp3
AudioLeadIn: 0
PreviewTime: 67483
Countdown: 0
SampleSet: Soft
StackLeniency: 0.7
Mode: 0
LetterboxInBreaks: 0
WidescreenStoryboard: 1

[Editor]
Bookmarks: 22748,34042,45336,56630,67924,79218,90512,101807,113101,124395,135689,146983,158277,169577,180865,192159,203453,214747,226041
DistanceSpacing: 1.3
BeatDivisor: 8
GridSize: 32
TimelineZoom: 1.099999

[Metadata]
Title:Daydreamer
TitleUnicode:Daydreamer
Artist:MYLK
ArtistUnicode:MYLK
Creator:Hinsvar
Version:Normal
Source:
Tags:English Electronic Indie Dance Electronica Kinphonic Yuki Kurihara Featured Artist FA Mappers' Guild MPG
BeatmapID:2631834
BeatmapSetID:1087638

[Difficulty]
HPDrainRate:4
CircleSize:3
OverallDifficulty:4
ApproachRate:5.5
SliderMultiplier:2.24
SliderTickRate:1

[Events]
//Background and Video events
0,0,"BG.jpg",0,0
//Break Periods
2,158477,168452
//Storyboard Layer 0 (Background)
//Storyboard Layer 1 (Fail)
//Storyboard Layer 2 (Pass)
//Storyboard Layer 3 (Foreground)
//Storyboard Layer 4 (Overlay)
//Storyboard Sound Samples

[TimingPoints]
160,705.882352941176,4,2,1,55,1,0
22748,-125,4,2,1,55,0,0
24159,-125,4,2,1,50,0,0
25571,-125,4,2,1,45,0,0
26983,-125,4,2,1,40,0,0
28395,-125,4,2,1,55,0,0
29807,-125,4,2,1,50,0,0
31218,-125,4,2,1,45,0,0
32630,-125,4,2,1,40,0,0
34042,-125,4,2,1,55,0,0
35454,-125,4,2,1,50,0,0
36865,-125,4,2,1,45,0,0
38277,-125,4,2,1,40,0,0
39689,-125,4,2,1,55,0,0
41101,-125,4,2,1,50,0,0
42512,-125,4,2,1,45,0,0
43924,-125,4,2,1,40,0,0
45336,-111.111111111111,4,2,1,60,0,0
56630,-111.111111111111,4,2,2,65,0,0
67924,-100,4,2,1,75,0,0
69689,-100,4,2,1,65,0,0
70748,-100,4,2,1,75,0,0
72336,-100,4,2,1,65,0,0
73571,-100,4,2,1,75,0,0
75336,-100,4,2,1,65,0,0
76395,-100,4,2,1,75,0,0
78159,-100,4,2,1,65,0,0
78512,-100,4,2,1,70,0,0
78689,-100,4,2,2,70,0,0
79218,-100,4,2,1,75,0,0
80983,-100,4,2,1,65,0,0
82042,-100,4,2,1,75,0,0
83630,-100,4,2,1,65,0,0
84865,-100,4,2,1,75,0,0
86630,-100,4,2,1,65,0,0
90512,-100,4,2,1,70,0,0
92277,-100,4,2,1,60,0,0
93336,-100,4,2,1,70,0,0
95101,-100,4,2,1,60,0,0
96159,-100,4,2,1,70,0,0
97924,-100,4,2,1,60,0,0
98983,-100,4,2,1,70,0,0
100748,-100,4,2,1,60,0,0
101807,-100,4,2,1,70,0,0
103571,-100,4,2,1,60,0,0
104630,-100,4,2,1,70,0,0
106395,-100,4,2,1,60,0,0
107454,-100,4,2,1,70,0,0
109218,-100,4,2,1,60,0,0
110277,-100,4,2,1,70,0,0
111689,-100,4,2,1,60,0,0
113101,-90.9090909090909,4,2,1,85,0,1
123865,-90.9090909090909,4,2,1,85,0,0
124395,-90.9090909090909,4,2,1,85,0,1
135336,-90.9090909090908,4,2,1,75,0,0
135689,-90.9090909090909,4,2,1,85,0,1
146630,-90.9090909090909,4,2,1,75,0,0
146983,-90.9090909090909,4,2,1,85,0,1
158277,-111.111111111111,4,2,1,70,0,0
169577,705.882352941176,4,2,1,60,1,0
169577,-111.111111111111,4,2,1,60,0,0
180518,-111.111111111111,4,2,1,50,0,0
180865,705.882352941176,4,2,1,85,1,1
180865,-90.9090909090909,4,2,1,85,0,1
191629,-90.9090909090909,4,2,1,85,0,0
192159,-90.9090909090909,4,2,1,85,0,1
203100,-90.9090909090909,4,2,1,75,0,0
203453,-90.9090909090909,4,2,1,85,0,1
214394,-90.9090909090909,4,2,1,75,0,0
214747,-90.9090909090909,4,2,1,85,0,1
226041,-90.9090909090908,4,2,1,70,0,0

[Colours]
Combo1 : 187,237,16
Combo2 : 255,164,119
Combo3 : 14,218,80
Combo4 : 193,196,234

[HitObjects]
27,101,22748,6,0,L|60:280,1,179.2,2|8,3:2|0:0,0:0:0:0:
129,356,23807,2,0,L|180:340,1,44.8,2|0,3:2|0:0,0:0:0:0:
199,310,24159,2,0,L|377:343,1,179.2,0|8,0:0|0:0,0:0:0:0:
474,301,25218,1,2,0:0:0:0:
415,213,25571,2,0,L|479:43,1,179.2,2|8,3:2|0:0,0:0:0:0:
374,14,26630,1,2,3:2:0:0:
335,114,26983,1,0,0:0:0:0:
131,43,27689,1,8,0:0:0:0:
241,227,28395,6,0,L|66:284,1,179.2,2|8,3:2|0:0,0:0:0:0:
11,191,29454,2,0,L|4:141,1,44.8,2|0,3:2|0:0,0:0:0:0:
34,114,29807,2,0,L|218:139,1,179.2,0|8,0:0|0:0,0:0:0:0:
270,48,30865,1,2,0:0:0:0:
349,120,31218,2,0,L|289:292,1,179.2,2|8,3:2|0:0,0:0:0:0:
378,350,32277,1,2,3:2:0:0:
440,262,32630,1,0,0:0:0:0:
238,337,33336,1,8,0:0:0:0:
142,144,34042,6,0,L|271:0,1,179.2,6|8,3:2|0:0,0:0:0:0:
360,52,35101,2,0,L|374:105,1,44.8,2|0,3:2|0:0,0:0:0:0:
348,133,35454,2,0,L|325:315,1,179.2,0|8,0:0|0:0,0:0:0:0:
234,367,36512,1,2,0:0:0:0:
193,267,36865,2,0,L|26:361,1,179.2,2|8,3:2|0:0,0:0:0:0:
0,253,37924,1,2,3:2:0:0:
88,191,38277,1,0,0:0:0:0:
220,360,38983,1,8,0:0:0:0:
402,250,39689,6,0,L|235:165,1,179.2,2|8,3:2|0:0,0:0:0:0:
211,65,40748,2,0,L|155:85,1,44.8,2|0,3:2|0:0,0:0:0:0:
127,61,41101,2,0,L|97:245,1,179.2,0|8,0:0|0:0,0:0:0:0:
158,326,42159,1,2,0:0:0:0:
257,285,42512,6,0,L|232:185,2,89.6,2|0|8,3:2|0:0|0:0,0:0:0:0:
345,346,43571,1,2,3:2:0:0:
445,308,43924,2,0,L|492:124,1,179.2,2|8,0:0|0:0,0:0:0:0:
294,27,45336,6,0,L|194:61,1,100.799996923828,14|2,3:2|1:2,0:0:0:0:
141,154,46042,1,10,1:2:0:0:
33,127,46395,1,2,1:2:0:0:
12,235,46748,2,0,L|46:273,1,50.3999984619141,2|8,1:2|0:3,0:0:0:0:
24,318,47101,2,0,L|126:338,1,100.799996923828,2|10,1:2|0:0,0:0:0:0:
220,284,47807,1,2,1:2:0:0:
296,363,48159,6,0,L|393:318,1,100.799996923828,2|2,3:2|1:2,0:0:0:0:
406,210,48865,1,10,1:2:0:0:
304,165,49218,1,2,1:2:0:0:
209,222,49571,2,0,L|159:210,1,50.3999984619141,2|8,1:2|0:3,0:0:0:0:
120,241,49924,2,0,L|51:165,1,100.799996923828,2|10,1:2|1:2,0:0:0:0:
88,61,50630,1,2,1:2:0:0:
198,47,50983,6,0,L|232:152,1,100.799996923828,2|2,3:2|1:2,0:0:0:0:
194,179,51512,1,0,0:0:0:0:
194,179,51689,2,0,L|287:220,1,100.799996923828,10|2,1:2|1:2,0:0:0:0:
286,330,52395,2,0,L|348:318,1,50.3999984619141,2|8,1:2|0:3,0:0:0:0:
379,345,52748,1,2,1:2:0:0:
483,307,53101,1,10,1:2:0:0:
429,209,53454,1,2,1:2:0:0:
474,107,53807,6,0,L|369:74,1,100.799996923828,2|2,3:2|1:2,0:0:0:0:
284,16,54512,1,10,1:2:0:0:
232,114,54865,1,2,1:2:0:0:
129,72,55218,2,0,L|69:82,1,50.3999984619141,2|8,1:2|0:3,0:0:0:0:
46,118,55571,2,0,L|128:180,1,100.799996923828,2|10,1:2|1:2,0:0:0:0:
85,282,56277,1,2,1:2:0:0:
173,348,56630,5,4,3:0:0:0:
280,319,56983,1,2,3:2:0:0:
343,228,57336,2,0,L|324:129,1,100.799996923828,2|2,3:2|3:2,0:0:0:0:
253,43,58042,2,0,L|196:30,1,50.3999984619141,2|8,3:2|0:3,0:0:0:0:
165,63,58395,1,0,3:0:0:0:
59,22,58748,2,0,L|31:118,1,100.799996923828,2|2,3:2|3:2,0:0:0:0:
90,212,59454,6,0,L|145:194,1,50.3999984619141,4|8,3:0|0:3,0:0:0:0:
175,155,59807,2,0,L|281:192,1,100.799996923828,0|2,3:0|3:2,0:0:0:0:
339,274,60512,1,2,3:2:0:0:
429,210,60865,2,0,L|420:154,2,50.3999984619141,2|8|2,3:2|0:3|3:2,0:0:0:0:
502,293,61571,2,0,L|419:361,1,100.799996923828,2|2,3:2|3:2,0:0:0:0:
331,295,62277,6,0,L|266:309,1,50.3999984619141,4|8,3:0|0:3,0:0:0:0:
243,265,62630,2,0,L|206:231,1,50.3999984619141,0|0,3:0|0:0,0:0:0:0:
217,176,62983,2,0,L|192:73,1,100.799996923828,2|2,3:2|3:2,0:0:0:0:
91,33,63689,2,0,L|37:20,2,50.3999984619141,2|8|2,3:2|0:3|3:2,0:0:0:0:
59,139,64395,1,2,3:2:0:0:
120,231,64748,1,2,3:2:0:0:
214,173,65101,6,0,L|274:184,1,50.3999984619141,4|8,3:0|0:3,0:0:0:0:
306,217,65454,2,0,L|367:138,2,100.799996923828,2|2|2,3:2|3:2|3:2,0:0:0:0:
229,297,66512,2,0,L|221:359,2,50.3999984619141,2|8|2,3:2|0:3|3:2,0:0:0:0:
191,203,67218,1,2,3:2:0:0:
91,220,67571,1,8,0:0:0:0:
64,111,67924,6,2,L|2:127,2,56,4|2|0,3:2|0:0|0:0,0:1:0:0:
93,59,68454,1,0,3:0:0:0:
93,59,68630,2,2,L|204:74,1,112,8|0,0:0|3:0,0:1:0:0:
235,120,69159,1,2,0:1:0:0:
413,46,69689,5,2,0:0:0:0:
417,163,70042,2,0,L|451:288,1,112,8|0,0:0|0:0,0:0:0:0:
381,362,70748,6,2,L|324:353,1,56,2|2,3:2|0:0,0:1:0:0:
295,313,71101,1,0,0:1:0:0:
295,313,71277,2,0,L|324:259,1,56,2|8,3:1|0:0,0:0:0:0:
286,162,71807,1,0,3:0:0:0:
286,162,71983,1,2,0:1:0:0:
114,89,72512,5,0,0:0:0:0:
18,147,72865,2,0,L|56:256,1,112,8|0,0:0|0:0,0:0:0:0:
157,304,73571,6,2,L|160:366,2,56,4|2|0,3:2|0:0|0:1,0:1:0:0:
205,275,74101,1,0,3:0:0:0:
205,275,74277,2,2,L|223:155,1,112,8|0,0:0|3:0,0:1:0:0:
179,126,74807,1,2,0:1:0:0:
363,140,75336,6,0,L|484:98,2,112,2|8|0,0:0|0:0|0:0,0:0:0:0:
445,224,76395,5,2,3:2:0:0:
445,224,76571,2,2,L|492:259,1,56,2|0,0:0|0:0,0:1:0:0:
485,313,76924,1,0,3:0:0:0:
485,313,77101,2,2,L|379:347,1,112,8|0,0:0|3:0,0:1:0:0:
347,300,77630,1,2,0:1:0:0:
179,378,78159,5,2,0:0:0:0:
101,296,78512,2,0,L|43:279,1,56,8|0,0:0|3:0,0:0:0:0:
40,224,78865,1,8,3:2:0:0:
120,145,79218,6,2,L|107:85,2,56,4|2|0,3:2|0:0|0:0,0:1:0:0:
168,185,79748,1,0,3:0:0:0:
168,185,79924,2,2,L|215:74,1,112,8|0,0:0|3:0,0:1:0:0:
185,31,80454,1,2,0:1:0:0:
354,103,80983,5,2,0:0:0:0:
456,55,81336,2,0,L|479:179,1,112,8|2,0:0|0:0,0:0:0:0:
427,266,82042,6,2,L|374:313,2,56,2|2|0,3:2|0:0|0:1,0:1:0:0:
399,217,82571,2,2,L|344:209,1,56,0|8,3:0|0:0,0:1:0:0:
258,281,83101,1,0,3:0:0:0:
258,281,83277,1,2,0:1:0:0:
318,109,83807,6,0,L|215:28,2,112,0|8|0,0:0|0:0|0:0,0:0:0:0:
329,220,84865,6,2,L|389:203,2,56,4|2|0,3:2|0:0|0:0,0:1:0:0:
322,279,85395,1,0,3:0:0:0:
322,279,85571,2,2,L|433:305,1,112,8|0,0:0|3:0,0:1:0:0:
481,279,86101,1,2,0:1:0:0:
383,118,86630,5,2,0:0:0:0:
428,15,86983,2,0,L|311:29,1,112,8|2,0:0|0:0,0:0:0:0:
226,95,87689,6,2,L|165:74,2,56,2|2|0,3:2|0:0|0:0,0:1:0:0:
262,144,88218,1,0,3:0:0:0:
262,144,88395,2,2,L|233:269,1,112,8|0,0:0|3:0,0:1:0:0:
269,298,88924,1,2,0:1:0:0:
98,370,89454,5,2,0:0:0:0:
39,274,89807,2,0,L|20:150,1,112,10|2,0:0|0:0,0:0:0:0:
85,70,90512,5,4,3:2:0:0:
85,70,90689,1,2,3:2:0:0:
161,151,91042,1,0,3:0:0:0:
161,151,91218,2,0,L|272:134,1,112,2|0,3:2|3:0,0:0:0:0:
306,89,91748,1,2,3:2:0:0:
449,204,92277,6,0,L|463:141,2,56,2|2|8,0:0|0:0|0:0,0:0:0:0:
504,301,92983,1,2,0:0:0:0:
417,371,93336,5,0,3:0:0:0:
417,371,93512,2,0,L|288:307,1,112,2|0,3:2|3:0,0:0:0:0:
289,271,94042,2,0,L|171:323,1,112,2|0,3:2|3:0,0:0:0:0:
141,282,94571,1,2,3:2:0:0:
91,103,95101,6,0,L|100:42,2,56,2|2|8,0:0|0:0|0:0,0:0:0:0:
14,184,95807,1,2,0:0:0:0:
78,282,96159,6,0,L|132:294,1,56,0|2,3:0|3:2,0:0:0:0:
217,220,96689,1,0,3:0:0:0:
217,220,96865,2,0,L|337:201,1,112,2|0,3:2|3:0,0:0:0:0:
358,249,97395,1,2,3:2:0:0:
448,88,97924,6,0,L|438:32,2,56,2|2|8,0:0|0:0|0:0,0:0:0:0:
500,187,98630,1,2,0:0:0:0:
438,280,98983,5,0,3:0:0:0:
438,280,99159,2,0,L|325:271,1,112,2|0,3:2|3:0,0:0:0:0:
294,317,99689,1,2,3:2:0:0:
201,253,100042,2,0,L|191:189,1,56,0|2,3:0|3:2,0:0:0:0:
30,97,100748,6,0,L|49:42,1,56,2|0,0:0|0:0,0:0:0:0:
98,18,101101,2,0,L|213:52,1,112,10|2,0:0|0:0,0:0:0:0:
211,109,101630,1,0,0:0:0:0:
211,109,101807,6,0,L|151:131,1,56,4|2,3:2|3:2,0:0:0:0:
203,230,102336,2,0,L|269:254,1,56,0|2,3:0|3:2,0:0:0:0:
325,343,102865,1,0,3:0:0:0:
325,343,103042,1,2,3:2:0:0:
394,168,103571,6,0,L|466:157,2,56,2|2|8,0:0|0:0|0:0,0:0:0:0:
326,77,104277,1,2,0:0:0:0:
227,130,104630,6,0,L|169:117,1,56,0|2,3:0|3:2,0:0:0:0:
96,42,105159,1,0,3:0:0:0:
96,42,105336,1,2,3:2:0:0:
22,126,105689,2,0,L|38:187,1,56,0|2,3:0|3:2,0:0:0:0:
181,292,106395,6,0,L|194:230,2,56,2|2|8,0:0|0:0|0:0,0:0:0:0:
271,361,107101,1,2,0:0:0:0:
368,305,107454,5,0,3:0:0:0:
368,305,107630,2,0,L|345:188,1,112,2|0,3:2|3:0,0:0:0:0:
382,151,108159,1,2,3:2:0:0:
477,220,108512,1,0,3:0:0:0:
477,220,108689,1,2,3:2:0:0:
336,345,109218,6,0,L|276:335,2,56,2|2|8,0:0|0:0|0:0,0:0:0:0:
325,233,109924,1,2,0:0:0:0:
241,158,110277,5,0,3:0:0:0:
241,158,110454,1,2,3:2:0:0:
170,245,110807,1,0,3:0:0:0:
170,245,110983,2,0,L|50:274,1,112,2|0,3:2|3:0,0:0:0:0:
25,228,111512,2,0,L|-5:167,1,56,2|8,3:2|0:0,0:0:0:0:
56,80,112042,5,2,0:0:0:0:
161,118,112395,2,0,L|170:60,2,56,2|0|2,0:0|3:0|3:0,0:0:0:0:
200,165,112924,1,2,3:0:0:0:
200,165,113101,6,0,L|313:98,1,123.200003759766,4|8,3:2|0:3,0:0:0:0:
417,155,113807,2,0,L|486:172,2,61.6000018798829,10|2|0,0:0|0:0|3:0,0:0:0:0:
424,220,114336,1,8,0:3:0:0:
424,220,114512,2,0,L|368:258,1,61.6000018798829,2|8,0:0|0:3,0:0:0:0:
322,219,114865,1,0,3:0:0:0:
230,301,115218,1,10,0:0:0:0:
230,301,115395,1,8,0:3:0:0:
70,207,115924,6,0,L|113:88,1,123.200003759766,2|8,3:2|0:3,0:0:0:0:
233,110,116630,2,0,L|306:82,2,61.6000018798829,10|2|0,0:0|0:0|3:0,0:0:0:0:
213,171,117159,1,8,0:3:0:0:
213,171,117336,2,0,L|229:242,1,61.6000018798829,2|8,0:0|0:3,0:0:0:0:
203,288,117689,1,2,3:2:0:0:
316,348,118042,1,8,0:0:0:0:
316,348,118218,1,8,0:3:0:0:
490,243,118748,6,0,L|453:115,1,123.200003759766,4|8,3:2|0:3,0:0:0:0:
405,157,119277,1,8,0:3:0:0:
405,157,119454,2,0,L|334:129,2,61.6000018798829,10|2|0,0:0|0:0|3:0,0:0:0:0:
345,264,120159,2,0,L|374:324,1,61.6000018798829,2|8,0:0|0:3,0:0:0:0:
415,363,120512,2,0,L|489:252,1,123.200003759766,0|10,3:0|0:0,0:0:0:0:
471,199,121042,1,8,0:3:0:0:
407,5,121571,6,0,L|290:59,1,123.200003759766,2|8,3:2|0:3,0:0:0:0:
276,118,122101,1,8,0:3:0:0:
276,118,122277,2,0,L|210:108,1,61.6000018798829,10|0,0:0|0:0,0:0:0:0:
171,152,122630,1,2,3:2:0:0:
76,230,122983,2,0,L|21:95,1,123.200003759766,2|0,0:0|3:0,0:0:0:0:
105,19,123689,1,8,0:0:0:0:
105,19,123865,1,8,0:3:0:0:
305,54,124395,6,0,L|287:178,1,123.200003759766,4|8,3:2|0:3,0:0:0:0:
338,220,124924,1,8,0:3:0:0:
338,220,125101,2,0,L|402:209,2,61.6000018798829,10|2|0,0:0|0:0|3:0,0:0:0:0:
322,342,125807,2,0,L|261:314,1,61.6000018798829,2|8,0:0|0:3,0:0:0:0:
227,268,126159,2,0,L|105:302,1,123.200003759766,0|10,3:0|0:0,0:0:0:0:
93,240,126689,1,8,0:3:0:0:
226,86,127218,5,2,3:2:0:0:
283,194,127571,2,0,L|334:236,1,61.6000018798829,8|8,0:3|0:3,0:0:0:0:
382,198,127924,2,0,L|442:165,2,61.6000018798829,10|2|0,0:0|0:0|3:0,0:0:0:0:
465,289,128630,2,0,L|454:364,1,61.6000018798829,2|8,0:0|0:3,0:0:0:0:
397,369,128983,2,0,L|270:306,1,123.200003759766,2|8,0:0|0:0,0:0:0:0:
249,264,129512,1,8,0:3:0:0:
52,315,130042,6,0,L|106:188,1,123.200003759766,4|8,3:2|0:3,0:0:0:0:
123,147,130571,1,8,0:3:0:0:
123,147,130748,2,0,L|76:103,2,61.6000018798829,10|2|0,0:0|0:0|3:0,0:0:0:0:
238,189,131454,2,0,L|230:253,1,61.6000018798829,2|8,0:0|0:3,0:0:0:0:
193,299,131807,1,0,3:0:0:0:
88,249,132159,1,10,0:0:0:0:
88,249,132336,1,8,0:3:0:0:
29,54,132865,6,0,L|153:79,1,123.200003759766,2|8,3:2|0:3,0:0:0:0:
207,113,133395,1,8,0:3:0:0:
207,113,133571,2,0,L|263:75,2,61.6000018798829,10|0|2,0:0|0:0|3:2,0:0:0:0:
122,202,134277,2,0,L|109:324,1,123.200003759766,2|0,0:0|0:0,0:0:0:0:
163,364,134807,1,2,0:0:0:0:
163,364,134983,2,0,L|233:338,1,61.6000018798829,10|8,0:0|0:3,0:0:0:0:
251,288,135336,2,0,L|318:323,1,61.6000018798829,2|2,0:0|0:0,0:0:0:0:
359,286,135689,5,4,3:2:0:0:
464,350,136042,2,0,L|481:276,1,61.6000018798829,8|8,0:3|0:3,0:0:0:0:
510,237,136395,2,0,L|479:102,1,123.200003759766,10|2,0:0|3:2,0:0:0:0:
380,46,137101,2,0,L|435:12,2,61.6000018798829,2|8|8,0:0|0:3|0:3,0:0:0:0:
319,153,137807,2,0,L|257:145,1,61.6000018798829,10|8,0:0|0:3,0:0:0:0:
214,102,138159,1,0,0:0:0:0:
136,197,138512,6,0,L|39:104,1,123.200003759766,2|8,3:2|0:3,0:0:0:0:
29,57,139042,1,8,0:3:0:0:
29,57,139218,2,0,L|148:13,1,123.200003759766,10|2,0:0|3:2,0:0:0:0:
227,104,139924,2,0,L|298:124,1,61.6000018798829,2|8,0:0|0:3,0:0:0:0:
321,172,140277,1,8,0:3:0:0:
401,78,140630,1,10,0:0:0:0:
401,78,140807,2,0,L|420:10,2,61.6000018798829,8|2|2,0:3|0:0|0:0,0:0:0:0:
442,123,141336,5,4,3:2:0:0:
415,243,141689,2,0,L|436:316,1,61.6000018798829,8|8,0:3|0:3,0:0:0:0:
388,345,142042,2,0,L|264:309,1,123.200003759766,10|2,0:0|3:2,0:0:0:0:
168,239,142748,2,0,L|179:170,2,61.6000018798829,2|8|8,0:0|0:3|0:3,0:0:0:0:
68,317,143454,2,0,L|121:362,1,61.6000018798829,10|8,0:0|0:3,0:0:0:0:
176,363,143807,1,0,0:0:0:0:
279,302,144159,6,0,L|402:274,1,123.200003759766,2|8,3:2|0:3,0:0:0:0:
450,309,144689,1,8,0:3:0:0:
450,309,144865,2,0,L|472:184,1,123.200003759766,10|2,0:0|3:2,0:0:0:0:
384,99,145571,2,0,L|393:32,2,61.6000018798829,2|8|8,0:0|0:3|0:3,0:0:0:0:
276,159,146277,2,0,L|212:176,1,61.6000018798829,8|8,0:0|0:3,0:0:0:0:
156,159,146630,2,0,L|121:105,1,61.6000018798829,2|2,3:2|3:2,0:0:0:0:
63,88,146983,6,0,L|26:211,1,123.200003759766,4|8,3:2|0:3,0:0:0:0:
50,268,147512,1,8,0:3:0:0:
50,268,147689,1,10,0:0:0:0:
139,182,148042,2,0,L|201:165,1,61.6000018798829,2|2,3:2|3:2,0:0:0:0:
230,218,148395,2,0,L|314:251,1,61.6000018798829,2|8,0:0|0:3,0:0:0:0:
347,226,148748,1,8,0:3:0:0:
434,313,149101,2,0,L|496:204,1,123.200003759766,10|0,0:0|0:0,0:0:0:0:
432,99,149807,6,0,L|307:128,1,123.200003759766,2|8,3:2|0:3,0:0:0:0:
286,185,150336,1,8,0:3:0:0:
286,185,150512,2,0,L|203:87,1,123.200003759766,10|2,0:0|3:2,0:0:0:0:
245,44,151042,1,2,3:2:0:0:
245,44,151218,2,0,L|309:32,1,61.6000018798829,2|8,0:0|0:3,0:0:0:0:
358,64,151571,1,8,0:3:0:0:
426,172,151924,1,10,0:0:0:0:
426,172,152101,2,0,L|456:106,2,61.6000018798829,8|2|2,0:3|0:0|0:0,0:0:0:0:
413,232,152630,6,0,L|292:173,1,123.200003759766,4|8,3:2|0:3,0:0:0:0:
259,222,153159,1,8,0:3:0:0:
259,222,153336,1,10,0:0:0:0:
179,317,153689,2,0,L|112:346,1,61.6000018798829,2|2,3:2|3:2,0:0:0:0:
61,334,154042,2,0,L|15:286,1,61.6000018798829,2|8,0:0|0:3,0:0:0:0:
50,237,154395,1,8,0:3:0:0:
1,123,154748,2,0,L|115:72,1,123.200003759766,10|0,0:0|0:0,0:0:0:0:
236,85,155454,6,0,L|313:193,1,123.200003759766,2|8,3:2|0:3,0:0:0:0:
267,232,155983,1,8,0:3:0:0:
267,232,156159,2,0,L|391:262,1,123.200003759766,10|2,0:0|3:2,0:0:0:0:
395,326,156689,1,2,3:2:0:0:
395,326,156865,2,0,L|330:345,2,61.6000018798829,2|8|8,0:0|0:3|0:3,0:0:0:0:
485,242,157571,2,0,L|500:164,2,61.6000018798829,10|8|0,0:0|0:3|0:0,0:0:0:0:
509,360,158277,5,2,3:2:0:0:
435,78,169577,6,0,L|371:101,1,50.3999984619141,4|8,3:2|0:3,0:0:0:0:
365,140,169929,2,0,L|263:110,1,100.799996923828,2|2,1:2|1:2,0:0:0:0:
200,23,170635,1,2,1:2:0:0:
113,91,170988,2,0,L|58:103,2,50.3999984619141,2|8|2,1:2|0:3|1:2,0:0:0:0:
187,173,171694,2,0,L|163:290,1,100.799996923828,2|2,1:2|1:2,0:0:0:0:
72,331,172400,6,0,L|35:283,2,50.3999984619141,2|8|2,3:2|0:3|1:2,0:0:0:0:
176,368,173106,1,2,1:2:0:0:
257,292,173459,1,2,1:2:0:0:
356,340,173812,2,0,L|421:328,1,50.3999984619141,2|8,1:2|0:3,0:0:0:0:
438,286,174165,2,0,L|351:221,1,100.799996923828,2|2,1:2|1:2,0:0:0:0:
425,137,174871,1,2,1:2:0:0:
344,60,175224,6,0,L|338:8,2,50.3999984619141,2|8|2,3:2|0:3|1:2,0:0:0:0:
269,142,175929,2,0,L|250:244,1,100.799996923828,2|2,1:2|1:2,0:0:0:0:
169,317,176635,2,0,L|112:301,1,50.3999984619141,2|8,1:2|0:3,0:0:0:0:
77,338,176988,2,0,L|40:241,1,100.799996923828,2|2,1:2|1:2,0:0:0:0:
106,153,177694,1,2,1:2:0:0:
53,55,178047,6,0,L|108:42,1,50.3999984619141,2|8,3:2|0:3,0:0:0:0:
154,63,178400,1,2,1:2:0:0:
230,142,178753,2,0,L|333:157,1,100.799996923828,2|2,1:2|0:0,0:0:0:0:
413,83,179459,2,0,L|401:28,2,50.3999984619141,2|8|2,1:2|0:3|1:2,0:0:0:0:
495,157,180165,1,2,1:2:0:0:
449,257,180518,1,2,1:2:0:0:
335,209,180865,6,0,L|175:249,1,123.200003759766,4|8,3:2|0:3,0:0:0:0:
124,154,181570,2,0,L|132:90,2,61.6000018798829,10|2|0,0:0|0:0|3:0,0:0:0:0:
78,194,182100,1,8,0:3:0:0:
78,194,182276,2,0,L|18:223,1,61.6000018798829,2|8,0:0|0:3,0:0:0:0:
12,281,182629,1,0,3:0:0:0:
131,311,182982,2,0,L|147:371,1,61.6000018798829,10|8,0:0|0:3,0:0:0:0:
306,243,183688,6,0,L|329:109,1,123.200003759766,2|8,3:2|0:3,0:0:0:0:
295,75,184217,1,8,0:3:0:0:
295,75,184394,2,0,L|241:39,2,61.6000018798829,10|2|0,0:0|0:0|3:0,0:0:0:0:
406,21,185100,2,0,L|475:10,1,61.6000018798829,2|8,0:0|0:3,0:0:0:0:
503,61,185453,1,2,3:2:0:0:
442,168,185806,1,8,0:0:0:0:
442,168,185982,1,8,0:3:0:0:
496,363,186512,6,0,L|377:318,1,123.200003759766,4|8,3:2|0:3,0:0:0:0:
333,358,187041,1,8,0:3:0:0:
333,358,187217,2,0,L|312:292,1,61.6000018798829,10|2,0:0|0:0,0:0:0:0:
262,266,187570,1,0,3:0:0:0:
165,342,187923,2,0,L|93:358,1,61.6000018798829,2|8,0:0|0:3,0:0:0:0:
57,316,188276,2,0,L|88:193,1,123.200003759766,0|10,3:0|0:0,0:0:0:0:
48,147,188806,1,8,0:3:0:0:
205,49,189335,6,0,L|337:70,1,123.200003759766,2|8,3:2|0:3,0:0:0:0:
369,120,189865,1,8,0:3:0:0:
369,120,190041,2,0,L|434:98,2,61.6000018798829,10|0|0,0:0|0:0|3:0,0:0:0:0:
257,172,190747,2,0,L|240:304,1,123.200003759766,2|0,0:0|3:0,0:0:0:0:
281,349,191276,1,2,0:0:0:0:
281,349,191453,2,0,L|345:338,1,61.6000018798829,8|8,0:0|0:3,0:0:0:0:
403,145,192159,6,0,L|508:218,1,123.200003759766,4|8,3:2|0:3,0:0:0:0:
471,268,192688,1,8,0:3:0:0:
471,268,192865,2,0,L|487:332,2,61.6000018798829,10|2|0,0:0|0:0|3:0,0:0:0:0:
355,224,193570,2,0,L|336:292,1,61.6000018798829,2|8,0:0|0:3,0:0:0:0:
294,327,193923,2,0,L|168:355,1,123.200003759766,0|10,3:0|0:0,0:0:0:0:
126,313,194453,1,8,0:3:0:0:
262,162,194982,6,0,L|240:31,1,123.200003759766,2|8,3:2|0:3,0:0:0:0:
187,22,195512,1,8,0:3:0:0:
187,22,195688,2,0,L|123:40,1,61.6000018798829,10|2,0:0|0:0,0:0:0:0:
86,84,196041,1,0,3:0:0:0:
159,182,196394,2,0,L|168:254,2,61.6000018798829,2|8|2,0:0|0:3|3:2,0:0:0:0:
260,111,197100,1,8,0:0:0:0:
260,111,197276,1,8,0:3:0:0:
434,215,197806,6,0,L|306:259,1,123.200003759766,4|8,3:2|0:3,0:0:0:0:
287,308,198335,1,8,0:3:0:0:
287,308,198512,2,0,L|219:284,2,61.6000018798829,10|2|0,0:0|0:0|3:0,0:0:0:0:
390,375,199217,2,0,L|409:309,1,61.6000018798829,2|8,0:0|0:3,0:0:0:0:
468,322,199570,2,0,L|448:193,1,123.200003759766,0|10,3:0|0:0,0:0:0:0:
488,151,200100,1,8,0:3:0:0:
323,32,200629,6,0,L|217:130,1,123.200003759766,2|8,3:2|0:3,0:0:0:0:
181,91,201159,1,8,0:3:0:0:
181,91,201335,2,0,L|163:164,1,61.6000018798829,10|0,0:0|0:0,0:0:0:0:
200,202,201688,1,2,3:2:0:0:
138,308,202041,2,0,L|26:247,1,123.200003759766,2|8,0:0|0:3,0:0:0:0:
17,193,202570,1,2,0:0:0:0:
17,193,202747,2,0,L|2:111,1,61.6000018798829,10|8,0:0|0:3,0:0:0:0:
64,112,203100,2,0,L|74:41,1,61.6000018798829,8|8,0:3|0:3,0:0:0:0:
128,24,203453,5,4,3:2:0:0:
231,95,203806,2,0,L|296:76,2,61.6000018798829,8|8|10,0:3|0:3|0:0,0:0:0:0:
146,185,204512,2,0,L|78:170,1,61.6000018798829,0|8,3:0|0:3,0:0:0:0:
41,215,204865,2,0,L|79:335,1,123.200003759766,2|8,0:0|0:3,0:0:0:0:
139,359,205394,1,2,0:0:0:0:
139,359,205570,2,0,L|206:341,1,61.6000018798829,8|8,0:0|0:3,0:0:0:0:
219,285,205923,1,2,0:0:0:0:
309,201,206276,6,0,L|422:271,1,123.200003759766,2|8,3:2|0:3,0:0:0:0:
440,329,206806,1,8,0:3:0:0:
440,329,206982,1,10,0:0:0:0:
508,226,207335,2,0,L|490:160,1,61.6000018798829,0|2,3:0|0:0,0:0:0:0:
508,106,207688,2,0,L|388:137,1,123.200003759766,2|8,0:0|0:3,0:0:0:0:
337,114,208217,1,2,0:0:0:0:
337,114,208394,2,0,L|322:49,1,61.6000018798829,8|8,0:0|0:3,0:0:0:0:
270,22,208747,2,0,L|243:80,1,61.6000018798829,2|2,0:0|0:0,0:0:0:0:
187,102,209100,5,4,3:2:0:0:
92,181,209453,2,0,L|29:174,2,61.6000018798829,8|8|10,0:3|0:3|0:0,0:0:0:0:
157,285,210159,2,0,L|209:242,1,61.6000018798829,0|8,3:0|0:3,0:0:0:0:
265,251,210512,2,0,L|225:125,1,123.200003759766,2|8,0:0|0:3,0:0:0:0:
257,78,211041,1,2,0:0:0:0:
257,78,211217,2,0,L|334:96,1,61.6000018798829,8|8,0:0|0:3,0:0:0:0:
355,43,211570,1,2,0:0:0:0:
457,110,211923,6,0,L|484:232,1,123.200003759766,2|8,3:2|0:3,0:0:0:0:
450,282,212453,1,8,0:3:0:0:
450,282,212629,1,10,0:0:0:0:
345,347,212982,2,0,L|283:311,1,61.6000018798829,0|8,3:0|0:3,0:0:0:0:
292,254,213335,2,0,L|167:226,1,123.200003759766,2|0,0:0|0:0,0:0:0:0:
149,174,213864,1,2,0:0:0:0:
149,174,214041,2,0,L|220:143,1,61.6000018798829,8|8,0:0|0:3,0:0:0:0:
266,158,214394,2,0,L|275:88,1,61.6000018798829,8|8,0:3|0:3,0:0:0:0:
236,47,214747,5,4,3:2:0:0:
353,8,215100,2,0,L|432:29,2,61.6000018798829,8|8|10,0:3|0:3|0:0,0:0:0:0:
355,130,215806,2,0,L|416:118,1,61.6000018798829,0|8,3:0|0:3,0:0:0:0:
447,170,216159,2,0,L|416:290,1,123.200003759766,2|8,0:0|0:3,0:0:0:0:
358,300,216688,1,2,0:0:0:0:
358,300,216864,2,0,L|309:360,2,61.6000018798829,8|8|2,0:0|0:3|0:0,0:0:0:0:
246,245,217570,6,0,L|227:119,1,123.200003759766,2|8,3:2|0:3,0:0:0:0:
270,78,218100,1,8,0:3:0:0:
270,78,218276,1,10,0:0:0:0:
161,18,218629,2,0,L|100:26,1,61.6000018798829,0|8,3:0|0:3,0:0:0:0:
56,70,218982,2,0,L|144:163,1,123.200003759766,2|0,0:0|0:0,0:0:0:0:
114,217,219512,1,2,0:0:0:0:
114,217,219688,2,0,L|75:270,2,61.6000018798829,10|8|2,0:0|0:3|0:0,0:0:0:0:
237,213,220394,5,4,3:2:0:0:
314,307,220747,2,0,L|329:373,2,61.6000018798829,8|8|10,0:3|0:3|0:0,0:0:0:0:
437,307,221453,2,0,L|450:238,1,61.6000018798829,0|8,3:0|0:3,0:0:0:0:
493,203,221806,2,0,L|459:75,1,123.200003759766,2|0,0:0|0:0,0:0:0:0:
427,39,222335,1,2,0:0:0:0:
427,39,222512,2,0,L|491:23,2,61.6000018798829,10|8|2,0:0|0:3|0:0,0:0:0:0:
310,81,223217,6,0,L|180:57,1,123.200003759766,2|8,3:2|0:3,0:0:0:0:
162,117,223747,1,8,0:3:0:0:
162,117,223923,2,0,L|261:194,1,123.200003759766,10|0,0:0|3:0,0:0:0:0:
274,257,224453,1,8,0:3:0:0:
274,257,224629,1,2,0:0:0:0:
359,345,224982,2,0,L|412:307,1,61.6000018798829,0|2,0:0|0:0,0:0:0:0:
466,281,225335,1,10,0:0:0:0:
466,281,225512,2,0,L|475:220,2,61.6000018798829,8|2|2,0:3|0:0|0:0,0:0:0:0:
506,327,226041,5,4,3:2:0:0:
