osu file format v14

[General]
AudioFilename: audio.mp3
AudioLeadIn: 0
PreviewTime: 144725
Countdown: 0
SampleSet: Normal
StackLeniency: 0.7
Mode: 1
LetterboxInBreaks: 0
WidescreenStoryboard: 0

[Editor]
Bookmarks: 26483
DistanceSpacing: 0.4
BeatDivisor: 4
GridSize: 32
TimelineZoom: 0.5999997

[Metadata]
Title:Bubblegum
TitleUnicode:Bubblegum
Artist:MYLK
ArtistUnicode:MYLK
Creator:Cynplytholowazy
Version:Nardo's Oni
Source:
Tags:Nardoxyribonucleic HiroK jpop Kawaii Bass Futurebass Cute EDM Pop electronic Future
BeatmapID:2204738
BeatmapSetID:1055143

[Difficulty]
HPDrainRate:5
CircleSize:7
OverallDifficulty:6
ApproachRate:10
SliderMultiplier:1.4
SliderTickRate:1

[Events]
//Background and Video events
0,0,"unknown.png",0,0
//Break Periods
//Storyboard Layer 0 (Background)
//Storyboard Layer 1 (Fail)
//Storyboard Layer 2 (Pass)
//Storyboard Layer 3 (Foreground)
//Storyboard Layer 4 (Overlay)
//Storyboard Sound Samples

[TimingPoints]
1,413.793103448276,4,2,0,40,1,0
1,-125,4,2,0,40,0,0
6518,-111.111111111111,4,1,0,50,0,0
12828,-83.3333333333333,4,1,0,60,0,0
13242,-100,4,1,0,75,0,0
40035,-111.111111111111,4,1,0,65,0,0
52966,-105.263157894737,4,1,0,75,0,0
66207,-95.2380952380952,4,1,0,85,0,1
78932,-95.2380952380952,4,1,0,85,0,0
79449,-90.9090909090909,4,1,0,85,0,1
92690,-90.9090909090909,4,1,0,85,0,0
92794,-100,4,1,0,75,0,0
104483,-100,4,1,0,60,0,0
105518,-83.3333333333333,4,1,0,65,0,0
105932,-90.9090909090909,4,1,0,75,0,0
119173,-105.263157894737,4,1,0,75,0,0
132414,-95.2380952380952,4,1,0,75,0,0
144828,-97.0873786407767,4,1,0,75,0,0
145035,-99.009900990099,4,1,0,75,0,0
145138,-100,4,1,0,75,0,0
145242,-101.010101010101,4,1,0,75,0,0
145345,-102.040816326531,4,1,0,75,0,0
145449,-103.092783505155,4,1,0,75,0,0
145656,-105.263157894737,4,1,0,80,0,0
158897,-100,4,1,0,80,0,0
172138,-90.9090909090909,4,1,0,85,0,1
185380,-90.9090909090909,4,1,0,85,0,0
185587,-100,4,1,0,60,0,0
195621,-100,4,1,0,50,0,0
198207,-83.3333333333333,4,1,0,65,0,0

[HitObjects]
256,192,2069,5,0,0:0:0:0:
256,192,5380,1,8,0:0:0:0:
256,192,6621,1,8,0:0:0:0:
256,192,6828,1,0,0:0:0:0:
256,192,7242,1,0,0:0:0:0:
256,192,7449,1,8,0:0:0:0:
256,192,7656,1,0,0:0:0:0:
256,192,7863,1,8,0:0:0:0:
256,192,8069,1,8,0:0:0:0:
256,192,8690,1,0,0:0:0:0:
256,192,9932,1,8,0:0:0:0:
256,192,10138,1,0,0:0:0:0:
256,192,10552,1,0,0:0:0:0:
256,192,10759,1,8,0:0:0:0:
256,192,10966,1,0,0:0:0:0:
256,192,11173,1,8,0:0:0:0:
256,192,11380,1,8,0:0:0:0:
256,192,12001,1,8,0:0:0:0:
256,192,12828,1,12,0:0:0:0:
256,192,13242,1,4,0:0:0:0:
256,192,13449,1,0,0:0:0:0:
256,192,13656,1,8,0:0:0:0:
256,192,13863,1,8,0:0:0:0:
256,192,13966,1,0,0:0:0:0:
256,192,14069,1,8,0:0:0:0:
256,192,14276,1,0,0:0:0:0:
256,192,14483,1,8,0:0:0:0:
256,192,14690,1,8,0:0:0:0:
256,192,14794,1,8,0:0:0:0:
256,192,14897,1,0,0:0:0:0:
256,192,15104,1,0,0:0:0:0:
256,192,15311,1,8,0:0:0:0:
256,192,15725,1,0,0:0:0:0:
256,192,16138,1,8,0:0:0:0:
256,192,16552,1,8,0:0:0:0:
256,192,16759,1,0,0:0:0:0:
256,192,16966,1,8,0:0:0:0:
256,192,17173,1,0,0:0:0:0:
256,192,17276,1,8,0:0:0:0:
256,192,17380,1,0,0:0:0:0:
256,192,17587,1,0,0:0:0:0:
256,192,17794,1,8,0:0:0:0:
256,192,18001,1,0,0:0:0:0:
256,192,18104,1,0,0:0:0:0:
256,192,18207,1,8,0:0:0:0:
256,192,18414,1,0,0:0:0:0:
256,192,18621,1,0,0:0:0:0:
256,192,18828,1,8,0:0:0:0:
256,192,19035,1,8,0:0:0:0:
256,192,19449,1,0,0:0:0:0:
256,192,19656,1,0,0:0:0:0:
256,192,19863,1,8,0:0:0:0:
256,192,20069,1,0,0:0:0:0:
256,192,20276,1,8,0:0:0:0:
256,192,20483,1,8,0:0:0:0:
256,192,20587,1,0,0:0:0:0:
256,192,20690,1,8,0:0:0:0:
256,192,20897,1,0,0:0:0:0:
256,192,21104,1,8,0:0:0:0:
256,192,21311,1,8,0:0:0:0:
256,192,21414,1,8,0:0:0:0:
256,192,21518,1,0,0:0:0:0:
256,192,21725,1,0,0:0:0:0:
256,192,21932,1,8,0:0:0:0:
256,192,22345,1,0,0:0:0:0:
256,192,22759,1,8,0:0:0:0:
256,192,23173,1,0,0:0:0:0:
256,192,23380,1,8,0:0:0:0:
256,192,23483,1,0,0:0:0:0:
256,192,23587,1,8,0:0:0:0:
256,192,23897,1,0,0:0:0:0:
256,192,24001,1,8,0:0:0:0:
256,192,24207,1,0,0:0:0:0:
256,192,24414,1,8,0:0:0:0:
256,192,24621,1,8,0:0:0:0:
256,192,24828,1,0,0:0:0:0:
256,192,24932,1,8,0:0:0:0:
256,192,25035,1,0,0:0:0:0:
256,192,25138,1,8,0:0:0:0:
256,192,25242,1,0,0:0:0:0:
256,192,25449,1,0,0:0:0:0:
256,192,25656,1,8,0:0:0:0:
256,192,25863,1,0,0:0:0:0:
256,192,25966,1,0,0:0:0:0:
256,192,26069,1,8,0:0:0:0:
256,192,26276,1,8,0:0:0:0:
256,192,26483,1,4,0:0:0:0:
256,192,26794,1,8,0:0:0:0:
256,192,26897,1,0,0:0:0:0:
256,192,27104,1,8,0:0:0:0:
256,192,27311,1,0,0:0:0:0:
256,192,27621,1,8,0:0:0:0:
256,192,27725,1,0,0:0:0:0:
256,192,27932,1,8,0:0:0:0:
256,192,28138,1,0,0:0:0:0:
256,192,28345,1,8,0:0:0:0:
256,192,28449,1,8,0:0:0:0:
256,192,28552,1,0,0:0:0:0:
256,192,28759,1,0,0:0:0:0:
256,192,28966,1,8,0:0:0:0:
256,192,29173,1,0,0:0:0:0:
256,192,29380,1,8,0:0:0:0:
256,192,29794,1,0,0:0:0:0:
256,192,30104,1,0,0:0:0:0:
256,192,30207,1,8,0:0:0:0:
256,192,30414,1,8,0:0:0:0:
256,192,30621,1,0,0:0:0:0:
256,192,30932,1,0,0:0:0:0:
256,192,31035,1,8,0:0:0:0:
256,192,31242,1,8,0:0:0:0:
256,192,31449,1,0,0:0:0:0:
256,192,31656,1,0,0:0:0:0:
256,192,31759,1,0,0:0:0:0:
256,192,31863,1,8,0:0:0:0:
256,192,32069,1,8,0:0:0:0:
256,192,32276,1,0,0:0:0:0:
256,192,32483,1,0,0:0:0:0:
256,192,32690,1,8,0:0:0:0:
256,192,33104,1,0,0:0:0:0:
256,192,33414,1,8,0:0:0:0:
256,192,33518,1,0,0:0:0:0:
256,192,33725,1,8,0:0:0:0:
256,192,33932,1,0,0:0:0:0:
256,192,34242,1,8,0:0:0:0:
256,192,34345,1,0,0:0:0:0:
256,192,34552,1,8,0:0:0:0:
256,192,34759,1,0,0:0:0:0:
256,192,34966,1,8,0:0:0:0:
256,192,35069,1,8,0:0:0:0:
256,192,35173,1,0,0:0:0:0:
256,192,35380,1,0,0:0:0:0:
256,192,35587,1,8,0:0:0:0:
256,192,35794,1,0,0:0:0:0:
256,192,36001,1,8,0:0:0:0:
256,192,36414,1,0,0:0:0:0:
256,192,36725,1,0,0:0:0:0:
256,192,36828,1,8,0:0:0:0:
256,192,37035,1,8,0:0:0:0:
256,192,37242,1,0,0:0:0:0:
256,192,37552,1,0,0:0:0:0:
256,192,37656,1,8,0:0:0:0:
256,192,37863,1,8,0:0:0:0:
256,192,38069,1,0,0:0:0:0:
256,192,38276,1,0,0:0:0:0:
256,192,38380,1,0,0:0:0:0:
256,192,38483,1,8,0:0:0:0:
256,192,38690,1,8,0:0:0:0:
256,192,38897,1,0,0:0:0:0:
256,192,39104,1,8,0:0:0:0:
256,192,39207,1,0,0:0:0:0:
256,192,39311,1,8,0:0:0:0:
256,192,39518,1,8,0:0:0:0:
256,192,39725,1,4,0:0:0:0:
256,192,40035,1,0,0:0:0:0:
256,192,40138,1,0,0:0:0:0:
256,192,40242,1,8,0:0:0:0:
256,192,40345,1,8,0:0:0:0:
256,192,40759,1,0,0:0:0:0:
256,192,41380,1,8,0:0:0:0:
256,192,41587,1,0,0:0:0:0:
256,192,41794,1,8,0:0:0:0:
256,192,42207,1,0,0:0:0:0:
256,192,43035,1,0,0:0:0:0:
256,192,43345,1,0,0:0:0:0:
256,192,43449,1,0,0:0:0:0:
256,192,43552,1,8,0:0:0:0:
256,192,43656,1,8,0:0:0:0:
256,192,44069,1,0,0:0:0:0:
256,192,44483,1,0,0:0:0:0:
256,192,44690,1,8,0:0:0:0:
256,192,44897,1,0,0:0:0:0:
256,192,45311,1,0,0:0:0:0:
256,192,45725,1,0,0:0:0:0:
256,192,45932,1,8,0:0:0:0:
256,192,46345,1,4,0:0:0:0:
256,192,46656,1,0,0:0:0:0:
256,192,46759,1,0,0:0:0:0:
256,192,46863,1,8,0:0:0:0:
256,192,46966,1,8,0:0:0:0:
256,192,47380,1,0,0:0:0:0:
256,192,48001,1,8,0:0:0:0:
256,192,48207,1,0,0:0:0:0:
256,192,48414,1,8,0:0:0:0:
256,192,48828,1,0,0:0:0:0:
256,192,49656,1,0,0:0:0:0:
256,192,49966,1,0,0:0:0:0:
256,192,50069,1,0,0:0:0:0:
256,192,50173,1,8,0:0:0:0:
256,192,50276,1,8,0:0:0:0:
256,192,50690,1,0,0:0:0:0:
256,192,51311,1,8,0:0:0:0:
256,192,51518,1,0,0:0:0:0:
256,192,51725,1,8,0:0:0:0:
256,192,52138,1,8,0:0:0:0:
256,192,52759,1,0,0:0:0:0:
256,192,52966,1,4,0:0:0:0:
256,192,53380,1,8,0:0:0:0:
256,192,53794,1,8,0:0:0:0:
256,192,54207,1,0,0:0:0:0:
256,192,54414,1,0,0:0:0:0:
256,192,54621,1,0,0:0:0:0:
256,192,54932,1,8,0:0:0:0:
256,192,55242,1,8,0:0:0:0:
256,192,55449,1,0,0:0:0:0:
256,192,56069,1,0,0:0:0:0:
256,192,56276,1,8,0:0:0:0:
256,192,56483,1,0,0:0:0:0:
256,192,56587,1,0,0:0:0:0:
256,192,56897,1,8,0:0:0:0:
256,192,57104,1,0,0:0:0:0:
256,192,57311,1,8,0:0:0:0:
256,192,57414,1,8,0:0:0:0:
256,192,57725,1,0,0:0:0:0:
256,192,57932,1,0,0:0:0:0:
256,192,58242,1,8,0:0:0:0:
256,192,58552,1,8,0:0:0:0:
256,192,58759,1,0,0:0:0:0:
256,192,58966,1,8,0:0:0:0:
256,192,59173,1,0,0:0:0:0:
256,192,59587,1,4,0:0:0:0:
256,192,60001,1,8,0:0:0:0:
256,192,60414,1,8,0:0:0:0:
256,192,60828,1,0,0:0:0:0:
256,192,61035,1,8,0:0:0:0:
256,192,61242,1,0,0:0:0:0:
256,192,61552,1,8,0:0:0:0:
256,192,61863,1,8,0:0:0:0:
256,192,62069,1,0,0:0:0:0:
256,192,62690,1,0,0:0:0:0:
256,192,62897,1,8,0:0:0:0:
256,192,63104,1,0,0:0:0:0:
256,192,63207,1,0,0:0:0:0:
256,192,63518,1,8,0:0:0:0:
256,192,63725,1,0,0:0:0:0:
256,192,64035,1,8,0:0:0:0:
256,192,64345,1,0,0:0:0:0:
256,192,64552,1,0,0:0:0:0:
256,192,64863,1,8,0:0:0:0:
256,192,65173,1,8,0:0:0:0:
256,192,65380,1,0,0:0:0:0:
256,192,66207,1,4,0:0:0:0:
256,192,66414,1,8,0:0:0:0:
256,192,66518,1,0,0:0:0:0:
256,192,66621,1,8,0:0:0:0:
256,192,66828,1,8,0:0:0:0:
256,192,67035,1,0,0:0:0:0:
256,192,67345,1,0,0:0:0:0:
256,192,67449,1,8,0:0:0:0:
256,192,67656,1,0,0:0:0:0:
256,192,67863,1,8,0:0:0:0:
256,192,68069,1,0,0:0:0:0:
256,192,68276,1,8,0:0:0:0:
256,192,68483,1,0,0:0:0:0:
256,192,68587,1,8,0:0:0:0:
256,192,68690,1,0,0:0:0:0:
256,192,68897,1,8,0:0:0:0:
256,192,69001,1,0,0:0:0:0:
256,192,69311,1,0,0:0:0:0:
256,192,69518,1,8,0:0:0:0:
256,192,69725,1,8,0:0:0:0:
256,192,69828,1,0,0:0:0:0:
256,192,69932,1,8,0:0:0:0:
256,192,70138,1,8,0:0:0:0:
256,192,70345,1,0,0:0:0:0:
256,192,70656,1,0,0:0:0:0:
256,192,70759,1,8,0:0:0:0:
256,192,70966,1,0,0:0:0:0:
256,192,71173,1,8,0:0:0:0:
256,192,71380,1,0,0:0:0:0:
256,192,71483,1,8,0:0:0:0:
256,192,71690,1,8,0:0:0:0:
256,192,71794,1,0,0:0:0:0:
256,192,72001,1,8,0:0:0:0:
256,192,72207,1,0,0:0:0:0:
256,192,72311,1,0,0:0:0:0:
256,192,72414,1,8,0:0:0:0:
256,192,72518,1,8,0:0:0:0:
256,192,72621,1,8,0:0:0:0:
256,192,72828,1,4,0:0:0:0:
256,192,73035,1,8,0:0:0:0:
256,192,73138,1,0,0:0:0:0:
256,192,73242,1,8,0:0:0:0:
256,192,73449,1,8,0:0:0:0:
256,192,73656,1,0,0:0:0:0:
256,192,73966,1,0,0:0:0:0:
256,192,74069,1,8,0:0:0:0:
256,192,74276,1,0,0:0:0:0:
256,192,74483,1,8,0:0:0:0:
256,192,74587,1,0,0:0:0:0:
256,192,74690,1,0,0:0:0:0:
256,192,74794,1,8,0:0:0:0:
256,192,75001,1,8,0:0:0:0:
256,192,75104,1,0,0:0:0:0:
256,192,75311,1,0,0:0:0:0:
256,192,75518,1,8,0:0:0:0:
256,192,75621,1,0,0:0:0:0:
256,192,75932,1,0,0:0:0:0:
256,192,76138,1,8,0:0:0:0:
256,192,76345,1,0,0:0:0:0:
256,192,76449,1,8,0:0:0:0:
256,192,76656,1,0,0:0:0:0:
256,192,76759,1,8,0:0:0:0:
256,192,76863,1,8,0:0:0:0:
256,192,76966,1,0,0:0:0:0:
256,192,77276,1,0,0:0:0:0:
256,192,77380,1,8,0:0:0:0:
256,192,77587,1,0,0:0:0:0:
256,192,77794,1,8,0:0:0:0:
256,192,78001,1,0,0:0:0:0:
256,192,78104,1,8,0:0:0:0:
256,192,78311,1,8,0:0:0:0:
256,192,78414,1,0,0:0:0:0:
256,192,78621,1,8,0:0:0:0:
256,192,78828,1,0,0:0:0:0:
256,192,78932,1,0,0:0:0:0:
256,192,79449,1,4,0:0:0:0:
256,192,79656,1,8,0:0:0:0:
256,192,79863,1,8,0:0:0:0:
256,192,79966,1,8,0:0:0:0:
256,192,80069,1,0,0:0:0:0:
256,192,80276,1,8,0:0:0:0:
256,192,80587,1,0,0:0:0:0:
256,192,80690,1,8,0:0:0:0:
256,192,80897,1,8,0:0:0:0:
256,192,81104,1,0,0:0:0:0:
256,192,81414,1,8,0:0:0:0:
256,192,81518,1,8,0:0:0:0:
256,192,81725,1,0,0:0:0:0:
256,192,81932,1,8,0:0:0:0:
256,192,82138,1,8,0:0:0:0:
256,192,82242,1,0,0:0:0:0:
256,192,82552,1,0,0:0:0:0:
256,192,82759,1,8,0:0:0:0:
256,192,82966,1,0,0:0:0:0:
256,192,83069,1,0,0:0:0:0:
256,192,83173,1,8,0:0:0:0:
256,192,83380,1,0,0:0:0:0:
256,192,83587,1,8,0:0:0:0:
256,192,83897,1,0,0:0:0:0:
256,192,84001,1,8,0:0:0:0:
256,192,84207,1,8,0:0:0:0:
256,192,84414,1,0,0:0:0:0:
256,192,84621,1,8,0:0:0:0:
256,192,84725,1,0,0:0:0:0:
256,192,84828,1,8,0:0:0:0:
256,192,85035,1,0,0:0:0:0:
256,192,85242,1,8,0:0:0:0:
256,192,85449,1,8,0:0:0:0:
256,192,85552,1,8,0:0:0:0:
256,192,85656,1,0,0:0:0:0:
256,192,85759,1,0,0:0:0:0:
256,192,85863,1,0,0:0:0:0:
256,192,86069,1,4,0:0:0:0:
256,192,86276,1,8,0:0:0:0:
256,192,86483,1,8,0:0:0:0:
256,192,86587,1,8,0:0:0:0:
256,192,86690,1,0,0:0:0:0:
256,192,86897,1,8,0:0:0:0:
256,192,87207,1,0,0:0:0:0:
256,192,87311,1,8,0:0:0:0:
256,192,87518,1,8,0:0:0:0:
256,192,87725,1,0,0:0:0:0:
256,192,88035,1,8,0:0:0:0:
256,192,88138,1,8,0:0:0:0:
256,192,88345,1,0,0:0:0:0:
256,192,88552,1,8,0:0:0:0:
256,192,88759,1,8,0:0:0:0:
256,192,88863,1,0,0:0:0:0:
256,192,89173,1,0,0:0:0:0:
256,192,89380,1,8,0:0:0:0:
256,192,89587,1,0,0:0:0:0:
256,192,89690,1,0,0:0:0:0:
256,192,89794,1,8,0:0:0:0:
256,192,90001,1,0,0:0:0:0:
256,192,90207,1,8,0:0:0:0:
256,192,90518,1,0,0:0:0:0:
256,192,90621,1,8,0:0:0:0:
256,192,90828,1,8,0:0:0:0:
256,192,91035,1,0,0:0:0:0:
256,192,91242,1,8,0:0:0:0:
256,192,91345,1,0,0:0:0:0:
256,192,91449,1,8,0:0:0:0:
256,192,91656,1,0,0:0:0:0:
256,192,91863,1,8,0:0:0:0:
256,192,92069,1,0,0:0:0:0:
256,192,92173,1,0,0:0:0:0:
256,192,92276,1,8,0:0:0:0:
256,192,92380,1,8,0:0:0:0:
256,192,92483,1,8,0:0:0:0:
256,192,92690,1,4,0:0:0:0:
256,192,93104,1,8,0:0:0:0:
256,192,93311,1,0,0:0:0:0:
256,192,93414,1,0,0:0:0:0:
256,192,93518,1,0,0:0:0:0:
256,192,93725,1,8,0:0:0:0:
256,192,93932,1,8,0:0:0:0:
256,192,94138,1,0,0:0:0:0:
256,192,94345,1,0,0:0:0:0:
256,192,94449,1,8,0:0:0:0:
256,192,94552,1,8,0:0:0:0:
256,192,94759,1,0,0:0:0:0:
256,192,94863,1,0,0:0:0:0:
256,192,94966,1,8,0:0:0:0:
256,192,95069,1,8,0:0:0:0:
256,192,95173,1,0,0:0:0:0:
256,192,95380,1,8,0:0:0:0:
256,192,95587,1,0,0:0:0:0:
256,192,96001,1,0,0:0:0:0:
256,192,96104,1,0,0:0:0:0:
256,192,96207,1,8,0:0:0:0:
256,192,96414,1,8,0:0:0:0:
256,192,96621,1,0,0:0:0:0:
256,192,96725,1,0,0:0:0:0:
256,192,96828,1,0,0:0:0:0:
256,192,97035,1,8,0:0:0:0:
256,192,97242,1,8,0:0:0:0:
256,192,97449,1,0,0:0:0:0:
256,192,97656,1,8,0:0:0:0:
256,192,97759,1,0,0:0:0:0:
256,192,97863,1,0,0:0:0:0:
256,192,98069,1,0,0:0:0:0:
256,192,98276,1,8,0:0:0:0:
256,192,98380,1,8,0:0:0:0:
256,192,98483,1,0,0:0:0:0:
256,192,98587,1,0,0:0:0:0:
256,192,98690,1,8,0:0:0:0:
256,192,98897,1,0,0:0:0:0:
256,192,99104,1,8,0:0:0:0:
256,192,99311,1,4,0:0:0:0:
256,192,99725,1,8,0:0:0:0:
256,192,99932,1,0,0:0:0:0:
256,192,100035,1,0,0:0:0:0:
256,192,100138,1,0,0:0:0:0:
256,192,100345,1,8,0:0:0:0:
256,192,100552,1,8,0:0:0:0:
256,192,100759,1,0,0:0:0:0:
256,192,100966,1,0,0:0:0:0:
256,192,101069,1,8,0:0:0:0:
256,192,101173,1,8,0:0:0:0:
256,192,101380,1,0,0:0:0:0:
256,192,101483,1,0,0:0:0:0:
256,192,101587,1,8,0:0:0:0:
256,192,101690,1,8,0:0:0:0:
256,192,101794,1,0,0:0:0:0:
256,192,102001,1,8,0:0:0:0:
256,192,102207,1,0,0:0:0:0:
256,192,102621,1,0,0:0:0:0:
256,192,102725,1,0,0:0:0:0:
256,192,102828,1,8,0:0:0:0:
256,192,103035,1,8,0:0:0:0:
256,192,103242,1,0,0:0:0:0:
256,192,103345,1,0,0:0:0:0:
256,192,103449,1,0,0:0:0:0:
256,192,103656,1,8,0:0:0:0:
256,192,103863,1,8,0:0:0:0:
256,192,104069,1,0,0:0:0:0:
256,192,104276,12,0,105311,0:0:0:0:
256,192,105518,5,12,0:0:0:0:
256,192,105932,1,4,0:0:0:0:
256,192,106345,1,8,0:0:0:0:
256,192,106759,1,0,0:0:0:0:
256,192,107173,1,4,0:0:0:0:
256,192,107587,1,8,0:0:0:0:
256,192,108001,1,0,0:0:0:0:
256,192,108414,1,4,0:0:0:0:
256,192,108828,1,8,0:0:0:0:
256,192,109242,1,4,0:0:0:0:
256,192,109656,1,8,0:0:0:0:
256,192,110069,1,8,0:0:0:0:
256,192,110173,1,8,0:0:0:0:
256,192,110276,1,8,0:0:0:0:
256,192,110483,1,4,0:0:0:0:
256,192,110897,1,8,0:0:0:0:
256,192,111311,1,0,0:0:0:0:
256,192,111518,1,8,0:0:0:0:
256,192,111725,1,4,0:0:0:0:
256,192,112138,1,8,0:0:0:0:
256,192,112552,1,4,0:0:0:0:
256,192,112759,1,8,0:0:0:0:
256,192,112966,1,0,0:0:0:0:
256,192,113380,1,0,0:0:0:0:
256,192,113794,1,4,0:0:0:0:
256,192,114001,1,8,0:0:0:0:
256,192,114069,1,8,0:0:0:0:
256,192,114138,1,8,0:0:0:0:
256,192,114207,1,0,0:0:0:0:
256,192,114621,1,0,0:0:0:0:
256,192,115035,1,4,0:0:0:0:
256,192,115242,1,8,0:0:0:0:
256,192,115449,1,8,0:0:0:0:
256,192,115656,1,8,0:0:0:0:
256,192,115863,1,4,0:0:0:0:
256,192,116069,1,8,0:0:0:0:
256,192,116276,1,0,0:0:0:0:
256,192,116690,1,8,0:0:0:0:
256,192,116794,1,8,0:0:0:0:
256,192,116897,1,8,0:0:0:0:
256,192,117104,1,4,0:0:0:0:
256,192,117311,1,8,0:0:0:0:
256,192,117380,1,8,0:0:0:0:
256,192,117449,1,8,0:0:0:0:
256,192,117518,1,0,0:0:0:0:
256,192,117932,1,0,0:0:0:0:
256,192,118138,1,8,0:0:0:0:
256,192,119173,1,4,0:0:0:0:
256,192,119587,1,8,0:0:0:0:
256,192,119794,1,0,0:0:0:0:
256,192,119897,1,0,0:0:0:0:
256,192,120001,1,8,0:0:0:0:
256,192,120207,1,0,0:0:0:0:
256,192,120414,1,8,0:0:0:0:
256,192,120621,1,8,0:0:0:0:
256,192,120725,1,8,0:0:0:0:
256,192,120828,1,0,0:0:0:0:
256,192,121035,1,0,0:0:0:0:
256,192,121242,1,8,0:0:0:0:
256,192,121449,1,0,0:0:0:0:
256,192,121656,1,8,0:0:0:0:
256,192,121863,1,8,0:0:0:0:
256,192,122069,1,0,0:0:0:0:
256,192,122276,1,8,0:0:0:0:
256,192,122483,1,4,0:0:0:0:
256,192,122897,1,8,0:0:0:0:
256,192,123104,1,0,0:0:0:0:
256,192,123311,1,8,0:0:0:0:
256,192,123414,1,8,0:0:0:0:
256,192,123518,1,0,0:0:0:0:
256,192,123621,1,0,0:0:0:0:
256,192,123725,1,8,0:0:0:0:
256,192,123932,1,8,0:0:0:0:
256,192,124138,1,0,0:0:0:0:
256,192,124242,1,0,0:0:0:0:
256,192,124449,1,0,0:0:0:0:
256,192,124552,1,8,0:0:0:0:
256,192,124759,1,0,0:0:0:0:
256,192,124966,1,8,0:0:0:0:
256,192,125173,1,0,0:0:0:0:
256,192,125276,1,0,0:0:0:0:
256,192,125380,1,8,0:0:0:0:
256,192,125587,1,8,0:0:0:0:
256,192,125794,1,4,0:0:0:0:
256,192,126207,1,8,0:0:0:0:
256,192,126414,1,0,0:0:0:0:
256,192,126518,1,0,0:0:0:0:
256,192,126621,1,8,0:0:0:0:
256,192,126828,1,0,0:0:0:0:
256,192,127035,1,8,0:0:0:0:
256,192,127242,1,8,0:0:0:0:
256,192,127345,1,8,0:0:0:0:
256,192,127449,1,0,0:0:0:0:
256,192,127656,1,0,0:0:0:0:
256,192,127759,1,0,0:0:0:0:
256,192,127863,1,8,0:0:0:0:
256,192,127966,1,0,0:0:0:0:
256,192,128069,1,0,0:0:0:0:
256,192,128276,1,8,0:0:0:0:
256,192,128483,1,8,0:0:0:0:
256,192,128587,1,0,0:0:0:0:
256,192,128794,1,0,0:0:0:0:
256,192,128897,1,0,0:0:0:0:
256,192,129104,1,4,0:0:0:0:
256,192,129518,1,8,0:0:0:0:
256,192,129725,1,0,0:0:0:0:
256,192,129932,1,8,0:0:0:0:
256,192,130035,1,8,0:0:0:0:
256,192,130138,1,0,0:0:0:0:
256,192,130242,1,0,0:0:0:0:
256,192,130345,1,8,0:0:0:0:
256,192,130552,1,8,0:0:0:0:
256,192,130656,1,8,0:0:0:0:
256,192,130759,1,0,0:0:0:0:
256,192,130966,1,0,0:0:0:0:
256,192,131173,1,8,0:0:0:0:
256,192,131380,1,0,0:0:0:0:
256,192,131483,1,0,0:0:0:0:
256,192,131587,1,8,0:0:0:0:
256,192,131690,1,0,0:0:0:0:
256,192,131897,1,0,0:0:0:0:
256,192,132001,1,8,0:0:0:0:
256,192,132414,1,4,0:0:0:0:
256,192,132725,1,0,0:0:0:0:
256,192,132828,1,8,0:0:0:0:
256,192,132932,1,0,0:0:0:0:
256,192,133035,1,0,0:0:0:0:
256,192,133242,1,8,0:0:0:0:
256,192,133449,1,8,0:0:0:0:
256,192,133656,1,0,0:0:0:0:
256,192,133863,1,8,0:0:0:0:
256,192,133966,1,8,0:0:0:0:
256,192,134069,1,0,0:0:0:0:
256,192,134276,1,8,0:0:0:0:
256,192,134380,1,0,0:0:0:0:
256,192,134587,1,0,0:0:0:0:
256,192,134690,1,8,0:0:0:0:
256,192,134897,1,0,0:0:0:0:
256,192,135104,1,8,0:0:0:0:
256,192,135207,1,0,0:0:0:0:
256,192,135311,1,8,0:0:0:0:
256,192,135414,1,8,0:0:0:0:
256,192,135518,1,0,0:0:0:0:
256,192,135725,1,4,0:0:0:0:
256,192,136035,1,0,0:0:0:0:
256,192,136138,1,8,0:0:0:0:
256,192,136242,1,0,0:0:0:0:
256,192,136345,1,0,0:0:0:0:
256,192,136552,1,8,0:0:0:0:
256,192,136759,1,8,0:0:0:0:
256,192,136863,1,8,0:0:0:0:
256,192,136966,1,0,0:0:0:0:
256,192,137173,1,8,0:0:0:0:
256,192,137276,1,0,0:0:0:0:
256,192,137380,1,8,0:0:0:0:
256,192,137587,1,0,0:0:0:0:
256,192,137690,1,8,0:0:0:0:
256,192,137897,1,8,0:0:0:0:
256,192,138001,1,0,0:0:0:0:
256,192,138207,1,8,0:0:0:0:
256,192,138414,1,0,0:0:0:0:
256,192,138621,1,8,0:0:0:0:
256,192,139035,1,4,0:0:0:0:
256,192,139345,1,0,0:0:0:0:
256,192,139449,1,8,0:0:0:0:
256,192,139552,1,0,0:0:0:0:
256,192,139656,1,8,0:0:0:0:
256,192,139863,1,0,0:0:0:0:
256,192,140069,1,8,0:0:0:0:
256,192,140276,1,0,0:0:0:0:
256,192,140483,1,8,0:0:0:0:
256,192,140587,1,8,0:0:0:0:
256,192,140690,1,0,0:0:0:0:
256,192,140897,1,8,0:0:0:0:
256,192,141001,1,0,0:0:0:0:
256,192,141207,1,0,0:0:0:0:
256,192,141311,1,8,0:0:0:0:
256,192,141518,1,0,0:0:0:0:
256,192,141725,1,8,0:0:0:0:
256,192,141932,1,0,0:0:0:0:
256,192,142035,1,0,0:0:0:0:
256,192,142138,1,0,0:0:0:0:
256,192,142345,1,4,0:0:0:0:
256,192,142656,1,0,0:0:0:0:
256,192,142759,1,8,0:0:0:0:
256,192,142863,1,0,0:0:0:0:
256,192,142966,1,8,0:0:0:0:
256,192,143173,1,0,0:0:0:0:
256,192,143380,1,8,0:0:0:0:
256,192,143483,1,8,0:0:0:0:
256,192,143587,1,0,0:0:0:0:
256,192,143794,1,8,0:0:0:0:
256,192,143897,1,0,0:0:0:0:
256,192,144001,1,8,0:0:0:0:
256,192,144207,1,0,0:0:0:0:
256,192,144311,1,8,0:0:0:0:
256,192,144518,1,8,0:0:0:0:
256,192,144621,1,0,0:0:0:0:
256,192,144828,1,0,0:0:0:0:
256,192,145035,1,8,0:0:0:0:
256,192,145138,1,8,0:0:0:0:
256,192,145242,1,0,0:0:0:0:
256,192,145345,1,0,0:0:0:0:
256,192,145449,1,8,0:0:0:0:
256,192,145656,1,4,0:0:0:0:
256,192,146380,1,8,0:0:0:0:
256,192,146483,1,8,0:0:0:0:
256,192,146794,1,0,0:0:0:0:
256,192,147104,1,8,0:0:0:0:
256,192,148035,1,8,0:0:0:0:
256,192,148138,1,8,0:0:0:0:
256,192,148449,1,0,0:0:0:0:
256,192,148759,1,8,0:0:0:0:
256,192,149690,1,8,0:0:0:0:
256,192,149794,1,8,0:0:0:0:
256,192,150104,1,0,0:0:0:0:
256,192,150414,1,12,0:0:0:0:
256,192,150932,1,0,0:0:0:0:
256,192,151242,1,0,0:0:0:0:
256,192,151345,1,0,0:0:0:0:
256,192,151449,1,8,0:0:0:0:
256,192,151552,1,8,0:0:0:0:
256,192,151759,1,8,0:0:0:0:
256,192,151863,1,0,0:0:0:0:
256,192,152069,1,0,0:0:0:0:
256,192,152276,1,4,0:0:0:0:
256,192,153001,1,8,0:0:0:0:
256,192,153104,1,8,0:0:0:0:
256,192,153414,1,0,0:0:0:0:
256,192,153725,1,8,0:0:0:0:
256,192,154656,1,8,0:0:0:0:
256,192,154759,1,8,0:0:0:0:
256,192,155069,1,0,0:0:0:0:
256,192,155380,1,8,0:0:0:0:
256,192,156311,1,0,0:0:0:0:
256,192,156414,1,0,0:0:0:0:
256,192,156725,1,8,0:0:0:0:
256,192,157035,1,4,0:0:0:0:
256,192,157552,1,0,0:0:0:0:
256,192,157863,1,0,0:0:0:0:
256,192,157966,1,0,0:0:0:0:
256,192,158069,1,8,0:0:0:0:
256,192,158173,1,8,0:0:0:0:
256,192,158380,1,8,0:0:0:0:
256,192,158483,1,0,0:0:0:0:
256,192,158690,1,0,0:0:0:0:
256,192,158897,1,12,0:0:0:0:
256,192,159104,1,0,0:0:0:0:
256,192,159311,1,8,0:0:0:0:
256,192,159621,1,0,0:0:0:0:
256,192,159725,1,0,0:0:0:0:
256,192,160035,1,8,0:0:0:0:
256,192,160345,1,0,0:0:0:0:
256,192,160552,1,8,0:0:0:0:
256,192,160863,1,0,0:0:0:0:
256,192,161173,1,8,0:0:0:0:
256,192,161276,1,0,0:0:0:0:
256,192,161380,1,0,0:0:0:0:
256,192,161690,1,8,0:0:0:0:
256,192,162001,1,0,0:0:0:0:
256,192,162207,1,8,0:0:0:0:
256,192,162414,1,0,0:0:0:0:
256,192,162621,1,8,0:0:0:0:
256,192,162932,1,0,0:0:0:0:
256,192,163035,1,0,0:0:0:0:
256,192,163345,1,8,0:0:0:0:
256,192,163449,1,8,0:0:0:0:
256,192,163656,1,4,0:0:0:0:
256,192,163863,1,8,0:0:0:0:
256,192,164173,1,0,0:0:0:0:
256,192,164276,1,8,0:0:0:0:
256,192,164483,1,8,0:0:0:0:
256,192,164690,1,0,0:0:0:0:
256,192,164897,1,0,0:0:0:0:
256,192,165001,1,0,0:0:0:0:
256,192,165104,1,8,0:0:0:0:
256,192,165311,1,0,0:0:0:0:
256,192,165518,1,12,0:0:0:0:
256,192,165725,1,0,0:0:0:0:
256,192,165932,1,8,0:0:0:0:
256,192,166242,1,0,0:0:0:0:
256,192,166345,1,0,0:0:0:0:
256,192,166656,1,8,0:0:0:0:
256,192,166966,1,0,0:0:0:0:
256,192,167173,1,8,0:0:0:0:
256,192,167483,1,0,0:0:0:0:
256,192,167794,1,8,0:0:0:0:
256,192,167897,1,0,0:0:0:0:
256,192,168001,1,0,0:0:0:0:
256,192,168311,1,8,0:0:0:0:
256,192,168621,1,0,0:0:0:0:
256,192,168828,1,8,0:0:0:0:
256,192,169035,1,0,0:0:0:0:
256,192,169242,1,8,0:0:0:0:
256,192,169552,1,0,0:0:0:0:
256,192,169656,1,0,0:0:0:0:
256,192,169966,1,8,0:0:0:0:
256,192,170069,1,8,0:0:0:0:
256,192,170276,1,4,0:0:0:0:
256,192,170483,1,8,0:0:0:0:
256,192,170794,1,0,0:0:0:0:
256,192,170897,1,8,0:0:0:0:
256,192,171104,1,8,0:0:0:0:
256,192,171311,1,0,0:0:0:0:
256,192,171518,1,8,0:0:0:0:
256,192,171621,1,0,0:0:0:0:
256,192,172138,1,4,0:0:0:0:
256,192,172345,1,8,0:0:0:0:
256,192,172552,1,0,0:0:0:0:
256,192,172656,1,0,0:0:0:0:
256,192,172759,1,8,0:0:0:0:
256,192,172863,1,0,0:0:0:0:
256,192,172966,1,0,0:0:0:0:
256,192,173173,1,8,0:0:0:0:
256,192,173276,1,0,0:0:0:0:
256,192,173380,1,8,0:0:0:0:
256,192,173587,1,0,0:0:0:0:
256,192,173794,1,0,0:0:0:0:
256,192,173897,1,0,0:0:0:0:
256,192,174001,1,8,0:0:0:0:
256,192,174207,1,0,0:0:0:0:
256,192,174414,1,8,0:0:0:0:
256,192,174518,1,8,0:0:0:0:
256,192,174621,1,0,0:0:0:0:
256,192,174828,1,0,0:0:0:0:
256,192,175035,1,8,0:0:0:0:
256,192,175242,1,8,0:0:0:0:
256,192,175345,1,0,0:0:0:0:
256,192,175449,1,0,0:0:0:0:
256,192,175552,1,0,0:0:0:0:
256,192,175656,1,8,0:0:0:0:
256,192,175863,1,0,0:0:0:0:
256,192,176173,1,0,0:0:0:0:
256,192,176276,1,8,0:0:0:0:
256,192,176483,1,0,0:0:0:0:
256,192,176690,1,8,0:0:0:0:
256,192,176897,1,8,0:0:0:0:
256,192,177104,1,0,0:0:0:0:
256,192,177207,1,8,0:0:0:0:
256,192,177311,1,0,0:0:0:0:
256,192,177414,1,0,0:0:0:0:
256,192,177518,1,8,0:0:0:0:
256,192,177828,1,8,0:0:0:0:
256,192,177932,1,0,0:0:0:0:
256,192,178138,1,0,0:0:0:0:
256,192,178345,1,8,0:0:0:0:
256,192,178552,1,0,0:0:0:0:
256,192,178656,1,8,0:0:0:0:
256,192,178759,1,0,0:0:0:0:
256,192,178966,1,8,0:0:0:0:
256,192,179173,1,0,0:0:0:0:
256,192,179276,1,0,0:0:0:0:
256,192,179380,1,8,0:0:0:0:
256,192,179483,1,0,0:0:0:0:
256,192,179587,1,0,0:0:0:0:
256,192,179794,1,8,0:0:0:0:
256,192,179897,1,0,0:0:0:0:
256,192,180001,1,8,0:0:0:0:
256,192,180207,1,0,0:0:0:0:
256,192,180414,1,0,0:0:0:0:
256,192,180518,1,0,0:0:0:0:
256,192,180621,1,8,0:0:0:0:
256,192,180828,1,0,0:0:0:0:
256,192,181035,1,8,0:0:0:0:
256,192,181138,1,8,0:0:0:0:
256,192,181242,1,0,0:0:0:0:
256,192,181449,1,0,0:0:0:0:
256,192,181656,1,8,0:0:0:0:
256,192,181863,1,8,0:0:0:0:
256,192,181966,1,0,0:0:0:0:
256,192,182069,1,0,0:0:0:0:
256,192,182173,1,0,0:0:0:0:
256,192,182276,1,8,0:0:0:0:
256,192,182483,1,0,0:0:0:0:
256,192,182794,1,0,0:0:0:0:
256,192,182897,1,8,0:0:0:0:
256,192,183104,1,0,0:0:0:0:
256,192,183311,1,8,0:0:0:0:
256,192,183518,1,8,0:0:0:0:
256,192,183725,1,0,0:0:0:0:
256,192,183828,1,8,0:0:0:0:
256,192,183932,1,0,0:0:0:0:
256,192,184035,1,0,0:0:0:0:
256,192,184138,1,8,0:0:0:0:
256,192,184449,1,8,0:0:0:0:
256,192,184552,1,0,0:0:0:0:
256,192,184759,1,0,0:0:0:0:
256,192,184863,1,0,0:0:0:0:
256,192,184966,1,8,0:0:0:0:
256,192,185173,1,8,0:0:0:0:
256,192,185380,1,4,0:0:0:0:
256,192,185690,1,0,0:0:0:0:
256,192,185794,1,0,0:0:0:0:
256,192,185897,1,0,0:0:0:0:
256,192,186001,1,8,0:0:0:0:
256,192,186414,1,0,0:0:0:0:
256,192,186621,1,0,0:0:0:0:
256,192,186828,1,8,0:0:0:0:
256,192,187242,1,0,0:0:0:0:
256,192,187449,1,8,0:0:0:0:
256,192,187863,1,0,0:0:0:0:
256,192,188690,1,0,0:0:0:0:
256,192,189001,1,0,0:0:0:0:
256,192,189104,1,0,0:0:0:0:
256,192,189207,1,0,0:0:0:0:
256,192,189311,1,8,0:0:0:0:
256,192,189725,1,0,0:0:0:0:
256,192,189932,1,0,0:0:0:0:
256,192,190138,1,8,0:0:0:0:
256,192,190552,1,0,0:0:0:0:
256,192,190759,1,8,0:0:0:0:
256,192,190966,1,8,0:0:0:0:
256,192,191173,1,0,0:0:0:0:
256,192,191587,1,0,0:0:0:0:
256,192,191794,1,0,0:0:0:0:
256,192,192001,1,12,0:0:0:0:
256,192,192311,1,0,0:0:0:0:
256,192,192414,1,0,0:0:0:0:
256,192,192518,1,0,0:0:0:0:
256,192,192621,1,8,0:0:0:0:
256,192,193035,1,0,0:0:0:0:
256,192,193242,1,0,0:0:0:0:
256,192,193449,1,8,0:0:0:0:
256,192,193863,1,0,0:0:0:0:
256,192,194069,1,8,0:0:0:0:
256,192,194483,1,0,0:0:0:0:
256,192,194897,1,8,0:0:0:0:
256,192,195311,1,0,0:0:0:0:
256,192,195621,1,0,0:0:0:0:
256,192,195725,1,0,0:0:0:0:
256,192,195828,1,0,0:0:0:0:
256,192,195932,1,8,0:0:0:0:
256,192,196345,1,0,0:0:0:0:
256,192,196966,1,0,0:0:0:0:
256,192,197173,1,0,0:0:0:0:
256,192,197380,1,8,0:0:0:0:
256,192,197794,1,8,0:0:0:0:
256,192,198207,1,12,0:0:0:0:
