osu file format v14

[General]
AudioFilename: audio.mp3
AudioLeadIn: 0
PreviewTime: 144725
Countdown: 0
SampleSet: Normal
StackLeniency: 0.7
Mode: 1
LetterboxInBreaks: 0
WidescreenStoryboard: 1

[Editor]
Bookmarks: 52966,105932,172138
DistanceSpacing: 0.4
BeatDivisor: 4
GridSize: 32
TimelineZoom: 0.6999997

[Metadata]
Title:Bubblegum
TitleUnicode:Bubblegum
Artist:MYLK
ArtistUnicode:MYLK
Creator:Cynplytholowazy
Version:Kantan
Source:
Tags:Nardoxyribonucleic HiroK jpop Kawaii Bass Futurebass Cute EDM Pop electronic Future
BeatmapID:2204737
BeatmapSetID:1055143

[Difficulty]
HPDrainRate:8
CircleSize:10
OverallDifficulty:3
ApproachRate:10
SliderMultiplier:1.4
SliderTickRate:1

[Events]
//Background and Video events
0,0,"unknown.png",0,0
//Break Periods
//Storyboard Layer 0 (Background)
//Storyboard Layer 1 (Fail)
//Storyboard Layer 2 (Pass)
//Storyboard Layer 3 (Foreground)
//Storyboard Layer 4 (Overlay)
//Storyboard Sound Samples

[TimingPoints]
1,413.793103448276,4,2,0,40,1,0
1,-100,4,2,0,40,0,0
6518,-100,4,1,0,50,0,0
12828,-100,4,1,0,60,0,0
13242,-100,4,1,0,75,0,0
40035,-100,4,1,0,65,0,0
52966,-100,4,1,0,75,0,0
66207,-100,4,1,0,85,0,1
78932,-100,4,1,0,85,0,0
79449,-100,4,1,0,85,0,1
92690,-100,4,1,0,85,0,0
92794,-100,4,1,0,75,0,0
104483,-100,4,1,0,60,0,0
105518,-100,4,1,0,65,0,0
105932,-100,4,1,0,75,0,0
145656,-100,4,1,0,80,0,0
172138,-100,4,1,0,85,0,1
185380,-100,4,1,0,85,0,0
185587,-100,4,1,0,60,0,0
195621,-100,4,1,0,50,0,0
198207,-100,4,1,0,65,0,0
198621,-100,4,1,0,5,0,0

[HitObjects]
256,192,1,5,2,0:0:0:0:
256,192,2069,1,4,0:0:0:0:
256,192,3311,1,2,0:0:0:0:
256,192,5380,1,4,0:0:0:0:
256,192,6621,1,2,0:0:0:0:
256,192,7449,1,0,0:0:0:0:
256,192,7863,1,2,0:0:0:0:
256,192,8690,1,4,0:0:0:0:
256,192,9932,1,2,0:0:0:0:
256,192,10759,1,0,0:0:0:0:
256,192,11173,1,2,0:0:0:0:
256,192,12001,1,6,0:0:0:0:
256,192,13242,1,4,0:0:0:0:
256,192,14069,1,2,0:0:0:0:
256,192,14483,1,0,0:0:0:0:
256,192,14897,1,2,0:0:0:0:
256,192,15725,1,2,0:0:0:0:
256,192,16552,1,4,0:0:0:0:
256,192,17380,1,2,0:0:0:0:
256,192,17794,1,2,0:0:0:0:
256,192,18207,1,0,0:0:0:0:
256,192,19035,1,2,0:0:0:0:
256,192,19863,1,4,0:0:0:0:
256,192,20690,1,2,0:0:0:0:
256,192,21104,1,0,0:0:0:0:
256,192,21518,1,2,0:0:0:0:
256,192,22345,1,2,0:0:0:0:
256,192,23173,1,4,0:0:0:0:
256,192,24001,1,2,0:0:0:0:
256,192,24414,1,2,0:0:0:0:
256,192,24828,1,0,0:0:0:0:
256,192,25656,1,2,0:0:0:0:
256,192,26483,1,4,0:0:0:0:
256,192,27311,1,2,0:0:0:0:
256,192,28138,1,0,0:0:0:0:
256,192,28552,1,6,0:0:0:0:
256,192,28966,1,0,0:0:0:0:
256,192,29794,1,4,0:0:0:0:
256,192,30621,1,2,0:0:0:0:
256,192,31449,1,0,0:0:0:0:
256,192,31863,1,6,0:0:0:0:
256,192,32276,1,2,0:0:0:0:
256,192,33104,1,4,0:0:0:0:
256,192,33932,1,2,0:0:0:0:
256,192,34759,1,0,0:0:0:0:
256,192,35173,1,6,0:0:0:0:
256,192,35587,1,0,0:0:0:0:
256,192,36414,1,4,0:0:0:0:
256,192,37242,1,2,0:0:0:0:
256,192,38069,1,0,0:0:0:0:
256,192,38483,1,6,0:0:0:0:
256,192,38897,1,2,0:0:0:0:
256,192,39725,1,4,0:0:0:0:
256,192,40345,1,2,0:0:0:0:
256,192,40759,1,0,0:0:0:0:
256,192,41380,1,6,0:0:0:0:
256,192,42207,1,0,0:0:0:0:
256,192,43035,1,0,0:0:0:0:
256,192,43656,1,2,0:0:0:0:
256,192,44069,1,0,0:0:0:0:
256,192,44690,1,6,0:0:0:0:
256,192,45311,1,0,0:0:0:0:
256,192,45932,1,0,0:0:0:0:
256,192,46345,1,4,0:0:0:0:
256,192,46966,1,2,0:0:0:0:
256,192,47380,1,0,0:0:0:0:
256,192,48001,1,6,0:0:0:0:
256,192,48828,1,0,0:0:0:0:
256,192,49656,1,0,0:0:0:0:
256,192,50276,1,2,0:0:0:0:
256,192,50690,1,0,0:0:0:0:
256,192,51311,1,6,0:0:0:0:
256,192,52138,1,2,0:0:0:0:
256,192,52966,1,4,0:0:0:0:
256,192,53794,1,2,0:0:0:0:
256,192,54207,1,2,0:0:0:0:
256,192,54621,1,4,0:0:0:0:
256,192,55449,1,2,0:0:0:0:
256,192,56276,1,4,0:0:0:0:
256,192,56690,1,0,0:0:0:0:
256,192,57104,1,2,0:0:0:0:
256,192,57932,1,4,0:0:0:0:
256,192,58759,1,2,0:0:0:0:
256,192,59587,1,4,0:0:0:0:
256,192,60414,1,2,0:0:0:0:
256,192,60828,1,2,0:0:0:0:
256,192,61242,1,4,0:0:0:0:
256,192,62069,1,2,0:0:0:0:
256,192,62897,1,4,0:0:0:0:
256,192,63311,1,0,0:0:0:0:
256,192,63725,1,2,0:0:0:0:
256,192,64552,1,4,0:0:0:0:
256,192,65380,1,2,0:0:0:0:
256,192,66207,1,4,0:0:0:0:
256,192,66621,1,2,0:0:0:0:
256,192,67035,1,2,0:0:0:0:
256,192,67449,1,0,0:0:0:0:
256,192,67863,1,2,0:0:0:0:
256,192,68690,1,2,0:0:0:0:
256,192,69104,1,2,0:0:0:0:
256,192,69518,1,0,0:0:0:0:
256,192,70345,1,2,0:0:0:0:
256,192,70759,1,2,0:0:0:0:
256,192,71173,1,0,0:0:0:0:
256,192,71587,1,2,0:0:0:0:
256,192,72001,1,0,0:0:0:0:
256,192,72828,1,4,0:0:0:0:
256,192,73242,1,2,0:0:0:0:
256,192,73656,1,2,0:0:0:0:
256,192,74069,1,0,0:0:0:0:
256,192,74483,1,2,0:0:0:0:
256,192,75311,1,2,0:0:0:0:
256,192,75725,1,2,0:0:0:0:
256,192,76138,1,0,0:0:0:0:
256,192,76966,1,2,0:0:0:0:
256,192,77380,1,2,0:0:0:0:
256,192,77794,1,0,0:0:0:0:
256,192,78207,1,2,0:0:0:0:
256,192,78621,1,0,0:0:0:0:
256,192,79449,1,4,0:0:0:0:
256,192,79863,1,2,0:0:0:0:
256,192,80276,1,0,0:0:0:0:
256,192,81104,1,0,0:0:0:0:
256,192,81518,1,2,0:0:0:0:
256,192,81932,1,0,0:0:0:0:
256,192,82345,1,2,0:0:0:0:
256,192,82759,1,0,0:0:0:0:
256,192,83587,1,2,0:0:0:0:
256,192,84001,1,0,0:0:0:0:
256,192,84414,1,2,0:0:0:0:
256,192,84828,1,2,0:0:0:0:
256,192,85242,1,0,0:0:0:0:
256,192,86069,1,4,0:0:0:0:
256,192,86483,1,2,0:0:0:0:
256,192,86897,1,0,0:0:0:0:
256,192,87725,1,0,0:0:0:0:
256,192,88138,1,2,0:0:0:0:
256,192,88552,1,0,0:0:0:0:
256,192,88966,1,2,0:0:0:0:
256,192,89380,1,0,0:0:0:0:
256,192,90207,1,2,0:0:0:0:
256,192,90621,1,0,0:0:0:0:
256,192,91035,1,2,0:0:0:0:
256,192,91449,1,2,0:0:0:0:
256,192,91863,1,0,0:0:0:0:
256,192,92690,1,6,0:0:0:0:
256,192,93518,1,0,0:0:0:0:
256,192,93932,1,0,0:0:0:0:
256,192,94345,1,2,0:0:0:0:
256,192,95173,1,0,0:0:0:0:
256,192,96001,1,2,0:0:0:0:
256,192,96828,1,0,0:0:0:0:
256,192,97242,1,0,0:0:0:0:
256,192,97656,1,2,0:0:0:0:
256,192,98483,1,2,0:0:0:0:
256,192,99311,1,6,0:0:0:0:
256,192,100138,1,0,0:0:0:0:
256,192,100552,1,0,0:0:0:0:
256,192,100966,1,2,0:0:0:0:
256,192,101794,1,0,0:0:0:0:
256,192,102621,1,2,0:0:0:0:
256,192,103449,1,2,0:0:0:0:
256,192,103863,1,2,0:0:0:0:
256,192,104276,1,4,0:0:0:0:
256,192,105932,1,4,0:0:0:0:
256,192,107173,1,4,0:0:0:0:
256,192,108414,1,4,0:0:0:0:
256,192,109242,1,4,0:0:0:0:
256,192,110483,1,4,0:0:0:0:
256,192,111725,1,4,0:0:0:0:
256,192,112552,1,4,0:0:0:0:
256,192,112966,1,2,0:0:0:0:
256,192,113794,1,4,0:0:0:0:
256,192,114207,1,2,0:0:0:0:
256,192,115035,1,4,0:0:0:0:
256,192,115863,1,4,0:0:0:0:
256,192,116276,1,2,0:0:0:0:
256,192,117104,1,4,0:0:0:0:
256,192,117518,1,2,0:0:0:0:
256,192,119173,1,4,0:0:0:0:
256,192,119587,1,2,0:0:0:0:
256,192,120414,1,4,0:0:0:0:
256,192,120828,1,2,0:0:0:0:
256,192,121656,1,4,0:0:0:0:
256,192,122069,1,2,0:0:0:0:
256,192,122483,1,4,0:0:0:0:
256,192,122897,1,2,0:0:0:0:
256,192,123725,1,4,0:0:0:0:
256,192,124138,1,2,0:0:0:0:
256,192,124966,1,4,0:0:0:0:
256,192,125380,1,2,0:0:0:0:
256,192,125794,1,4,0:0:0:0:
256,192,126207,1,2,0:0:0:0:
256,192,127035,1,4,0:0:0:0:
256,192,127449,1,2,0:0:0:0:
256,192,128276,1,4,0:0:0:0:
256,192,128690,1,2,0:0:0:0:
256,192,129104,1,4,0:0:0:0:
256,192,129518,1,2,0:0:0:0:
256,192,130345,1,4,0:0:0:0:
256,192,130759,1,2,0:0:0:0:
256,192,131587,1,4,0:0:0:0:
256,192,132414,1,4,0:0:0:0:
256,192,132828,1,2,0:0:0:0:
256,192,133656,1,4,0:0:0:0:
256,192,134069,1,6,0:0:0:0:
256,192,134897,1,4,0:0:0:0:
256,192,135725,1,4,0:0:0:0:
256,192,136138,1,2,0:0:0:0:
256,192,136966,1,4,0:0:0:0:
256,192,137380,1,6,0:0:0:0:
256,192,138207,1,4,0:0:0:0:
256,192,139035,1,4,0:0:0:0:
256,192,139449,1,2,0:0:0:0:
256,192,140276,1,4,0:0:0:0:
256,192,140690,1,6,0:0:0:0:
256,192,141518,1,4,0:0:0:0:
256,192,142345,1,4,0:0:0:0:
256,192,142759,1,2,0:0:0:0:
256,192,143587,1,4,0:0:0:0:
256,192,144001,1,6,0:0:0:0:
256,192,144828,1,4,0:0:0:0:
256,192,145242,1,2,0:0:0:0:
256,192,145656,1,4,0:0:0:0:
256,192,146483,1,6,0:0:0:0:
256,192,147104,1,6,0:0:0:0:
256,192,148138,1,6,0:0:0:0:
256,192,148759,1,6,0:0:0:0:
256,192,149794,1,6,0:0:0:0:
256,192,150414,1,6,0:0:0:0:
256,192,152276,1,4,0:0:0:0:
256,192,153103,1,6,0:0:0:0:
256,192,153724,1,6,0:0:0:0:
256,192,154758,1,6,0:0:0:0:
256,192,155379,1,6,0:0:0:0:
256,192,156414,1,6,0:0:0:0:
256,192,157034,1,6,0:0:0:0:
256,192,158897,1,4,0:0:0:0:
256,192,159724,1,6,0:0:0:0:
256,192,160345,1,6,0:0:0:0:
256,192,161379,1,6,0:0:0:0:
256,192,162000,1,6,0:0:0:0:
256,192,162621,1,0,0:0:0:0:
256,192,163035,1,6,0:0:0:0:
256,192,163655,1,6,0:0:0:0:
256,192,164276,1,0,0:0:0:0:
256,192,164690,1,2,0:0:0:0:
256,192,165104,1,2,0:0:0:0:
256,192,165518,1,4,0:0:0:0:
256,192,166345,1,6,0:0:0:0:
256,192,166966,1,6,0:0:0:0:
256,192,168000,1,6,0:0:0:0:
256,192,168621,1,6,0:0:0:0:
256,192,169242,1,0,0:0:0:0:
256,192,169656,1,6,0:0:0:0:
256,192,170276,1,6,0:0:0:0:
256,192,170897,1,0,0:0:0:0:
256,192,171311,1,2,0:0:0:0:
256,192,172138,1,4,0:0:0:0:
256,192,172966,1,2,0:0:0:0:
256,192,173380,1,0,0:0:0:0:
256,192,173794,1,2,0:0:0:0:
256,192,174621,1,0,0:0:0:0:
256,192,175035,1,2,0:0:0:0:
256,192,175449,1,4,0:0:0:0:
256,192,176276,1,2,0:0:0:0:
256,192,176690,1,2,0:0:0:0:
256,192,177104,1,0,0:0:0:0:
256,192,177932,1,2,0:0:0:0:
256,192,178345,1,0,0:0:0:0:
256,192,178759,1,4,0:0:0:0:
256,192,179587,1,2,0:0:0:0:
256,192,180001,1,0,0:0:0:0:
256,192,180415,1,2,0:0:0:0:
256,192,181242,1,2,0:0:0:0:
256,192,181656,1,0,0:0:0:0:
256,192,182070,1,4,0:0:0:0:
256,192,182897,1,2,0:0:0:0:
256,192,183311,1,2,0:0:0:0:
256,192,183725,1,0,0:0:0:0:
256,192,184553,1,0,0:0:0:0:
256,192,184966,1,2,0:0:0:0:
256,192,185380,1,4,0:0:0:0:
256,192,186000,1,2,0:0:0:0:
256,192,186414,1,0,0:0:0:0:
256,192,187035,1,6,0:0:0:0:
256,192,187863,1,0,0:0:0:0:
256,192,188690,1,0,0:0:0:0:
256,192,189311,1,2,0:0:0:0:
256,192,189724,1,0,0:0:0:0:
256,192,190345,1,6,0:0:0:0:
256,192,190966,1,0,0:0:0:0:
256,192,191587,1,0,0:0:0:0:
256,192,192000,1,4,0:0:0:0:
256,192,192621,1,2,0:0:0:0:
256,192,193035,1,0,0:0:0:0:
256,192,193656,1,6,0:0:0:0:
256,192,194483,1,0,0:0:0:0:
256,192,195311,1,0,0:0:0:0:
256,192,195931,1,2,0:0:0:0:
256,192,196345,1,0,0:0:0:0:
256,192,196966,1,6,0:0:0:0:
256,192,197793,1,2,0:0:0:0:
256,192,198207,1,0,0:0:0:0:
