osu file format v14

[General]
AudioFilename: audio.mp3
AudioLeadIn: 0
PreviewTime: 144725
Countdown: 0
SampleSet: Normal
StackLeniency: 0.7
Mode: 1
LetterboxInBreaks: 0
WidescreenStoryboard: 1

[Editor]
Bookmarks: 52966,105932,172138
DistanceSpacing: 0.5
BeatDivisor: 4
GridSize: 32
TimelineZoom: 2.1

[Metadata]
Title:Bubblegum
TitleUnicode:Bubblegum
Artist:MYLK
ArtistUnicode:MYLK
Creator:Cynplytholowazy
Version:HiroK's Futsuu
Source:
Tags:Nardoxyribonucleic HiroK jpop Kawaii Bass Futurebass Cute EDM Pop electronic Future
BeatmapID:2206121
BeatmapSetID:1055143

[Difficulty]
HPDrainRate:7
CircleSize:3
OverallDifficulty:4
ApproachRate:10
SliderMultiplier:1.4
SliderTickRate:1

[Events]
//Background and Video events
0,0,"unknown.png",0,0
//Break Periods
//Storyboard Layer 0 (Background)
//Storyboard Layer 1 (Fail)
//Storyboard Layer 2 (Pass)
//Storyboard Layer 3 (Foreground)
//Storyboard Layer 4 (Overlay)
//Storyboard Sound Samples

[TimingPoints]
1,413.793103448276,4,2,0,40,1,0
1,-111.111111111111,4,2,0,40,0,0
6518,-111.111111111111,4,1,0,60,0,0
12828,-105.263157894737,4,1,0,80,0,0
13138,-100,4,1,0,80,0,0
39621,-111.111111111111,4,1,0,80,0,0
40035,-111.111111111111,4,1,0,65,0,0
52966,-100,4,1,0,80,0,0
66207,-100,4,1,0,85,0,1
78932,-100,4,1,0,85,0,0
79449,-100,4,1,0,85,0,1
92690,-100,4,1,0,85,0,0
92794,-100,4,1,0,75,0,0
105932,-100,4,1,0,70,0,0
106656,-100,4,1,0,40,0,0
106863,-100,4,1,0,70,0,0
107897,-100,4,1,0,40,0,0
108104,-100,4,1,0,70,0,0
109966,-100,4,1,0,40,0,0
110173,-100,4,1,0,70,0,0
111207,-100,4,1,0,40,0,0
111414,-100,4,1,0,70,0,0
113276,-100,4,1,0,40,0,0
113483,-100,4,1,0,70,0,0
114518,-100,4,1,0,40,0,0
114725,-100,4,1,0,70,0,0
116587,-100,4,1,0,40,0,0
116794,-100,4,1,0,70,0,0
117828,-100,4,1,0,40,0,0
118035,-100,4,1,0,70,0,0
119069,-95.2380952380952,4,1,0,80,0,0
132311,-100,4,1,0,80,0,0
138932,-95.2380952380952,4,1,0,80,0,0
172138,-100,4,1,0,85,0,1
185380,-111.111111111111,4,1,0,85,0,0
185587,-111.111111111111,4,1,0,60,0,0
195621,-111.111111111111,4,1,0,50,0,0
198207,-111.111111111111,4,1,0,65,0,0

[HitObjects]
256,192,1,5,2,0:0:0:0:
256,192,2069,1,4,0:0:0:0:
256,192,3311,1,8,0:0:0:0:
256,192,5380,1,12,0:0:0:0:
256,192,6621,1,8,0:0:0:0:
256,192,6828,1,0,0:0:0:0:
259,194,7242,1,0,0:0:0:0:
256,192,7449,1,8,0:0:0:0:
259,194,7656,1,0,0:0:0:0:
256,192,7863,1,8,0:0:0:0:
259,194,8069,1,8,0:0:0:0:
256,192,8690,1,4,0:0:0:0:
256,192,9932,1,8,0:0:0:0:
256,192,10138,1,0,0:0:0:0:
256,192,10552,1,0,0:0:0:0:
256,192,10759,1,8,0:0:0:0:
256,192,10966,1,0,0:0:0:0:
256,192,11173,1,8,0:0:0:0:
256,192,11380,1,8,0:0:0:0:
256,192,12001,1,12,0:0:0:0:
254,182,12828,1,8,0:0:0:0:
256,192,13242,1,4,0:0:0:0:
258,181,13656,1,8,0:0:0:0:
256,192,13863,1,0,0:0:0:0:
260,183,14276,1,0,0:0:0:0:
256,192,14483,1,0,0:0:0:0:
258,181,14690,1,8,0:0:0:0:
256,192,15104,1,0,0:0:0:0:
256,192,15311,1,8,0:0:0:0:
260,174,15725,1,0,0:0:0:0:
256,192,16552,1,0,0:0:0:0:
259,183,16966,1,8,0:0:0:0:
259,183,17173,1,0,0:0:0:0:
256,192,17587,1,0,0:0:0:0:
256,192,17794,1,8,0:0:0:0:
259,183,18001,1,0,0:0:0:0:
256,192,18414,1,0,0:0:0:0:
256,192,18621,1,8,0:0:0:0:
259,183,19035,1,0,0:0:0:0:
256,192,19863,1,0,0:0:0:0:
256,192,20276,1,8,0:0:0:0:
256,192,20483,1,0,0:0:0:0:
256,192,20897,1,8,0:0:0:0:
256,192,21104,1,0,0:0:0:0:
256,192,21311,1,8,0:0:0:0:
254,175,21725,1,0,0:0:0:0:
254,175,21932,1,8,0:0:0:0:
256,192,22345,1,0,0:0:0:0:
284,166,22759,1,8,0:0:0:0:
256,192,23173,1,0,0:0:0:0:
254,150,23794,1,0,0:0:0:0:
256,192,24001,1,8,0:0:0:0:
256,192,24414,1,8,0:0:0:0:
256,192,24828,1,0,0:0:0:0:
256,192,25656,1,8,0:0:0:0:
261,181,26069,1,0,0:0:0:0:
256,192,26483,1,4,0:0:0:0:
256,192,26794,1,8,0:0:0:0:
255,181,27311,1,0,0:0:0:0:
266,178,27621,1,8,0:0:0:0:
266,178,27932,1,8,0:0:0:0:
256,192,28138,1,0,0:0:0:0:
256,192,28552,1,12,0:0:0:0:
256,192,28966,1,0,0:0:0:0:
256,192,29794,1,0,0:0:0:0:
260,182,30104,1,0,0:0:0:0:
256,192,30621,1,0,0:0:0:0:
258,188,30932,1,0,0:0:0:0:
261,173,31242,1,8,0:0:0:0:
256,192,31449,1,0,0:0:0:0:
256,192,31863,1,4,0:0:0:0:
256,192,32276,1,8,0:0:0:0:
256,192,33104,1,0,0:0:0:0:
259,177,33414,1,8,0:0:0:0:
256,192,33932,1,0,0:0:0:0:
281,180,34242,1,8,0:0:0:0:
278,180,34552,1,8,0:0:0:0:
256,192,34759,1,0,0:0:0:0:
256,192,35173,1,12,0:0:0:0:
256,192,35587,1,0,0:0:0:0:
256,192,36414,1,0,0:0:0:0:
256,192,36725,1,0,0:0:0:0:
256,192,37242,1,0,0:0:0:0:
257,178,37552,1,0,0:0:0:0:
257,178,37863,1,8,0:0:0:0:
256,192,38069,1,0,0:0:0:0:
256,192,38483,1,4,0:0:0:0:
256,192,38897,1,8,0:0:0:0:
256,192,39725,1,4,0:0:0:0:
257,185,40138,1,0,0:0:0:0:
256,192,40345,1,8,0:0:0:0:
256,192,40759,1,8,0:0:0:0:
256,192,41380,1,12,0:0:0:0:
261,183,41587,1,0,0:0:0:0:
261,183,41794,1,8,0:0:0:0:
261,183,42207,1,0,0:0:0:0:
256,192,43035,1,0,0:0:0:0:
236,161,43449,1,0,0:0:0:0:
256,192,43656,1,8,0:0:0:0:
256,192,44069,1,8,0:0:0:0:
257,183,44483,1,0,0:0:0:0:
256,192,44690,1,12,0:0:0:0:
257,183,44897,1,0,0:0:0:0:
256,192,45311,1,8,0:0:0:0:
253,194,45932,1,0,0:0:0:0:
256,192,46345,1,4,0:0:0:0:
253,179,46759,1,0,0:0:0:0:
256,192,46966,1,8,0:0:0:0:
256,192,47380,1,8,0:0:0:0:
256,192,48001,1,12,0:0:0:0:
256,179,48207,1,0,0:0:0:0:
256,179,48414,1,8,0:0:0:0:
266,178,48828,1,0,0:0:0:0:
256,192,49656,1,0,0:0:0:0:
266,178,50069,1,0,0:0:0:0:
256,192,50276,1,8,0:0:0:0:
256,192,50690,1,8,0:0:0:0:
256,192,51311,1,12,0:0:0:0:
265,192,51518,1,0,0:0:0:0:
265,192,51725,1,8,0:0:0:0:
256,192,52138,1,8,0:0:0:0:
256,192,52966,1,4,0:0:0:0:
256,192,53794,1,8,0:0:0:0:
256,192,54207,1,8,0:0:0:0:
291,183,54414,1,8,0:0:0:0:
256,192,54621,1,4,0:0:0:0:
256,178,54932,1,4,0:0:0:0:
256,178,55242,1,4,0:0:0:0:
252,176,55449,1,8,0:0:0:0:
256,192,56276,1,0,0:0:0:0:
256,192,57104,1,8,0:0:0:0:
256,184,57725,1,8,0:0:0:0:
256,192,57932,1,4,0:0:0:0:
256,184,58242,1,4,0:0:0:0:
256,184,58552,1,4,0:0:0:0:
256,192,58759,1,8,0:0:0:0:
256,192,59587,1,4,0:0:0:0:
256,192,60414,1,8,0:0:0:0:
256,192,60828,1,8,0:0:0:0:
266,178,61035,1,8,0:0:0:0:
256,192,61242,1,4,0:0:0:0:
266,177,61552,1,12,0:0:0:0:
266,177,61863,1,4,0:0:0:0:
256,192,62069,1,8,0:0:0:0:
256,192,62897,1,0,0:0:0:0:
256,192,63518,1,0,0:0:0:0:
256,192,63725,1,8,0:0:0:0:
256,192,64345,1,8,0:0:0:0:
256,192,64552,1,4,0:0:0:0:
256,192,64863,1,4,0:0:0:0:
291,183,65173,1,4,0:0:0:0:
256,192,65380,1,8,0:0:0:0:
256,192,66207,1,4,0:0:0:0:
256,192,67035,1,8,0:0:0:0:
256,192,67345,1,0,0:0:0:0:
256,192,67863,1,8,0:0:0:0:
261,180,68276,1,0,0:0:0:0:
256,192,68690,1,8,0:0:0:0:
256,192,69001,1,0,0:0:0:0:
261,180,69311,1,0,0:0:0:0:
256,192,69518,1,8,0:0:0:0:
256,192,70345,1,8,0:0:0:0:
256,192,70656,1,0,0:0:0:0:
256,192,71173,1,0,0:0:0:0:
256,192,71483,1,8,0:0:0:0:
241,176,71794,1,0,0:0:0:0:
256,192,72001,1,8,0:0:0:0:
242,172,72414,1,8,0:0:0:0:
227,158,72621,1,8,0:0:0:0:
256,192,72828,1,4,0:0:0:0:
256,192,73656,1,8,0:0:0:0:
256,192,73966,1,0,0:0:0:0:
256,192,74483,1,0,0:0:0:0:
261,176,74794,1,8,0:0:0:0:
261,176,75104,1,0,0:0:0:0:
256,192,75311,1,8,0:0:0:0:
256,192,75621,1,0,0:0:0:0:
256,192,76138,1,0,0:0:0:0:
256,192,76966,1,8,0:0:0:0:
256,192,77276,1,0,0:0:0:0:
256,192,77794,1,0,0:0:0:0:
256,192,78104,1,8,0:0:0:0:
256,185,78414,1,0,0:0:0:0:
256,192,78621,1,8,0:0:0:0:
256,192,79449,1,4,0:0:0:0:
256,192,79863,1,8,0:0:0:0:
256,192,80069,1,0,0:0:0:0:
253,177,80276,1,8,0:0:0:0:
256,177,80690,1,8,0:0:0:0:
256,192,81104,1,0,0:0:0:0:
256,192,81518,1,0,0:0:0:0:
249,178,81725,1,0,0:0:0:0:
256,192,81932,1,8,0:0:0:0:
256,192,82759,1,0,0:0:0:0:
272,185,83173,1,8,0:0:0:0:
256,192,83380,1,0,0:0:0:0:
256,173,83587,1,8,0:0:0:0:
256,192,84001,1,8,0:0:0:0:
265,181,84207,1,8,0:0:0:0:
256,192,84414,1,0,0:0:0:0:
256,192,84828,1,0,0:0:0:0:
256,192,85242,1,8,0:0:0:0:
256,192,86069,1,4,0:0:0:0:
256,192,86483,1,8,0:0:0:0:
263,187,86690,1,0,0:0:0:0:
256,192,86897,1,8,0:0:0:0:
248,183,87311,1,8,0:0:0:0:
256,192,87725,1,0,0:0:0:0:
256,192,88138,1,0,0:0:0:0:
248,183,88345,1,0,0:0:0:0:
256,192,88552,1,8,0:0:0:0:
256,192,89380,1,0,0:0:0:0:
247,185,89794,1,8,0:0:0:0:
248,184,90001,1,0,0:0:0:0:
256,192,90207,1,8,0:0:0:0:
256,192,90621,1,8,0:0:0:0:
256,192,90828,1,8,0:0:0:0:
291,190,91035,1,0,0:0:0:0:
256,192,91449,1,8,0:0:0:0:
256,192,91863,1,0,0:0:0:0:
256,192,92690,1,4,0:0:0:0:
263,193,93104,1,8,0:0:0:0:
256,192,93518,1,0,0:0:0:0:
256,192,93725,1,8,0:0:0:0:
256,192,93932,1,0,0:0:0:0:
257,183,94345,1,0,0:0:0:0:
255,168,94552,1,0,0:0:0:0:
257,183,94759,1,8,0:0:0:0:
256,192,95173,1,0,0:0:0:0:
256,192,96001,1,0,0:0:0:0:
262,195,96414,1,8,0:0:0:0:
256,192,96828,1,0,0:0:0:0:
262,195,97035,1,8,0:0:0:0:
256,192,97242,1,0,0:0:0:0:
256,192,97656,1,8,0:0:0:0:
257,183,97863,1,0,0:0:0:0:
257,183,98069,1,8,0:0:0:0:
256,192,98483,1,0,0:0:0:0:
256,192,99311,1,12,0:0:0:0:
270,186,99725,1,0,0:0:0:0:
256,192,100138,1,0,0:0:0:0:
247,178,100345,1,8,0:0:0:0:
256,192,100552,1,0,0:0:0:0:
256,192,100966,1,0,0:0:0:0:
256,192,101173,1,0,0:0:0:0:
256,188,101380,1,8,0:0:0:0:
256,192,101794,1,0,0:0:0:0:
256,192,102621,1,0,0:0:0:0:
281,179,103035,1,8,0:0:0:0:
256,192,103449,1,0,0:0:0:0:
240,158,103656,1,8,0:0:0:0:
256,192,103863,1,0,0:0:0:0:
256,192,104276,1,4,0:0:0:0:
265,177,105518,1,8,0:0:0:0:
256,192,105932,1,4,0:0:0:0:
251,184,106345,1,0,0:0:0:0:
251,184,106759,1,8,0:0:0:0:
256,192,107173,1,4,0:0:0:0:
262,178,107587,1,0,0:0:0:0:
265,175,108001,1,8,0:0:0:0:
256,192,108414,1,4,0:0:0:0:
256,192,109242,1,4,0:0:0:0:
260,183,109656,1,0,0:0:0:0:
260,183,110069,1,8,0:0:0:0:
256,192,110483,1,4,0:0:0:0:
261,191,110897,1,0,0:0:0:0:
256,192,111311,1,0,0:0:0:0:
251,181,111518,1,12,0:0:0:0:
256,192,111725,1,4,0:0:0:0:
256,192,112552,1,4,0:0:0:0:
256,192,112966,1,0,0:0:0:0:
281,191,113380,1,8,0:0:0:0:
256,192,113794,1,4,0:0:0:0:
272,171,114001,1,8,0:0:0:0:
256,192,114207,1,0,0:0:0:0:
260,178,114621,1,8,0:0:0:0:
256,192,115035,1,4,0:0:0:0:
256,192,115863,1,4,0:0:0:0:
256,192,116276,1,0,0:0:0:0:
261,186,116690,1,8,0:0:0:0:
256,192,117104,1,4,0:0:0:0:
265,188,117311,1,8,0:0:0:0:
256,192,117518,1,0,0:0:0:0:
257,185,117932,1,0,0:0:0:0:
257,185,118138,1,12,0:0:0:0:
256,192,119173,1,4,0:0:0:0:
256,192,119587,1,8,0:0:0:0:
256,192,120001,1,0,0:0:0:0:
256,192,120207,1,8,0:0:0:0:
256,192,120414,1,4,0:0:0:0:
256,192,120828,1,8,0:0:0:0:
256,192,121242,1,0,0:0:0:0:
256,192,121656,1,4,0:0:0:0:
281,200,122069,1,8,0:0:0:0:
256,192,122483,1,4,0:0:0:0:
256,192,122897,1,8,0:0:0:0:
268,203,123311,1,0,0:0:0:0:
241,163,123518,1,8,0:0:0:0:
256,192,123725,1,4,0:0:0:0:
256,192,124138,1,8,0:0:0:0:
241,163,124552,1,0,0:0:0:0:
241,163,124759,1,12,0:0:0:0:
256,192,124966,1,4,0:0:0:0:
256,192,125794,1,4,0:0:0:0:
256,192,126207,1,8,0:0:0:0:
254,185,126621,1,0,0:0:0:0:
254,185,126828,1,8,0:0:0:0:
256,192,127035,1,4,0:0:0:0:
256,192,127449,1,0,0:0:0:0:
254,185,127863,1,8,0:0:0:0:
259,168,128069,1,8,0:0:0:0:
256,192,128276,1,4,0:0:0:0:
256,192,128690,1,8,0:0:0:0:
256,192,129104,1,4,0:0:0:0:
256,192,129518,1,8,0:0:0:0:
266,189,129932,1,0,0:0:0:0:
266,189,130138,1,8,0:0:0:0:
256,192,130345,1,4,0:0:0:0:
256,192,130759,1,8,0:0:0:0:
266,189,131173,1,0,0:0:0:0:
265,188,131380,1,12,0:0:0:0:
256,192,131587,1,4,0:0:0:0:
256,192,132414,1,12,0:0:0:0:
256,192,132725,1,0,0:0:0:0:
265,188,132932,1,0,0:0:0:0:
265,188,133242,1,8,0:0:0:0:
256,192,133656,1,8,0:0:0:0:
256,192,134069,1,4,0:0:0:0:
256,192,134380,1,4,0:0:0:0:
238,178,134587,1,4,0:0:0:0:
256,192,134897,1,4,0:0:0:0:
256,192,135725,1,12,0:0:0:0:
232,148,136035,1,0,0:0:0:0:
256,192,136242,1,0,0:0:0:0:
258,169,136552,1,8,0:0:0:0:
256,192,136966,1,8,0:0:0:0:
256,192,137380,1,4,0:0:0:0:
256,192,137690,1,4,0:0:0:0:
263,189,137897,1,4,0:0:0:0:
256,192,138207,1,4,0:0:0:0:
256,192,139035,1,4,0:0:0:0:
261,186,139345,1,8,0:0:0:0:
256,192,139552,1,8,0:0:0:0:
255,161,139863,1,0,0:0:0:0:
256,192,140276,1,0,0:0:0:0:
256,192,140690,1,12,0:0:0:0:
256,192,141001,1,12,0:0:0:0:
256,192,141207,1,12,0:0:0:0:
256,192,141518,1,12,0:0:0:0:
256,192,142345,1,4,0:0:0:0:
256,192,142656,1,8,0:0:0:0:
259,175,142863,1,8,0:0:0:0:
260,175,143173,1,0,0:0:0:0:
256,192,143587,1,0,0:0:0:0:
256,192,144001,1,6,0:0:0:0:
260,175,144311,1,12,0:0:0:0:
256,192,144518,1,12,0:0:0:0:
256,192,144828,1,12,0:0:0:0:
245,173,145242,1,8,0:0:0:0:
245,173,145449,1,8,0:0:0:0:
256,192,145656,1,4,0:0:0:0:
256,192,146483,1,12,0:0:0:0:
266,175,146794,1,4,0:0:0:0:
256,192,147104,1,12,0:0:0:0:
256,192,148138,1,12,0:0:0:0:
242,191,148449,1,4,0:0:0:0:
256,192,148759,1,12,0:0:0:0:
256,192,149794,1,12,0:0:0:0:
237,183,150104,1,4,0:0:0:0:
256,192,150414,1,12,0:0:0:0:
261,135,150897,1,0,0:0:0:0:
268,148,151242,1,0,0:0:0:0:
268,148,151449,1,8,0:0:0:0:
268,148,151863,1,8,0:0:0:0:
256,192,152276,1,4,0:0:0:0:
256,192,153104,1,12,0:0:0:0:
260,183,153414,1,4,0:0:0:0:
256,192,153725,1,12,0:0:0:0:
256,192,154759,1,14,0:0:0:0:
251,186,155069,1,4,0:0:0:0:
256,192,155380,1,12,0:0:0:0:
256,192,156414,1,12,0:0:0:0:
256,192,156725,1,12,0:0:0:0:
256,192,157034,1,12,0:0:0:0:
245,165,157518,1,0,0:0:0:0:
248,153,157863,1,0,0:0:0:0:
248,153,158069,1,8,0:0:0:0:
248,153,158483,1,0,0:0:0:0:
256,192,158897,1,12,0:0:0:0:
253,184,159311,1,0,0:0:0:0:
256,192,159724,1,4,0:0:0:0:
261,188,160035,1,12,0:0:0:0:
256,192,160345,1,4,0:0:0:0:
253,184,160552,1,8,0:0:0:0:
246,165,161173,1,8,0:0:0:0:
256,192,161379,1,4,0:0:0:0:
258,174,161690,1,4,0:0:0:0:
256,192,162000,1,4,0:0:0:0:
259,185,162207,1,8,0:0:0:0:
255,183,162414,1,0,0:0:0:0:
255,183,162621,1,8,0:0:0:0:
256,192,163035,1,4,0:0:0:0:
256,192,163345,1,4,0:0:0:0:
256,192,163655,1,4,0:0:0:0:
264,184,163863,1,8,0:0:0:0:
256,192,164276,1,0,0:0:0:0:
256,192,164690,1,8,0:0:0:0:
254,175,165311,1,0,0:0:0:0:
256,192,165518,1,12,0:0:0:0:
276,172,165932,1,0,0:0:0:0:
256,192,166345,1,4,0:0:0:0:
253,183,166656,1,12,0:0:0:0:
256,192,166966,1,4,0:0:0:0:
276,158,167173,1,8,0:0:0:0:
276,158,167794,1,8,0:0:0:0:
256,192,168000,1,4,0:0:0:0:
265,182,168311,1,4,0:0:0:0:
256,192,168621,1,4,0:0:0:0:
295,186,168828,1,8,0:0:0:0:
291,184,169035,1,0,0:0:0:0:
256,192,169242,1,8,0:0:0:0:
256,192,169656,1,4,0:0:0:0:
257,178,169966,1,4,0:0:0:0:
256,192,170276,1,4,0:0:0:0:
256,192,170897,1,0,0:0:0:0:
256,192,171311,1,2,0:0:0:0:
256,192,172138,1,4,0:0:0:0:
265,183,172552,1,8,0:0:0:0:
256,192,172966,1,0,0:0:0:0:
266,179,173173,1,8,0:0:0:0:
256,192,173380,1,0,0:0:0:0:
256,192,173794,1,0,0:0:0:0:
256,182,174001,1,0,0:0:0:0:
256,182,174207,1,8,0:0:0:0:
256,192,174621,1,0,0:0:0:0:
270,187,175035,1,8,0:0:0:0:
256,192,175449,1,4,0:0:0:0:
256,192,176276,1,0,0:0:0:0:
262,172,176483,1,8,0:0:0:0:
256,192,176690,1,0,0:0:0:0:
256,192,177104,1,0,0:0:0:0:
256,192,177518,1,8,0:0:0:0:
256,192,177725,1,8,0:0:0:0:
256,173,177932,1,0,0:0:0:0:
256,192,178345,1,8,0:0:0:0:
256,192,178759,1,4,0:0:0:0:
256,192,179587,1,0,0:0:0:0:
256,192,179794,1,8,0:0:0:0:
256,192,180001,1,0,0:0:0:0:
256,192,180414,1,0,0:0:0:0:
267,167,180621,1,0,0:0:0:0:
267,167,180828,1,8,0:0:0:0:
256,192,181242,1,0,0:0:0:0:
256,192,181656,1,8,0:0:0:0:
256,192,182070,1,4,0:0:0:0:
256,192,182897,1,0,0:0:0:0:
256,192,183104,1,8,0:0:0:0:
266,173,183311,1,0,0:0:0:0:
256,192,183725,1,0,0:0:0:0:
253,178,184138,1,12,0:0:0:0:
256,192,184553,1,0,0:0:0:0:
256,192,185380,1,4,0:0:0:0:
256,192,185794,1,2,0:0:0:0:
256,192,186001,1,0,0:0:0:0:
257,185,186414,1,0,0:0:0:0:
257,185,186621,1,0,0:0:0:0:
256,192,186828,1,8,0:0:0:0:
273,168,187242,1,0,0:0:0:0:
271,167,187449,1,8,0:0:0:0:
261,168,187863,1,0,0:0:0:0:
256,192,188690,1,0,0:0:0:0:
259,183,189104,1,8,0:0:0:0:
259,183,189311,1,0,0:0:0:0:
256,192,189725,1,0,0:0:0:0:
256,192,189932,1,2,0:0:0:0:
259,183,190139,1,0,0:0:0:0:
256,192,190552,1,0,0:0:0:0:
256,192,190759,1,2,0:0:0:0:
259,183,191173,1,0,0:0:0:0:
256,192,192001,1,0,0:0:0:0:
256,192,192414,1,8,0:0:0:0:
256,192,192621,1,0,0:0:0:0:
256,192,193035,1,8,0:0:0:0:
256,192,193242,1,0,0:0:0:0:
256,192,193449,1,8,0:0:0:0:
254,175,193863,1,0,0:0:0:0:
254,175,194070,1,8,0:0:0:0:
256,192,194483,1,0,0:0:0:0:
284,166,194897,1,8,0:0:0:0:
256,192,195311,1,0,0:0:0:0:
256,192,195931,5,8,0:0:0:0:
256,192,196345,1,8,0:0:0:0:
256,192,196966,1,12,0:0:0:0:
256,192,197173,1,0,0:0:0:0:
257,183,197380,1,8,0:0:0:0:
256,192,197794,1,0,0:0:0:0:
256,192,198207,1,8,0:0:0:0:
