osu file format v14

[General]
AudioFilename: audio.mp3
AudioLeadIn: 0
PreviewTime: 144725
Countdown: 0
SampleSet: Normal
StackLeniency: 0.7
Mode: 1
LetterboxInBreaks: 0
WidescreenStoryboard: 0

[Editor]
Bookmarks: 13242,26483,105932
DistanceSpacing: 0.3
BeatDivisor: 8
GridSize: 32
TimelineZoom: 1.6

[Metadata]
Title:Bubblegum
TitleUnicode:Bubblegum
Artist:MYLK
ArtistUnicode:MYLK
Creator:Cynplytholowazy
Version:Bubble Pop
Source:
Tags:Nardoxyribonucleic HiroK jpop Kawaii Bass Futurebass Cute EDM Pop electronic Future
BeatmapID:2204735
BeatmapSetID:1055143

[Difficulty]
HPDrainRate:5
CircleSize:10
OverallDifficulty:7
ApproachRate:10
SliderMultiplier:1.4
SliderTickRate:1

[Events]
//Background and Video events
0,0,"unknown.png",0,0
//Break Periods
//Storyboard Layer 0 (Background)
//Storyboard Layer 1 (Fail)
//Storyboard Layer 2 (Pass)
//Storyboard Layer 3 (Foreground)
//Storyboard Layer 4 (Overlay)
//Storyboard Sound Samples

[TimingPoints]
1,413.793103448276,4,2,0,40,1,0
1,-133.333333333333,4,2,0,40,0,0
2069,-105.263157894737,4,2,0,40,0,0
2483,-133.333333333333,4,2,0,40,0,0
5380,-105.263157894737,4,2,0,40,0,0
6104,-133.333333333333,4,2,0,40,0,0
6518,-117.647058823529,4,1,0,50,0,0
6828,-116.971240281152,4,1,0,50,0,0
7242,-115.642498155502,4,1,0,50,0,0
7449,-114.989449717988,4,1,0,50,0,0
7656,-114.343604819354,4,1,0,50,0,0
7863,-113.705103539867,4,1,0,50,0,0
8069,-113.073693518277,4,1,0,50,0,0
8690,-90.9824558530379,4,1,0,50,0,0
9104,-110.018747194522,4,1,0,50,0,0
9518,-108.842471203003,4,1,0,50,0,0
9932,-107.691197644578,4,1,0,50,0,0
10138,-107.124645953045,4,1,0,50,0,0
10552,-106.009127385868,4,1,0,50,0,0
10759,-105.460090737862,4,1,0,50,0,0
10966,-104.916601793235,4,1,0,50,0,0
11173,-104.378794821559,4,1,0,50,0,0
11380,-103.846473373764,4,1,0,50,0,0
12001,-84.9117003228342,4,1,0,50,0,0
12828,-100.266709447129,4,1,0,60,0,0
12932,-100.020504203362,4,1,0,60,0,0
13242,-80,4,1,0,75,0,0
28552,-68.9655172413793,4,1,0,75,0,0
28759,-80,4,1,0,75,0,0
31863,-68.9655172413793,4,1,0,75,0,0
32069,-80,4,1,0,75,0,0
35173,-68.9655172413793,4,1,0,75,0,0
35380,-80,4,1,0,75,0,0
38483,-68.9655172413793,4,1,0,75,0,0
38690,-80,4,1,0,75,0,0
39725,-80,4,1,0,75,0,0
40035,-81.5286956550097,4,1,0,65,0,0
40138,-82.0512820512821,4,1,0,65,0,0
40242,-82.5806110634896,4,1,0,65,0,0
40345,-83.1168831168831,4,1,0,65,0,0
40759,-85.3333333333333,4,1,0,65,0,0
41380,-75.4716981132076,4,1,0,65,0,0
41587,-90.1408450704225,4,1,0,65,0,0
41794,-91.4285714285714,4,1,0,65,0,0
42001,-92.7536231884058,4,1,0,65,0,0
42207,-94.1176470588235,4,1,0,65,0,0
42621,-96.969696969697,4,1,0,65,0,0
43035,-100,4,1,0,65,0,0
44690,-83.3333333333333,4,1,0,65,0,0
44897,-100,4,1,0,65,0,0
48001,-83.3333333333333,4,1,0,65,0,0
48207,-100,4,1,0,65,0,0
51311,-83.3333333333333,4,1,0,65,0,0
51518,-100,4,1,0,65,0,0
52966,-80,4,1,0,75,0,0
54621,-68.9655172413793,4,1,0,75,0,0
54932,-72.6864097492828,4,1,0,75,0,0
55242,-76.8317062938997,4,1,0,75,0,0
55449,-79.8682493358955,4,1,0,75,0,0
61242,-68.9655172413793,4,1,0,75,0,0
61552,-72.7272727272727,4,1,0,75,0,0
61863,-76.9230769230769,4,1,0,75,0,0
62069,-80,4,1,0,75,0,0
66207,-80,4,1,0,85,0,1
78932,-80,4,1,0,85,0,0
79449,-80,4,1,0,85,0,1
79621,-68.9655172413793,4,1,0,85,0,1
79863,-80,4,1,0,85,0,1
80483,-68.9655172413793,4,1,0,85,0,1
80587,-74.0740740740741,4,1,0,85,0,1
80690,-80,4,1,0,85,0,1
81311,-68.9655172413793,4,1,0,85,0,1
81518,-80,4,1,0,85,0,1
82138,-68.9655172413793,4,1,0,85,0,1
82242,-74.0740740740741,4,1,0,85,0,1
82345,-80,4,1,0,85,0,1
82966,-68.9655172413793,4,1,0,85,0,1
83173,-80,4,1,0,85,0,1
83794,-68.9655172413793,4,1,0,85,0,1
83897,-74.0740740740741,4,1,0,85,0,1
84001,-80,4,1,0,85,0,1
84621,-68.9655172413793,4,1,0,85,0,1
84828,-80,4,1,0,85,0,1
85449,-68.9655172413793,4,1,0,85,0,1
85552,-74.0740740740741,4,1,0,85,0,1
85656,-80,4,1,0,85,0,1
86276,-68.9655172413793,4,1,0,85,0,1
86483,-80,4,1,0,85,0,1
87104,-68.9655172413793,4,1,0,85,0,1
87207,-74.0740740740741,4,1,0,85,0,1
87311,-80,4,1,0,85,0,1
87932,-68.9655172413793,4,1,0,85,0,1
88138,-80,4,1,0,85,0,1
88759,-68.9655172413793,4,1,0,85,0,1
88863,-74.0740740740741,4,1,0,85,0,1
88966,-80,4,1,0,85,0,1
89587,-68.9655172413793,4,1,0,85,0,1
89794,-80,4,1,0,85,0,1
90414,-68.9655172413793,4,1,0,85,0,1
90518,-74.0740740740741,4,1,0,85,0,1
90621,-80,4,1,0,85,0,1
91242,-68.9655172413793,4,1,0,85,0,1
91449,-80,4,1,0,85,0,1
92069,-68.9655172413793,4,1,0,85,0,1
92173,-74.0740740740741,4,1,0,85,0,1
92276,-80,4,1,0,85,0,1
92690,-80,4,1,0,85,0,0
92794,-80.5653755796679,4,1,0,75,0,0
92897,-81.1387992755928,4,1,0,75,0,0
93104,-82.3104883316652,4,1,0,75,0,0
93173,-82.7086076502154,4,1,0,75,0,0
93242,-83.1105969335514,4,1,0,75,0,0
93311,-83.5165128849276,4,1,0,75,0,0
93414,-84.132876099196,4,1,0,75,0,0
93518,-84.7583328035938,4,1,0,75,0,0
93725,-86.0377137714546,4,1,0,75,0,0
93932,-87.3563097899343,4,1,0,75,0,0
93983,-87.6922982485217,4,1,0,75,0,0
94138,-88.7159519266,4,1,0,75,0,0
94345,-90.1185870486974,4,1,0,75,0,0
94449,-90.8366693100137,4,1,0,75,0,0
94552,-91.5662871244065,4,1,0,75,0,0
94759,-93.0612594352484,4,1,0,75,0,0
94863,-93.8272021948059,4,1,0,75,0,0
94966,-94.605768302905,4,1,0,75,0,0
95069,-95.3974544143264,4,1,0,75,0,0
95173,-96.2025024194929,4,1,0,75,0,0
95380,-97.8540604542385,4,1,0,75,0,0
95587,-99.5633152990982,4,1,0,75,0,0
95638,-100,4,1,0,75,0,0
104483,-100,4,1,0,60,0,0
105518,-100,4,1,0,65,0,0
105932,-71.4285714285714,4,1,0,75,0,0
106345,-78.9473476454348,4,1,0,75,0,0
106759,-88.2353200692118,4,1,0,75,0,0
107173,-71.4285714285714,4,1,0,75,0,0
107587,-78.9473476454348,4,1,0,75,0,0
108001,-88.2353200692118,4,1,0,75,0,0
108414,-71.4285714285714,4,1,0,75,0,0
108828,-78.9473684210526,4,1,0,75,0,0
109242,-71.4285714285714,4,1,0,75,0,0
109655,-78.9473476454348,4,1,0,75,0,0
110018,-88.2353200692118,4,1,0,75,0,0
110069,-90.0000090000009,4,1,0,75,0,0
110121,-91.8367253227831,4,1,0,75,0,0
110173,-93.7499707031342,4,1,0,75,0,0
110225,-95.2380952380952,4,1,0,75,0,0
110483,-71.4285714285714,4,1,0,75,0,0
110897,-78.9473476454348,4,1,0,75,0,0
111311,-88.2353200692118,4,1,0,75,0,0
111518,-78.9473684210524,4,1,0,75,0,0
111724,-71.4285714285714,4,1,0,75,0,0
112138,-78.9473684210526,4,1,0,75,0,0
112552,-71.4285714285714,4,1,0,75,0,0
112759,-75,4,1,0,75,0,0
112965,-78.9473476454348,4,1,0,75,0,0
113379,-88.2353200692118,4,1,0,75,0,0
113793,-71.4285714285714,4,1,0,75,0,0
114001,-75,4,1,0,75,0,0
114207,-78.9473476454348,4,1,0,75,0,0
114621,-88.2353200692118,4,1,0,75,0,0
115034,-71.4285714285714,4,1,0,75,0,0
115242,-75,4,1,0,75,0,0
115448,-78.9473684210526,4,1,0,75,0,0
115862,-71.4285714285714,4,1,0,75,0,0
116069,-75,4,1,0,75,0,0
116275,-78.9473476454348,4,1,0,75,0,0
116638,-88.2353200692118,4,1,0,75,0,0
116690,-90.0000090000009,4,1,0,75,0,0
116742,-91.8367253227831,4,1,0,75,0,0
116794,-93.7499707031342,4,1,0,75,0,0
116845,-95.2380952380952,4,1,0,75,0,0
117103,-71.4285714285714,4,1,0,75,0,0
117311,-75,4,1,0,75,0,0
117517,-78.9473476454348,4,1,0,75,0,0
117931,-88.2353200692118,4,1,0,75,0,0
118138,-78.9473684210524,4,1,0,75,0,0
118345,-83.3333333333333,4,1,0,75,0,0
119173,-71.4285714285714,4,1,0,75,0,0
119380,-75.0000187500047,4,1,0,75,0,0
119483,-76.9230769230769,4,1,0,75,0,0
119587,-78.9473476454348,4,1,0,75,0,0
119794,-83.3333333333333,4,1,0,75,0,0
119897,-85.7142612244968,4,1,0,75,0,0
120001,-88.2353200692118,4,1,0,75,0,0
120104,-90.9090909090909,4,1,0,75,0,0
120207,-93.7499707031342,4,1,0,75,0,0
120414,-71.4285714285714,4,1,0,75,0,0
120621,-74.9741526608702,4,1,0,75,0,0
120725,-76.8822701796739,4,1,0,75,0,0
120828,-78.8901108090496,4,1,0,75,0,0
121035,-83.2376793667943,4,1,0,75,0,0
121242,-74.8967174266686,4,1,0,75,0,0
121449,-93.5483448491346,4,1,0,75,0,0
121552,-96.5379558280929,4,1,0,75,0,0
121656,-71.4285714285714,4,1,0,75,0,0
121863,-75.0000187500047,4,1,0,75,0,0
121966,-76.9230769230769,4,1,0,75,0,0
122069,-78.9473476454348,4,1,0,75,0,0
122276,-83.3333333333333,4,1,0,75,0,0
122483,-71.4285714285714,4,1,0,75,0,0
122690,-74.9741526608702,4,1,0,75,0,0
122794,-76.8822701796739,4,1,0,75,0,0
122897,-78.8901108090496,4,1,0,75,0,0
123104,-83.2376793667943,4,1,0,75,0,0
123207,-85.5962118540482,4,1,0,75,0,0
123311,-88.092377190417,4,1,0,75,0,0
123363,-89.8389457220042,4,1,0,75,0,0
123414,-91.6561720349687,4,1,0,75,0,0
123466,-93.5483448491346,4,1,0,75,0,0
123518,-95.2380952380952,4,1,0,75,0,0
123725,-71.4285714285714,4,1,0,75,0,0
123932,-75.0000187500047,4,1,0,75,0,0
124035,-76.9230769230769,4,1,0,75,0,0
124138,-78.9473476454348,4,1,0,75,0,0
124345,-83.3333333333333,4,1,0,75,0,0
124449,-85.7142612244968,4,1,0,75,0,0
124552,-81.0811029948927,4,1,0,75,0,0
124725,-78.2608559546337,4,1,0,75,0,0
124966,-71.4285714285714,4,1,0,75,0,0
125173,-74.9613386895709,4,1,0,75,0,0
125276,-76.8621193499617,4,1,0,75,0,0
125380,-78.8618033644023,4,1,0,75,0,0
125587,-83.1903845225953,4,1,0,75,0,0
125690,-85.5379309400961,4,1,0,75,0,0
125793,-71.4285714285714,4,1,0,75,0,0
126000,-75.0000187500047,4,1,0,75,0,0
126103,-76.9230769230769,4,1,0,75,0,0
126207,-78.9473476454348,4,1,0,75,0,0
126414,-83.3333333333333,4,1,0,75,0,0
126517,-85.7142612244968,4,1,0,75,0,0
126621,-88.2353200692118,4,1,0,75,0,0
126724,-90.9090909090909,4,1,0,75,0,0
126827,-93.7499707031342,4,1,0,75,0,0
127034,-71.4285714285714,4,1,0,75,0,0
127241,-74.9741526608702,4,1,0,75,0,0
127345,-76.8822701796739,4,1,0,75,0,0
127448,-78.8901108090496,4,1,0,75,0,0
127655,-83.2376793667943,4,1,0,75,0,0
127862,-74.8967174266686,4,1,0,75,0,0
128069,-93.5483448491346,4,1,0,75,0,0
128172,-96.5379558280929,4,1,0,75,0,0
128276,-71.4285714285714,4,1,0,75,0,0
128483,-75.0000187500047,4,1,0,75,0,0
128586,-76.9230769230769,4,1,0,75,0,0
128689,-78.9473476454348,4,1,0,75,0,0
128896,-83.3333333333333,4,1,0,75,0,0
129103,-71.4285714285714,4,1,0,75,0,0
129310,-74.9741526608702,4,1,0,75,0,0
129414,-76.8822701796739,4,1,0,75,0,0
129517,-78.8901108090496,4,1,0,75,0,0
129724,-83.2376793667943,4,1,0,75,0,0
129827,-85.5962118540482,4,1,0,75,0,0
129931,-88.092377190417,4,1,0,75,0,0
129983,-89.8389457220042,4,1,0,75,0,0
130035,-91.6561720349687,4,1,0,75,0,0
130087,-93.5483448491346,4,1,0,75,0,0
130138,-95.2380952380952,4,1,0,75,0,0
130345,-71.4285714285714,4,1,0,75,0,0
130552,-75.0000187500047,4,1,0,75,0,0
130655,-76.9230769230769,4,1,0,75,0,0
130758,-78.9473476454348,4,1,0,75,0,0
130965,-83.3333333333333,4,1,0,75,0,0
131069,-85.7142612244968,4,1,0,75,0,0
131172,-81.0811029948927,4,1,0,75,0,0
131345,-78.2608559546337,4,1,0,75,0,0
131586,-71.4285714285714,4,1,0,75,0,0
131793,-74.9613386895709,4,1,0,75,0,0
131896,-76.8621193499617,4,1,0,75,0,0
132000,-66.6666666666667,4,1,0,75,0,0
132414,-71.4285714285714,4,1,0,75,0,0
132621,-74.9741526608702,4,1,0,75,0,0
132759,-77.5401173181975,4,1,0,75,0,0
132828,-78.8901108090496,4,1,0,75,0,0
132966,-81.7362078322904,4,1,0,75,0,0
133035,-83.2376793667943,4,1,0,75,0,0
133242,-88.092377190417,4,1,0,75,0,0
133656,-71.4285714285714,4,1,0,75,0,0
133863,-75.0000187500047,4,1,0,75,0,0
134069,-78.9473476454348,4,1,0,75,0,0
134276,-83.3333333333333,4,1,0,75,0,0
134414,-86.5384282544507,4,1,0,75,0,0
134483,-88.2353200692118,4,1,0,75,0,0
134621,-91.8367253227831,4,1,0,75,0,0
134690,-93.7499707031342,4,1,0,75,0,0
134897,-71.4285714285714,4,1,0,75,0,0
135104,-74.9613386895709,4,1,0,75,0,0
135311,-78.8618033644023,4,1,0,75,0,0
135518,-83.1903845225953,4,1,0,75,0,0
135725,-71.4285714285714,4,1,0,75,0,0
135932,-75.0000187500047,4,1,0,75,0,0
136069,-77.5862002080862,4,1,0,75,0,0
136138,-78.9473476454348,4,1,0,75,0,0
136276,-81.8181966942176,4,1,0,75,0,0
136345,-83.3333333333333,4,1,0,75,0,0
136552,-88.2353200692118,4,1,0,75,0,0
136604,-90.0000090000009,4,1,0,75,0,0
136656,-91.8367253227831,4,1,0,75,0,0
136707,-93.7499707031342,4,1,0,75,0,0
136759,-95.2380952380952,4,1,0,75,0,0
136966,-71.4285714285714,4,1,0,75,0,0
137173,-75.0000187500047,4,1,0,75,0,0
137380,-78.9473476454348,4,1,0,75,0,0
137587,-83.3333333333333,4,1,0,75,0,0
137725,-86.5384282544507,4,1,0,75,0,0
137794,-88.2353200692118,4,1,0,75,0,0
137932,-91.8367253227831,4,1,0,75,0,0
138001,-78.9473476454348,4,1,0,75,0,0
138207,-71.4285714285714,4,1,0,75,0,0
138414,-74.9613386895709,4,1,0,75,0,0
139034,-71.4285714285714,4,1,0,75,0,0
139241,-74.9741526608702,4,1,0,75,0,0
139379,-77.5401173181975,4,1,0,75,0,0
139448,-78.8901108090496,4,1,0,75,0,0
139586,-81.7362078322904,4,1,0,75,0,0
139655,-83.2376793667943,4,1,0,75,0,0
139862,-88.092377190417,4,1,0,75,0,0
140276,-71.4285714285714,4,1,0,75,0,0
140483,-75.0000187500047,4,1,0,75,0,0
140689,-78.9473476454348,4,1,0,75,0,0
140896,-83.3333333333333,4,1,0,75,0,0
141034,-86.5384282544507,4,1,0,75,0,0
141103,-88.2353200692118,4,1,0,75,0,0
141241,-91.8367253227831,4,1,0,75,0,0
141310,-93.7499707031342,4,1,0,75,0,0
141517,-71.4285714285714,4,1,0,75,0,0
141724,-74.9613386895709,4,1,0,75,0,0
141931,-78.8618033644023,4,1,0,75,0,0
142138,-83.1903845225953,4,1,0,75,0,0
142345,-71.4285714285714,4,1,0,75,0,0
142552,-75.0000187500047,4,1,0,75,0,0
142689,-77.5862002080862,4,1,0,75,0,0
142758,-78.9473476454348,4,1,0,75,0,0
142896,-81.8181966942176,4,1,0,75,0,0
142965,-83.3333333333333,4,1,0,75,0,0
143172,-88.2353200692118,4,1,0,75,0,0
143225,-90.0000090000009,4,1,0,75,0,0
143276,-91.8367253227831,4,1,0,75,0,0
143328,-93.7499707031342,4,1,0,75,0,0
143380,-95.2380952380952,4,1,0,75,0,0
143586,-71.4285714285714,4,1,0,75,0,0
143793,-75.0000187500047,4,1,0,75,0,0
144000,-78.9473476454348,4,1,0,75,0,0
144207,-83.3333333333333,4,1,0,75,0,0
144345,-86.5384282544507,4,1,0,75,0,0
144414,-88.2353200692118,4,1,0,75,0,0
144552,-91.8367253227831,4,1,0,75,0,0
144621,-78.9473476454348,4,1,0,75,0,0
144828,-71.4285714285714,4,1,0,75,0,0
145035,-74.9613386895709,4,1,0,75,0,0
145138,-76.8621193499617,4,1,0,75,0,0
145242,-78.8618033644023,4,1,0,75,0,0
145449,-83.1903845225953,4,1,0,75,0,0
145552,-85.5379309400961,4,1,0,75,0,0
145656,-71.4285714285714,4,1,0,80,0,0
146069,-90.9090909090909,4,1,0,80,0,0
146138,-87.4704677833147,4,1,0,80,0,0
146207,-84.282494694417,4,1,0,80,0,0
146276,-81.3186634464476,4,1,0,80,0,0
146380,-77.2442346834338,4,1,0,80,0,0
146483,-66.6666666666667,4,1,0,80,0,0
146794,-68.9329523638833,4,1,0,80,0,0
147104,-71.3587418026645,4,1,0,80,0,0
147725,-66.6666666666667,4,1,0,80,0,0
147794,-68.7022690985438,4,1,0,80,0,0
147863,-70.8661473122951,4,1,0,80,0,0
147932,-73.1707138608015,4,1,0,80,0,0
148035,-76.9230769230769,4,1,0,80,0,0
148138,-66.6666666666667,4,1,0,80,0,0
148449,-68.9655172413793,4,1,0,80,0,0
148759,-71.4285714285714,4,1,0,80,0,0
149380,-90.9090909090909,4,1,0,80,0,0
149449,-87.3786747101649,4,1,0,80,0,0
149518,-84.1121416717625,4,1,0,80,0,0
149587,-81.0811029948927,4,1,0,80,0,0
149690,-76.9230769230769,4,1,0,80,0,0
149794,-66.6666666666667,4,1,0,80,0,0
150104,-68.9655172413793,4,1,0,80,0,0
150414,-71.4285714285714,4,1,0,80,0,0
150828,-83.3333333333333,4,1,0,80,0,0
152276,-71.4285714285714,4,1,0,80,0,0
152689,-90.9090909090909,4,1,0,80,0,0
152758,-87.4704677833147,4,1,0,80,0,0
152827,-84.282494694417,4,1,0,80,0,0
152896,-81.3186634464476,4,1,0,80,0,0
153000,-77.2442346834338,4,1,0,80,0,0
153103,-66.6666666666667,4,1,0,80,0,0
153414,-68.9329523638833,4,1,0,80,0,0
153724,-71.3587418026645,4,1,0,80,0,0
154345,-66.6666666666667,4,1,0,80,0,0
154414,-68.7022690985438,4,1,0,80,0,0
154483,-70.8661473122951,4,1,0,80,0,0
154552,-73.1707138608015,4,1,0,80,0,0
154655,-76.9230769230769,4,1,0,80,0,0
154758,-66.6666666666667,4,1,0,80,0,0
155069,-68.9655172413793,4,1,0,80,0,0
155379,-71.4285714285714,4,1,0,80,0,0
156000,-90.9090909090909,4,1,0,80,0,0
156069,-87.3786747101649,4,1,0,80,0,0
156138,-84.1121416717625,4,1,0,80,0,0
156207,-81.0811029948927,4,1,0,80,0,0
156310,-76.9230769230769,4,1,0,80,0,0
156414,-66.6666666666667,4,1,0,80,0,0
156724,-68.9655172413793,4,1,0,80,0,0
157034,-71.4285714285714,4,1,0,80,0,0
157448,-83.3333333333333,4,1,0,80,0,0
158897,-71.4285714285714,4,1,0,80,0,0
159104,-74.4680930285205,4,1,0,80,0,0
159311,-77.7777950617322,4,1,0,80,0,0
159621,-83.3333333333333,4,1,0,80,0,0
159725,-66.6666666666667,4,1,0,80,0,0
160035,-68.9655172413793,4,1,0,80,0,0
160345,-71.4285714285714,4,1,0,80,0,0
160552,-73.7704676162401,4,1,0,80,0,0
160863,-77.5862002080862,4,1,0,80,0,0
161173,-81.8181966942176,4,1,0,80,0,0
161276,-83.3333333333333,4,1,0,80,0,0
161380,-66.6666666666667,4,1,0,80,0,0
161690,-68.9655172413793,4,1,0,80,0,0
162001,-71.4285714285714,4,1,0,80,0,0
162207,-73.7704676162401,4,1,0,80,0,0
162414,-76.2711929043384,4,1,0,80,0,0
162621,-78.9473476454348,4,1,0,80,0,0
162932,-83.3333333333333,4,1,0,80,0,0
163035,-66.6666666666667,4,1,0,80,0,0
163345,-68.9655172413793,4,1,0,80,0,0
163656,-71.4285714285714,4,1,0,80,0,0
163863,-74.0740740740741,4,1,0,80,0,0
164173,-78.4313725490196,4,1,0,80,0,0
164276,-80,4,1,0,80,0,0
164483,-83.3333333333333,4,1,0,80,0,0
164690,-86.9565217391304,4,1,0,80,0,0
164897,-90.9090909090909,4,1,0,80,0,0
165001,-93.0232558139535,4,1,0,80,0,0
165104,-95.2380952380952,4,1,0,80,0,0
165311,-100,4,1,0,80,0,0
165517,-71.4285714285714,4,1,0,80,0,0
165724,-74.4680930285205,4,1,0,80,0,0
165931,-77.7777950617322,4,1,0,80,0,0
166241,-83.3333333333333,4,1,0,80,0,0
166345,-66.6666666666667,4,1,0,80,0,0
166655,-68.9655172413793,4,1,0,80,0,0
166965,-71.4285714285714,4,1,0,80,0,0
167172,-73.7704676162401,4,1,0,80,0,0
167483,-77.5862002080862,4,1,0,80,0,0
167793,-81.8181966942176,4,1,0,80,0,0
167896,-83.3333333333333,4,1,0,80,0,0
168000,-66.6666666666667,4,1,0,80,0,0
168310,-68.9655172413793,4,1,0,80,0,0
168621,-71.4285714285714,4,1,0,80,0,0
168827,-73.7704676162401,4,1,0,80,0,0
169034,-76.2711929043384,4,1,0,80,0,0
169241,-78.9473476454348,4,1,0,80,0,0
169552,-83.3333333333333,4,1,0,80,0,0
169655,-66.6666666666667,4,1,0,80,0,0
169965,-68.9655172413793,4,1,0,80,0,0
170276,-71.4285714285714,4,1,0,80,0,0
170483,-74.0740740740741,4,1,0,80,0,0
170793,-78.4313725490196,4,1,0,80,0,0
170896,-80,4,1,0,80,0,0
171103,-83.3333333333333,4,1,0,80,0,0
171310,-86.9565217391304,4,1,0,80,0,0
171517,-90.9090909090909,4,1,0,80,0,0
171621,-93.0232558139535,4,1,0,80,0,0
171724,-95.2380952380952,4,1,0,80,0,0
172138,-74.0740740740741,4,1,0,85,0,1
174207,-64.5161290322581,4,1,0,85,0,1
174414,-74.0740740740741,4,1,0,85,0,1
177518,-64.5161290322581,4,1,0,85,0,1
177725,-74.0740740740741,4,1,0,85,0,1
180828,-64.5161290322581,4,1,0,85,0,1
181035,-74.0740740740741,4,1,0,85,0,1
184138,-64.5161290322581,4,1,0,85,0,1
184345,-74.0740740740741,4,1,0,85,0,1
185380,-74.0740740740741,4,1,0,85,0,0
185587,-74.6264758318427,4,1,0,60,0,0
185690,-74.9058059490191,4,1,0,60,0,0
185794,-75.187178480828,4,1,0,60,0,0
185897,-75.4707298095043,4,1,0,60,0,0
186001,-75.7563705425898,4,1,0,60,0,0
186207,-76.334246290919,4,1,0,60,0,0
186414,-76.9210059729161,4,1,0,60,0,0
186621,-77.516856040346,4,1,0,60,0,0
186828,-78.122009391828,4,1,0,60,0,0
187035,-68.0246194702787,4,1,0,60,0,0
187242,-79.3611742914238,4,1,0,60,0,0
187449,-79.9955842437497,4,1,0,60,0,0
187656,-80.6402188252978,4,1,0,60,0,0
187863,-81.2953272258864,4,1,0,60,0,0
188690,-84.0257757469682,4,1,0,60,0,0
188897,-84.7372889829661,4,1,0,60,0,0
189000,-85.0976197344784,4,1,0,60,0,0
189104,-85.4609550261724,4,1,0,60,0,0
189207,-85.8274798992042,4,1,0,60,0,0
189311,-86.1970879175818,4,1,0,60,0,0
189517,-86.9460126123886,4,1,0,60,0,0
189724,-87.7080654582834,4,1,0,60,0,0
189828,-88.0941620879726,4,1,0,60,0,0
189931,-88.4835946991248,4,1,0,60,0,0
190138,-89.2729610055706,4,1,0,60,0,0
190345,-76.326147735365,4,1,0,60,0,0
190552,-90.8947956366862,4,1,0,60,0,0
190759,-91.7279715276376,4,1,0,60,0,0
190966,-92.5765631321243,4,1,0,60,0,0
191173,-93.4410022855669,4,1,0,60,0,0
191380,-94.3217371045679,4,1,0,60,0,0
191483,-94.7683151615089,4,1,0,60,0,0
191587,-95.2192327615101,4,1,0,60,0,0
191794,-96.1339723038026,4,1,0,60,0,0
192001,-97.0664575208062,4,1,0,60,0,0
192208,-98.0172098617075,4,1,0,60,0,0
192311,-98.4996532812205,4,1,0,60,0,0
192415,-98.9867714078691,4,1,0,60,0,0
192518,-99.4788304074951,4,1,0,60,0,0
192622,-99.9757059034655,4,1,0,60,0,0
192828,-100.984599848523,4,1,0,60,0,0
193035,-102.014063658816,4,1,0,60,0,0
193242,-103.064732897438,4,1,0,60,0,0
193449,-104.137269583274,4,1,0,60,0,0
193656,-86.9355060254996,4,1,0,60,0,0
193863,-106.350734085942,4,1,0,60,0,0
194070,-107.493246736774,4,1,0,60,0,0
194277,-108.660455635023,4,1,0,60,0,0
194484,-109.853290929963,4,1,0,60,0,0
194897,-112.319292298603,4,1,0,60,0,0
195311,-114.898550324991,4,1,0,60,0,0
195621,-116.912026038646,4,1,0,50,0,0
195725,-117.599050740462,4,1,0,50,0,0
195828,-118.294197669604,4,1,0,50,0,0
195932,-118.997470113785,4,1,0,50,0,0
196138,-120.429548112207,4,1,0,50,0,0
196345,-121.896514734851,4,1,0,50,0,0
196449,-122.643557349967,4,1,0,50,0,0
196966,-100.970426771703,4,1,0,50,0,0
197173,-128.140072476025,4,1,0,50,0,0
197380,-129.802362922215,4,1,0,50,0,0
197794,-133.259418775719,4,1,0,50,0,0
198156,-66.6666666666667,4,1,0,65,0,0
198621,-66.6666666666667,4,1,0,5,0,0

[HitObjects]
256,192,1,5,2,0:0:0:0:
256,192,725,1,2,0:0:0:0:
256,192,1035,1,2,0:0:0:0:
256,192,2069,1,4,0:0:0:0:
256,192,2483,1,0,0:0:0:0:
256,192,2897,1,2,0:0:0:0:
256,192,3311,1,0,0:0:0:0:
256,192,4035,1,0,0:0:0:0:
256,192,4345,1,0,0:0:0:0:
256,192,4966,1,0,0:0:0:0:
256,192,5380,1,4,0:0:0:0:
256,192,6104,1,0,0:0:0:0:
256,192,6414,1,0,0:0:0:0:
256,192,6621,1,2,0:0:0:0:
256,192,6828,1,0,0:0:0:0:
256,192,7242,1,0,0:0:0:0:
256,192,7449,1,2,0:0:0:0:
256,192,7656,1,0,0:0:0:0:
256,192,7863,1,2,0:0:0:0:
256,192,8069,1,2,0:0:0:0:
256,192,8690,1,4,0:0:0:0:
256,192,9104,1,0,0:0:0:0:
256,192,9518,1,2,0:0:0:0:
256,192,9932,1,2,0:0:0:0:
256,192,10138,1,0,0:0:0:0:
256,192,10552,1,0,0:0:0:0:
256,192,10759,1,2,0:0:0:0:
256,192,10966,1,0,0:0:0:0:
256,192,11173,1,2,0:0:0:0:
256,192,11380,1,2,0:0:0:0:
256,192,12001,1,6,0:0:0:0:
256,192,12828,1,0,0:0:0:0:
256,192,12932,1,2,0:0:0:0:
256,192,13242,1,4,0:0:0:0:
256,192,13449,1,0,0:0:0:0:
256,192,13587,1,2,0:0:0:0:
256,192,13656,1,0,0:0:0:0:
256,192,13966,1,2,0:0:0:0:
256,192,14069,1,0,0:0:0:0:
256,192,14276,1,0,0:0:0:0:
256,192,14380,1,2,0:0:0:0:
256,192,14483,1,0,0:0:0:0:
256,192,14690,1,0,0:0:0:0:
256,192,14897,1,0,0:0:0:0:
256,192,15035,1,2,0:0:0:0:
256,192,15104,1,0,0:0:0:0:
256,192,15242,1,2,0:0:0:0:
256,192,15311,1,0,0:0:0:0:
256,192,15518,1,2,0:0:0:0:
256,192,15725,1,0,0:0:0:0:
256,192,15932,1,2,0:0:0:0:
256,192,16069,1,0,0:0:0:0:
256,192,16138,1,2,0:0:0:0:
256,192,16242,1,2,0:0:0:0:
256,192,16345,1,2,0:0:0:0:
256,192,16449,1,2,0:0:0:0:
256,192,16552,1,4,0:0:0:0:
256,192,16690,1,2,0:0:0:0:
256,192,16759,1,0,0:0:0:0:
256,192,16897,1,2,0:0:0:0:
256,192,16966,1,0,0:0:0:0:
256,192,17173,1,0,0:0:0:0:
256,192,17276,1,2,0:0:0:0:
256,192,17380,1,0,0:0:0:0:
256,192,17587,1,2,0:0:0:0:
256,192,17725,1,2,0:0:0:0:
256,192,17794,1,0,0:0:0:0:
256,192,18001,1,2,0:0:0:0:
256,192,18207,1,0,0:0:0:0:
256,192,18345,1,2,0:0:0:0:
256,192,18414,1,0,0:0:0:0:
256,192,18552,1,2,0:0:0:0:
256,192,18621,1,0,0:0:0:0:
256,192,18828,1,2,0:0:0:0:
256,192,19035,1,0,0:0:0:0:
256,192,19242,1,2,0:0:0:0:
256,192,19345,1,0,0:0:0:0:
256,192,19449,1,2,0:0:0:0:
256,192,19656,1,0,0:0:0:0:
256,192,19863,1,4,0:0:0:0:
256,192,20069,1,2,0:0:0:0:
256,192,20276,1,0,0:0:0:0:
256,192,20587,1,2,0:0:0:0:
256,192,20690,1,0,0:0:0:0:
256,192,20897,1,2,0:0:0:0:
256,192,21035,1,2,0:0:0:0:
256,192,21104,1,0,0:0:0:0:
256,192,21311,1,0,0:0:0:0:
256,192,21518,1,0,0:0:0:0:
256,192,21656,1,2,0:0:0:0:
256,192,21725,1,0,0:0:0:0:
256,192,21863,1,2,0:0:0:0:
256,192,21932,1,0,0:0:0:0:
256,192,22138,1,2,0:0:0:0:
256,192,22345,1,0,0:0:0:0:
256,192,22552,1,2,0:0:0:0:
256,192,22690,1,0,0:0:0:0:
256,192,22759,1,2,0:0:0:0:
256,192,22966,1,2,0:0:0:0:
256,192,23173,1,4,0:0:0:0:
256,192,23311,1,2,0:0:0:0:
256,192,23380,1,0,0:0:0:0:
256,192,23518,1,2,0:0:0:0:
256,192,23587,1,0,0:0:0:0:
256,192,23794,1,0,0:0:0:0:
256,192,23897,1,2,0:0:0:0:
256,192,24001,1,0,0:0:0:0:
256,192,24207,1,2,0:0:0:0:
256,192,24345,1,0,0:0:0:0:
256,192,24414,1,2,0:0:0:0:
256,192,24621,1,2,0:0:0:0:
256,192,24828,1,0,0:0:0:0:
256,192,24966,1,2,0:0:0:0:
256,192,25035,1,0,0:0:0:0:
256,192,25173,1,2,0:0:0:0:
256,192,25242,1,0,0:0:0:0:
256,192,25449,1,2,0:0:0:0:
256,192,25656,1,0,0:0:0:0:
256,192,25863,1,0,0:0:0:0:
256,192,25966,1,2,0:0:0:0:
256,192,26069,1,0,0:0:0:0:
256,192,26276,1,2,0:0:0:0:
256,192,26483,1,4,0:0:0:0:
256,192,26621,1,2,0:0:0:0:
256,192,26690,1,0,0:0:0:0:
256,192,26828,1,2,0:0:0:0:
256,192,26897,1,0,0:0:0:0:
256,192,27104,1,0,0:0:0:0:
256,192,27207,1,2,0:0:0:0:
256,192,27311,1,0,0:0:0:0:
256,192,27518,1,2,0:0:0:0:
256,192,27656,1,2,0:0:0:0:
256,192,27725,1,0,0:0:0:0:
256,192,27932,1,2,0:0:0:0:
256,192,28138,1,0,0:0:0:0:
256,192,28276,1,2,0:0:0:0:
256,192,28345,1,0,0:0:0:0:
256,192,28483,1,0,0:0:0:0:
256,192,28552,1,6,0:0:0:0:
256,192,28759,1,0,0:0:0:0:
256,192,28966,1,0,0:0:0:0:
256,192,29173,1,0,0:0:0:0:
256,192,29311,1,2,0:0:0:0:
256,192,29380,1,0,0:0:0:0:
256,192,29587,1,2,0:0:0:0:
256,192,29794,1,4,0:0:0:0:
256,192,29932,1,2,0:0:0:0:
256,192,30001,1,0,0:0:0:0:
256,192,30138,1,2,0:0:0:0:
256,192,30207,1,0,0:0:0:0:
256,192,30414,1,0,0:0:0:0:
256,192,30518,1,2,0:0:0:0:
256,192,30621,1,0,0:0:0:0:
256,192,30828,1,2,0:0:0:0:
256,192,30932,1,0,0:0:0:0:
256,192,31035,1,2,0:0:0:0:
256,192,31242,1,2,0:0:0:0:
256,192,31449,1,0,0:0:0:0:
256,192,31587,1,2,0:0:0:0:
256,192,31656,1,0,0:0:0:0:
256,192,31794,1,2,0:0:0:0:
256,192,31863,1,4,0:0:0:0:
256,192,32069,1,0,0:0:0:0:
256,192,32276,1,2,0:0:0:0:
256,192,32483,1,0,0:0:0:0:
256,192,32587,1,2,0:0:0:0:
256,192,32690,1,0,0:0:0:0:
256,192,32897,1,2,0:0:0:0:
256,192,33104,1,4,0:0:0:0:
256,192,33242,1,2,0:0:0:0:
256,192,33311,1,0,0:0:0:0:
256,192,33449,1,2,0:0:0:0:
256,192,33518,1,0,0:0:0:0:
256,192,33725,1,0,0:0:0:0:
256,192,33828,1,2,0:0:0:0:
256,192,33932,1,0,0:0:0:0:
256,192,34138,1,2,0:0:0:0:
256,192,34276,1,2,0:0:0:0:
256,192,34345,1,0,0:0:0:0:
256,192,34552,1,2,0:0:0:0:
256,192,34759,1,0,0:0:0:0:
256,192,34897,1,2,0:0:0:0:
256,192,34966,1,0,0:0:0:0:
256,192,35104,1,0,0:0:0:0:
256,192,35173,1,6,0:0:0:0:
256,192,35380,1,0,0:0:0:0:
256,192,35587,1,2,0:0:0:0:
256,192,35794,1,0,0:0:0:0:
256,192,35932,1,2,0:0:0:0:
256,192,36001,1,0,0:0:0:0:
256,192,36207,1,2,0:0:0:0:
256,192,36414,1,4,0:0:0:0:
256,192,36552,1,2,0:0:0:0:
256,192,36621,1,0,0:0:0:0:
256,192,36759,1,2,0:0:0:0:
256,192,36828,1,0,0:0:0:0:
256,192,37035,1,0,0:0:0:0:
256,192,37138,1,2,0:0:0:0:
256,192,37242,1,0,0:0:0:0:
256,192,37449,1,2,0:0:0:0:
256,192,37587,1,2,0:0:0:0:
256,192,37656,1,0,0:0:0:0:
256,192,37863,1,2,0:0:0:0:
256,192,38069,1,4,0:0:0:0:
256,192,38207,1,2,0:0:0:0:
256,192,38276,1,0,0:0:0:0:
256,192,38414,1,2,0:0:0:0:
256,192,38483,1,4,0:0:0:0:
256,192,38690,1,2,0:0:0:0:
256,192,38897,1,0,0:0:0:0:
256,192,39104,1,0,0:0:0:0:
256,192,39207,1,2,0:0:0:0:
256,192,39311,1,0,0:0:0:0:
256,192,39518,1,2,0:0:0:0:
256,192,39725,1,4,0:0:0:0:
256,192,40035,1,0,0:0:0:0:
256,192,40138,1,0,0:0:0:0:
256,192,40242,1,0,0:0:0:0:
256,192,40345,1,2,0:0:0:0:
256,192,40759,1,0,0:0:0:0:
256,192,41380,1,6,0:0:0:0:
256,192,41587,1,0,0:0:0:0:
256,192,41794,1,2,0:0:0:0:
256,192,42001,1,0,0:0:0:0:
256,192,42207,1,0,0:0:0:0:
256,192,42621,1,2,0:0:0:0:
256,192,43035,1,0,0:0:0:0:
256,192,43345,1,0,0:0:0:0:
256,192,43449,1,0,0:0:0:0:
256,192,43552,1,0,0:0:0:0:
256,192,43656,1,2,0:0:0:0:
256,192,43863,1,0,0:0:0:0:
256,192,44069,1,2,0:0:0:0:
256,192,44173,1,0,0:0:0:0:
256,192,44483,1,2,0:0:0:0:
256,192,44690,1,4,0:0:0:0:
256,192,44897,1,2,0:0:0:0:
256,192,45311,1,0,0:0:0:0:
256,192,45725,1,0,0:0:0:0:
256,192,45828,1,2,0:0:0:0:
256,192,45932,1,0,0:0:0:0:
256,192,46345,1,6,0:0:0:0:
256,192,46656,1,0,0:0:0:0:
256,192,46759,1,0,0:0:0:0:
256,192,46863,1,0,0:0:0:0:
256,192,46966,1,2,0:0:0:0:
256,192,47380,1,0,0:0:0:0:
256,192,48001,1,4,0:0:0:0:
256,192,48207,1,0,0:0:0:0:
256,192,48414,1,2,0:0:0:0:
256,192,48621,1,0,0:0:0:0:
256,192,48828,1,0,0:0:0:0:
256,192,49242,1,2,0:0:0:0:
256,192,49656,1,0,0:0:0:0:
256,192,49966,1,0,0:0:0:0:
256,192,50069,1,0,0:0:0:0:
256,192,50173,1,0,0:0:0:0:
256,192,50276,1,2,0:0:0:0:
256,192,50483,1,0,0:0:0:0:
256,192,50690,1,2,0:0:0:0:
256,192,50794,1,0,0:0:0:0:
256,192,51311,1,4,0:0:0:0:
256,192,51518,1,0,0:0:0:0:
256,192,51725,1,2,0:0:0:0:
256,192,52138,1,2,0:0:0:0:
256,192,52449,1,0,0:0:0:0:
256,192,52759,1,0,0:0:0:0:
256,192,52966,1,4,0:0:0:0:
256,192,53173,1,2,0:0:0:0:
256,192,53380,1,2,0:0:0:0:
256,192,53794,1,0,0:0:0:0:
256,192,53863,1,2,0:0:0:0:
256,192,53932,1,0,0:0:0:0:
256,192,54001,1,2,0:0:0:0:
256,192,54069,1,2,0:0:0:0:
256,192,54138,1,2,0:0:0:0:
256,192,54207,1,0,0:0:0:0:
256,192,54414,1,0,0:0:0:0:
256,192,54621,1,6,0:0:0:0:
256,192,54932,1,4,0:0:0:0:
256,192,55242,1,4,0:0:0:0:
256,192,55449,1,2,0:0:0:0:
256,192,56069,1,0,0:0:0:0:
256,192,56276,1,4,0:0:0:0:
256,192,56483,1,2,0:0:0:0:
256,192,56587,1,0,0:0:0:0:
256,192,56897,1,0,0:0:0:0:
256,192,57104,1,0,0:0:0:0:
256,192,57311,1,2,0:0:0:0:
256,192,57414,1,0,0:0:0:0:
256,192,57725,1,0,0:0:0:0:
256,192,57932,1,4,0:0:0:0:
256,192,58242,1,4,0:0:0:0:
256,192,58552,1,4,0:0:0:0:
256,192,58759,1,2,0:0:0:0:
256,192,58966,1,2,0:0:0:0:
256,192,59276,1,2,0:0:0:0:
256,192,59587,1,4,0:0:0:0:
256,192,59794,1,2,0:0:0:0:
256,192,60001,1,2,0:0:0:0:
256,192,60207,1,0,0:0:0:0:
256,192,60414,1,0,0:0:0:0:
256,192,60483,1,2,0:0:0:0:
256,192,60552,1,0,0:0:0:0:
256,192,60621,1,2,0:0:0:0:
256,192,60690,1,2,0:0:0:0:
256,192,60759,1,2,0:0:0:0:
256,192,60828,1,0,0:0:0:0:
256,192,61035,1,0,0:0:0:0:
256,192,61242,1,6,0:0:0:0:
256,192,61552,1,4,0:0:0:0:
256,192,61863,1,4,0:0:0:0:
256,192,62069,1,2,0:0:0:0:
256,192,62690,1,0,0:0:0:0:
256,192,62897,1,4,0:0:0:0:
256,192,63104,1,2,0:0:0:0:
256,192,63207,1,0,0:0:0:0:
256,192,63518,1,0,0:0:0:0:
256,192,63725,1,2,0:0:0:0:
256,192,64035,1,2,0:0:0:0:
256,192,64138,1,0,0:0:0:0:
256,192,64345,1,0,0:0:0:0:
256,192,64552,1,4,0:0:0:0:
256,192,64863,1,4,0:0:0:0:
256,192,65173,1,4,0:0:0:0:
256,192,65380,1,2,0:0:0:0:
256,192,66207,1,0,0:0:0:0:
256,192,66276,1,2,0:0:0:0:
256,192,66345,1,0,0:0:0:0:
256,192,66414,1,2,0:0:0:0:
256,192,66483,1,2,0:0:0:0:
256,192,66552,1,2,0:0:0:0:
256,192,66621,1,0,0:0:0:0:
256,192,66828,1,2,0:0:0:0:
256,192,67035,1,0,0:0:0:0:
256,192,67242,1,2,0:0:0:0:
256,192,67345,1,0,0:0:0:0:
256,192,67449,1,2,0:0:0:0:
256,192,67656,1,0,0:0:0:0:
256,192,67863,1,2,0:0:0:0:
256,192,68069,1,2,0:0:0:0:
256,192,68276,1,0,0:0:0:0:
256,192,68483,1,2,0:0:0:0:
256,192,68690,1,0,0:0:0:0:
256,192,68897,1,2,0:0:0:0:
256,192,69001,1,0,0:0:0:0:
256,192,69104,1,2,0:0:0:0:
256,192,69311,1,0,0:0:0:0:
256,192,69518,1,2,0:0:0:0:
256,192,69725,1,2,0:0:0:0:
256,192,69932,1,0,0:0:0:0:
256,192,70138,1,2,0:0:0:0:
256,192,70345,1,0,0:0:0:0:
256,192,70552,1,2,0:0:0:0:
256,192,70656,1,0,0:0:0:0:
256,192,70759,1,2,0:0:0:0:
256,192,70966,1,2,0:0:0:0:
256,192,71173,1,2,0:0:0:0:
256,192,71380,1,0,0:0:0:0:
256,192,71483,1,2,0:0:0:0:
256,192,71587,1,0,0:0:0:0:
256,192,71690,1,2,0:0:0:0:
256,192,71794,1,2,0:0:0:0:
256,192,72001,1,0,0:0:0:0:
256,192,72207,1,2,0:0:0:0:
256,192,72311,1,0,0:0:0:0:
256,192,72414,1,2,0:0:0:0:
256,192,72518,1,2,0:0:0:0:
256,192,72621,1,2,0:0:0:0:
256,192,72725,1,2,0:0:0:0:
256,192,72828,1,0,0:0:0:0:
256,192,72897,1,2,0:0:0:0:
256,192,72966,1,0,0:0:0:0:
256,192,73035,1,2,0:0:0:0:
256,192,73104,1,2,0:0:0:0:
256,192,73173,1,2,0:0:0:0:
256,192,73242,1,0,0:0:0:0:
256,192,73345,1,0,0:0:0:0:
256,192,73449,1,2,0:0:0:0:
256,192,73656,1,0,0:0:0:0:
256,192,73863,1,2,0:0:0:0:
256,192,73966,1,0,0:0:0:0:
256,192,74069,1,2,0:0:0:0:
256,192,74276,1,0,0:0:0:0:
256,192,74483,1,2,0:0:0:0:
256,192,74690,1,0,0:0:0:0:
256,192,74794,1,2,0:0:0:0:
256,192,74897,1,0,0:0:0:0:
256,192,75001,1,2,0:0:0:0:
256,192,75104,1,2,0:0:0:0:
256,192,75311,1,0,0:0:0:0:
256,192,75518,1,2,0:0:0:0:
256,192,75621,1,0,0:0:0:0:
256,192,75725,1,2,0:0:0:0:
256,192,75932,1,0,0:0:0:0:
256,192,76138,1,2,0:0:0:0:
256,192,76345,1,2,0:0:0:0:
256,192,76449,1,0,0:0:0:0:
256,192,76552,1,2,0:0:0:0:
256,192,76759,1,2,0:0:0:0:
256,192,76966,1,0,0:0:0:0:
256,192,77173,1,2,0:0:0:0:
256,192,77276,1,0,0:0:0:0:
256,192,77380,1,2,0:0:0:0:
256,192,77587,1,0,0:0:0:0:
256,192,77794,1,2,0:0:0:0:
256,192,78001,1,0,0:0:0:0:
256,192,78104,1,2,0:0:0:0:
256,192,78207,1,0,0:0:0:0:
256,192,78311,1,2,0:0:0:0:
256,192,78414,1,2,0:0:0:0:
256,192,78621,1,0,0:0:0:0:
256,192,78828,1,2,0:0:0:0:
256,192,78932,1,0,0:0:0:0:
256,192,79449,1,4,0:0:0:0:
256,192,79621,1,6,0:0:0:0:
256,192,79863,1,0,0:0:0:0:
256,192,80069,1,2,0:0:0:0:
256,192,80276,1,0,0:0:0:0:
256,192,80483,1,6,0:0:0:0:
256,192,80587,1,0,0:0:0:0:
256,192,80690,1,2,0:0:0:0:
256,192,80897,1,2,0:0:0:0:
256,192,81104,1,0,0:0:0:0:
256,192,81311,1,6,0:0:0:0:
256,192,81518,1,0,0:0:0:0:
256,192,81725,1,2,0:0:0:0:
256,192,81932,1,0,0:0:0:0:
256,192,82138,1,6,0:0:0:0:
256,192,82242,1,0,0:0:0:0:
256,192,82345,1,2,0:0:0:0:
256,192,82552,1,0,0:0:0:0:
256,192,82759,1,4,0:0:0:0:
256,192,82966,1,6,0:0:0:0:
256,192,83173,1,0,0:0:0:0:
256,192,83380,1,2,0:0:0:0:
256,192,83587,1,0,0:0:0:0:
256,192,83794,1,6,0:0:0:0:
256,192,83897,1,0,0:0:0:0:
256,192,84001,1,2,0:0:0:0:
256,192,84207,1,0,0:0:0:0:
256,192,84414,1,0,0:0:0:0:
256,192,84621,1,6,0:0:0:0:
256,192,84828,1,0,0:0:0:0:
256,192,85035,1,2,0:0:0:0:
256,192,85242,1,0,0:0:0:0:
256,192,85449,1,6,0:0:0:0:
256,192,85552,1,0,0:0:0:0:
256,192,85656,1,2,0:0:0:0:
256,192,85759,1,2,0:0:0:0:
256,192,85863,1,0,0:0:0:0:
256,192,85966,1,2,0:0:0:0:
256,192,86069,1,4,0:0:0:0:
256,192,86276,1,6,0:0:0:0:
256,192,86483,1,0,0:0:0:0:
256,192,86690,1,2,0:0:0:0:
256,192,86897,1,0,0:0:0:0:
256,192,87104,1,6,0:0:0:0:
256,192,87207,1,0,0:0:0:0:
256,192,87311,1,2,0:0:0:0:
256,192,87518,1,2,0:0:0:0:
256,192,87725,1,0,0:0:0:0:
256,192,87932,1,6,0:0:0:0:
256,192,88138,1,0,0:0:0:0:
256,192,88345,1,2,0:0:0:0:
256,192,88552,1,0,0:0:0:0:
256,192,88759,1,6,0:0:0:0:
256,192,88863,1,0,0:0:0:0:
256,192,88966,1,2,0:0:0:0:
256,192,89173,1,0,0:0:0:0:
256,192,89380,1,4,0:0:0:0:
256,192,89587,1,6,0:0:0:0:
256,192,89794,1,0,0:0:0:0:
256,192,90001,1,2,0:0:0:0:
256,192,90207,1,0,0:0:0:0:
256,192,90414,1,6,0:0:0:0:
256,192,90518,1,0,0:0:0:0:
256,192,90621,1,2,0:0:0:0:
256,192,90828,1,0,0:0:0:0:
256,192,91035,1,0,0:0:0:0:
256,192,91242,1,6,0:0:0:0:
256,192,91449,1,0,0:0:0:0:
256,192,91656,1,2,0:0:0:0:
256,192,91863,1,0,0:0:0:0:
256,192,92069,1,6,0:0:0:0:
256,192,92173,1,0,0:0:0:0:
256,192,92276,1,2,0:0:0:0:
256,192,92380,1,2,0:0:0:0:
256,192,92483,1,0,0:0:0:0:
256,192,92587,1,0,0:0:0:0:
256,192,92690,1,6,0:0:0:0:
256,192,92794,1,0,0:0:0:0:
256,192,92897,1,2,0:0:0:0:
256,192,93104,1,2,0:0:0:0:
256,192,93173,1,0,0:0:0:0:
256,192,93242,1,0,0:0:0:0:
256,192,93311,1,0,0:0:0:0:
256,192,93414,1,0,0:0:0:0:
256,192,93518,1,2,0:0:0:0:
256,192,93725,1,2,0:0:0:0:
256,192,93932,1,2,0:0:0:0:
256,192,93983,1,2,0:0:0:0:
256,192,94138,1,0,0:0:0:0:
256,192,94345,1,2,0:0:0:0:
256,192,94449,1,0,0:0:0:0:
256,192,94552,1,2,0:0:0:0:
256,192,94759,1,2,0:0:0:0:
256,192,94863,1,0,0:0:0:0:
256,192,94966,1,0,0:0:0:0:
256,192,95069,1,2,0:0:0:0:
256,192,95173,1,0,0:0:0:0:
256,192,95380,1,2,0:0:0:0:
256,192,95587,1,2,0:0:0:0:
256,192,95638,1,2,0:0:0:0:
256,192,96001,1,2,0:0:0:0:
256,192,96104,1,0,0:0:0:0:
256,192,96207,1,2,0:0:0:0:
256,192,96414,1,2,0:0:0:0:
256,192,96483,1,0,0:0:0:0:
256,192,96552,1,0,0:0:0:0:
256,192,96621,1,0,0:0:0:0:
256,192,96725,1,0,0:0:0:0:
256,192,96828,1,2,0:0:0:0:
256,192,97035,1,2,0:0:0:0:
256,192,97242,1,2,0:0:0:0:
256,192,97294,1,2,0:0:0:0:
256,192,97449,1,0,0:0:0:0:
256,192,97656,1,2,0:0:0:0:
256,192,97759,1,2,0:0:0:0:
256,192,97863,1,0,0:0:0:0:
256,192,98069,1,2,0:0:0:0:
256,192,98173,1,0,0:0:0:0:
256,192,98276,1,0,0:0:0:0:
256,192,98380,1,2,0:0:0:0:
256,192,98483,1,0,0:0:0:0:
256,192,98690,1,2,0:0:0:0:
256,192,98897,1,2,0:0:0:0:
256,192,98949,1,2,0:0:0:0:
256,192,99104,1,0,0:0:0:0:
256,192,99207,1,0,0:0:0:0:
256,192,99311,1,6,0:0:0:0:
256,192,99415,1,0,0:0:0:0:
256,192,99518,1,2,0:0:0:0:
256,192,99725,1,2,0:0:0:0:
256,192,99794,1,0,0:0:0:0:
256,192,99863,1,0,0:0:0:0:
256,192,99932,1,0,0:0:0:0:
256,192,100035,1,0,0:0:0:0:
256,192,100139,1,2,0:0:0:0:
256,192,100346,1,2,0:0:0:0:
256,192,100553,1,2,0:0:0:0:
256,192,100604,1,2,0:0:0:0:
256,192,100759,1,0,0:0:0:0:
256,192,100966,1,2,0:0:0:0:
256,192,101070,1,0,0:0:0:0:
256,192,101173,1,2,0:0:0:0:
256,192,101380,1,2,0:0:0:0:
256,192,101484,1,0,0:0:0:0:
256,192,101587,1,0,0:0:0:0:
256,192,101690,1,2,0:0:0:0:
256,192,101794,1,0,0:0:0:0:
256,192,102001,1,2,0:0:0:0:
256,192,102208,1,2,0:0:0:0:
256,192,102259,1,2,0:0:0:0:
256,192,102622,1,2,0:0:0:0:
256,192,102725,1,0,0:0:0:0:
256,192,102828,1,2,0:0:0:0:
256,192,103035,1,2,0:0:0:0:
256,192,103104,1,0,0:0:0:0:
256,192,103173,1,0,0:0:0:0:
256,192,103242,1,0,0:0:0:0:
256,192,103346,1,0,0:0:0:0:
256,192,103449,1,2,0:0:0:0:
256,192,103656,1,2,0:0:0:0:
256,192,103863,1,2,0:0:0:0:
256,192,103915,1,2,0:0:0:0:
256,192,104070,1,0,0:0:0:0:
256,192,104276,1,4,0:0:0:0:
256,192,104483,8,0,105311,0:0:0:0:
256,192,105518,5,0,0:0:0:0:
256,192,105621,1,2,0:0:0:0:
256,192,105932,1,4,0:0:0:0:
256,192,106345,1,2,0:0:0:0:
256,192,106759,2,2,L|352:192,1,79.3333091227287
256,192,107173,1,4,0:0:0:0:
256,192,107587,1,2,0:0:0:0:
256,192,108001,8,2,108207,0:0:0:0:
256,192,108414,5,4,0:0:0:0:
256,192,108828,1,2,0:0:0:0:
256,192,109242,1,4,0:0:0:0:
256,192,109655,1,2,0:0:0:0:
256,192,110018,1,0,0:0:0:0:
256,192,110069,1,2,0:0:0:0:
256,192,110121,1,2,0:0:0:0:
256,192,110173,1,2,0:0:0:0:
256,192,110225,1,2,0:0:0:0:
256,192,110483,1,4,0:0:0:0:
256,192,110897,1,2,0:0:0:0:
256,192,111311,1,0,0:0:0:0:
256,192,111518,1,6,0:0:0:0:
256,192,111724,1,4,0:0:0:0:
256,192,112138,1,2,0:0:0:0:
256,192,112552,1,4,0:0:0:0:
256,192,112759,1,2,0:0:0:0:
256,192,112966,1,0,0:0:0:0:
256,192,113380,2,2,L|352:192,1,79.3333091227287
256,192,113793,1,4,0:0:0:0:
256,192,114001,1,2,0:0:0:0:
256,192,114207,1,0,0:0:0:0:
256,192,114621,8,2,114827,0:0:0:0:
256,192,115034,5,4,0:0:0:0:
256,192,115242,1,2,0:0:0:0:
256,192,115448,1,0,0:0:0:0:
256,192,115862,1,4,0:0:0:0:
256,192,116069,1,2,0:0:0:0:
256,192,116275,1,0,0:0:0:0:
256,192,116638,1,0,0:0:0:0:
256,192,116690,1,2,0:0:0:0:
256,192,116742,1,2,0:0:0:0:
256,192,116794,1,2,0:0:0:0:
256,192,116845,1,2,0:0:0:0:
256,192,117103,1,4,0:0:0:0:
256,192,117311,1,0,0:0:0:0:
256,192,117517,1,0,0:0:0:0:
256,192,117931,1,0,0:0:0:0:
256,192,118138,1,6,0:0:0:0:
256,192,118759,12,0,118966,0:0:0:0:
256,192,119173,5,4,0:0:0:0:
256,192,119380,1,2,0:0:0:0:
256,192,119483,1,0,0:0:0:0:
256,192,119587,1,2,0:0:0:0:
256,192,119794,1,0,0:0:0:0:
256,192,119897,1,0,0:0:0:0:
256,192,120001,1,2,0:0:0:0:
256,192,120104,1,2,0:0:0:0:
256,192,120207,1,0,0:0:0:0:
256,192,120414,1,4,0:0:0:0:
256,192,120621,1,2,0:0:0:0:
256,192,120725,1,0,0:0:0:0:
256,192,120828,1,2,0:0:0:0:
256,192,121035,1,0,0:0:0:0:
256,192,121242,1,6,0:0:0:0:
256,192,121449,1,2,0:0:0:0:
256,192,121552,1,2,0:0:0:0:
256,192,121656,1,4,0:0:0:0:
256,192,121863,1,0,0:0:0:0:
256,192,121966,1,0,0:0:0:0:
256,192,122069,1,2,0:0:0:0:
256,192,122276,1,0,0:0:0:0:
256,192,122483,1,4,0:0:0:0:
256,192,122690,1,2,0:0:0:0:
256,192,122794,1,0,0:0:0:0:
256,192,122897,1,2,0:0:0:0:
256,192,123104,1,0,0:0:0:0:
256,192,123207,1,0,0:0:0:0:
256,192,123311,1,0,0:0:0:0:
256,192,123363,1,2,0:0:0:0:
256,192,123414,1,2,0:0:0:0:
256,192,123466,1,2,0:0:0:0:
256,192,123518,1,2,0:0:0:0:
256,192,123725,1,4,0:0:0:0:
256,192,123932,1,0,0:0:0:0:
256,192,124035,1,0,0:0:0:0:
256,192,124138,1,2,0:0:0:0:
256,192,124345,1,2,0:0:0:0:
256,192,124449,1,2,0:0:0:0:
256,192,124552,1,4,0:0:0:0:
256,192,124725,1,6,0:0:0:0:
256,192,124966,1,4,0:0:0:0:
256,192,125173,1,2,0:0:0:0:
256,192,125276,1,0,0:0:0:0:
256,192,125380,1,2,0:0:0:0:
256,192,125587,1,2,0:0:0:0:
256,192,125690,1,2,0:0:0:0:
256,192,125794,1,4,0:0:0:0:
256,192,126001,1,2,0:0:0:0:
256,192,126104,1,0,0:0:0:0:
256,192,126208,1,2,0:0:0:0:
256,192,126415,1,0,0:0:0:0:
256,192,126518,1,0,0:0:0:0:
256,192,126622,1,2,0:0:0:0:
256,192,126725,1,2,0:0:0:0:
256,192,126828,1,0,0:0:0:0:
256,192,127035,1,4,0:0:0:0:
256,192,127242,1,2,0:0:0:0:
256,192,127346,1,0,0:0:0:0:
256,192,127449,1,2,0:0:0:0:
256,192,127656,1,0,0:0:0:0:
256,192,127863,1,6,0:0:0:0:
256,192,128070,1,2,0:0:0:0:
256,192,128173,1,2,0:0:0:0:
256,192,128277,1,4,0:0:0:0:
256,192,128484,1,0,0:0:0:0:
256,192,128587,1,0,0:0:0:0:
256,192,128690,1,2,0:0:0:0:
256,192,128897,1,0,0:0:0:0:
256,192,129104,1,4,0:0:0:0:
256,192,129311,1,2,0:0:0:0:
256,192,129415,1,0,0:0:0:0:
256,192,129518,1,2,0:0:0:0:
256,192,129725,1,0,0:0:0:0:
256,192,129828,1,0,0:0:0:0:
256,192,129932,1,0,0:0:0:0:
256,192,129983,1,2,0:0:0:0:
256,192,130035,1,2,0:0:0:0:
256,192,130087,1,2,0:0:0:0:
256,192,130138,1,2,0:0:0:0:
256,192,130346,1,4,0:0:0:0:
256,192,130553,1,2,0:0:0:0:
256,192,130656,1,0,0:0:0:0:
256,192,130759,1,2,0:0:0:0:
256,192,130966,1,2,0:0:0:0:
256,192,131070,1,2,0:0:0:0:
256,192,131173,1,4,0:0:0:0:
256,192,131346,1,6,0:0:0:0:
256,192,131587,1,4,0:0:0:0:
256,192,131794,1,2,0:0:0:0:
256,192,131897,1,0,0:0:0:0:
256,192,132001,12,0,132207,0:0:0:0:
256,192,132414,5,4,0:0:0:0:
256,192,132621,1,0,0:0:0:0:
256,192,132759,1,2,0:0:0:0:
256,192,132828,1,0,0:0:0:0:
256,192,132966,1,2,0:0:0:0:
256,192,133035,1,0,0:0:0:0:
256,192,133242,2,0,L|352:192,1,79.462040434267
256,192,133656,1,4,0:0:0:0:
256,192,133863,1,2,0:0:0:0:
256,192,134069,1,6,0:0:0:0:
256,192,134276,1,0,0:0:0:0:
256,192,134414,1,2,0:0:0:0:
256,192,134483,1,0,0:0:0:0:
256,192,134621,1,2,0:0:0:0:
256,192,134690,1,0,0:0:0:0:
256,192,134897,1,4,0:0:0:0:
256,192,135104,1,0,0:0:0:0:
256,192,135311,1,2,0:0:0:0:
256,192,135518,1,0,0:0:0:0:
256,192,135725,1,4,0:0:0:0:
256,192,135932,1,0,0:0:0:0:
256,192,136069,1,2,0:0:0:0:
256,192,136138,1,0,0:0:0:0:
256,192,136276,1,2,0:0:0:0:
256,192,136345,1,0,0:0:0:0:
256,192,136552,1,0,0:0:0:0:
256,192,136604,1,2,0:0:0:0:
256,192,136656,1,2,0:0:0:0:
256,192,136707,1,2,0:0:0:0:
256,192,136759,1,2,0:0:0:0:
256,192,136966,1,4,0:0:0:0:
256,192,137173,1,2,0:0:0:0:
256,192,137380,1,6,0:0:0:0:
256,192,137587,1,0,0:0:0:0:
256,192,137725,1,2,0:0:0:0:
256,192,137794,1,0,0:0:0:0:
256,192,137932,1,0,0:0:0:0:
256,192,138001,1,6,0:0:0:0:
256,192,138207,1,4,0:0:0:0:
256,192,138414,12,4,138828,0:0:0:0:
256,192,139035,5,4,0:0:0:0:
256,192,139242,1,0,0:0:0:0:
256,192,139380,1,2,0:0:0:0:
256,192,139449,1,0,0:0:0:0:
256,192,139587,1,2,0:0:0:0:
256,192,139656,1,0,0:0:0:0:
256,192,139863,2,0,L|352:192,1,79.462040434267
256,192,140277,1,4,0:0:0:0:
256,192,140484,1,2,0:0:0:0:
256,192,140690,1,6,0:0:0:0:
256,192,140897,1,0,0:0:0:0:
256,192,141035,1,2,0:0:0:0:
256,192,141104,1,0,0:0:0:0:
256,192,141242,1,2,0:0:0:0:
256,192,141311,1,0,0:0:0:0:
256,192,141518,1,4,0:0:0:0:
256,192,141725,1,0,0:0:0:0:
256,192,141932,1,2,0:0:0:0:
256,192,142139,1,0,0:0:0:0:
256,192,142346,1,4,0:0:0:0:
256,192,142553,1,0,0:0:0:0:
256,192,142690,1,2,0:0:0:0:
256,192,142759,1,0,0:0:0:0:
256,192,142897,1,2,0:0:0:0:
256,192,142966,1,0,0:0:0:0:
256,192,143173,1,0,0:0:0:0:
256,192,143225,1,2,0:0:0:0:
256,192,143276,1,2,0:0:0:0:
256,192,143328,1,2,0:0:0:0:
256,192,143380,1,2,0:0:0:0:
256,192,143587,1,4,0:0:0:0:
256,192,143794,1,2,0:0:0:0:
256,192,144001,1,6,0:0:0:0:
256,192,144208,1,0,0:0:0:0:
256,192,144346,1,2,0:0:0:0:
256,192,144415,1,0,0:0:0:0:
256,192,144553,1,0,0:0:0:0:
256,192,144622,1,6,0:0:0:0:
256,192,144828,1,4,0:0:0:0:
256,192,145035,1,2,0:0:0:0:
256,192,145138,1,2,0:0:0:0:
256,192,145242,1,0,0:0:0:0:
256,192,145449,1,0,0:0:0:0:
256,192,145552,1,0,0:0:0:0:
256,192,145656,1,6,0:0:0:0:
256,192,146069,1,0,0:0:0:0:
256,192,146138,1,0,0:0:0:0:
256,192,146207,1,2,0:0:0:0:
256,192,146276,1,2,0:0:0:0:
256,192,146380,1,4,0:0:0:0:
256,192,146483,1,6,0:0:0:0:
256,192,146794,1,4,0:0:0:0:
256,192,147104,1,6,0:0:0:0:
256,192,147725,1,2,0:0:0:0:
256,192,147794,1,2,0:0:0:0:
256,192,147863,1,0,0:0:0:0:
256,192,147932,1,0,0:0:0:0:
256,192,148035,1,4,0:0:0:0:
256,192,148138,1,6,0:0:0:0:
256,192,148449,1,4,0:0:0:0:
256,192,148759,1,6,0:0:0:0:
256,192,149380,1,0,0:0:0:0:
256,192,149449,1,0,0:0:0:0:
256,192,149518,1,2,0:0:0:0:
256,192,149587,1,2,0:0:0:0:
256,192,149690,1,4,0:0:0:0:
256,192,149794,1,6,0:0:0:0:
256,192,150105,1,4,0:0:0:0:
256,192,150415,1,6,0:0:0:0:
256,192,150897,1,0,0:0:0:0:
256,192,151035,1,2,0:0:0:0:
256,192,151242,1,0,0:0:0:0:
256,192,151345,1,0,0:0:0:0:
256,192,151449,1,2,0:0:0:0:
256,192,151604,1,0,0:0:0:0:
256,192,151656,1,2,0:0:0:0:
256,192,151759,1,2,0:0:0:0:
256,192,151863,1,0,0:0:0:0:
256,192,152069,1,0,0:0:0:0:
256,192,152276,1,6,0:0:0:0:
256,192,152690,1,0,0:0:0:0:
256,192,152759,1,0,0:0:0:0:
256,192,152828,1,2,0:0:0:0:
256,192,152897,1,2,0:0:0:0:
256,192,153001,1,4,0:0:0:0:
256,192,153104,1,6,0:0:0:0:
256,192,153415,1,4,0:0:0:0:
256,192,153725,1,6,0:0:0:0:
256,192,154346,1,2,0:0:0:0:
256,192,154415,1,2,0:0:0:0:
256,192,154484,1,0,0:0:0:0:
256,192,154553,1,0,0:0:0:0:
256,192,154656,1,4,0:0:0:0:
256,192,154759,1,6,0:0:0:0:
256,192,155070,1,4,0:0:0:0:
256,192,155380,1,6,0:0:0:0:
256,192,156001,1,0,0:0:0:0:
256,192,156070,1,0,0:0:0:0:
256,192,156139,1,2,0:0:0:0:
256,192,156208,1,2,0:0:0:0:
256,192,156312,1,4,0:0:0:0:
256,192,156415,1,6,0:0:0:0:
256,192,156726,1,6,0:0:0:0:
256,192,157036,1,6,0:0:0:0:
256,192,157518,1,0,0:0:0:0:
256,192,157656,1,2,0:0:0:0:
256,192,157863,1,0,0:0:0:0:
256,192,157966,1,0,0:0:0:0:
256,192,158070,1,2,0:0:0:0:
256,192,158225,1,0,0:0:0:0:
256,192,158277,1,2,0:0:0:0:
256,192,158380,1,2,0:0:0:0:
256,192,158484,1,0,0:0:0:0:
256,192,158690,1,0,0:0:0:0:
256,192,158897,1,6,0:0:0:0:
256,192,159104,1,0,0:0:0:0:
256,192,159311,1,2,0:0:0:0:
256,192,159621,1,2,0:0:0:0:
256,192,159725,1,4,0:0:0:0:
256,192,160035,1,6,0:0:0:0:
256,192,160345,1,4,0:0:0:0:
256,192,160552,1,2,0:0:0:0:
256,192,160863,1,0,0:0:0:0:
256,192,161173,1,2,0:0:0:0:
256,192,161276,1,0,0:0:0:0:
256,192,161380,1,6,0:0:0:0:
256,192,161690,1,6,0:0:0:0:
256,192,162001,1,4,0:0:0:0:
256,192,162207,1,2,0:0:0:0:
256,192,162414,1,0,0:0:0:0:
256,192,162621,1,2,0:0:0:0:
256,192,162932,1,2,0:0:0:0:
256,192,163035,1,4,0:0:0:0:
256,192,163345,1,6,0:0:0:0:
256,192,163656,1,6,0:0:0:0:
256,192,163863,1,2,0:0:0:0:
256,192,164173,1,0,0:0:0:0:
256,192,164276,1,2,0:0:0:0:
256,192,164483,1,0,0:0:0:0:
256,192,164690,1,2,0:0:0:0:
256,192,164897,1,2,0:0:0:0:
256,192,165001,1,0,0:0:0:0:
256,192,165104,1,2,0:0:0:0:
256,192,165311,1,0,0:0:0:0:
256,192,165518,1,6,0:0:0:0:
256,192,165725,1,0,0:0:0:0:
256,192,165932,1,2,0:0:0:0:
256,192,166242,1,2,0:0:0:0:
256,192,166346,1,4,0:0:0:0:
256,192,166656,1,6,0:0:0:0:
256,192,166966,1,4,0:0:0:0:
256,192,167173,1,2,0:0:0:0:
256,192,167484,1,0,0:0:0:0:
256,192,167794,1,2,0:0:0:0:
256,192,167897,1,0,0:0:0:0:
256,192,168001,1,6,0:0:0:0:
256,192,168311,1,6,0:0:0:0:
256,192,168622,1,4,0:0:0:0:
256,192,168828,1,2,0:0:0:0:
256,192,169035,1,0,0:0:0:0:
256,192,169242,1,2,0:0:0:0:
256,192,169553,1,2,0:0:0:0:
256,192,169656,1,4,0:0:0:0:
256,192,169966,1,6,0:0:0:0:
256,192,170277,1,6,0:0:0:0:
256,192,170484,1,2,0:0:0:0:
256,192,170794,1,0,0:0:0:0:
256,192,170897,1,2,0:0:0:0:
256,192,171104,1,0,0:0:0:0:
256,192,171311,1,2,0:0:0:0:
256,192,171518,1,2,0:0:0:0:
256,192,171622,1,0,0:0:0:0:
256,192,171725,1,2,0:0:0:0:
256,192,172138,1,4,0:0:0:0:
256,192,172276,1,0,0:0:0:0:
256,192,172345,1,2,0:0:0:0:
256,192,172483,1,2,0:0:0:0:
256,192,172552,1,0,0:0:0:0:
256,192,172759,1,0,0:0:0:0:
256,192,172863,1,0,0:0:0:0:
256,192,172966,1,2,0:0:0:0:
256,192,173173,1,0,0:0:0:0:
256,192,173311,1,0,0:0:0:0:
256,192,173380,1,2,0:0:0:0:
256,192,173587,1,0,0:0:0:0:
256,192,173794,1,0,0:0:0:0:
256,192,173932,1,0,0:0:0:0:
256,192,174001,1,2,0:0:0:0:
256,192,174139,1,2,0:0:0:0:
256,192,174208,1,4,0:0:0:0:
256,192,174414,1,2,0:0:0:0:
256,192,174518,1,2,0:0:0:0:
256,192,174621,1,0,0:0:0:0:
256,192,174828,1,0,0:0:0:0:
256,192,174966,1,0,0:0:0:0:
256,192,175035,1,2,0:0:0:0:
256,192,175242,1,2,0:0:0:0:
256,192,175449,1,4,0:0:0:0:
256,192,175587,1,0,0:0:0:0:
256,192,175656,1,2,0:0:0:0:
256,192,175794,1,2,0:0:0:0:
256,192,175863,1,0,0:0:0:0:
256,192,176069,1,0,0:0:0:0:
256,192,176173,1,0,0:0:0:0:
256,192,176276,1,2,0:0:0:0:
256,192,176483,1,0,0:0:0:0:
256,192,176621,1,0,0:0:0:0:
256,192,176690,1,2,0:0:0:0:
256,192,176897,1,2,0:0:0:0:
256,192,177104,1,4,0:0:0:0:
256,192,177242,1,0,0:0:0:0:
256,192,177311,1,2,0:0:0:0:
256,192,177449,1,2,0:0:0:0:
256,192,177518,1,4,0:0:0:0:
256,192,177725,1,0,0:0:0:0:
256,192,177828,1,0,0:0:0:0:
256,192,177932,1,2,0:0:0:0:
256,192,178138,1,0,0:0:0:0:
256,192,178242,1,2,0:0:0:0:
256,192,178345,1,0,0:0:0:0:
256,192,178552,1,2,0:0:0:0:
256,192,178759,1,4,0:0:0:0:
256,192,178897,1,0,0:0:0:0:
256,192,178966,1,2,0:0:0:0:
256,192,179104,1,2,0:0:0:0:
256,192,179173,1,0,0:0:0:0:
256,192,179380,1,0,0:0:0:0:
256,192,179484,1,0,0:0:0:0:
256,192,179587,1,2,0:0:0:0:
256,192,179794,1,0,0:0:0:0:
256,192,179932,1,0,0:0:0:0:
256,192,180001,1,2,0:0:0:0:
256,192,180208,1,0,0:0:0:0:
256,192,180415,1,0,0:0:0:0:
256,192,180553,1,0,0:0:0:0:
256,192,180622,1,2,0:0:0:0:
256,192,180760,1,2,0:0:0:0:
256,192,180829,1,4,0:0:0:0:
256,192,181035,1,2,0:0:0:0:
256,192,181139,1,2,0:0:0:0:
256,192,181242,1,0,0:0:0:0:
256,192,181449,1,0,0:0:0:0:
256,192,181587,1,0,0:0:0:0:
256,192,181656,1,2,0:0:0:0:
256,192,181863,1,2,0:0:0:0:
256,192,182070,1,4,0:0:0:0:
256,192,182208,1,0,0:0:0:0:
256,192,182277,1,2,0:0:0:0:
256,192,182415,1,2,0:0:0:0:
256,192,182484,1,0,0:0:0:0:
256,192,182690,1,0,0:0:0:0:
256,192,182794,1,0,0:0:0:0:
256,192,182897,1,2,0:0:0:0:
256,192,183104,1,0,0:0:0:0:
256,192,183242,1,0,0:0:0:0:
256,192,183311,1,2,0:0:0:0:
256,192,183518,1,2,0:0:0:0:
256,192,183725,1,4,0:0:0:0:
256,192,183863,1,0,0:0:0:0:
256,192,183932,1,2,0:0:0:0:
256,192,184070,1,0,0:0:0:0:
256,192,184139,1,6,0:0:0:0:
256,192,184346,1,0,0:0:0:0:
256,192,184449,1,0,0:0:0:0:
256,192,184553,1,2,0:0:0:0:
256,192,184759,1,0,0:0:0:0:
256,192,184863,1,2,0:0:0:0:
256,192,184966,1,0,0:0:0:0:
256,192,185173,1,2,0:0:0:0:
256,192,185380,1,4,0:0:0:0:
256,192,185587,1,2,0:0:0:0:
256,192,185690,1,0,0:0:0:0:
256,192,185794,1,0,0:0:0:0:
256,192,185897,1,0,0:0:0:0:
256,192,186001,1,2,0:0:0:0:
256,192,186207,1,0,0:0:0:0:
256,192,186414,1,2,0:0:0:0:
256,192,186621,1,0,0:0:0:0:
256,192,186828,1,0,0:0:0:0:
256,192,187035,1,6,0:0:0:0:
256,192,187242,1,0,0:0:0:0:
256,192,187449,1,2,0:0:0:0:
256,192,187656,1,0,0:0:0:0:
256,192,187863,1,0,0:0:0:0:
256,192,188690,1,0,0:0:0:0:
256,192,188897,1,2,0:0:0:0:
256,192,189000,1,0,0:0:0:0:
256,192,189104,1,0,0:0:0:0:
256,192,189207,1,0,0:0:0:0:
256,192,189311,1,2,0:0:0:0:
256,192,189517,1,0,0:0:0:0:
256,192,189724,1,2,0:0:0:0:
256,192,189828,1,0,0:0:0:0:
256,192,189931,1,2,0:0:0:0:
256,192,190138,1,0,0:0:0:0:
256,192,190345,1,6,0:0:0:0:
256,192,190552,1,0,0:0:0:0:
256,192,190759,1,2,0:0:0:0:
256,192,190966,1,0,0:0:0:0:
256,192,191173,1,0,0:0:0:0:
256,192,191380,1,2,0:0:0:0:
256,192,191483,1,0,0:0:0:0:
256,192,191587,1,2,0:0:0:0:
256,192,191794,1,0,0:0:0:0:
256,192,192001,1,4,0:0:0:0:
256,192,192208,1,2,0:0:0:0:
256,192,192311,1,0,0:0:0:0:
256,192,192415,1,0,0:0:0:0:
256,192,192518,1,0,0:0:0:0:
256,192,192622,1,2,0:0:0:0:
256,192,192828,1,0,0:0:0:0:
256,192,193035,1,2,0:0:0:0:
256,192,193242,1,0,0:0:0:0:
256,192,193449,1,0,0:0:0:0:
256,192,193656,1,6,0:0:0:0:
256,192,193863,1,0,0:0:0:0:
256,192,194070,1,2,0:0:0:0:
256,192,194277,1,0,0:0:0:0:
256,192,194484,1,0,0:0:0:0:
256,192,194897,1,2,0:0:0:0:
256,192,195311,1,0,0:0:0:0:
256,192,195621,1,0,0:0:0:0:
256,192,195725,1,0,0:0:0:0:
256,192,195828,1,0,0:0:0:0:
256,192,195932,1,2,0:0:0:0:
256,192,196138,1,0,0:0:0:0:
256,192,196345,1,2,0:0:0:0:
256,192,196449,1,0,0:0:0:0:
256,192,196966,1,6,0:0:0:0:
256,192,197173,1,0,0:0:0:0:
256,192,197380,1,2,0:0:0:0:
256,192,197794,1,0,0:0:0:0:
256,192,198156,1,0,0:0:0:0:
256,192,198260,1,2,0:0:0:0:
