osu file format v14

[General]
AudioFilename: audio.mp3
AudioLeadIn: 0
PreviewTime: 59150
Countdown: 0
SampleSet: Soft
StackLeniency: 0.7
Mode: 3
LetterboxInBreaks: 0
SpecialStyle: 0
WidescreenStoryboard: 1

[Editor]
DistanceSpacing: 1.2
BeatDivisor: 2
GridSize: 32
TimelineZoom: 2.300001

[Metadata]
Title:1,000,000 TIMES
TitleUnicode:1,000,000 TIMES
Artist:MY FIRST STORY feat. chelly (EGOIST)
ArtistUnicode:MY FIRST STORY feat. chelly (EGOIST)
Creator:angki
Version:NORMAL
Source:DUEL MASTERS PLAY'S
Tags:デュエル・マスターズ プレイス 1000000 Million collab MFS Myfirststory INRC-0041 opening video game mobile japanese rock j-rock jrock short cut ver
BeatmapID:2529310
BeatmapSetID:1213465

[Difficulty]
HPDrainRate:7.5
CircleSize:4
OverallDifficulty:7.5
ApproachRate:5
SliderMultiplier:1.4
SliderTickRate:1

[Events]
//Background and Video events
Video,-25,"DUEL MASTERS PLAY'S.mp4"
0,0,"BG2.jpg",0,0
//Break Periods
//Storyboard Layer 0 (Background)
//Storyboard Layer 1 (Fail)
//Storyboard Layer 2 (Pass)
//Storyboard Layer 3 (Foreground)
//Storyboard Layer 4 (Overlay)
//Storyboard Sound Samples

[TimingPoints]
50,300,4,2,1,35,1,0
6050,-100,4,2,1,40,0,0
7400,-100,4,2,1,20,0,0
7980,292.682926829268,4,2,1,20,1,0
7980,-102.5,4,2,1,20,0,0
9004,393.44262295082,4,2,1,20,1,0
9004,-76.25,4,2,1,20,0,0
9200,300,4,2,1,40,1,0
9800,-100,4,2,1,20,0,0
10380,300,4,2,1,20,1,0
10700,285.714285714286,4,2,1,20,1,0
10700,-105,4,2,1,20,0,0
11450,300,4,2,1,30,1,0
12050,300,4,2,1,40,1,0
26450,-100,4,2,1,50,0,0
60050,-100,4,2,1,60,0,1
79250,-100,4,2,1,50,0,0

[HitObjects]
64,192,50,128,4,2150:0:0:0:0:
192,192,50,1,2,0:0:0:0:
448,192,2150,128,0,2450:0:0:0:0:
192,192,2450,128,0,4250:0:0:0:60:LR_Ride Med.wav
448,192,4850,128,0,5750:0:0:0:40:LR_HiHat Synth Fast.wav
64,192,5750,128,0,6050:0:0:0:50:LR_Ride Med.wav
320,192,6050,1,4,0:0:0:0:
448,192,6050,1,2,0:0:0:0:
192,192,6200,128,2,6350:0:0:0:0:
448,192,6350,128,2,6500:0:0:0:0:
64,192,6500,1,2,0:0:0:0:
192,192,6500,1,4,0:0:0:0:
320,192,6800,1,2,0:0:0:0:
64,192,6950,1,2,0:0:0:0:
320,192,7100,1,2,0:0:0:0:
64,192,7250,128,2,7400:0:0:0:0:
192,192,7250,1,4,0:0:0:0:
448,192,7400,128,0,7550:0:0:0:0:
192,192,7550,128,0,7700:0:0:0:0:
320,192,7850,128,0,7980:0:0:0:0:
64,192,7980,128,0,8126:0:0:0:0:
192,192,8272,128,0,8419:0:0:0:0:
448,192,8419,128,0,8565:0:0:0:0:
320,192,8711,128,0,8858:0:0:0:0:
192,192,9004,128,0,9200:0:0:0:0:
448,192,9200,1,2,0:0:0:0:
64,192,9350,1,2,0:0:0:0:
448,192,9500,1,2,0:3:0:0:
64,192,9650,1,4,0:0:0:0:
192,192,9650,128,2,9800:0:0:0:0:
448,192,9800,128,0,9950:0:0:0:0:
320,192,9950,128,0,10100:0:0:0:0:
64,192,10250,128,0,10380:0:0:0:0:
192,192,10380,128,0,10530:0:0:0:0:
320,192,10700,128,0,10842:0:0:0:0:
64,192,10842,128,0,10985:0:0:0:0:
192,192,11128,128,0,11271:0:0:0:0:
448,192,11450,128,0,11600:0:0:0:0:
320,192,11600,128,0,11750:0:0:0:0:
64,192,11750,128,0,12050:0:0:0:0:
192,192,12050,1,4,0:0:0:0:
448,192,12050,1,2,0:3:0:0:
320,192,12200,128,8,12350:0:3:0:0:
64,192,12350,128,10,12500:0:3:0:0:
448,192,12500,1,8,0:3:0:0:
192,192,12650,128,10,12800:0:3:0:0:
448,192,12800,128,8,12950:0:3:0:0:
192,192,12950,1,10,0:3:0:0:
64,192,13100,128,8,13250:0:3:0:0:
448,192,13250,128,10,13400:0:3:0:0:
192,192,13400,1,8,0:3:0:0:
320,192,13550,128,10,13700:0:3:0:0:
64,192,13700,1,8,0:3:0:0:
192,192,13850,128,10,14000:0:3:0:0:
448,192,14000,128,8,14150:0:3:0:0:
64,192,14150,128,10,14300:0:3:0:0:
320,192,14300,128,8,14450:0:3:0:0:
64,192,14450,1,4,0:0:0:0:
448,192,14450,1,10,0:3:0:0:
192,192,14600,128,8,14750:0:3:0:0:
320,192,14750,128,8,14900:0:3:0:0:
64,192,14900,128,2,15050:0:3:0:0:
448,192,15050,128,0,15200:0:0:0:60:tom01.wav
320,192,15200,1,2,0:3:0:0:
192,192,15350,128,0,15500:0:0:0:60:tom02.wav
64,192,15500,1,2,0:3:0:0:
320,192,15650,128,4,15800:0:0:0:0:
448,192,15650,1,8,0:0:0:0:
192,192,15800,128,0,15950:0:0:0:0:
320,192,15950,128,0,16100:0:0:0:0:
448,192,16100,128,0,16250:0:0:0:0:
64,192,16250,128,0,16400:0:0:0:0:
192,192,16400,128,0,16550:0:0:0:0:
320,192,16550,1,8,0:0:0:0:
448,192,16550,1,0,0:0:0:0:
64,192,16850,1,4,0:0:0:0:
448,192,16850,1,2,0:0:0:0:
64,192,17150,1,8,0:0:0:0:
192,192,17150,1,0,0:0:0:0:
448,192,17300,1,0,0:0:0:0:
192,192,17450,1,2,0:0:0:0:
64,192,17600,1,0,0:0:0:0:
320,192,17750,1,8,0:0:0:0:
448,192,17750,1,0,0:0:0:0:
192,192,18050,1,2,0:0:0:0:
320,192,18200,1,0,0:0:0:0:
64,192,18350,1,8,0:0:0:0:
448,192,18350,1,0,0:0:0:0:
192,192,18500,1,0,0:0:0:0:
320,192,18650,1,2,0:0:0:0:
448,192,18800,1,0,0:0:0:0:
192,192,18950,1,0,0:0:0:0:
64,192,18950,1,8,0:0:0:0:
320,192,19100,1,0,0:0:0:0:
448,192,19250,1,2,0:0:0:0:
320,192,19550,1,8,0:0:0:0:
192,192,19550,1,0,0:0:0:0:
64,192,19700,1,0,0:0:0:0:
320,192,19850,1,2,0:0:0:0:
448,192,20000,1,0,0:0:0:0:
64,192,20150,1,8,0:0:0:0:
192,192,20150,1,0,0:0:0:0:
64,192,20450,1,2,0:0:0:0:
192,192,20600,1,0,0:0:0:0:
448,192,20750,1,0,0:0:0:0:
320,192,20750,1,8,0:0:0:0:
192,192,20900,1,0,0:0:0:0:
64,192,21050,1,2,0:0:0:0:
320,192,21200,1,0,0:0:0:0:
64,192,21350,1,8,0:0:0:0:
448,192,21350,1,0,0:0:0:0:
192,192,21500,1,0,0:0:0:0:
320,192,21650,1,2,0:0:0:0:
448,192,21650,1,4,0:0:0:0:
192,192,21950,1,8,0:0:0:0:
448,192,21950,1,0,0:0:0:0:
320,192,22100,1,0,0:0:0:0:
64,192,22250,1,2,0:0:0:0:
192,192,22400,1,0,0:0:0:0:
320,192,22550,1,8,0:0:0:0:
448,192,22550,1,0,0:0:0:0:
64,192,22850,1,2,0:0:0:0:
192,192,23000,1,0,0:0:0:0:
448,192,23150,1,0,0:0:0:0:
320,192,23150,1,8,0:0:0:0:
192,192,23300,1,0,0:0:0:0:
320,192,23450,1,2,0:0:0:0:
448,192,23600,1,0,0:0:0:0:
64,192,23750,1,0,0:0:0:0:
192,192,23750,1,8,0:0:0:0:
320,192,23900,1,0,0:0:0:0:
64,192,24050,1,2,0:0:0:0:
448,192,24050,1,0,0:0:0:0:
64,192,24350,1,8,0:0:0:0:
320,192,24350,1,0,0:0:0:0:
192,192,24500,1,0,0:0:0:0:
448,192,24650,1,2,0:0:0:0:
320,192,24800,1,0,0:0:0:0:
64,192,24950,1,8,0:0:0:0:
192,192,24950,1,0,0:0:0:0:
64,192,25250,1,2,0:3:0:0:
448,192,25250,128,0,25400:0:0:0:0:
192,192,25400,128,2,25550:0:3:0:0:
320,192,25550,1,8,0:0:0:0:
448,192,25550,1,0,0:0:0:0:
64,192,25700,1,4,0:0:0:0:
192,192,25700,1,2,0:3:0:0:
64,192,26000,1,8,0:3:0:0:
192,192,26000,1,0,0:0:0:0:
320,192,26150,1,8,0:3:0:0:
448,192,26150,1,0,0:0:0:0:
64,192,26300,1,8,0:3:0:0:
192,192,26300,1,0,0:0:0:0:
320,192,26450,1,4,0:0:0:0:
448,192,26450,1,2,0:0:0:0:
64,192,26750,1,8,0:0:0:0:
448,192,26750,1,0,0:0:0:0:
320,192,27050,1,2,0:0:0:0:
64,192,27200,1,8,0:0:0:0:
192,192,27200,1,0,0:0:0:0:
448,192,27350,1,2,0:0:0:0:
192,192,27650,1,2,0:0:0:0:
448,192,27950,1,8,0:0:0:0:
64,192,27950,1,0,0:0:0:0:
320,192,28250,1,2,0:0:0:0:
192,192,28400,1,8,0:0:0:0:
448,192,28400,1,0,0:0:0:0:
64,192,28550,1,2,0:0:0:0:
448,192,28850,1,2,0:0:0:0:
64,192,29150,1,8,0:0:0:0:
320,192,29150,1,0,0:0:0:0:
192,192,29450,1,2,0:0:0:0:
320,192,29600,1,8,0:0:0:0:
448,192,29600,1,0,0:0:0:0:
64,192,29750,1,2,0:0:0:0:
320,192,30050,1,2,0:0:0:0:
64,192,30350,1,8,0:0:0:0:
192,192,30350,1,0,0:0:0:0:
448,192,30650,1,2,0:0:0:0:
320,192,30800,1,8,0:0:0:0:
192,192,30800,1,0,0:0:0:0:
64,192,30950,1,2,0:0:0:0:
320,192,31100,1,8,0:0:0:0:
192,192,31175,1,8,0:0:0:0:
64,192,31250,1,2,0:0:0:0:
448,192,31250,1,0,0:0:0:0:
192,192,31550,1,8,0:0:0:0:
320,192,31550,1,0,0:0:0:0:
64,192,31850,1,2,0:0:0:0:
192,192,32000,1,8,0:0:0:0:
448,192,32000,1,0,0:0:0:0:
320,192,32150,1,2,0:0:0:0:
64,192,32450,1,2,0:0:0:0:
320,192,32750,1,8,0:0:0:0:
192,192,32750,1,0,0:0:0:0:
448,192,33050,1,2,0:0:0:0:
64,192,33200,1,8,0:0:0:0:
320,192,33200,1,0,0:0:0:0:
192,192,33350,1,2,0:0:0:0:
448,192,33650,1,2,0:0:0:0:
64,192,33950,1,8,0:0:0:0:
192,192,33950,1,0,0:0:0:0:
320,192,34250,1,2,0:0:0:0:
64,192,34400,1,8,0:0:0:0:
448,192,34400,1,0,0:0:0:0:
192,192,34550,1,2,0:0:0:0:
64,192,34850,1,2,0:0:0:0:
320,192,35000,1,8,0:0:0:0:
448,192,35000,1,4,0:0:0:0:
192,192,35150,1,2,0:0:0:0:
64,192,35300,1,8,0:0:0:0:
448,192,35300,1,4,0:0:0:0:
320,192,35450,1,2,0:0:0:0:
192,192,35600,128,8,35750:0:3:0:0:
448,192,35750,128,8,35900:0:3:0:0:
64,192,35900,128,8,36050:0:3:0:0:
192,192,36050,1,4,0:0:0:0:
448,192,36050,1,2,0:0:0:0:
64,192,36350,1,8,0:0:0:0:
192,192,36350,1,4,0:0:0:0:
320,192,36650,1,2,0:0:0:0:
64,192,36800,1,8,0:0:0:0:
192,192,36800,1,0,0:0:0:0:
320,192,36950,1,2,0:0:0:0:
64,192,37100,1,8,0:0:0:0:
448,192,37100,1,0,0:0:0:0:
192,192,37250,1,2,0:0:0:0:
320,192,37550,1,8,0:0:0:0:
448,192,37550,1,0,0:0:0:0:
192,192,37850,1,2,0:0:0:0:
64,192,38150,1,8,0:0:0:0:
320,192,38150,1,0,0:0:0:0:
448,192,38300,1,8,0:0:0:0:
320,192,38375,1,8,0:0:0:0:
192,192,38450,1,2,0:0:0:0:
64,192,38750,1,8,0:0:0:0:
448,192,38750,1,0,0:0:0:0:
192,192,39050,1,2,0:0:0:0:
64,192,39200,1,8,0:0:0:0:
448,192,39200,1,0,0:0:0:0:
320,192,39350,1,2,0:0:0:0:
192,192,39500,1,8,0:0:0:0:
64,192,39500,1,0,0:0:0:0:
448,192,39650,1,2,0:0:0:0:
192,192,39950,1,8,0:0:0:0:
320,192,39950,1,0,0:0:0:0:
448,192,40250,1,2,0:0:0:0:
64,192,40400,128,8,40550:0:3:0:0:
320,192,40550,128,8,40700:0:3:0:0:
448,192,40700,128,8,40850:0:3:0:0:
64,192,40850,1,2,0:0:0:0:
192,192,40850,1,4,0:0:0:0:
192,192,41150,1,8,0:0:0:0:
448,192,41150,1,0,0:0:0:0:
64,192,41450,1,2,0:0:0:0:
320,192,41600,1,8,0:0:0:0:
448,192,41600,1,0,0:0:0:0:
192,192,41750,1,2,0:0:0:0:
64,192,41900,1,8,0:0:0:0:
448,192,41900,1,0,0:0:0:0:
320,192,42050,1,2,0:0:0:0:
448,192,42350,1,8,0:0:0:0:
192,192,42350,1,0,0:0:0:0:
64,192,42650,1,2,0:0:0:0:
320,192,42950,1,8,0:0:0:0:
448,192,42950,1,0,0:0:0:0:
64,192,43100,1,8,0:0:0:0:
192,192,43175,1,8,0:0:0:0:
320,192,43250,1,2,0:0:0:0:
192,192,43550,1,8,0:0:0:0:
448,192,43550,1,0,0:0:0:0:
448,192,43850,1,2,0:0:0:0:
64,192,44000,1,8,0:0:0:0:
320,192,44000,1,0,0:0:0:0:
192,192,44150,1,2,0:3:0:0:
320,192,44300,1,8,0:0:0:0:
448,192,44300,1,4,0:0:0:0:
64,192,44450,1,2,0:3:0:0:
192,192,44600,1,8,0:0:0:0:
320,192,44600,1,0,0:0:0:0:
448,192,44750,1,2,0:3:0:0:
64,192,44900,1,8,0:0:0:0:
192,192,44900,1,4,0:0:0:0:
320,192,45050,1,2,0:3:0:0:
64,192,45200,1,8,0:0:0:0:
448,192,45200,1,0,0:0:0:0:
192,192,45350,1,8,0:0:0:0:
320,192,45350,1,0,0:0:0:0:
64,192,45500,1,8,0:0:0:0:
448,192,45500,1,0,0:0:0:0:
192,192,45650,1,2,0:3:0:0:
320,192,45800,1,2,0:3:0:0:
64,192,45950,1,2,0:3:0:0:
448,192,46100,1,2,0:3:0:0:
64,192,46250,1,8,0:0:0:0:
192,192,46250,1,4,0:0:0:0:
320,192,46400,1,2,3:0:0:0:
448,192,46550,1,2,3:0:0:0:
64,192,46700,1,8,0:3:0:0:
192,192,46700,1,0,0:0:0:50:hat.wav
64,192,47000,1,8,0:0:0:0:
448,192,47000,1,4,0:0:0:0:
192,192,47150,1,4,0:0:0:0:
320,192,47150,1,8,0:0:0:0:
320,192,47450,1,8,0:3:0:0:
448,192,47450,1,0,0:0:0:0:
64,192,47600,1,8,0:3:0:0:
192,192,47600,1,0,0:0:0:0:
320,192,47750,1,8,0:3:0:0:
448,192,47750,1,0,0:0:0:0:
192,192,47900,1,8,0:3:0:0:
64,192,47900,1,0,0:0:0:0:
320,192,48050,1,2,0:3:0:0:
448,192,48200,1,2,0:3:0:0:
192,192,48350,1,2,0:3:0:0:
64,192,48500,1,2,0:3:0:0:
320,192,48650,1,8,0:0:0:0:
448,192,48650,1,4,0:0:0:0:
192,192,48800,1,2,3:0:0:0:
448,192,48950,1,2,3:0:0:0:
64,192,49100,1,8,0:3:0:0:
192,192,49100,1,0,0:0:0:50:hat.wav
64,192,49400,1,8,0:0:0:0:
192,192,49400,1,4,0:0:0:0:
320,192,49550,1,4,0:0:0:0:
448,192,49550,1,8,0:0:0:0:
64,192,49850,1,8,0:3:0:0:
192,192,49950,1,8,0:3:0:0:
320,192,50050,1,0,0:0:0:60:tom01.wav
64,192,50150,1,0,0:0:0:60:tom02.wav
192,192,50250,1,0,0:0:0:60:tom03.wav
320,192,50350,1,0,0:0:0:60:tom03.wav
448,192,50450,1,2,0:3:0:0:
64,192,50600,1,2,0:3:0:0:
320,192,50750,1,2,0:3:0:0:
192,192,50900,1,2,0:3:0:0:
320,192,51200,1,8,0:0:0:0:
448,192,51200,1,4,0:0:0:0:
64,192,51350,1,8,0:0:0:0:
192,192,51350,1,0,0:0:0:0:
320,192,51500,1,4,0:0:0:0:
448,192,51500,1,2,0:3:0:0:
64,192,51800,1,8,0:0:0:0:
192,192,51800,1,0,0:0:0:0:
448,192,51950,128,0,52100:0:0:0:60:tom01.wav
192,192,52100,128,0,52250:0:0:0:60:tom03.wav
320,192,52250,1,8,0:0:0:0:
448,192,52250,1,0,0:0:0:0:
64,192,52400,1,8,0:0:0:50:hat.wav
192,192,52400,1,0,0:0:0:0:
64,192,52700,1,4,0:0:0:0:
448,192,52700,1,2,0:0:0:0:
320,192,53000,1,2,0:0:0:0:
64,192,53150,1,8,0:0:0:0:
192,192,53150,1,0,0:0:0:0:
448,192,53300,1,0,0:0:0:0:
320,192,53375,1,2,0:0:0:0:
192,192,53450,1,2,0:0:0:0:
448,192,53600,1,2,0:0:0:0:
64,192,53750,1,8,0:0:0:0:
320,192,53750,1,0,0:0:0:0:
192,192,54050,1,2,0:0:0:0:
320,192,54200,1,2,0:0:0:0:
64,192,54350,1,4,0:0:0:0:
448,192,54350,1,0,0:0:0:0:
192,192,54500,1,2,0:3:0:0:
448,192,54650,128,0,54800:0:0:0:60:tom01.wav
64,192,54800,128,0,54950:0:0:0:60:tom03.wav
320,192,54950,128,8,55100:0:3:0:0:
64,192,55100,128,8,55250:0:3:0:0:
448,192,55250,128,0,55850:0:0:0:0:
192,192,56150,128,0,56450:0:0:0:0:
320,192,56450,128,0,56750:0:0:0:0:
64,192,56750,128,0,56900:0:0:0:0:
448,192,56900,128,0,57200:0:0:0:0:
192,192,57200,128,0,57350:0:0:0:0:
64,192,57350,128,0,57500:0:0:0:0:
320,192,57500,128,0,57650:0:0:0:0:
64,192,57650,1,4,0:0:0:0:
448,192,57650,1,8,0:3:0:0:
320,192,57800,128,2,57950:0:0:0:0:
192,192,57950,128,2,58100:0:0:0:0:
64,192,58100,1,8,0:0:0:0:
448,192,58100,1,0,0:0:0:60:hat.wav
192,192,58250,128,2,58400:0:0:0:0:
320,192,58400,128,2,58550:0:0:0:0:
64,192,58550,1,8,0:3:0:0:
448,192,58550,1,0,0:0:0:0:
192,192,58700,1,8,0:0:0:0:
320,192,58700,1,0,0:0:0:0:
64,192,59300,128,0,59450:0:0:0:0:
192,192,59450,128,0,59600:0:0:0:0:
448,192,59600,128,0,59750:0:0:0:0:
192,192,59750,128,0,59900:0:0:0:0:
320,192,59900,128,0,60050:0:0:0:0:
64,192,60050,1,2,0:0:0:0:
448,192,60050,128,4,60350:0:0:0:0:
64,192,60350,1,8,0:0:0:0:
192,192,60350,1,0,0:0:0:0:
320,192,60500,128,0,60650:0:0:0:0:
192,192,60650,128,2,60800:0:0:0:0:
448,192,60800,128,0,60950:0:0:0:0:
64,192,60950,1,8,0:0:0:0:
320,192,60950,128,0,61100:0:0:0:0:
192,192,61100,128,0,61250:0:0:0:0:
448,192,61250,128,2,61550:0:0:0:0:
64,192,61550,1,8,0:0:0:0:
192,192,61550,1,0,0:0:0:0:
320,192,61700,128,0,61850:0:0:0:0:
64,192,61850,1,2,0:0:0:0:
192,192,62000,128,0,62150:0:0:0:0:
448,192,62150,1,0,0:0:0:0:
320,192,62150,128,8,62300:0:0:0:0:
64,192,62300,128,0,62450:0:0:0:0:
192,192,62450,128,2,62750:0:0:0:0:
320,192,62750,1,8,0:0:0:0:
448,192,62750,128,0,63050:0:0:0:0:
64,192,63050,128,2,63350:0:0:0:0:
192,192,63350,128,8,63650:0:0:0:0:
320,192,63350,1,0,0:0:0:0:
448,192,63650,128,2,63950:0:0:0:0:
192,192,63950,1,8,0:0:0:0:
64,192,63950,1,0,0:0:0:0:
320,192,64250,1,2,0:0:0:0:
192,192,64400,128,0,64550:0:0:0:0:
64,192,64550,1,0,0:0:0:0:
448,192,64550,128,8,64700:0:0:0:0:
320,192,64700,128,0,64850:0:0:0:0:
64,192,64850,128,2,65150:0:0:0:0:
192,192,64850,1,4,0:0:0:0:
448,192,65150,1,8,0:0:0:0:
320,192,65150,128,0,65300:0:0:0:0:
192,192,65300,128,0,65450:0:0:0:0:
448,192,65450,128,2,65750:0:0:0:0:
64,192,65750,128,8,66050:0:0:0:0:
192,192,65750,1,0,0:0:0:0:
320,192,66050,128,2,66200:0:0:0:0:
192,192,66200,128,0,66350:0:0:0:0:
320,192,66350,1,8,0:0:0:0:
448,192,66350,128,0,66650:0:0:0:0:
64,192,66650,1,2,0:0:0:0:
320,192,66800,1,0,0:0:0:0:
192,192,66875,1,0,0:0:0:0:
64,192,66950,1,8,0:0:0:0:
448,192,66950,1,0,0:0:0:0:
320,192,67100,1,0,0:0:0:0:
64,192,67250,1,2,0:0:0:0:
192,192,67250,1,0,0:0:0:0:
320,192,67475,1,8,0:0:0:0:
448,192,67475,1,0,0:0:0:0:
64,192,67700,1,8,0:0:0:0:
320,192,67700,1,0,0:0:0:0:
192,192,67850,1,2,0:0:0:0:
448,192,67850,1,0,0:0:0:0:
64,192,68075,1,8,0:0:0:0:
192,192,68150,1,2,0:0:0:0:
320,192,68300,1,8,0:0:0:0:
448,192,68450,1,2,0:0:0:0:
192,192,68600,1,2,0:0:0:0:
320,192,68750,1,8,0:0:0:0:
64,192,68900,1,0,0:0:0:0:
320,192,69050,1,8,0:3:0:0:
448,192,69050,128,0,69200:0:0:0:40:hat.wav
192,192,69200,128,8,69350:0:3:0:0:
64,192,69350,128,8,69500:0:3:0:0:
192,192,69500,128,8,69650:0:3:0:0:
320,192,69650,128,4,69800:0:0:0:0:
448,192,69650,1,2,0:0:0:0:
64,192,69800,128,0,69950:0:0:0:0:
192,192,69950,1,8,0:0:0:0:
448,192,69950,128,0,70100:0:0:0:0:
320,192,70100,128,0,70250:0:0:0:0:
64,192,70250,128,2,70400:0:0:0:0:
448,192,70400,128,0,70550:0:0:0:0:
64,192,70550,1,8,0:0:0:0:
192,192,70550,128,0,70700:0:0:0:0:
320,192,70700,128,0,70850:0:0:0:0:
448,192,70850,128,2,71150:0:0:0:0:
64,192,71150,1,8,0:0:0:0:
192,192,71150,128,0,71300:0:0:0:0:
320,192,71300,128,0,71450:0:0:0:0:
448,192,71450,1,2,0:0:0:0:
64,192,71600,128,0,71750:0:0:0:0:
192,192,71750,1,8,0:0:0:0:
448,192,71750,1,0,0:0:0:0:
320,192,71900,128,0,72050:0:0:0:0:
64,192,72050,128,2,72200:0:0:0:0:
448,192,72200,128,0,72350:0:0:0:0:
64,192,72350,1,8,0:0:0:0:
192,192,72350,128,0,72500:0:0:0:0:
320,192,72500,128,0,72650:0:0:0:0:
448,192,72650,128,2,72800:0:0:0:0:
192,192,72800,128,0,72950:0:0:0:0:
64,192,72950,128,8,73100:0:0:0:0:
448,192,72950,1,0,0:0:0:0:
192,192,73100,128,0,73250:0:0:0:0:
320,192,73250,128,2,73550:0:0:0:0:
448,192,73550,128,8,73700:0:0:0:0:
64,192,73550,1,0,0:0:0:0:
192,192,73700,128,0,73850:0:0:0:0:
320,192,73850,1,2,0:0:0:0:
64,192,74000,128,0,74150:0:0:0:0:
192,192,74150,1,8,0:0:0:0:
448,192,74150,1,0,0:0:0:0:
64,192,74450,1,2,0:0:0:0:
192,192,74600,128,0,74750:0:0:0:0:
320,192,74750,1,8,0:0:0:0:
448,192,74750,128,0,74900:0:0:0:0:
64,192,74900,128,0,75050:0:0:0:0:
448,192,75050,1,2,0:0:0:0:
320,192,75200,128,0,75350:0:0:0:0:
64,192,75350,128,8,75500:0:0:0:0:
192,192,75350,1,0,0:0:0:0:
448,192,75500,128,0,75650:0:0:0:0:
192,192,75650,128,2,75800:0:0:0:0:
320,192,75800,128,0,75950:0:0:0:0:
192,192,75950,1,8,0:0:0:0:
448,192,75950,128,0,76100:0:0:0:0:
64,192,76100,128,0,76250:0:0:0:0:
192,192,76250,128,2,76400:0:0:0:0:
320,192,76400,128,0,76550:0:0:0:0:
64,192,76550,1,8,0:0:0:0:
448,192,76550,128,0,76850:0:0:0:0:
64,192,76850,1,2,0:0:0:0:
192,192,77000,128,0,77150:0:0:0:0:
320,192,77150,1,8,0:0:0:0:
448,192,77150,128,0,77300:0:0:0:0:
64,192,77300,128,0,77450:0:0:0:0:
192,192,77450,1,2,0:0:0:0:
448,192,77600,128,0,77750:0:0:0:0:
64,192,77750,1,8,0:0:0:0:
320,192,77750,128,0,77900:0:0:0:0:
192,192,77900,128,0,78050:0:0:0:0:
448,192,78050,1,2,0:0:0:0:
320,192,78200,1,2,0:0:0:0:
64,192,78350,1,8,0:3:0:0:
192,192,78350,1,0,0:0:0:0:
448,192,78500,1,8,0:3:0:0:
320,192,78575,1,8,0:3:0:0:
192,192,78650,1,8,0:3:0:0:
448,192,78800,1,0,0:0:0:60:tom01.wav
64,192,78950,1,0,0:0:0:60:tom02.wav
320,192,79100,1,0,0:0:0:60:tom03.wav
192,192,79250,1,2,0:3:0:0:
448,192,79250,1,0,0:0:0:0:
64,192,79400,1,2,0:3:0:0:
320,192,79550,1,2,0:3:0:0:
192,192,79700,1,2,0:3:0:0:
320,192,79850,1,8,0:0:0:0:
448,192,79850,1,0,0:0:0:0:
64,192,80000,1,8,0:0:0:0:
192,192,80000,1,4,0:0:0:0:
64,192,80300,1,8,0:0:0:0:
448,192,80300,1,0,0:0:0:0:
192,192,80450,1,2,0:3:0:0:
448,192,80600,1,8,0:0:0:0:
320,192,80600,1,0,0:0:0:0:
64,192,80750,1,2,0:3:0:0:
320,192,80900,1,2,0:3:0:0:
64,192,81050,1,8,0:0:0:0:
192,192,81050,1,0,0:0:0:0:
320,192,81200,1,4,0:0:0:0:
448,192,81200,1,8,0:0:0:0:
64,192,81500,1,8,0:0:0:0:
320,192,81500,1,0,0:0:0:0:
448,192,81650,1,2,0:3:0:0:
192,192,81800,1,2,0:3:0:0:
64,192,81950,1,2,0:3:0:0:
448,192,82100,1,2,0:3:0:0:
192,192,82250,1,8,0:0:0:0:
320,192,82250,1,0,0:0:0:0:
64,192,82400,1,8,0:0:0:0:
448,192,82400,1,4,0:0:0:0:
192,192,82700,1,8,0:0:0:0:
448,192,82700,1,0,0:0:0:0:
320,192,82850,1,2,0:3:0:0:
64,192,83000,1,8,0:0:0:0:
192,192,83000,1,0,0:0:0:0:
448,192,83150,1,2,0:3:0:0:
320,192,83300,1,2,0:3:0:0:
64,192,83450,128,8,83600:0:0:0:0:
320,192,83600,128,0,83750:0:0:0:60:tom02.wav
64,192,83750,1,4,0:0:0:0:
192,192,83750,1,8,0:3:0:0:
192,192,84050,1,2,0:0:0:0:
448,192,84050,128,0,84350:0:0:0:0:
64,192,84350,128,8,84500:0:0:0:0:
320,192,84350,1,0,0:0:0:0:
192,192,84500,128,0,84650:0:0:0:0:
448,192,84650,1,2,0:0:0:0:
64,192,84800,128,8,84950:0:3:0:0:
320,192,84950,128,8,85100:0:3:0:0:
448,192,85100,128,8,85250:0:3:0:0:
64,192,85250,1,2,0:0:0:0:
192,192,85250,1,0,0:0:0:0:
64,192,85550,1,0,0:0:0:0:
192,192,85850,1,0,0:0:0:40:hat.wav
448,192,85850,1,0,0:0:0:0:
320,192,86000,128,8,86150:0:3:0:0:
448,192,86150,128,8,86300:0:3:0:0:
64,192,86300,128,8,86450:0:3:0:0:
192,192,86450,1,4,0:0:0:0:
320,192,86450,128,2,87050:0:0:0:0:
64,192,87050,1,0,0:0:0:40:hat.wav
192,192,87050,1,0,0:0:0:0:
448,192,87200,128,8,87350:0:3:0:0:
320,192,87350,128,8,87500:0:3:0:0:
192,192,87500,128,8,87650:0:3:0:0:
64,192,87650,1,4,0:0:0:0:
448,192,87650,1,2,0:0:0:0:
