osu file format v14

[General]
AudioFilename: audio.mp3
AudioLeadIn: 0
PreviewTime: 153516
Countdown: 0
SampleSet: Normal
StackLeniency: 0.7
Mode: 1
LetterboxInBreaks: 0
WidescreenStoryboard: 1

[Editor]
Bookmarks: 666,10266,17466,27066,43866,53466,63066,77466,96666,113466,123066,132666,142266,154266,173466,190266,204666,207235,214117,215328,224882,244082,253682,266882,276482,302882,310082
DistanceSpacing: 0.9
BeatDivisor: 4
GridSize: 4
TimelineZoom: 2.300001

[Metadata]
Title:1,000,000 TIMES
TitleUnicode:1,000,000 TIMES
Artist:MY FIRST STORY feat. chelly (EGOIST)
ArtistUnicode:MY FIRST STORY feat. chelly (EGOIST)
Creator:Volta
Version:Oni Million
Source:DUEL MASTERS PLAY’S
Tags:PLAY'S plays デュエル・マスターズ プレイス one million 1000000 full version MFS Myfirststory マイファーストストーリ opening video game mobile japanese rock j-rock jrock
BeatmapID:2646102
BeatmapSetID:1273402

[Difficulty]
HPDrainRate:6
CircleSize:6
OverallDifficulty:6
ApproachRate:6
SliderMultiplier:1.4
SliderTickRate:1

[Events]
//Background and Video events
0,0,"wallbg1000k02.jpg",0,-15
//Break Periods
//Storyboard Layer 0 (Background)
//Storyboard Layer 1 (Fail)
//Storyboard Layer 2 (Pass)
//Storyboard Layer 3 (Foreground)
//Storyboard Layer 4 (Overlay)
//Storyboard Sound Samples

[TimingPoints]
666,300,4,1,0,40,1,0
666,-125,4,1,0,40,0,0
10266,-125,4,1,0,50,0,0
16266,-100,4,1,0,80,0,0
17616,-117.647058823529,4,1,0,70,0,0
19416,-100,4,1,0,80,0,0
20016,-117.647058823529,4,1,0,70,0,0
22266,-100,4,1,0,80,0,0
26766,-125,4,1,0,80,0,0
27066,-100,4,1,0,80,0,0
44016,-111.111111111111,4,1,0,70,0,0
52416,-110.497237569061,4,1,0,70,0,0
52566,-109.89010989011,4,1,0,70,0,0
52716,-109.289617486339,4,1,0,70,0,0
52866,-108.695652173913,4,1,0,70,0,0
53016,-108.108108108108,4,1,0,70,0,0
53091,-107.816711590296,4,1,0,70,0,0
53166,-107.52688172043,4,1,0,70,0,0
53241,-106.951871657754,4,1,0,70,0,0
53316,-106.382978723404,4,1,0,70,0,0
53466,-105.263157894737,4,1,0,80,0,0
62616,-103.896103896104,4,1,0,80,0,0
62766,-102.564102564103,4,1,0,80,0,0
62916,-101.26582278481,4,1,0,80,0,0
63066,-100,4,1,0,80,0,0
72966,-125,4,1,0,60,0,0
75066,-100,4,1,0,70,0,0
76716,-117.647058823529,4,1,0,60,0,0
76791,-114.942528735632,4,1,0,60,0,0
76866,-112.359550561798,4,1,0,60,0,0
77016,-107.52688172043,4,1,0,60,0,0
77091,-105.263157894737,4,1,0,60,0,0
77166,-103.092783505155,4,1,0,60,0,0
77316,-99.009900990099,4,1,0,60,0,0
77466,-95.2380952380952,4,1,0,90,0,1
112866,-96.1538461538461,4,1,0,90,0,1
113016,-97.0873786407767,4,1,0,90,0,1
113091,-97.5609756097561,4,1,0,90,0,1
113166,-98.0392156862745,4,1,0,90,0,1
113241,-98.5221674876847,4,1,0,90,0,1
113316,-99.009900990099,4,1,0,90,0,1
113391,-99.502487562189,4,1,0,90,0,1
113466,-100,4,1,0,90,0,0
113616,-100,4,1,0,80,0,0
121866,-102.040816326531,4,1,0,70,0,0
122016,-104.166666666667,4,1,0,70,0,0
122091,-105.263157894737,4,1,0,70,0,0
122166,-106.382978723404,4,1,0,70,0,0
122616,-109.89010989011,4,1,0,70,0,0
122916,-114.942528735632,4,1,0,70,0,0
123066,-117.647058823529,4,1,0,60,0,0
131391,-117.647058823529,4,1,0,40,0,0
131766,-111.111111111111,4,1,0,50,0,0
131916,-105.263157894737,4,1,0,50,0,0
131991,-100,4,1,0,80,0,0
142416,-102.040816326531,4,1,0,60,0,0
142566,-104.166666666667,4,1,0,60,0,0
142866,-108.695652173913,4,1,0,60,0,0
143016,-111.111111111111,4,1,0,60,0,0
143166,-113.636363636364,4,1,0,60,0,0
143316,-116.279069767442,4,1,0,60,0,0
143466,-119.047619047619,4,1,0,60,0,0
143766,-125,4,1,0,60,0,0
144066,-131.578947368421,4,1,0,60,0,0
144666,-138.888888888889,4,1,0,60,0,0
148566,-131.578947368421,4,1,0,60,0,0
148716,-125,4,1,0,70,0,0
148791,-121.951219512195,4,1,0,70,0,0
148866,-119.047619047619,4,1,0,70,0,0
148941,-116.279069767442,4,1,0,70,0,0
149016,-113.636363636364,4,1,0,70,0,0
149166,-108.695652173913,4,1,0,70,0,0
149466,-100,4,1,0,80,0,0
154266,-95.2380952380952,4,1,0,90,0,1
190266,-95.2380952380952,4,1,0,90,0,0
190566,-135.135135135135,4,1,0,60,0,0
199866,-135.135135135135,4,1,0,70,0,0
202566,-128.205128205128,4,1,0,70,0,0
202866,-121.951219512195,4,1,0,70,0,0
203166,-116.279069767442,4,1,0,70,0,0
203391,-111.111111111111,4,1,0,50,0,0
204586,-111.111111111111,4,1,0,75,0,0
204666,317.460317460317,4,1,0,75,1,0
204666,-94.3396226415094,4,1,0,75,0,0
205142,389.61038961039,4,1,0,75,1,8
205142,-76.9230769230769,4,1,0,75,0,0
205434,350.877192982456,4,1,0,75,1,8
205434,-85.4700854700855,4,1,0,75,0,0
205609,338.983050847458,4,1,0,75,1,8
205609,-88.495575221239,4,1,0,75,0,0
205863,317.460317460317,4,1,0,75,1,8
205863,-94.3396226415094,4,1,0,75,0,0
205942,317.460317460317,4,1,0,40,1,0
205942,-94.3396226415094,4,1,0,75,0,0
206101,368.098159509202,4,1,0,75,1,8
206101,-81.3008130081301,4,1,0,75,0,0
206377,287.081339712919,4,1,0,75,1,8
206377,-104.166666666667,4,1,0,75,0,0
206592,400,4,1,0,75,1,8
206592,-75.187969924812,4,1,0,75,0,0
206892,458.015267175573,4,1,0,75,1,8
206892,-65.359477124183,4,1,0,75,0,0
207235,303.030303030303,4,1,0,75,1,0
207235,-99.009900990099,4,1,0,75,0,0
207462,297.029702970297,4,1,0,75,1,8
207462,-101.010101010101,4,1,0,75,0,0
207684,389.61038961039,4,1,0,75,1,8
207684,-76.9230769230769,4,1,0,75,0,0
207976,260.869565217391,4,1,0,75,1,8
207976,-114.942528735632,4,1,0,75,0,0
208171,317.460317460317,4,1,0,75,1,8
208171,-94.3396226415094,4,1,0,75,0,0
208409,338.983050847458,4,1,0,75,1,8
208409,-88.495575221239,4,1,0,75,0,0
208493,338.983050847458,4,1,0,40,1,0
208493,-88.495575221239,4,1,0,75,0,0
208663,303.030303030303,4,1,0,75,1,8
208663,-99.009900990099,4,1,0,75,0,0
208890,272.727272727273,4,1,0,75,1,8
208890,-109.89010989011,4,1,0,75,0,0
209094,303.030303030303,4,1,0,75,1,8
209094,-99.009900990099,4,1,0,75,0,0
209397,324.324324324324,4,1,0,75,1,8
209397,-92.5925925925926,4,1,0,75,0,0
209723,315.789473684211,4,1,0,75,1,0
209723,-95.2380952380952,4,1,0,75,0,0
224882,300,4,1,0,90,1,8
224882,-100,4,1,0,90,0,0
224957,-100,4,1,0,80,0,0
226082,-105.263157894737,4,1,0,75,0,0
227282,-111.111111111111,4,1,0,70,0,0
228482,-117.647058823529,4,1,0,65,0,0
229527,-125,4,1,0,60,0,0
243782,-119.047619047619,4,1,0,60,0,0
244082,-113.636363636364,4,1,0,70,0,0
253232,-112.359550561798,4,1,0,70,0,0
253307,-111.731843575419,4,1,0,70,0,0
253382,-111.111111111111,4,1,0,70,0,0
253457,-110.497237569061,4,1,0,70,0,0
253532,-109.89010989011,4,1,0,70,0,0
253607,-109.289617486339,4,1,0,70,0,0
253682,-108.695652173913,4,1,0,80,0,0
261182,-111.111111111111,4,1,0,80,0,0
261482,-113.636363636364,4,1,0,80,0,0
261782,-116.279069767442,4,1,0,80,0,0
262082,-119.047619047619,4,1,0,80,0,0
262382,-121.951219512195,4,1,0,80,0,0
262682,-125,4,1,0,80,0,0
262982,-128.205128205128,4,1,0,80,0,0
263282,-131.578947368421,4,1,0,80,0,0
263582,-135.135135135135,4,1,0,80,0,0
263882,-138.888888888889,4,1,0,80,0,0
264182,-142.857142857143,4,1,0,80,0,0
264482,-147.058823529412,4,1,0,10,0,0
265982,-142.857142857143,4,1,0,80,0,0
266207,-137.931034482759,4,1,0,80,0,0
266282,-133.333333333333,4,1,0,80,0,0
266482,-125,4,1,0,80,0,0
266682,-117.647058823529,4,1,0,80,0,0
266882,-111.111111111111,4,1,0,80,0,0
275207,-109.89010989011,4,1,0,80,0,0
275282,-108.695652173913,4,1,0,80,0,0
275482,-105.633877206956,4,1,0,80,0,0
275682,-102.739726062582,4,1,0,80,0,0
275882,-100,4,1,0,80,0,0
276032,-98.0392156862745,4,1,0,80,0,0
276107,-97.0873786407767,4,1,0,80,0,0
276182,-96.1538461538461,4,1,0,80,0,0
276257,-95.2380952380952,4,1,0,80,0,0
276332,-94.3396226415094,4,1,0,80,0,0
276407,-93.4579439252336,4,1,0,80,0,0
276482,-92.5925925925926,4,1,0,90,0,1
302507,-93.0232558139535,4,1,0,90,0,1
302582,-93.4579439252336,4,1,0,90,0,1
302657,-93.8967136150235,4,1,0,90,0,1
302732,-94.3396226415094,4,1,0,90,0,1
302807,-94.7867298578199,4,1,0,90,0,1
302882,-95.2380952380952,4,1,0,90,0,0
303032,-95.2380952380952,4,1,0,80,0,0

[HitObjects]
256,192,666,12,0,5316,0:0:0:0:
256,192,5466,12,0,9516,0:0:0:0:
142,126,9666,5,8,0:0:0:0:
142,126,9741,1,8,0:0:0:0:
142,126,9816,5,8,0:0:0:0:
75,127,9966,5,0,0:0:0:0:
75,127,10266,1,12,0:0:0:0:
323,106,11166,1,8,0:0:0:0:
148,122,11466,1,0,0:0:0:0:
303,104,12066,1,8,0:0:0:0:
148,122,12666,1,0,0:0:0:0:
303,104,13116,1,8,0:0:0:0:
303,104,13566,1,8,0:0:0:0:
148,122,13866,1,0,0:0:0:0:
303,104,14016,1,8,0:0:0:0:
161,142,14466,1,8,0:0:0:0:
148,122,15066,5,0,0:0:0:0:
295,134,15216,1,8,0:0:0:0:
165,113,15516,1,8,0:0:0:0:
262,97,15666,1,0,0:0:0:0:
175,113,15966,1,8,0:0:0:0:
407,232,16266,5,12,0:0:0:0:
407,232,16416,1,0,0:0:0:0:
407,232,16491,1,0,0:0:0:0:
407,232,16566,1,0,0:0:0:0:
407,232,16641,1,0,0:0:0:0:
407,232,16716,1,8,0:0:0:0:
407,232,17016,1,4,0:0:0:0:
407,232,17166,1,4,0:0:0:0:
407,232,17316,1,4,0:0:0:0:
407,232,17466,1,12,0:0:0:0:
201,82,17616,1,0,0:0:0:0:
201,82,17766,1,8,0:0:0:0:
310,131,18066,1,0,0:0:0:0:
310,131,18216,1,8,0:0:0:0:
310,131,18516,1,8,0:0:0:0:
310,131,18666,1,8,0:0:0:0:
310,131,18816,1,0,0:0:0:0:
310,131,18966,1,8,0:0:0:0:
226,106,19266,1,8,0:0:0:0:
184,168,19416,1,4,0:0:0:0:
184,168,19566,1,4,0:0:0:0:
184,168,19716,1,4,0:0:0:0:
184,168,19866,1,12,0:0:0:0:
211,91,20016,1,0,0:0:0:0:
24,149,20166,1,8,0:0:0:0:
99,144,20466,1,0,0:0:0:0:
99,144,20616,1,8,0:0:0:0:
204,129,20916,1,8,0:0:0:0:
204,129,21066,1,8,0:0:0:0:
204,129,21216,1,0,0:0:0:0:
201,133,21366,1,8,0:0:0:0:
153,104,21666,1,8,0:0:0:0:
38,160,21816,1,8,0:0:0:0:
153,104,21891,1,8,0:0:0:0:
153,104,21966,1,0,0:0:0:0:
144,124,22041,1,0,0:0:0:0:
48,108,22116,1,0,0:0:0:0:
198,83,22266,1,12,0:0:0:0:
166,143,22416,1,8,0:0:0:0:
166,143,22491,1,0,0:0:0:0:
166,143,22566,1,8,0:0:0:0:
165,132,22641,1,8,0:0:0:0:
165,132,22716,1,8,0:0:0:0:
165,132,22791,1,0,0:0:0:0:
165,132,22866,1,8,0:0:0:0:
165,132,22941,1,0,0:0:0:0:
165,132,23016,1,8,0:0:0:0:
165,132,23091,1,8,0:0:0:0:
165,132,23166,1,8,0:0:0:0:
165,132,23241,1,0,0:0:0:0:
165,132,23316,1,8,0:0:0:0:
165,132,23391,1,0,0:0:0:0:
165,132,23466,1,8,0:0:0:0:
165,132,23541,1,8,0:0:0:0:
165,132,23616,1,0,0:0:0:0:
165,132,23691,1,0,0:0:0:0:
165,132,23766,1,8,0:0:0:0:
165,132,23841,1,8,0:0:0:0:
165,132,23916,1,8,0:0:0:0:
165,132,23991,1,0,0:0:0:0:
165,132,24066,1,8,0:0:0:0:
165,132,24141,1,0,0:0:0:0:
165,132,24216,1,8,0:0:0:0:
165,132,24291,1,8,0:0:0:0:
165,132,24366,1,0,0:0:0:0:
165,132,24441,1,8,0:0:0:0:
165,132,24516,1,8,0:0:0:0:
165,132,24591,1,0,0:0:0:0:
211,109,24666,1,0,0:0:0:0:
211,109,24741,1,0,0:0:0:0:
211,109,24816,1,8,0:0:0:0:
211,109,24891,1,0,0:0:0:0:
211,109,24966,1,8,0:0:0:0:
290,175,25041,1,8,0:0:0:0:
290,175,25116,1,8,0:0:0:0:
63,128,25191,1,0,0:0:0:0:
147,118,25266,1,0,0:0:0:0:
147,118,25341,1,0,0:0:0:0:
147,118,25416,1,8,0:0:0:0:
319,96,25491,1,0,0:0:0:0:
319,96,25566,1,8,0:0:0:0:
319,96,25641,1,8,0:0:0:0:
98,166,25716,1,0,0:0:0:0:
268,121,25866,5,12,0:0:0:0:
290,134,26766,1,8,0:0:0:0:
312,140,27066,1,4,0:0:0:0:
252,137,27216,1,8,0:0:0:0:
252,137,27366,1,8,0:0:0:0:
245,105,27516,1,0,0:0:0:0:
245,105,27591,1,0,0:0:0:0:
245,105,27666,1,0,0:0:0:0:
245,105,27816,1,0,0:0:0:0:
245,105,27966,1,8,0:0:0:0:
245,105,28116,1,0,0:0:0:0:
82,127,28266,1,8,0:0:0:0:
82,127,28341,1,8,0:0:0:0:
82,127,28416,1,8,0:0:0:0:
82,127,28566,1,8,0:0:0:0:
82,127,28716,1,0,0:0:0:0:
364,116,28791,1,0,0:0:0:0:
82,127,28866,1,0,0:0:0:0:
101,125,29016,1,0,0:0:0:0:
101,125,29166,1,8,0:0:0:0:
208,84,29241,1,8,0:0:0:0:
246,95,29316,1,0,0:0:0:0:
364,135,29466,1,8,0:0:0:0:
281,144,29616,1,8,0:0:0:0:
281,144,29766,1,8,0:0:0:0:
281,144,29916,1,0,0:0:0:0:
281,144,29991,1,0,0:0:0:0:
188,124,30066,1,0,0:0:0:0:
188,124,30216,1,0,0:0:0:0:
282,100,30366,1,8,0:0:0:0:
270,89,30516,1,0,0:0:0:0:
125,110,30666,1,8,0:0:0:0:
125,110,30741,1,8,0:0:0:0:
125,110,30816,1,8,0:0:0:0:
188,124,30966,1,8,0:0:0:0:
188,124,31116,1,0,0:0:0:0:
292,84,31191,1,0,0:0:0:0:
188,124,31266,1,0,0:0:0:0:
188,124,31416,1,0,0:0:0:0:
188,124,31566,1,8,0:0:0:0:
155,137,31716,1,0,0:0:0:0:
141,128,31866,1,4,0:0:0:0:
386,201,32016,1,8,0:0:0:0:
336,168,32166,1,8,0:0:0:0:
252,162,32316,1,0,0:0:0:0:
252,162,32391,1,0,0:0:0:0:
252,162,32466,1,0,0:0:0:0:
252,162,32616,1,0,0:0:0:0:
270,156,32766,1,8,0:0:0:0:
270,156,32916,1,0,0:0:0:0:
270,156,33066,1,8,0:0:0:0:
270,156,33141,1,8,0:0:0:0:
270,156,33216,1,8,0:0:0:0:
270,156,33366,1,8,0:0:0:0:
270,156,33516,1,0,0:0:0:0:
284,72,33591,1,0,0:0:0:0:
270,156,33666,1,0,0:0:0:0:
270,156,33816,1,0,0:0:0:0:
270,156,33966,1,8,0:0:0:0:
96,153,34041,1,8,0:0:0:0:
270,156,34116,1,0,0:0:0:0:
270,156,34266,1,8,0:0:0:0:
241,88,34416,1,8,0:0:0:0:
241,88,34566,1,8,0:0:0:0:
241,88,34716,1,0,0:0:0:0:
241,88,34791,1,0,0:0:0:0:
241,88,34866,1,0,0:0:0:0:
241,88,35016,1,0,0:0:0:0:
102,152,35166,1,8,0:0:0:0:
102,152,35316,1,0,0:0:0:0:
197,144,35466,1,0,0:0:0:0:
97,147,35541,1,0,0:0:0:0:
197,144,35616,1,8,0:0:0:0:
350,119,35691,1,8,0:0:0:0:
228,159,35766,1,0,0:0:0:0:
421,166,35916,1,12,0:0:0:0:
421,166,36216,1,8,0:0:0:0:
421,166,36291,1,8,0:0:0:0:
323,138,36366,1,8,0:0:0:0:
323,138,36441,1,8,0:0:0:0:
323,138,36516,1,8,0:0:0:0:
421,166,36666,1,4,0:0:0:0:
183,117,36816,1,8,0:0:0:0:
1,163,36966,1,8,0:0:0:0:
183,117,37116,1,0,0:0:0:0:
183,117,37191,1,0,0:0:0:0:
183,117,37266,1,0,0:0:0:0:
183,117,37416,1,0,0:0:0:0:
135,151,37566,1,8,0:0:0:0:
135,151,37641,1,0,0:0:0:0:
192,138,37716,1,0,0:0:0:0:
188,135,37866,1,8,0:0:0:0:
188,135,37941,1,8,0:0:0:0:
188,135,38016,1,8,0:0:0:0:
188,135,38166,1,8,0:0:0:0:
188,135,38316,1,0,0:0:0:0:
188,135,38391,1,0,0:0:0:0:
188,135,38466,1,0,0:0:0:0:
206,140,38616,1,0,0:0:0:0:
230,108,38766,1,8,0:0:0:0:
230,108,38841,1,8,0:0:0:0:
230,108,38916,1,0,0:0:0:0:
121,170,38991,1,0,0:0:0:0:
230,108,39066,1,8,0:0:0:0:
296,156,39216,1,8,0:0:0:0:
296,156,39366,1,8,0:0:0:0:
296,156,39516,1,0,0:0:0:0:
296,156,39591,1,0,0:0:0:0:
296,156,39666,1,0,0:0:0:0:
116,128,39816,1,0,0:0:0:0:
116,128,39966,1,8,0:0:0:0:
116,128,40041,1,0,0:0:0:0:
116,128,40116,1,0,0:0:0:0:
248,160,40266,1,8,0:0:0:0:
248,160,40341,1,8,0:0:0:0:
248,160,40416,1,8,0:0:0:0:
248,160,40566,1,8,0:0:0:0:
80,156,40716,1,0,0:0:0:0:
80,156,40791,1,8,0:0:0:0:
80,156,40866,1,8,0:0:0:0:
96,144,41016,1,0,0:0:0:0:
264,156,41166,1,8,0:0:0:0:
264,156,41241,1,8,0:0:0:0:
264,156,41316,1,0,0:0:0:0:
264,156,41391,1,0,0:0:0:0:
264,156,41466,1,8,0:0:0:0:
252,136,41616,1,0,0:0:0:0:
252,136,41691,1,0,0:0:0:0:
164,168,41766,1,8,0:0:0:0:
328,112,41916,1,0,0:0:0:0:
328,112,41991,1,0,0:0:0:0:
164,168,42066,1,8,0:0:0:0:
328,112,42216,1,0,0:0:0:0:
328,112,42291,1,0,0:0:0:0:
164,168,42366,1,8,0:0:0:0:
328,112,42516,1,0,0:0:0:0:
200,152,42666,1,8,0:0:0:0:
200,152,42741,1,0,0:0:0:0:
216,120,42816,1,0,0:0:0:0:
216,120,42891,1,0,0:0:0:0:
216,120,42966,1,8,0:0:0:0:
80,135,43116,5,12,0:0:0:0:
80,135,43416,1,0,0:0:0:0:
270,145,43491,1,0,0:0:0:0:
270,145,43566,1,0,0:0:0:0:
270,145,43641,1,0,0:0:0:0:
270,145,43716,1,8,0:0:0:0:
270,145,43866,1,4,0:0:0:0:
8,164,44166,1,8,0:0:0:0:
44,160,44316,1,8,0:0:0:0:
272,40,44616,5,8,0:0:0:0:
328,156,44766,1,0,0:0:0:0:
272,40,44916,1,8,0:0:0:0:
200,144,45066,1,0,0:0:0:0:
224,128,45141,1,0,0:0:0:0:
200,144,45216,1,0,0:0:0:0:
216,140,45366,1,0,0:0:0:0:
208,140,45441,1,0,0:0:0:0:
208,140,45516,1,0,0:0:0:0:
208,140,45666,1,0,0:0:0:0:
208,140,45816,1,8,0:0:0:0:
412,228,45966,1,0,0:0:0:0:
428,240,46116,1,0,0:0:0:0:
376,196,46266,1,8,0:0:0:0:
372,160,46566,1,8,0:0:0:0:
372,160,46716,1,0,0:0:0:0:
280,44,47016,1,8,0:0:0:0:
280,44,47166,1,0,0:0:0:0:
280,44,47316,1,8,0:0:0:0:
144,136,47466,1,0,0:0:0:0:
144,136,47541,1,0,0:0:0:0:
144,136,47616,1,0,0:0:0:0:
144,136,47766,1,0,0:0:0:0:
144,136,47841,1,0,0:0:0:0:
144,136,47916,1,0,0:0:0:0:
156,132,48066,1,0,0:0:0:0:
156,132,48216,1,8,0:0:0:0:
156,132,48366,1,0,0:0:0:0:
216,100,48516,1,8,0:0:0:0:
216,100,48591,1,8,0:0:0:0:
216,100,48666,1,0,0:0:0:0:
112,160,48966,1,8,0:0:0:0:
112,160,49116,1,8,0:0:0:0:
176,156,49416,1,8,0:0:0:0:
112,140,49566,1,0,0:0:0:0:
112,140,49716,1,8,0:0:0:0:
112,140,49866,1,0,0:0:0:0:
112,140,49941,1,0,0:0:0:0:
112,140,50016,1,0,0:0:0:0:
112,140,50166,1,0,0:0:0:0:
112,140,50241,1,0,0:0:0:0:
112,140,50316,1,0,0:0:0:0:
160,108,50466,1,0,0:0:0:0:
160,108,50616,1,8,0:0:0:0:
192,80,50766,1,0,0:0:0:0:
192,80,50916,1,0,0:0:0:0:
192,80,51066,1,8,0:0:0:0:
96,120,51366,5,8,0:0:0:0:
240,120,51516,1,0,0:0:0:0:
240,120,51666,1,0,0:0:0:0:
240,120,51816,1,8,0:0:0:0:
256,140,51891,1,8,0:0:0:0:
256,140,51966,1,0,0:0:0:0:
248,120,52116,1,8,0:0:0:0:
220,164,52266,5,0,0:0:0:0:
168,128,52416,5,12,0:0:0:0:
168,128,52716,1,12,0:0:0:0:
320,112,53016,1,0,0:0:0:0:
320,112,53091,1,0,0:0:0:0:
320,112,53166,1,8,0:0:0:0:
320,112,53241,1,8,0:0:0:0:
39,130,53316,1,8,0:0:0:0:
236,124,53466,1,4,0:0:0:0:
113,133,53766,1,8,0:0:0:0:
6,138,53916,1,0,0:0:0:0:
6,138,53991,1,0,0:0:0:0:
28,138,54066,1,0,0:0:0:0:
28,138,54216,1,8,0:0:0:0:
28,138,54366,1,0,0:0:0:0:
28,138,54516,1,8,0:0:0:0:
226,116,54666,1,0,0:0:0:0:
198,142,54966,5,8,0:0:0:0:
198,142,55116,1,8,0:0:0:0:
356,110,55416,1,8,0:0:0:0:
243,142,55566,1,0,0:0:0:0:
179,144,55716,1,8,0:0:0:0:
179,144,55791,1,8,0:0:0:0:
231,153,55866,1,0,0:0:0:0:
26,163,56166,1,8,0:0:0:0:
208,171,56316,1,0,0:0:0:0:
80,149,56391,1,0,0:0:0:0:
305,124,56466,1,0,0:0:0:0:
115,142,56616,1,8,0:0:0:0:
170,124,56766,1,0,0:0:0:0:
115,142,56916,1,8,0:0:0:0:
63,117,57066,1,0,0:0:0:0:
124,109,57366,1,8,0:0:0:0:
330,129,57516,1,0,0:0:0:0:
130,115,57666,1,0,0:0:0:0:
68,144,57816,1,8,0:0:0:0:
68,144,57891,1,8,0:0:0:0:
68,144,57966,1,0,0:0:0:0:
68,144,58041,1,8,0:0:0:0:
68,144,58116,1,8,0:0:0:0:
68,144,58191,1,8,0:0:0:0:
68,144,58266,1,0,0:0:0:0:
153,135,58566,1,8,0:0:0:0:
251,149,58716,1,0,0:0:0:0:
251,149,58791,1,0,0:0:0:0:
251,149,58866,1,0,0:0:0:0:
251,149,59016,1,8,0:0:0:0:
251,149,59166,1,0,0:0:0:0:
251,149,59316,1,8,0:0:0:0:
251,149,59466,1,0,0:0:0:0:
267,142,59766,1,8,0:0:0:0:
267,142,59916,1,8,0:0:0:0:
210,102,60216,1,8,0:0:0:0:
210,97,60366,1,0,0:0:0:0:
303,160,60516,1,8,0:0:0:0:
303,160,60591,1,8,0:0:0:0:
303,160,60666,1,0,0:0:0:0:
28,172,60966,1,8,0:0:0:0:
256,130,61116,1,0,0:0:0:0:
128,110,61191,1,0,0:0:0:0:
233,103,61266,1,0,0:0:0:0:
116,152,61416,1,8,0:0:0:0:
206,124,61566,1,0,0:0:0:0:
116,152,61716,1,8,0:0:0:0:
71,153,61791,1,8,0:0:0:0:
308,177,61866,1,0,0:0:0:0:
121,158,61941,1,0,0:0:0:0:
219,58,62016,1,8,0:0:0:0:
71,153,62166,1,0,0:0:0:0:
263,53,62316,1,8,0:0:0:0:
53,123,62391,1,8,0:0:0:0:
263,53,62466,1,0,0:0:0:0:
232,122,62616,1,8,0:0:0:0:
252,98,62766,1,8,0:0:0:0:
252,98,62916,1,8,0:0:0:0:
292,104,63066,1,0,0:0:0:0:
205,120,63216,1,0,0:0:0:0:
189,75,63291,1,0,0:0:0:0:
314,165,63366,1,8,0:0:0:0:
194,85,63516,1,0,0:0:0:0:
255,78,63666,1,8,0:0:0:0:
301,221,63816,1,0,0:0:0:0:
301,221,63891,1,0,0:0:0:0:
255,78,63966,1,0,0:0:0:0:
255,78,64116,1,8,0:0:0:0:
450,278,64266,1,0,0:0:0:0:
279,157,64416,1,8,0:0:0:0:
279,157,64566,1,8,0:0:0:0:
279,157,64791,1,0,0:0:0:0:
279,157,64866,1,8,0:0:0:0:
5,162,65016,1,0,0:0:0:0:
279,157,65166,1,8,0:0:0:0:
437,238,65241,1,8,0:0:0:0:
279,157,65316,1,8,0:0:0:0:
334,188,65466,1,0,0:0:0:0:
250,133,65616,1,0,0:0:0:0:
250,133,65691,1,0,0:0:0:0:
250,133,65766,1,8,0:0:0:0:
9,156,65916,1,0,0:0:0:0:
265,195,66066,5,8,0:0:0:0:
222,109,66216,1,0,0:0:0:0:
132,119,66366,1,0,0:0:0:0:
261,188,66516,1,8,0:0:0:0:
183,125,66816,1,8,0:0:0:0:
242,147,66966,5,8,0:0:0:0:
292,158,67116,1,0,0:0:0:0:
363,172,67266,5,8,0:0:0:0:
363,172,67366,1,8,0:0:0:0:
363,172,67466,1,8,0:0:0:0:
363,172,67566,1,0,0:0:0:0:
363,172,67666,1,0,0:0:0:0:
363,172,67766,1,0,0:0:0:0:
346,213,67866,5,8,0:0:0:0:
217,69,68016,1,0,0:0:0:0:
217,69,68166,1,8,0:0:0:0:
217,79,68316,1,0,0:0:0:0:
217,69,68391,1,0,0:0:0:0:
128,125,68466,1,0,0:0:0:0:
213,60,68616,1,8,0:0:0:0:
213,60,68766,1,8,0:0:0:0:
71,152,68916,1,0,0:0:0:0:
86,126,69066,1,0,0:0:0:0:
56,151,69141,1,0,0:0:0:0:
213,60,69216,1,8,0:0:0:0:
370,198,69366,1,8,0:0:0:0:
370,198,69441,1,0,0:0:0:0:
370,198,69516,1,0,0:0:0:0:
370,198,69591,1,0,0:0:0:0:
370,198,69666,1,8,0:0:0:0:
4,149,69816,1,0,0:0:0:0:
74,154,69966,1,0,0:0:0:0:
179,117,70116,1,12,0:0:0:0:
338,192,70416,1,0,0:0:0:0:
338,192,70566,1,8,0:0:0:0:
329,189,70716,1,0,0:0:0:0:
329,189,70791,1,0,0:0:0:0:
329,189,70866,1,0,0:0:0:0:
329,189,71016,1,0,0:0:0:0:
329,189,71091,1,0,0:0:0:0:
329,189,71166,1,8,0:0:0:0:
174,129,71316,1,0,0:0:0:0:
174,129,71466,1,0,0:0:0:0:
199,130,71616,1,0,0:0:0:0:
199,130,71691,1,0,0:0:0:0:
199,130,71766,1,8,0:0:0:0:
199,130,71916,1,8,0:0:0:0:
172,101,72066,1,0,0:0:0:0:
326,110,72141,1,0,0:0:0:0:
361,166,72216,1,0,0:0:0:0:
361,166,72291,1,0,0:0:0:0:
361,166,72366,1,8,0:0:0:0:
361,166,72441,1,8,0:0:0:0:
361,166,72516,1,8,0:0:0:0:
131,135,72591,1,8,0:0:0:0:
418,155,72666,5,0,0:0:0:0:
146,159,73566,1,8,0:0:0:0:
146,159,73866,1,0,0:0:0:0:
146,159,74166,1,8,0:0:0:0:
146,159,74316,1,8,0:0:0:0:
146,159,74616,1,8,0:0:0:0:
146,159,74766,1,0,0:0:0:0:
384,220,75066,5,12,0:0:0:0:
336,180,75216,1,0,0:0:0:0:
336,180,75291,1,0,0:0:0:0:
336,180,75366,1,0,0:0:0:0:
336,180,75516,1,12,0:0:0:0:
328,132,75666,1,0,0:0:0:0:
328,132,75741,1,0,0:0:0:0:
328,132,75816,1,0,0:0:0:0:
328,132,75966,1,12,0:0:0:0:
328,132,76116,1,12,0:0:0:0:
246,209,76716,1,0,0:0:0:0:
246,209,76791,1,0,0:0:0:0:
246,209,76866,1,0,0:0:0:0:
74,156,77016,1,8,0:0:0:0:
277,121,77091,1,8,0:0:0:0:
74,156,77166,1,8,0:0:0:0:
74,156,77316,1,8,0:0:0:0:
260,144,77466,1,4,0:0:0:0:
57,168,77766,1,8,0:0:0:0:
83,153,77916,1,0,0:0:0:0:
83,153,77991,1,0,0:0:0:0:
83,153,78066,1,0,0:0:0:0:
83,153,78216,1,0,0:0:0:0:
83,153,78366,1,8,0:0:0:0:
83,153,78516,1,0,0:0:0:0:
95,157,78591,1,0,0:0:0:0:
83,153,78666,1,8,0:0:0:0:
122,142,78741,1,8,0:0:0:0:
122,142,78816,1,0,0:0:0:0:
122,142,78966,1,8,0:0:0:0:
122,142,79116,1,0,0:0:0:0:
257,111,79191,1,8,0:0:0:0:
240,102,79266,1,0,0:0:0:0:
181,133,79416,1,0,0:0:0:0:
181,133,79566,1,8,0:0:0:0:
113,148,79716,1,8,0:0:0:0:
113,148,79866,1,0,0:0:0:0:
113,148,80166,1,8,0:0:0:0:
157,134,80316,1,0,0:0:0:0:
136,168,80466,1,0,0:0:0:0:
28,148,80541,1,0,0:0:0:0:
28,148,80616,1,0,0:0:0:0:
139,163,80766,1,8,0:0:0:0:
139,163,80916,1,0,0:0:0:0:
183,112,81066,1,8,0:0:0:0:
75,134,81141,1,8,0:0:0:0:
75,134,81216,1,8,0:0:0:0:
188,148,81366,1,8,0:0:0:0:
172,64,81516,1,0,0:0:0:0:
252,108,81816,1,0,0:0:0:0:
252,108,81966,1,8,0:0:0:0:
285,128,82041,1,8,0:0:0:0:
252,108,82116,1,0,0:0:0:0:
161,168,82266,1,8,0:0:0:0:
54,154,82416,1,0,0:0:0:0:
54,154,82491,1,0,0:0:0:0:
54,154,82566,1,8,0:0:0:0:
263,104,82641,1,8,0:0:0:0:
85,146,82716,1,0,0:0:0:0:
76,162,82866,1,8,0:0:0:0:
121,133,83016,1,0,0:0:0:0:
76,162,83166,1,8,0:0:0:0:
76,162,83316,1,8,0:0:0:0:
139,114,83391,1,8,0:0:0:0:
76,162,83466,1,0,0:0:0:0:
76,162,83616,1,0,0:0:0:0:
76,162,83766,1,8,0:0:0:0:
76,162,84066,1,0,0:0:0:0:
76,162,84216,1,0,0:0:0:0:
40,157,84291,1,0,0:0:0:0:
76,162,84366,1,8,0:0:0:0:
76,162,84516,1,0,0:0:0:0:
290,142,84666,5,8,0:0:0:0:
316,136,84741,1,8,0:0:0:0:
339,164,84891,1,0,0:0:0:0:
339,164,84966,1,8,0:0:0:0:
339,164,85116,1,0,0:0:0:0:
339,164,85266,1,0,0:0:0:0:
340,108,85341,1,8,0:0:0:0:
83,137,85416,1,0,0:0:0:0:
340,108,85491,1,0,0:0:0:0:
340,108,85566,1,8,0:0:0:0:
340,108,85716,1,0,0:0:0:0:
116,124,85866,5,12,0:0:0:0:
144,140,86166,1,12,0:0:0:0:
220,108,86466,1,0,0:0:0:0:
220,108,86541,1,8,0:0:0:0:
220,108,86616,1,8,0:0:0:0:
220,108,86691,1,8,0:0:0:0:
220,108,86766,1,0,0:0:0:0:
220,108,86841,1,8,0:0:0:0:
220,108,86916,1,8,0:0:0:0:
192,184,86991,1,8,0:0:0:0:
220,108,87066,1,0,0:0:0:0:
37,153,87216,1,0,0:0:0:0:
6,129,87366,1,8,0:0:0:0:
29,141,87666,1,0,0:0:0:0:
30,141,87816,1,0,0:0:0:0:
144,117,87966,1,8,0:0:0:0:
144,117,88116,1,0,0:0:0:0:
221,117,88266,1,8,0:0:0:0:
221,117,88341,1,8,0:0:0:0:
221,117,88416,1,8,0:0:0:0:
221,117,88566,1,8,0:0:0:0:
81,160,88716,1,0,0:0:0:0:
81,160,88791,1,0,0:0:0:0:
81,160,88866,1,0,0:0:0:0:
54,133,89016,1,8,0:0:0:0:
105,148,89091,1,0,0:0:0:0:
139,146,89166,1,8,0:0:0:0:
250,175,89241,1,8,0:0:0:0:
60,131,89316,1,0,0:0:0:0:
79,150,89466,1,0,0:0:0:0:
148,119,89766,1,8,0:0:0:0:
148,119,89916,1,0,0:0:0:0:
148,119,90066,1,0,0:0:0:0:
205,55,90141,1,0,0:0:0:0:
102,173,90216,1,0,0:0:0:0:
128,173,90366,1,8,0:0:0:0:
128,173,90516,1,0,0:0:0:0:
128,173,90666,1,8,0:0:0:0:
128,173,90741,1,8,0:0:0:0:
128,173,90816,1,8,0:0:0:0:
128,173,90966,1,8,0:0:0:0:
128,173,91116,1,0,0:0:0:0:
262,82,91416,1,0,0:0:0:0:
262,82,91566,1,8,0:0:0:0:
283,144,91716,1,8,0:0:0:0:
283,144,91791,1,8,0:0:0:0:
118,123,91866,1,0,0:0:0:0:
164,246,92016,1,0,0:0:0:0:
166,240,92166,1,8,0:0:0:0:
166,240,92316,1,8,0:0:0:0:
169,205,92391,1,0,0:0:0:0:
169,205,92466,1,8,0:0:0:0:
169,205,92616,1,0,0:0:0:0:
169,205,92691,1,0,0:0:0:0:
169,205,92766,1,8,0:0:0:0:
169,205,92841,1,8,0:0:0:0:
172,206,92916,1,0,0:0:0:0:
174,209,93066,1,8,0:0:0:0:
174,209,93216,1,0,0:0:0:0:
228,119,93366,5,8,0:0:0:0:
228,119,93666,1,8,0:0:0:0:
250,111,93816,1,0,0:0:0:0:
37,128,93891,1,0,0:0:0:0:
63,112,93966,1,8,0:0:0:0:
63,112,94116,1,8,0:0:0:0:
242,78,94266,5,0,0:0:0:0:
261,106,94341,1,0,0:0:0:0:
264,111,94491,1,8,0:0:0:0:
261,106,94566,1,0,0:0:0:0:
264,111,94716,1,8,0:0:0:0:
264,111,94866,1,0,0:0:0:0:
261,106,94941,1,0,0:0:0:0:
34,160,95016,1,8,0:0:0:0:
277,97,95091,5,8,0:0:0:0:
277,97,95166,1,0,0:0:0:0:
255,108,95316,1,8,0:0:0:0:
255,108,95466,1,0,0:0:0:0:
255,108,95766,1,8,0:0:0:0:
263,154,95916,1,0,0:0:0:0:
327,123,96066,5,8,0:0:0:0:
327,123,96141,1,0,0:0:0:0:
327,123,96216,1,0,0:0:0:0:
327,123,96291,1,0,0:0:0:0:
327,123,96366,1,8,0:0:0:0:
327,123,96441,1,8,0:0:0:0:
201,160,96516,1,8,0:0:0:0:
230,135,96591,1,8,0:0:0:0:
330,186,96666,5,0,0:0:0:0:
266,130,96816,1,0,0:0:0:0:
265,124,96966,1,8,0:0:0:0:
60,113,97116,1,0,0:0:0:0:
265,124,97191,1,0,0:0:0:0:
1,146,97266,1,8,0:0:0:0:
16,141,97416,1,8,0:0:0:0:
203,91,97491,1,0,0:0:0:0:
16,141,97566,1,8,0:0:0:0:
90,140,97641,1,8,0:0:0:0:
16,141,97716,1,0,0:0:0:0:
15,141,97866,1,8,0:0:0:0:
135,131,98016,1,0,0:0:0:0:
36,153,98166,1,8,0:0:0:0:
44,156,98316,1,8,0:0:0:0:
239,124,98616,1,0,0:0:0:0:
263,121,98766,1,8,0:0:0:0:
213,169,98916,1,8,0:0:0:0:
125,144,98991,1,8,0:0:0:0:
122,125,99066,1,0,0:0:0:0:
114,133,99216,1,0,0:0:0:0:
161,130,99366,1,8,0:0:0:0:
35,145,99516,1,0,0:0:0:0:
35,145,99591,1,8,0:0:0:0:
35,145,99666,1,0,0:0:0:0:
19,139,99816,1,0,0:0:0:0:
24,139,99966,1,8,0:0:0:0:
237,126,100041,1,8,0:0:0:0:
237,126,100116,1,0,0:0:0:0:
237,126,100191,1,0,0:0:0:0:
175,111,100266,1,8,0:0:0:0:
175,111,100416,1,0,0:0:0:0:
175,111,100566,1,8,0:0:0:0:
175,111,100716,1,0,0:0:0:0:
44,148,101016,1,0,0:0:0:0:
122,143,101166,1,8,0:0:0:0:
88,142,101316,1,0,0:0:0:0:
164,151,101391,1,0,0:0:0:0:
235,134,101466,1,0,0:0:0:0:
235,134,101616,1,0,0:0:0:0:
235,134,101766,1,8,0:0:0:0:
235,134,101916,1,8,0:0:0:0:
350,188,102066,1,0,0:0:0:0:
243,115,102216,1,0,0:0:0:0:
243,115,102291,1,0,0:0:0:0:
243,115,102366,1,8,0:0:0:0:
243,115,102516,1,0,0:0:0:0:
243,115,102666,1,8,0:0:0:0:
243,115,102741,1,8,0:0:0:0:
243,115,102816,1,0,0:0:0:0:
39,158,102966,1,8,0:0:0:0:
39,158,103041,1,0,0:0:0:0:
39,158,103116,1,8,0:0:0:0:
100,150,103266,1,0,0:0:0:0:
100,150,103416,1,0,0:0:0:0:
100,150,103566,1,8,0:0:0:0:
68,162,103866,1,8,0:0:0:0:
169,137,104016,1,0,0:0:0:0:
169,137,104166,1,8,0:0:0:0:
169,137,104316,1,8,0:0:0:0:
83,139,104391,1,8,0:0:0:0:
83,139,104466,1,0,0:0:0:0:
152,110,104616,1,0,0:0:0:0:
105,119,104766,1,8,0:0:0:0:
105,119,104916,1,0,0:0:0:0:
134,117,105066,1,0,0:0:0:0:
227,124,105141,1,0,0:0:0:0:
134,117,105216,1,0,0:0:0:0:
134,117,105366,1,8,0:0:0:0:
370,192,105516,5,8,0:0:0:0:
95,158,105591,1,0,0:0:0:0:
370,192,105666,1,8,0:0:0:0:
276,58,105741,5,8,0:0:0:0:
354,173,105816,1,0,0:0:0:0:
354,173,105966,1,8,0:0:0:0:
36,152,106116,1,0,0:0:0:0:
208,156,106266,5,0,0:0:0:0:
272,171,106566,1,8,0:0:0:0:
316,131,106716,1,0,0:0:0:0:
316,131,106866,1,8,0:0:0:0:
263,104,107016,1,8,0:0:0:0:
263,104,107091,1,8,0:0:0:0:
285,69,107166,1,0,0:0:0:0:
285,69,107316,1,8,0:0:0:0:
29,118,107466,1,0,0:0:0:0:
200,201,107541,1,0,0:0:0:0:
32,135,107616,1,0,0:0:0:0:
212,89,107766,1,0,0:0:0:0:
212,89,107916,1,8,0:0:0:0:
238,129,108066,1,8,0:0:0:0:
92,123,108141,1,8,0:0:0:0:
168,93,108216,1,0,0:0:0:0:
168,93,108366,1,8,0:0:0:0:
225,89,108516,1,8,0:0:0:0:
247,126,108666,1,0,0:0:0:0:
100,130,108966,1,0,0:0:0:0:
126,126,109116,1,0,0:0:0:0:
177,99,109191,1,0,0:0:0:0:
247,126,109266,1,8,0:0:0:0:
345,140,109416,1,8,0:0:0:0:
345,140,109566,1,0,0:0:0:0:
345,140,109716,1,8,0:0:0:0:
345,140,109866,1,0,0:0:0:0:
199,55,109941,1,0,0:0:0:0:
345,140,110016,1,0,0:0:0:0:
345,140,110166,1,0,0:0:0:0:
345,140,110316,1,8,0:0:0:0:
345,104,110466,1,8,0:0:0:0:
345,104,110541,1,0,0:0:0:0:
345,104,110616,1,0,0:0:0:0:
345,104,110691,1,0,0:0:0:0:
232,46,110766,1,8,0:0:0:0:
363,71,110916,1,8,0:0:0:0:
177,120,111066,1,4,0:0:0:0:
219,130,111366,1,8,0:0:0:0:
219,130,111516,1,8,0:0:0:0:
338,178,111666,1,0,0:0:0:0:
338,178,111816,1,8,0:0:0:0:
338,178,111891,1,0,0:0:0:0:
338,178,111966,1,0,0:0:0:0:
338,178,112041,1,0,0:0:0:0:
338,178,112116,1,8,0:0:0:0:
343,159,112191,1,8,0:0:0:0:
343,159,112266,1,0,0:0:0:0:
345,138,112566,1,0,0:0:0:0:
342,139,112866,1,0,0:0:0:0:
342,138,113016,1,8,0:0:0:0:
342,138,113091,1,0,0:0:0:0:
342,138,113166,1,0,0:0:0:0:
342,138,113241,1,8,0:0:0:0:
345,138,113316,1,8,0:0:0:0:
223,117,113391,1,8,0:0:0:0:
79,154,113466,1,0,0:0:0:0:
252,137,113766,1,8,0:0:0:0:
245,105,113916,1,0,0:0:0:0:
245,105,113991,1,0,0:0:0:0:
245,105,114066,1,0,0:0:0:0:
245,105,114216,1,0,0:0:0:0:
245,105,114366,1,8,0:0:0:0:
245,105,114516,1,0,0:0:0:0:
82,127,114666,1,8,0:0:0:0:
82,127,114741,1,8,0:0:0:0:
82,127,114816,1,8,0:0:0:0:
82,127,114966,1,8,0:0:0:0:
82,127,115116,1,0,0:0:0:0:
364,116,115191,1,0,0:0:0:0:
82,127,115266,1,0,0:0:0:0:
101,125,115416,1,0,0:0:0:0:
101,125,115566,1,8,0:0:0:0:
208,84,115641,1,8,0:0:0:0:
246,95,115716,1,0,0:0:0:0:
364,135,115866,1,8,0:0:0:0:
281,144,116016,1,8,0:0:0:0:
281,144,116166,1,8,0:0:0:0:
281,144,116316,1,0,0:0:0:0:
281,144,116391,1,0,0:0:0:0:
188,124,116466,1,0,0:0:0:0:
188,124,116616,1,0,0:0:0:0:
282,100,116766,1,8,0:0:0:0:
270,89,116916,1,0,0:0:0:0:
125,110,117066,1,8,0:0:0:0:
125,110,117141,1,8,0:0:0:0:
125,110,117216,1,8,0:0:0:0:
188,124,117366,1,8,0:0:0:0:
188,124,117516,1,0,0:0:0:0:
292,84,117591,1,0,0:0:0:0:
188,124,117666,1,0,0:0:0:0:
166,180,117816,1,0,0:0:0:0:
166,180,117966,1,8,0:0:0:0:
166,180,118116,1,8,0:0:0:0:
166,180,118191,1,8,0:0:0:0:
166,180,118266,1,0,0:0:0:0:
95,153,118416,1,8,0:0:0:0:
95,153,118491,1,0,0:0:0:0:
215,88,118566,1,8,0:0:0:0:
95,153,118716,1,0,0:0:0:0:
215,88,118866,1,0,0:0:0:0:
141,150,118941,1,0,0:0:0:0:
215,88,119016,1,8,0:0:0:0:
158,128,119166,1,0,0:0:0:0:
158,128,119316,1,12,0:0:0:0:
181,121,119616,1,8,0:0:0:0:
181,121,119766,1,0,0:0:0:0:
181,121,119916,1,8,0:0:0:0:
181,121,120066,1,0,0:0:0:0:
135,141,120141,1,0,0:0:0:0:
172,200,120216,5,8,0:0:0:0:
172,200,120366,5,8,0:0:0:0:
172,200,120516,1,8,0:0:0:0:
131,208,120666,5,0,0:0:0:0:
230,168,120816,1,8,0:0:0:0:
230,168,120891,1,8,0:0:0:0:
230,168,120966,1,8,0:0:0:0:
76,140,121041,1,8,0:0:0:0:
76,140,121116,1,0,0:0:0:0:
76,140,121191,1,0,0:0:0:0:
158,135,121266,1,8,0:0:0:0:
158,135,121491,1,0,0:0:0:0:
158,135,121716,1,12,0:0:0:0:
103,135,122016,1,0,0:0:0:0:
103,135,122091,1,0,0:0:0:0:
103,135,122166,1,8,0:0:0:0:
193,132,122616,1,8,0:0:0:0:
193,132,122916,1,8,0:0:0:0:
193,132,123066,1,4,0:0:0:0:
248,144,123366,1,8,0:0:0:0:
248,144,123516,1,8,0:0:0:0:
248,144,123816,1,0,0:0:0:0:
248,144,123966,1,8,0:0:0:0:
246,144,125316,1,0,0:0:0:0:
246,144,125466,1,8,0:0:0:0:
43,144,125766,1,0,0:0:0:0:
43,144,125916,1,0,0:0:0:0:
43,144,126216,1,8,0:0:0:0:
43,144,126366,1,8,0:0:0:0:
152,131,127716,1,0,0:0:0:0:
152,131,127866,1,8,0:0:0:0:
152,131,128166,1,8,0:0:0:0:
152,131,128316,1,0,0:0:0:0:
152,131,128616,1,8,0:0:0:0:
152,131,128766,1,8,0:0:0:0:
230,82,129966,1,0,0:0:0:0:
230,82,130266,1,8,0:0:0:0:
148,78,130716,1,8,0:0:0:0:
253,67,131466,5,8,0:0:0:0:
163,82,131766,1,8,0:0:0:0:
127,126,131916,1,0,0:0:0:0:
128,112,132066,5,8,0:0:0:0:
128,112,132141,1,0,0:0:0:0:
232,80,132216,1,8,0:0:0:0:
232,80,132291,1,8,0:0:0:0:
232,80,132366,1,0,0:0:0:0:
232,80,132441,1,0,0:0:0:0:
232,80,132516,1,0,0:0:0:0:
232,80,132591,1,0,0:0:0:0:
56,132,132666,1,8,0:0:0:0:
180,128,132741,1,0,0:0:0:0:
180,128,132816,1,0,0:0:0:0:
234,138,132891,1,0,0:0:0:0:
180,128,132966,1,8,0:0:0:0:
224,156,133266,1,0,0:0:0:0:
212,100,133416,1,8,0:0:0:0:
152,145,133566,1,0,0:0:0:0:
152,145,133641,1,0,0:0:0:0:
152,145,133716,1,0,0:0:0:0:
212,100,133866,1,8,0:0:0:0:
252,122,134016,1,0,0:0:0:0:
252,122,134091,1,0,0:0:0:0:
252,122,134166,1,8,0:0:0:0:
332,87,134316,1,8,0:0:0:0:
332,87,134466,1,0,0:0:0:0:
156,120,134616,1,8,0:0:0:0:
232,144,134766,1,0,0:0:0:0:
232,144,134916,1,8,0:0:0:0:
232,144,134991,1,8,0:0:0:0:
228,152,135066,1,0,0:0:0:0:
212,100,135366,1,8,0:0:0:0:
192,70,135516,1,0,0:0:0:0:
132,166,135591,1,0,0:0:0:0:
212,100,135666,1,0,0:0:0:0:
192,70,135816,1,8,0:0:0:0:
203,42,135966,1,0,0:0:0:0:
212,100,136116,1,8,0:0:0:0:
203,42,136266,1,8,0:0:0:0:
87,148,136341,1,8,0:0:0:0:
161,142,136416,1,0,0:0:0:0:
176,132,136566,1,8,0:0:0:0:
198,75,136716,1,8,0:0:0:0:
198,75,136866,1,0,0:0:0:0:
198,75,136941,1,0,0:0:0:0:
198,75,137016,1,8,0:0:0:0:
198,75,137091,1,8,0:0:0:0:
198,75,137166,1,0,0:0:0:0:
198,75,137241,1,8,0:0:0:0:
198,75,137316,1,8,0:0:0:0:
286,66,137391,1,8,0:0:0:0:
212,100,137466,1,0,0:0:0:0:
153,170,137766,1,8,0:0:0:0:
153,170,137916,1,0,0:0:0:0:
153,170,137991,1,0,0:0:0:0:
153,170,138066,1,0,0:0:0:0:
116,124,138216,1,8,0:0:0:0:
153,170,138366,1,0,0:0:0:0:
116,124,138516,1,8,0:0:0:0:
253,149,138591,1,8,0:0:0:0:
253,149,138666,1,0,0:0:0:0:
66,145,138816,1,0,0:0:0:0:
66,145,138966,1,8,0:0:0:0:
66,145,139116,1,0,0:0:0:0:
66,145,139191,1,0,0:0:0:0:
98,132,139266,1,0,0:0:0:0:
178,102,139416,1,8,0:0:0:0:
181,100,139566,1,8,0:0:0:0:
179,96,139716,1,0,0:0:0:0:
210,77,139791,1,0,0:0:0:0:
226,150,139866,1,8,0:0:0:0:
88,132,140016,1,0,0:0:0:0:
259,51,140166,1,8,0:0:0:0:
190,123,140316,1,8,0:0:0:0:
190,123,140391,1,0,0:0:0:0:
259,51,140466,1,8,0:0:0:0:
49,139,140541,1,8,0:0:0:0:
148,82,140616,5,0,0:0:0:0:
148,82,140766,1,0,0:0:0:0:
271,122,140916,1,12,0:0:0:0:
271,122,141216,1,12,0:0:0:0:
52,150,141366,1,0,0:0:0:0:
271,122,141516,1,8,0:0:0:0:
74,130,141591,1,8,0:0:0:0:
241,124,141666,1,0,0:0:0:0:
271,122,141816,1,8,0:0:0:0:
271,122,141966,1,8,0:0:0:0:
271,122,142116,1,8,0:0:0:0:
212,124,142266,1,0,0:0:0:0:
46,178,142416,1,8,0:0:0:0:
240,96,142566,1,8,0:0:0:0:
212,124,142866,1,8,0:0:0:0:
36,140,143016,1,0,0:0:0:0:
232,128,143166,1,8,0:0:0:0:
232,128,143316,1,8,0:0:0:0:
232,128,143466,1,0,0:0:0:0:
240,96,143766,1,8,0:0:0:0:
240,96,144066,1,8,0:0:0:0:
240,96,144666,1,0,0:0:0:0:
35,40,144816,1,0,0:0:0:0:
240,96,144966,1,8,0:0:0:0:
240,96,145266,1,8,0:0:0:0:
224,128,145416,1,8,0:0:0:0:
224,128,145566,1,0,0:0:0:0:
224,128,145716,1,8,0:0:0:0:
224,128,145866,1,0,0:0:0:0:
240,96,146166,1,8,0:0:0:0:
240,96,146466,1,8,0:0:0:0:
48,152,147066,1,8,0:0:0:0:
84,137,147216,1,0,0:0:0:0:
48,152,147366,1,8,0:0:0:0:
124,128,147666,1,8,0:0:0:0:
124,128,147816,1,8,0:0:0:0:
124,128,147966,1,0,0:0:0:0:
124,128,148116,1,0,0:0:0:0:
124,128,148266,1,8,0:0:0:0:
124,128,148566,1,8,0:0:0:0:
132,168,148716,1,0,0:0:0:0:
132,168,148791,1,0,0:0:0:0:
124,128,148866,1,8,0:0:0:0:
124,128,148941,1,0,0:0:0:0:
236,136,149016,1,0,0:0:0:0:
236,136,149166,1,8,0:0:0:0:
236,136,149466,1,4,0:0:0:0:
23,146,149616,1,0,0:0:0:0:
152,128,149691,1,0,0:0:0:0:
152,128,149766,1,8,0:0:0:0:
159,162,149841,1,0,0:0:0:0:
152,128,149916,1,8,0:0:0:0:
159,162,149991,1,8,0:0:0:0:
159,162,150066,1,8,0:0:0:0:
27,176,150141,1,0,0:0:0:0:
27,176,150216,1,8,0:0:0:0:
35,158,150291,1,0,0:0:0:0:
35,158,150366,1,8,0:0:0:0:
108,142,150441,1,8,0:0:0:0:
108,142,150516,1,0,0:0:0:0:
108,142,150591,1,8,0:0:0:0:
175,161,150666,1,8,0:0:0:0:
168,146,150741,1,8,0:0:0:0:
108,142,150816,1,0,0:0:0:0:
108,142,150891,1,0,0:0:0:0:
108,142,150966,1,8,0:0:0:0:
108,142,151041,1,0,0:0:0:0:
108,142,151116,1,8,0:0:0:0:
108,142,151191,1,8,0:0:0:0:
195,120,151266,1,0,0:0:0:0:
195,120,151341,1,0,0:0:0:0:
128,87,151416,1,0,0:0:0:0:
195,120,151491,1,0,0:0:0:0:
257,102,151566,1,8,0:0:0:0:
257,102,151641,1,8,0:0:0:0:
201,137,151716,1,8,0:0:0:0:
266,117,151791,1,8,0:0:0:0:
293,157,151866,1,0,0:0:0:0:
55,159,152166,1,0,0:0:0:0:
400,122,152466,1,8,0:0:0:0:
400,122,152541,1,8,0:0:0:0:
400,122,152616,1,0,0:0:0:0:
400,122,152691,1,0,0:0:0:0:
400,122,152766,1,8,0:0:0:0:
307,116,152916,1,4,0:0:0:0:
320,140,153216,1,8,0:0:0:0:
320,140,153366,1,8,0:0:0:0:
320,140,153516,1,8,0:0:0:0:
320,140,154266,1,4,0:0:0:0:
57,168,154566,1,8,0:0:0:0:
83,153,154716,1,0,0:0:0:0:
83,153,154791,1,0,0:0:0:0:
83,153,154866,1,0,0:0:0:0:
83,153,155016,1,0,0:0:0:0:
83,153,155166,1,8,0:0:0:0:
83,153,155316,1,0,0:0:0:0:
95,157,155391,1,0,0:0:0:0:
83,153,155466,1,8,0:0:0:0:
122,142,155541,1,8,0:0:0:0:
122,142,155616,1,0,0:0:0:0:
122,142,155766,1,8,0:0:0:0:
122,142,155916,1,0,0:0:0:0:
257,111,155991,1,8,0:0:0:0:
240,102,156066,1,0,0:0:0:0:
181,133,156216,1,0,0:0:0:0:
230,97,156291,1,0,0:0:0:0:
181,133,156366,1,8,0:0:0:0:
113,148,156516,1,8,0:0:0:0:
113,148,156666,1,0,0:0:0:0:
113,148,156966,1,8,0:0:0:0:
157,134,157116,1,0,0:0:0:0:
136,168,157266,1,0,0:0:0:0:
28,148,157341,1,0,0:0:0:0:
28,148,157416,1,0,0:0:0:0:
139,163,157566,1,8,0:0:0:0:
139,163,157716,1,0,0:0:0:0:
183,112,157866,1,8,0:0:0:0:
75,134,157941,1,8,0:0:0:0:
75,134,158016,1,8,0:0:0:0:
188,148,158166,1,8,0:0:0:0:
172,64,158316,1,0,0:0:0:0:
252,108,158616,1,0,0:0:0:0:
252,108,158766,1,8,0:0:0:0:
285,128,158841,1,8,0:0:0:0:
252,108,158916,1,0,0:0:0:0:
161,168,159066,1,8,0:0:0:0:
54,154,159216,1,0,0:0:0:0:
54,154,159291,1,0,0:0:0:0:
54,154,159366,1,8,0:0:0:0:
263,104,159441,1,8,0:0:0:0:
85,146,159516,1,0,0:0:0:0:
76,162,159666,1,8,0:0:0:0:
121,133,159816,1,0,0:0:0:0:
206,106,159891,1,0,0:0:0:0:
76,162,159966,1,8,0:0:0:0:
76,162,160116,1,8,0:0:0:0:
139,114,160191,1,8,0:0:0:0:
76,162,160266,1,0,0:0:0:0:
76,162,160416,1,0,0:0:0:0:
76,162,160566,1,8,0:0:0:0:
76,162,160866,1,0,0:0:0:0:
76,162,161016,1,0,0:0:0:0:
40,157,161091,1,0,0:0:0:0:
76,162,161166,1,8,0:0:0:0:
76,162,161316,1,0,0:0:0:0:
290,142,161466,5,8,0:0:0:0:
316,136,161541,1,8,0:0:0:0:
339,164,161691,1,0,0:0:0:0:
339,164,161766,1,8,0:0:0:0:
339,164,161916,1,0,0:0:0:0:
339,164,162066,1,0,0:0:0:0:
340,108,162141,1,8,0:0:0:0:
83,137,162216,1,0,0:0:0:0:
340,108,162291,1,0,0:0:0:0:
340,108,162366,1,8,0:0:0:0:
201,127,162441,1,8,0:0:0:0:
340,108,162516,1,0,0:0:0:0:
116,124,162666,5,12,0:0:0:0:
144,140,162966,1,12,0:0:0:0:
220,108,163266,1,0,0:0:0:0:
220,108,163341,1,8,0:0:0:0:
220,108,163416,1,8,0:0:0:0:
220,108,163491,1,8,0:0:0:0:
220,108,163566,1,0,0:0:0:0:
220,108,163641,1,8,0:0:0:0:
220,108,163716,1,8,0:0:0:0:
192,184,163791,1,8,0:0:0:0:
220,108,163866,1,0,0:0:0:0:
186,173,164016,1,0,0:0:0:0:
186,173,164091,1,0,0:0:0:0:
186,173,164166,1,8,0:0:0:0:
224,144,164316,1,8,0:0:0:0:
224,144,164466,1,0,0:0:0:0:
144,117,164766,1,8,0:0:0:0:
144,117,164916,1,0,0:0:0:0:
221,117,165066,1,8,0:0:0:0:
221,117,165141,1,8,0:0:0:0:
221,117,165216,1,8,0:0:0:0:
221,117,165366,1,8,0:0:0:0:
81,160,165516,1,0,0:0:0:0:
81,160,165591,1,0,0:0:0:0:
81,160,165666,1,0,0:0:0:0:
54,133,165816,1,8,0:0:0:0:
105,148,165891,1,0,0:0:0:0:
139,146,165966,1,8,0:0:0:0:
250,175,166041,1,8,0:0:0:0:
60,131,166116,1,0,0:0:0:0:
79,150,166266,1,0,0:0:0:0:
148,119,166566,1,8,0:0:0:0:
148,119,166716,1,0,0:0:0:0:
148,119,166866,1,0,0:0:0:0:
205,55,166941,1,0,0:0:0:0:
102,173,167016,1,0,0:0:0:0:
128,173,167166,1,8,0:0:0:0:
128,173,167316,1,0,0:0:0:0:
128,173,167466,1,8,0:0:0:0:
128,173,167541,1,8,0:0:0:0:
128,173,167616,1,8,0:0:0:0:
128,173,167766,1,8,0:0:0:0:
128,173,167916,1,0,0:0:0:0:
262,82,168216,1,0,0:0:0:0:
262,82,168366,1,8,0:0:0:0:
283,144,168516,1,8,0:0:0:0:
283,144,168591,1,8,0:0:0:0:
118,123,168666,1,0,0:0:0:0:
164,246,168816,1,0,0:0:0:0:
166,240,168966,1,8,0:0:0:0:
166,240,169116,1,8,0:0:0:0:
169,205,169191,1,0,0:0:0:0:
169,205,169266,1,8,0:0:0:0:
169,205,169416,1,0,0:0:0:0:
169,205,169491,1,0,0:0:0:0:
169,205,169566,1,8,0:0:0:0:
169,205,169641,1,8,0:0:0:0:
172,206,169716,1,0,0:0:0:0:
174,209,169866,1,8,0:0:0:0:
174,209,170016,1,0,0:0:0:0:
228,119,170166,5,8,0:0:0:0:
228,119,170466,1,8,0:0:0:0:
250,111,170616,1,0,0:0:0:0:
37,128,170691,1,0,0:0:0:0:
63,112,170766,1,8,0:0:0:0:
63,112,170916,1,8,0:0:0:0:
242,78,171066,5,0,0:0:0:0:
261,106,171141,1,0,0:0:0:0:
264,111,171291,1,8,0:0:0:0:
261,106,171366,1,0,0:0:0:0:
264,111,171516,1,8,0:0:0:0:
264,111,171666,1,0,0:0:0:0:
143,147,171741,1,0,0:0:0:0:
34,160,171816,1,8,0:0:0:0:
277,97,171891,5,8,0:0:0:0:
277,97,171966,1,0,0:0:0:0:
81,132,172116,1,8,0:0:0:0:
255,108,172266,1,0,0:0:0:0:
255,108,172566,1,8,0:0:0:0:
58,145,172716,1,0,0:0:0:0:
327,123,172866,5,8,0:0:0:0:
327,123,172941,1,0,0:0:0:0:
327,123,173016,1,0,0:0:0:0:
327,123,173091,1,0,0:0:0:0:
327,123,173166,1,8,0:0:0:0:
327,123,173241,1,8,0:0:0:0:
201,160,173316,1,8,0:0:0:0:
208,100,173391,1,8,0:0:0:0:
143,140,173466,1,0,0:0:0:0:
266,130,173616,1,0,0:0:0:0:
265,124,173766,1,8,0:0:0:0:
60,113,173916,1,0,0:0:0:0:
265,124,173991,1,0,0:0:0:0:
1,146,174066,1,8,0:0:0:0:
16,141,174216,1,8,0:0:0:0:
203,91,174291,1,0,0:0:0:0:
16,141,174366,1,8,0:0:0:0:
90,140,174441,1,8,0:0:0:0:
16,141,174516,1,0,0:0:0:0:
15,141,174666,1,8,0:0:0:0:
135,131,174816,1,0,0:0:0:0:
64,104,174891,1,0,0:0:0:0:
36,153,174966,1,8,0:0:0:0:
44,156,175116,1,0,0:0:0:0:
239,124,175416,1,0,0:0:0:0:
263,121,175566,1,8,0:0:0:0:
213,169,175716,1,8,0:0:0:0:
125,144,175791,1,8,0:0:0:0:
122,125,175866,1,0,0:0:0:0:
114,133,176016,1,0,0:0:0:0:
161,130,176166,1,8,0:0:0:0:
35,145,176316,1,0,0:0:0:0:
35,145,176391,1,8,0:0:0:0:
35,145,176466,1,0,0:0:0:0:
19,139,176616,1,0,0:0:0:0:
24,139,176766,1,8,0:0:0:0:
237,126,176841,1,8,0:0:0:0:
237,126,176916,1,0,0:0:0:0:
237,126,176991,1,0,0:0:0:0:
175,111,177066,1,8,0:0:0:0:
175,111,177216,1,0,0:0:0:0:
175,111,177366,1,8,0:0:0:0:
236,106,177441,1,8,0:0:0:0:
175,111,177516,1,0,0:0:0:0:
44,148,177816,1,0,0:0:0:0:
122,143,177966,1,8,0:0:0:0:
88,142,178116,1,0,0:0:0:0:
164,151,178191,1,0,0:0:0:0:
235,134,178266,1,0,0:0:0:0:
235,134,178416,1,0,0:0:0:0:
235,134,178566,1,8,0:0:0:0:
235,134,178716,1,8,0:0:0:0:
196,37,178791,1,8,0:0:0:0:
350,188,178866,1,0,0:0:0:0:
243,115,179016,1,8,0:0:0:0:
243,115,179091,1,0,0:0:0:0:
243,115,179166,1,8,0:0:0:0:
243,115,179316,1,0,0:0:0:0:
243,115,179466,1,8,0:0:0:0:
243,115,179541,1,8,0:0:0:0:
243,115,179616,1,0,0:0:0:0:
72,109,179691,1,0,0:0:0:0:
39,158,179766,1,8,0:0:0:0:
39,158,179916,1,0,0:0:0:0:
100,150,180066,1,8,0:0:0:0:
194,71,180141,1,8,0:0:0:0:
244,162,180216,1,0,0:0:0:0:
100,150,180366,1,8,0:0:0:0:
68,162,180666,1,0,0:0:0:0:
169,137,180816,1,0,0:0:0:0:
169,137,180966,1,8,0:0:0:0:
169,137,181116,1,8,0:0:0:0:
83,139,181191,1,8,0:0:0:0:
83,139,181266,1,0,0:0:0:0:
152,110,181416,1,0,0:0:0:0:
166,98,181491,1,0,0:0:0:0:
105,119,181566,1,8,0:0:0:0:
41,109,181641,1,0,0:0:0:0:
105,119,181716,1,8,0:0:0:0:
105,108,181866,1,0,0:0:0:0:
106,141,182016,1,0,0:0:0:0:
113,106,182166,1,8,0:0:0:0:
223,133,182466,1,8,0:0:0:0:
223,133,182566,1,8,0:0:0:0:
223,133,182666,1,8,0:0:0:0:
223,133,182766,1,0,0:0:0:0:
223,133,182866,1,0,0:0:0:0:
223,133,182966,1,0,0:0:0:0:
223,133,183066,1,8,0:0:0:0:
272,171,183366,1,8,0:0:0:0:
316,131,183516,1,0,0:0:0:0:
316,131,183666,1,8,0:0:0:0:
263,104,183816,1,8,0:0:0:0:
263,104,183891,1,8,0:0:0:0:
285,69,183966,1,0,0:0:0:0:
285,69,184116,1,8,0:0:0:0:
29,118,184266,1,0,0:0:0:0:
200,201,184341,1,0,0:0:0:0:
32,135,184416,1,0,0:0:0:0:
212,89,184566,1,0,0:0:0:0:
212,89,184716,1,8,0:0:0:0:
177,175,184791,1,0,0:0:0:0:
238,129,184866,1,8,0:0:0:0:
92,123,184941,1,8,0:0:0:0:
168,93,185016,1,0,0:0:0:0:
168,93,185166,1,8,0:0:0:0:
225,89,185316,1,8,0:0:0:0:
247,126,185466,1,0,0:0:0:0:
100,130,185766,1,0,0:0:0:0:
126,126,185916,1,0,0:0:0:0:
177,99,185991,1,0,0:0:0:0:
247,126,186066,1,8,0:0:0:0:
345,140,186216,1,8,0:0:0:0:
188,117,186291,1,8,0:0:0:0:
345,140,186366,1,0,0:0:0:0:
345,140,186516,1,8,0:0:0:0:
345,140,186666,1,0,0:0:0:0:
199,55,186741,1,0,0:0:0:0:
345,140,186816,1,0,0:0:0:0:
345,140,186966,1,8,0:0:0:0:
345,140,187116,1,0,0:0:0:0:
345,104,187266,1,8,0:0:0:0:
345,104,187341,1,0,0:0:0:0:
345,104,187416,1,0,0:0:0:0:
345,104,187491,1,0,0:0:0:0:
232,46,187566,1,8,0:0:0:0:
363,71,187716,1,8,0:0:0:0:
331,184,187866,5,0,0:0:0:0:
299,182,188016,1,0,0:0:0:0:
436,275,188166,1,8,0:0:0:0:
436,275,188316,1,8,0:0:0:0:
436,275,188391,1,8,0:0:0:0:
58,155,188466,1,0,0:0:0:0:
158,129,188616,5,0,0:0:0:0:
158,129,188691,1,8,0:0:0:0:
158,129,188766,1,8,0:0:0:0:
158,129,188841,1,0,0:0:0:0:
157,149,188916,5,8,0:0:0:0:
157,149,188991,1,8,0:0:0:0:
136,144,189066,5,0,0:0:0:0:
45,137,189216,1,0,0:0:0:0:
310,183,189366,1,8,0:0:0:0:
133,159,189516,1,8,0:0:0:0:
133,159,189591,1,8,0:0:0:0:
133,159,189666,1,8,0:0:0:0:
190,144,189816,1,0,0:0:0:0:
190,144,189891,1,0,0:0:0:0:
190,144,189966,1,0,0:0:0:0:
199,141,190116,1,8,0:0:0:0:
273,211,190266,5,4,0:0:0:0:
50,161,190866,1,8,0:0:0:0:
71,155,192066,1,8,0:0:0:0:
215,125,192666,1,4,0:0:0:0:
247,89,193266,5,8,0:0:0:0:
247,89,193866,1,4,0:0:0:0:
223,184,194316,1,0,0:0:0:0:
223,184,194391,1,0,0:0:0:0:
94,149,194466,1,8,0:0:0:0:
94,149,194666,1,0,0:0:0:0:
334,187,194866,1,0,0:0:0:0:
334,187,195066,1,12,0:0:0:0:
240,73,195666,1,8,0:0:0:0:
41,113,196866,1,8,0:0:0:0:
41,113,197166,1,0,0:0:0:0:
234,79,197466,1,12,0:0:0:0:
134,122,198366,1,0,0:0:0:0:
134,122,198666,1,12,0:0:0:0:
76,115,199116,1,0,0:0:0:0:
76,115,199191,1,0,0:0:0:0:
143,120,199266,1,8,0:0:0:0:
99,152,199466,1,8,0:0:0:0:
99,152,199666,1,8,0:0:0:0:
243,83,199866,1,4,0:0:0:0:
248,88,200166,1,0,0:0:0:0:
248,88,200466,1,0,0:0:0:0:
248,88,200766,1,0,0:0:0:0:
248,88,201066,1,0,0:0:0:0:
248,88,201366,1,0,0:0:0:0:
248,88,201666,1,0,0:0:0:0:
248,88,201966,1,0,0:0:0:0:
251,91,202266,1,8,0:0:0:0:
251,91,202566,1,8,0:0:0:0:
251,91,202866,1,8,0:0:0:0:
251,91,203166,1,8,0:0:0:0:
256,192,203466,12,0,204516,0:0:0:0:
251,91,204666,5,12,0:0:0:0:
69,128,204904,1,0,0:0:0:0:
252,95,205142,1,8,0:0:0:0:
252,95,205434,1,0,0:0:0:0:
252,95,205609,1,8,0:0:0:0:
252,95,205863,1,8,0:0:0:0:
252,95,206101,1,0,0:0:0:0:
252,95,206377,1,0,0:0:0:0:
252,95,206592,1,8,0:0:0:0:
252,95,206892,1,0,0:0:0:0:
252,95,207235,1,8,0:0:0:0:
252,95,207462,1,0,0:0:0:0:
252,95,207684,1,8,0:0:0:0:
252,95,207976,1,0,0:0:0:0:
252,95,208171,1,8,0:0:0:0:
252,95,208409,1,8,0:0:0:0:
252,95,208663,1,8,0:0:0:0:
252,95,208890,1,8,0:0:0:0:
252,95,209094,1,0,0:0:0:0:
252,95,209397,1,0,0:0:0:0:
281,96,209723,5,12,0:0:0:0:
248,80,209880,1,0,0:0:0:0:
248,80,209959,1,8,0:0:0:0:
45,164,210038,1,8,0:0:0:0:
45,164,210117,1,8,0:0:0:0:
244,87,210196,1,0,0:0:0:0:
72,144,210275,1,8,0:0:0:0:
72,144,210354,1,8,0:0:0:0:
72,144,210433,1,8,0:0:0:0:
252,70,210512,1,0,0:0:0:0:
72,144,210591,1,8,0:0:0:0:
252,70,210670,1,0,0:0:0:0:
252,70,210749,1,8,0:0:0:0:
98,157,210828,1,8,0:0:0:0:
98,157,210907,1,8,0:0:0:0:
56,148,210986,1,0,0:0:0:0:
153,143,211065,1,8,0:0:0:0:
187,73,211144,1,0,0:0:0:0:
187,73,211223,1,8,0:0:0:0:
187,73,211301,1,8,0:0:0:0:
187,73,211380,1,0,0:0:0:0:
187,73,211459,1,8,0:0:0:0:
187,73,211538,1,8,0:0:0:0:
187,73,211617,1,0,0:0:0:0:
205,54,211696,1,8,0:0:0:0:
102,131,211775,1,8,0:0:0:0:
102,131,211854,1,8,0:0:0:0:
192,109,211933,1,0,0:0:0:0:
192,109,212012,1,8,0:0:0:0:
199,144,212091,1,0,0:0:0:0:
199,144,212170,1,0,0:0:0:0:
334,171,212249,5,0,0:0:0:0:
334,171,212328,1,8,0:0:0:0:
334,171,212407,1,8,0:0:0:0:
334,171,212486,1,8,0:0:0:0:
334,171,212565,1,0,0:0:0:0:
334,171,212644,1,8,0:0:0:0:
217,106,212723,5,0,0:0:0:0:
248,82,212801,1,8,0:0:0:0:
248,82,212880,1,8,0:0:0:0:
248,82,212959,1,8,0:0:0:0:
248,82,213038,1,0,0:0:0:0:
248,82,213117,1,8,0:0:0:0:
206,145,213196,5,0,0:0:0:0:
210,143,213275,1,8,0:0:0:0:
210,143,213354,1,8,0:0:0:0:
210,143,213433,1,0,0:0:0:0:
210,143,213512,1,8,0:0:0:0:
210,143,213591,1,8,0:0:0:0:
150,148,213670,5,0,0:0:0:0:
202,116,213749,1,8,0:0:0:0:
202,116,213828,1,8,0:0:0:0:
202,116,213907,1,8,0:0:0:0:
150,148,213986,5,0,0:0:0:0:
150,148,214065,5,8,0:0:0:0:
110,158,214144,5,0,0:0:0:0:
110,158,214223,1,0,0:0:0:0:
203,145,214301,1,0,0:0:0:0:
55,151,214380,1,8,0:0:0:0:
203,145,214459,1,0,0:0:0:0:
233,133,214538,1,0,0:0:0:0:
233,133,214617,1,8,0:0:0:0:
233,133,214696,1,8,0:0:0:0:
203,145,214775,1,0,0:0:0:0:
203,145,214854,1,8,0:0:0:0:
100,144,214933,1,0,0:0:0:0:
100,144,215012,1,0,0:0:0:0:
144,149,215091,1,0,0:0:0:0:
144,149,215170,1,8,0:0:0:0:
146,169,215249,5,8,0:0:0:0:
190,107,215328,1,0,0:0:0:0:
190,107,215407,1,8,0:0:0:0:
190,107,215486,1,8,0:0:0:0:
190,107,215565,1,8,0:0:0:0:
190,107,215644,1,0,0:0:0:0:
57,133,215723,5,8,0:0:0:0:
57,133,215801,1,0,0:0:0:0:
57,133,215880,1,8,0:0:0:0:
57,133,215959,1,8,0:0:0:0:
57,133,216038,1,0,0:0:0:0:
202,80,216117,1,8,0:0:0:0:
30,133,216196,5,0,0:0:0:0:
133,121,216275,5,0,0:0:0:0:
64,135,216354,1,8,0:0:0:0:
64,135,216433,1,0,0:0:0:0:
64,135,216512,1,0,0:0:0:0:
64,135,216591,1,8,0:0:0:0:
64,135,216670,1,0,0:0:0:0:
64,135,216749,1,0,0:0:0:0:
64,135,216828,1,8,0:0:0:0:
64,135,216907,1,0,0:0:0:0:
198,58,216986,5,0,0:0:0:0:
207,108,217065,1,8,0:0:0:0:
207,108,217144,1,0,0:0:0:0:
207,108,217223,1,0,0:0:0:0:
165,109,217301,1,8,0:0:0:0:
165,109,217380,1,8,0:0:0:0:
165,109,217459,1,0,0:0:0:0:
165,109,217538,1,8,0:0:0:0:
165,109,217617,1,8,0:0:0:0:
165,109,217696,1,0,0:0:0:0:
172,108,217775,5,8,0:0:0:0:
179,56,217854,1,8,0:0:0:0:
179,56,217933,1,0,0:0:0:0:
179,56,218012,1,8,0:0:0:0:
179,56,218091,1,8,0:0:0:0:
179,56,218170,1,8,0:0:0:0:
214,84,218249,5,0,0:0:0:0:
214,84,218328,1,8,0:0:0:0:
192,97,218407,1,0,0:0:0:0:
192,97,218486,1,0,0:0:0:0:
99,162,218565,5,0,0:0:0:0:
99,162,218644,1,8,0:0:0:0:
263,169,218723,5,0,0:0:0:0:
263,169,218801,1,8,0:0:0:0:
263,169,218880,1,8,0:0:0:0:
263,169,218959,1,0,0:0:0:0:
172,144,219038,1,0,0:0:0:0:
172,144,219117,1,8,0:0:0:0:
119,135,219196,5,0,0:0:0:0:
159,175,219275,1,0,0:0:0:0:
159,175,219354,1,8,0:0:0:0:
159,175,219433,1,0,0:0:0:0:
343,220,219512,5,8,0:0:0:0:
343,220,219591,1,0,0:0:0:0:
343,220,219670,1,0,0:0:0:0:
343,220,219749,1,0,0:0:0:0:
343,220,219828,5,8,0:0:0:0:
344,271,219986,5,0,0:0:0:0:
344,271,220065,1,0,0:0:0:0:
155,187,220144,1,0,0:0:0:0:
155,187,220223,1,0,0:0:0:0:
155,187,220301,1,8,0:0:0:0:
205,143,220459,1,8,0:0:0:0:
205,143,220538,1,8,0:0:0:0:
205,143,220617,1,0,0:0:0:0:
205,143,220696,1,0,0:0:0:0:
205,143,220775,1,8,0:0:0:0:
205,143,220933,1,0,0:0:0:0:
205,143,221012,1,8,0:0:0:0:
205,143,221091,1,0,0:0:0:0:
76,163,221170,1,0,0:0:0:0:
76,163,221249,1,8,0:0:0:0:
154,154,221407,1,8,0:0:0:0:
154,154,221486,1,0,0:0:0:0:
154,154,221565,1,0,0:0:0:0:
154,154,221644,1,0,0:0:0:0:
154,154,221723,1,8,0:0:0:0:
154,154,221880,1,0,0:0:0:0:
154,154,221959,1,0,0:0:0:0:
154,154,222038,1,8,0:0:0:0:
183,110,222196,1,0,0:0:0:0:
183,110,222275,1,0,0:0:0:0:
183,110,222354,1,8,0:0:0:0:
183,110,222433,1,0,0:0:0:0:
183,110,222512,1,0,0:0:0:0:
183,110,222591,1,0,0:0:0:0:
185,106,222670,1,8,0:0:0:0:
185,106,222749,1,0,0:0:0:0:
185,106,222828,1,8,0:0:0:0:
212,65,222907,1,8,0:0:0:0:
212,65,222986,1,0,0:0:0:0:
212,65,223065,1,8,0:0:0:0:
185,92,223144,1,8,0:0:0:0:
185,92,223223,1,0,0:0:0:0:
185,92,223301,1,8,0:0:0:0:
180,88,223380,1,0,0:0:0:0:
180,87,223459,1,0,0:0:0:0:
180,87,223538,1,0,0:0:0:0:
188,86,223617,1,8,0:0:0:0:
215,106,223696,1,0,0:0:0:0:
296,143,223775,1,8,0:0:0:0:
296,143,223854,1,8,0:0:0:0:
296,143,223933,1,0,0:0:0:0:
296,143,224012,1,8,0:0:0:0:
296,143,224091,1,8,0:0:0:0:
192,128,224170,1,8,0:0:0:0:
215,106,224249,1,0,0:0:0:0:
304,185,224328,1,0,0:0:0:0:
200,140,224407,1,0,0:0:0:0:
248,177,224486,1,0,0:0:0:0:
200,140,224565,1,0,0:0:0:0:
18,155,224644,1,0,0:0:0:0:
200,140,224723,1,0,0:0:0:0:
88,144,224880,1,12,0:0:0:0:
256,192,225032,12,0,229382,0:0:0:0:
34,140,229682,5,8,0:0:0:0:
26,146,230132,1,8,0:0:0:0:
26,146,230582,1,0,0:0:0:0:
26,146,230882,1,8,0:0:0:0:
26,146,231482,1,0,0:0:0:0:
26,146,232082,1,0,0:0:0:0:
26,146,232532,1,8,0:0:0:0:
26,146,232982,1,0,0:0:0:0:
26,146,233282,1,8,0:0:0:0:
26,146,233882,1,0,0:0:0:0:
26,146,234482,1,8,0:0:0:0:
26,146,234932,1,8,0:0:0:0:
26,146,235382,1,0,0:0:0:0:
26,146,235682,1,8,0:0:0:0:
26,146,236282,1,0,0:0:0:0:
26,146,236882,1,0,0:0:0:0:
26,146,237332,1,8,0:0:0:0:
26,146,237782,1,0,0:0:0:0:
26,146,238082,1,8,0:0:0:0:
26,146,238682,1,0,0:0:0:0:
26,146,239282,1,8,0:0:0:0:
26,146,239732,1,8,0:0:0:0:
26,146,240182,1,0,0:0:0:0:
26,146,240482,1,8,0:0:0:0:
26,146,241082,1,0,0:0:0:0:
26,146,241682,1,0,0:0:0:0:
26,146,242132,1,8,0:0:0:0:
26,146,242582,1,0,0:0:0:0:
26,146,242882,1,8,0:0:0:0:
26,146,243482,1,8,0:0:0:0:
119,69,243782,1,0,0:0:0:0:
26,146,244082,1,4,0:0:0:0:
119,69,244532,1,8,0:0:0:0:
118,113,244682,1,0,0:0:0:0:
119,69,244982,1,8,0:0:0:0:
123,113,245282,1,0,0:0:0:0:
221,125,245882,1,0,0:0:0:0:
221,125,246182,1,8,0:0:0:0:
123,113,246482,1,0,0:0:0:0:
119,69,246932,1,8,0:0:0:0:
123,113,247082,1,0,0:0:0:0:
119,69,247382,1,8,0:0:0:0:
123,113,247682,1,0,0:0:0:0:
123,113,248282,1,0,0:0:0:0:
119,69,248582,1,8,0:0:0:0:
123,113,248882,1,0,0:0:0:0:
119,69,249332,1,8,0:0:0:0:
123,113,249482,1,0,0:0:0:0:
119,69,249782,1,8,0:0:0:0:
123,113,250082,1,0,0:0:0:0:
123,113,250682,1,0,0:0:0:0:
119,70,250982,1,8,0:0:0:0:
123,113,251282,1,0,0:0:0:0:
119,70,251732,1,8,0:0:0:0:
123,113,251882,1,0,0:0:0:0:
134,72,252182,1,8,0:0:0:0:
123,113,252482,1,0,0:0:0:0:
123,113,252782,1,0,0:0:0:0:
123,113,253082,1,0,0:0:0:0:
252,145,253232,1,8,0:0:0:0:
252,145,253307,1,8,0:0:0:0:
252,145,253382,1,0,0:0:0:0:
252,145,253457,1,8,0:0:0:0:
252,145,253532,1,8,0:0:0:0:
247,139,253607,1,8,0:0:0:0:
186,126,253682,1,0,0:0:0:0:
163,104,253982,1,0,0:0:0:0:
163,104,254282,1,0,0:0:0:0:
150,63,254582,1,0,0:0:0:0:
150,63,254732,1,8,0:0:0:0:
113,142,254882,1,0,0:0:0:0:
45,149,254957,1,8,0:0:0:0:
45,149,255032,1,0,0:0:0:0:
108,130,255182,1,8,0:0:0:0:
108,130,255332,1,8,0:0:0:0:
108,130,255482,1,0,0:0:0:0:
108,130,255782,1,8,0:0:0:0:
108,130,255932,1,8,0:0:0:0:
108,130,256007,1,8,0:0:0:0:
108,130,256082,1,0,0:0:0:0:
246,108,256382,1,0,0:0:0:0:
246,108,256682,1,0,0:0:0:0:
246,108,256982,1,0,0:0:0:0:
211,142,257132,1,8,0:0:0:0:
211,142,257282,1,0,0:0:0:0:
21,143,257357,1,8,0:0:0:0:
21,143,257432,1,8,0:0:0:0:
110,136,257582,1,0,0:0:0:0:
37,126,257732,1,8,0:0:0:0:
37,126,257807,1,8,0:0:0:0:
37,126,257882,1,8,0:0:0:0:
159,116,258032,1,8,0:0:0:0:
159,116,258182,1,0,0:0:0:0:
159,116,258332,1,0,0:0:0:0:
159,116,258482,1,8,0:0:0:0:
166,156,258782,1,0,0:0:0:0:
166,156,258932,1,0,0:0:0:0:
166,156,259082,1,0,0:0:0:0:
166,156,259232,1,0,0:0:0:0:
17,142,259382,1,8,0:0:0:0:
166,156,259682,1,0,0:0:0:0:
313,224,259757,1,0,0:0:0:0:
313,224,259832,1,8,0:0:0:0:
212,133,259982,1,0,0:0:0:0:
212,133,260132,1,0,0:0:0:0:
79,119,260282,1,8,0:0:0:0:
79,119,260582,1,8,0:0:0:0:
79,119,260882,1,4,0:0:0:0:
79,119,261182,1,0,0:0:0:0:
79,119,261482,1,0,0:0:0:0:
79,119,261782,1,0,0:0:0:0:
79,119,262082,1,0,0:0:0:0:
79,119,262382,1,0,0:0:0:0:
79,119,262682,1,0,0:0:0:0:
79,119,262982,1,0,0:0:0:0:
73,115,263282,1,8,0:0:0:0:
73,115,263582,1,8,0:0:0:0:
73,115,263882,1,8,0:0:0:0:
73,115,264182,1,8,0:0:0:0:
299,151,266132,5,0,0:0:0:0:
299,151,266207,1,0,0:0:0:0:
299,151,266282,1,8,0:0:0:0:
172,97,266482,1,0,0:0:0:0:
179,86,266682,1,0,0:0:0:0:
215,164,266882,5,4,0:0:0:0:
337,134,268082,1,12,0:0:0:0:
336,133,269282,1,12,0:0:0:0:
321,120,270482,1,4,0:0:0:0:
229,133,271682,1,12,0:0:0:0:
110,155,272282,1,12,0:0:0:0:
122,153,272882,1,12,0:0:0:0:
122,153,273482,1,12,0:0:0:0:
232,129,274082,1,4,0:0:0:0:
232,129,274682,1,4,0:0:0:0:
397,217,275132,1,0,0:0:0:0:
263,182,275207,1,0,0:0:0:0:
232,129,275282,1,8,0:0:0:0:
381,171,275482,1,8,0:0:0:0:
381,171,275682,1,8,0:0:0:0:
369,156,275882,1,0,0:0:0:0:
369,156,276032,1,8,0:0:0:0:
336,109,276107,1,0,0:0:0:0:
336,109,276182,1,0,0:0:0:0:
336,109,276257,1,8,0:0:0:0:
336,109,276332,1,8,0:0:0:0:
336,109,276407,1,8,0:0:0:0:
220,108,276482,1,0,0:0:0:0:
37,153,276632,1,0,0:0:0:0:
6,129,276782,1,8,0:0:0:0:
132,136,276857,1,8,0:0:0:0:
75,148,276932,1,0,0:0:0:0:
134,145,277007,1,0,0:0:0:0:
29,141,277082,1,8,0:0:0:0:
30,141,277232,1,0,0:0:0:0:
144,117,277382,1,8,0:0:0:0:
144,117,277532,1,0,0:0:0:0:
221,117,277682,1,8,0:0:0:0:
221,117,277757,1,8,0:0:0:0:
221,117,277832,1,8,0:0:0:0:
221,117,277982,1,8,0:0:0:0:
81,160,278132,1,0,0:0:0:0:
81,160,278207,1,0,0:0:0:0:
81,160,278282,1,0,0:0:0:0:
54,133,278432,1,8,0:0:0:0:
105,148,278507,1,0,0:0:0:0:
139,146,278582,1,8,0:0:0:0:
250,175,278657,1,8,0:0:0:0:
60,131,278732,1,0,0:0:0:0:
79,150,278882,1,0,0:0:0:0:
259,95,279032,1,0,0:0:0:0:
148,119,279182,1,8,0:0:0:0:
181,117,279257,1,8,0:0:0:0:
148,119,279332,1,0,0:0:0:0:
148,119,279482,1,0,0:0:0:0:
205,55,279557,1,0,0:0:0:0:
102,173,279632,1,0,0:0:0:0:
128,173,279782,1,8,0:0:0:0:
128,173,279932,1,0,0:0:0:0:
128,173,280082,1,8,0:0:0:0:
128,173,280157,1,8,0:0:0:0:
128,173,280232,1,8,0:0:0:0:
128,173,280382,1,8,0:0:0:0:
128,173,280532,1,0,0:0:0:0:
262,82,280832,1,0,0:0:0:0:
262,82,280982,1,8,0:0:0:0:
283,144,281132,1,8,0:0:0:0:
283,144,281207,1,8,0:0:0:0:
118,123,281282,1,0,0:0:0:0:
164,246,281432,1,0,0:0:0:0:
166,240,281582,1,8,0:0:0:0:
166,240,281732,1,8,0:0:0:0:
169,205,281807,1,0,0:0:0:0:
169,205,281882,1,8,0:0:0:0:
169,205,282032,1,0,0:0:0:0:
169,205,282107,1,0,0:0:0:0:
169,205,282182,1,8,0:0:0:0:
169,205,282257,1,8,0:0:0:0:
172,206,282332,1,0,0:0:0:0:
174,209,282482,1,8,0:0:0:0:
174,209,282632,1,0,0:0:0:0:
172,124,282707,1,0,0:0:0:0:
228,119,282782,5,8,0:0:0:0:
110,164,282932,1,0,0:0:0:0:
228,119,283082,1,8,0:0:0:0:
250,111,283232,1,0,0:0:0:0:
37,128,283307,1,0,0:0:0:0:
63,112,283382,1,8,0:0:0:0:
63,112,283532,1,8,0:0:0:0:
242,78,283682,5,0,0:0:0:0:
261,106,283757,1,0,0:0:0:0:
264,111,283907,1,8,0:0:0:0:
261,106,283982,1,0,0:0:0:0:
264,111,284132,1,8,0:0:0:0:
264,111,284282,1,0,0:0:0:0:
261,106,284357,1,0,0:0:0:0:
34,160,284432,1,8,0:0:0:0:
277,97,284507,5,8,0:0:0:0:
277,97,284582,1,0,0:0:0:0:
255,108,284732,1,8,0:0:0:0:
255,108,284882,1,0,0:0:0:0:
59,135,284957,1,8,0:0:0:0:
68,136,285032,1,8,0:0:0:0:
190,115,285107,1,0,0:0:0:0:
255,108,285182,1,8,0:0:0:0:
110,154,285257,1,8,0:0:0:0:
263,154,285332,1,0,0:0:0:0:
110,154,285407,1,0,0:0:0:0:
327,123,285482,5,8,0:0:0:0:
327,123,285557,1,0,0:0:0:0:
327,123,285632,1,0,0:0:0:0:
327,123,285707,1,0,0:0:0:0:
327,123,285782,1,8,0:0:0:0:
327,123,285857,1,8,0:0:0:0:
201,160,285932,1,8,0:0:0:0:
172,122,286007,1,8,0:0:0:0:
330,186,286082,5,0,0:0:0:0:
84,159,286232,1,0,0:0:0:0:
287,195,286382,1,12,0:0:0:0:
1,146,286682,1,8,0:0:0:0:
16,141,286832,1,0,0:0:0:0:
203,91,286907,1,0,0:0:0:0:
16,141,286982,1,8,0:0:0:0:
90,140,287057,1,8,0:0:0:0:
16,141,287132,1,0,0:0:0:0:
15,141,287282,1,8,0:0:0:0:
135,131,287432,1,0,0:0:0:0:
193,92,287507,1,0,0:0:0:0:
36,153,287582,1,8,0:0:0:0:
44,156,287732,1,8,0:0:0:0:
211,120,287807,1,8,0:0:0:0:
187,100,287882,1,0,0:0:0:0:
239,124,288032,1,0,0:0:0:0:
263,121,288182,1,8,0:0:0:0:
213,169,288332,1,8,0:0:0:0:
125,144,288407,1,8,0:0:0:0:
122,125,288482,1,0,0:0:0:0:
114,133,288632,1,0,0:0:0:0:
161,130,288782,1,8,0:0:0:0:
35,145,288932,1,0,0:0:0:0:
35,145,289007,1,8,0:0:0:0:
35,145,289082,1,0,0:0:0:0:
19,139,289232,1,0,0:0:0:0:
24,139,289382,1,8,0:0:0:0:
237,126,289457,1,8,0:0:0:0:
237,126,289532,1,0,0:0:0:0:
237,126,289607,1,0,0:0:0:0:
175,111,289682,1,8,0:0:0:0:
175,111,289832,1,0,0:0:0:0:
175,111,289982,1,8,0:0:0:0:
208,86,290057,1,8,0:0:0:0:
175,111,290132,1,0,0:0:0:0:
44,148,290432,1,0,0:0:0:0:
122,143,290582,1,8,0:0:0:0:
88,142,290732,1,0,0:0:0:0:
164,151,290807,1,0,0:0:0:0:
235,134,290882,1,0,0:0:0:0:
181,61,291032,1,0,0:0:0:0:
283,140,291107,1,0,0:0:0:0:
235,134,291182,1,8,0:0:0:0:
235,134,291332,1,8,0:0:0:0:
350,188,291482,1,0,0:0:0:0:
243,115,291632,1,8,0:0:0:0:
243,115,291707,1,0,0:0:0:0:
243,115,291782,1,8,0:0:0:0:
243,115,291932,1,0,0:0:0:0:
243,115,292082,1,8,0:0:0:0:
243,115,292157,1,8,0:0:0:0:
243,115,292232,1,0,0:0:0:0:
39,158,292382,1,8,0:0:0:0:
39,158,292457,1,0,0:0:0:0:
39,158,292532,1,8,0:0:0:0:
163,6,292607,1,8,0:0:0:0:
100,150,292682,1,0,0:0:0:0:
100,150,292832,1,0,0:0:0:0:
100,150,292982,1,8,0:0:0:0:
68,162,293282,1,8,0:0:0:0:
169,137,293432,1,0,0:0:0:0:
169,137,293582,1,8,0:0:0:0:
169,137,293732,1,8,0:0:0:0:
83,139,293807,1,8,0:0:0:0:
83,139,293882,1,0,0:0:0:0:
152,110,294032,1,0,0:0:0:0:
166,98,294107,1,0,0:0:0:0:
105,119,294182,1,8,0:0:0:0:
41,109,294257,1,0,0:0:0:0:
105,119,294332,1,8,0:0:0:0:
105,108,294482,1,0,0:0:0:0:
106,141,294632,1,0,0:0:0:0:
170,150,294707,1,0,0:0:0:0:
113,106,294782,1,8,0:0:0:0:
170,150,294932,1,0,0:0:0:0:
223,133,295082,1,8,0:0:0:0:
223,133,295182,1,8,0:0:0:0:
223,133,295282,1,8,0:0:0:0:
223,133,295382,1,0,0:0:0:0:
223,133,295482,1,0,0:0:0:0:
223,133,295582,1,0,0:0:0:0:
223,133,295682,1,8,0:0:0:0:
272,171,295982,1,8,0:0:0:0:
316,131,296132,1,0,0:0:0:0:
316,131,296282,1,8,0:0:0:0:
263,104,296432,1,8,0:0:0:0:
263,104,296507,1,8,0:0:0:0:
285,69,296582,1,0,0:0:0:0:
285,69,296732,1,8,0:0:0:0:
29,118,296882,1,0,0:0:0:0:
200,201,296957,1,0,0:0:0:0:
32,135,297032,1,0,0:0:0:0:
212,89,297182,1,0,0:0:0:0:
212,89,297332,1,8,0:0:0:0:
238,129,297482,1,8,0:0:0:0:
92,123,297557,1,8,0:0:0:0:
168,93,297632,1,0,0:0:0:0:
223,97,297707,1,0,0:0:0:0:
168,93,297782,1,8,0:0:0:0:
225,89,297932,1,8,0:0:0:0:
247,126,298082,1,0,0:0:0:0:
100,130,298382,1,0,0:0:0:0:
126,126,298532,1,0,0:0:0:0:
177,99,298607,1,0,0:0:0:0:
247,126,298682,1,8,0:0:0:0:
345,140,298832,1,8,0:0:0:0:
188,117,298907,1,8,0:0:0:0:
345,140,298982,1,0,0:0:0:0:
345,140,299132,1,8,0:0:0:0:
345,140,299282,1,0,0:0:0:0:
199,55,299357,1,0,0:0:0:0:
345,140,299432,1,0,0:0:0:0:
345,140,299582,1,0,0:0:0:0:
345,140,299732,1,8,0:0:0:0:
345,104,299882,1,8,0:0:0:0:
345,104,299957,1,0,0:0:0:0:
345,104,300032,1,0,0:0:0:0:
345,104,300107,1,0,0:0:0:0:
232,46,300182,1,8,0:0:0:0:
363,71,300332,1,8,0:0:0:0:
331,184,300482,5,0,0:0:0:0:
336,208,300632,1,0,0:0:0:0:
336,208,300707,1,0,0:0:0:0:
219,130,300782,1,8,0:0:0:0:
219,130,300932,1,8,0:0:0:0:
338,178,301082,1,0,0:0:0:0:
338,178,301232,1,8,0:0:0:0:
338,178,301307,1,0,0:0:0:0:
338,178,301382,1,0,0:0:0:0:
338,178,301457,1,0,0:0:0:0:
338,178,301532,1,8,0:0:0:0:
343,159,301607,1,8,0:0:0:0:
343,159,301682,1,0,0:0:0:0:
345,138,301982,1,0,0:0:0:0:
342,139,302282,1,0,0:0:0:0:
342,138,302432,1,8,0:0:0:0:
342,138,302507,1,0,0:0:0:0:
342,138,302582,1,0,0:0:0:0:
342,138,302657,1,8,0:0:0:0:
345,138,302732,1,8,0:0:0:0:
223,117,302807,1,8,0:0:0:0:
79,154,302882,1,0,0:0:0:0:
1,162,303182,1,8,0:0:0:0:
183,116,303332,1,0,0:0:0:0:
183,116,303407,1,0,0:0:0:0:
183,116,303482,1,0,0:0:0:0:
183,116,303632,1,0,0:0:0:0:
135,150,303782,1,8,0:0:0:0:
135,150,303857,1,0,0:0:0:0:
192,137,303932,1,0,0:0:0:0:
188,134,304082,1,8,0:0:0:0:
188,134,304157,1,8,0:0:0:0:
188,134,304232,1,8,0:0:0:0:
188,134,304382,1,8,0:0:0:0:
188,134,304532,1,0,0:0:0:0:
188,134,304607,1,0,0:0:0:0:
188,134,304682,1,0,0:0:0:0:
206,139,304832,1,0,0:0:0:0:
230,107,304982,1,8,0:0:0:0:
230,107,305057,1,8,0:0:0:0:
230,107,305132,1,0,0:0:0:0:
121,169,305207,1,0,0:0:0:0:
230,107,305282,1,8,0:0:0:0:
296,155,305432,1,8,0:0:0:0:
296,155,305582,1,8,0:0:0:0:
296,155,305732,1,0,0:0:0:0:
296,155,305807,1,0,0:0:0:0:
296,155,305882,1,0,0:0:0:0:
116,127,306032,1,0,0:0:0:0:
116,127,306182,1,8,0:0:0:0:
116,127,306257,1,0,0:0:0:0:
116,127,306332,1,0,0:0:0:0:
248,159,306482,1,8,0:0:0:0:
188,169,306557,1,8,0:0:0:0:
188,169,306632,1,8,0:0:0:0:
188,169,306782,1,8,0:0:0:0:
221,180,306932,1,0,0:0:0:0:
178,175,307007,1,0,0:0:0:0:
178,175,307082,1,0,0:0:0:0:
179,177,307232,1,0,0:0:0:0:
12,144,307382,1,8,0:0:0:0:
146,131,307532,1,0,0:0:0:0:
146,131,307607,1,0,0:0:0:0:
264,195,307682,1,8,0:0:0:0:
146,131,307832,1,8,0:0:0:0:
146,131,307907,1,0,0:0:0:0:
264,195,307982,1,8,0:0:0:0:
146,131,308132,1,0,0:0:0:0:
157,151,308282,1,8,0:0:0:0:
146,131,308357,1,8,0:0:0:0:
146,131,308432,1,0,0:0:0:0:
235,165,308582,1,8,0:0:0:0:
264,195,308732,1,4,0:0:0:0:
75,130,309032,1,4,0:0:0:0:
75,130,309182,1,4,0:0:0:0:
75,130,309332,1,4,0:0:0:0:
199,157,309632,5,12,0:0:0:0:
199,157,309782,1,12,0:0:0:0:
199,157,309932,1,12,0:0:0:0:
