osu file format v14

[General]
AudioFilename: audio.mp3
AudioLeadIn: 0
PreviewTime: 153516
Countdown: 0
SampleSet: Soft
StackLeniency: 0.7
Mode: 3
LetterboxInBreaks: 0
SpecialStyle: 0
WidescreenStoryboard: 1

[Editor]
DistanceSpacing: 0.9
BeatDivisor: 4
GridSize: 4
TimelineZoom: 2.799999

[Metadata]
Title:1,000,000 TIMES
TitleUnicode:1,000,000 TIMES
Artist:MY FIRST STORY feat. chelly (EGOIST)
ArtistUnicode:MY FIRST STORY feat. chelly (EGOIST)
Creator:Virtue-
Version:A Million
Source:DUEL MASTERS PLAY’S
Tags:デュエル・マスターズ プレイス one million 1000000 full version ver. MFS Myfirststory opening video game mobile japanese rock j-rock jrock Single plays play's
BeatmapID:4231417
BeatmapSetID:2028947

[Difficulty]
HPDrainRate:8
CircleSize:4
OverallDifficulty:8
ApproachRate:5
SliderMultiplier:1.4
SliderTickRate:1

[Events]
//Background and Video events
0,0,"asli.jpg",0,0
//Break Periods
//Storyboard Layer 0 (Background)
//Storyboard Layer 1 (Fail)
//Storyboard Layer 2 (Pass)
//Storyboard Layer 3 (Foreground)
//Storyboard Layer 4 (Overlay)
//Storyboard Sound Samples
Sample,258182,0,"Tom2.wav",60

[TimingPoints]
666,300,4,2,1,60,1,0
26766,-10,4,2,1,60,0,0
26784,-1000,4,2,1,60,0,0
26916,-500,4,2,1,60,0,0
26929,-277.777777777778,4,2,1,60,0,0
26942,-192.307692307692,4,2,1,60,0,0
26955,-147.058823529412,4,2,1,60,0,0
26968,-119.047619047619,4,2,1,60,0,0
26981,-100,4,2,1,60,0,0
26994,-86.2068965517241,4,2,1,60,0,0
27007,-75.7575757575758,4,2,1,60,0,0
27020,-67.5675675675676,4,2,1,60,0,0
27033,-60.9756097560976,4,2,1,60,0,0
27047,-55.5555555555556,4,2,1,60,0,0
27066,-100,4,2,1,60,0,0
76116,-10,4,2,1,60,0,0
76134,-1000,4,2,1,60,0,0
76566,-500,4,2,1,60,0,0
76594,-277.777777777778,4,2,1,60,0,0
76622,-192.307692307692,4,2,1,60,0,0
76650,-147.058823529412,4,2,1,60,0,0
76678,-119.047619047619,4,2,1,60,0,0
76706,-100,4,2,1,60,0,0
76734,-86.2068965517241,4,2,1,60,0,0
76762,-75.7575757575758,4,2,1,60,0,0
76790,-67.5675675675676,4,2,1,60,0,0
76818,-60.9756097560976,4,2,1,60,0,0
76847,-55.5555555555556,4,2,1,60,0,0
76866,-100,4,2,1,60,0,0
76895,-99.009900990099,4,2,1,60,0,0
76924,-98.0392156862745,4,2,1,60,0,0
76953,-97.0873786407767,4,2,1,60,0,0
76982,-96.1538461538461,4,2,1,60,0,0
77011,-95.2380952380952,4,2,1,60,0,0
77040,-94.3396226415094,4,2,1,60,0,0
77069,-93.4579439252336,4,2,1,60,0,0
77098,-92.5925925925926,4,2,1,60,0,0
77127,-91.743119266055,4,2,1,60,0,0
77156,-90.9090909090909,4,2,1,60,0,0
77185,-90.0900900900901,4,2,1,60,0,0
77214,-89.2857142857143,4,2,1,60,0,0
77243,-88.495575221239,4,2,1,60,0,0
77272,-87.719298245614,4,2,1,60,0,0
77301,-86.9565217391304,4,2,1,60,0,0
77330,-86.2068965517241,4,2,1,60,0,0
77359,-85.4700854700855,4,2,1,60,0,0
77388,-84.7457627118644,4,2,1,60,0,0
77417,-84.0336134453782,4,2,1,60,0,0
77447,-83.3333333333333,4,2,1,60,0,0
77466,-100,4,2,1,60,0,1
112266,-100,4,2,1,60,0,0
130866,-99.009900990099,4,2,1,60,0,0
130896,-98.0392156862745,4,2,1,60,0,0
130927,-97.0873786407767,4,2,1,60,0,0
130957,-96.1538461538461,4,2,1,60,0,0
130988,-95.2380952380952,4,2,1,60,0,0
131018,-94.3396226415094,4,2,1,60,0,0
131049,-93.4579439252336,4,2,1,60,0,0
131080,-92.5925925925926,4,2,1,60,0,0
131110,-91.743119266055,4,2,1,60,0,0
131141,-90.9090909090909,4,2,1,60,0,0
131171,-90.0900900900901,4,2,1,60,0,0
131202,-89.2857142857143,4,2,1,60,0,0
131232,-88.495575221239,4,2,1,60,0,0
131263,-87.719298245614,4,2,1,60,0,0
131294,-86.9565217391304,4,2,1,60,0,0
131324,-86.2068965517241,4,2,1,60,0,0
131355,-85.4700854700855,4,2,1,60,0,0
131385,-84.7457627118644,4,2,1,60,0,0
131416,-84.0336134453782,4,2,1,60,0,0
131447,-83.3333333333333,4,2,1,60,0,0
131466,-10,4,2,1,60,0,0
131484,-1000,4,2,1,60,0,0
131766,-500,4,2,1,60,0,0
131794,-277.777777777778,4,2,1,60,0,0
131822,-192.307692307692,4,2,1,60,0,0
131850,-147.058823529412,4,2,1,60,0,0
131878,-119.047619047619,4,2,1,60,0,0
131906,-100,4,2,1,60,0,0
131934,-86.2068965517241,4,2,1,60,0,0
131962,-75.7575757575758,4,2,1,60,0,0
131990,-67.5675675675676,4,2,1,60,0,0
132018,-60.9756097560976,4,2,1,60,0,0
132047,-55.5555555555556,4,2,1,60,0,0
132066,-100,4,2,1,60,0,0
153216,-58.8235294117647,4,2,1,60,0,0
153291,-333.333333333333,4,2,1,60,0,0
153366,-58.8235294117647,4,2,1,60,0,0
153441,-333.333333333333,4,2,1,60,0,0
153516,-10,4,2,1,60,0,0
153534,-1000,4,2,1,60,0,0
153966,-500,4,2,1,60,0,0
153994,-277.777777777778,4,2,1,60,0,0
154022,-192.307692307692,4,2,1,60,0,0
154050,-147.058823529412,4,2,1,60,0,0
154078,-119.047619047619,4,2,1,60,0,0
154106,-100,4,2,1,60,0,0
154134,-86.2068965517241,4,2,1,60,0,0
154162,-75.7575757575758,4,2,1,60,0,0
154190,-67.5675675675676,4,2,1,60,0,0
154218,-60.9756097560976,4,2,1,60,0,0
154247,-55.5555555555556,4,2,1,60,0,0
154266,-100,4,2,1,60,0,1
189066,-100,4,2,1,60,0,0
204666,317.460317460317,4,2,1,60,1,0
204666,-94.3396226415094,4,2,1,60,0,0
205142,389.61038961039,4,2,1,60,1,0
205142,-76.9230769230769,4,2,1,60,0,0
205434,350.877192982456,4,2,1,60,1,0
205434,-85.4700854700855,4,2,1,60,0,0
205609,338.983050847458,4,2,1,60,1,0
205609,-88.495575221239,4,2,1,60,0,0
205863,317.460317460317,4,2,1,60,1,0
205863,-94.3396226415094,4,2,1,60,0,0
205942,317.460317460317,4,2,1,60,1,0
205942,-94.3396226415094,4,2,1,60,0,0
206101,368.098159509202,4,2,1,60,1,0
206101,-81.3008130081301,4,2,1,60,0,0
206377,287.081339712919,4,2,1,60,1,0
206377,-104.166666666667,4,2,1,60,0,0
206592,400,4,2,1,60,1,0
206592,-75.187969924812,4,2,1,60,0,0
206892,458.015267175573,4,2,1,60,1,0
206892,-65.359477124183,4,2,1,60,0,0
207235,303.030303030303,4,2,1,60,1,0
207235,-99.009900990099,4,2,1,60,0,0
207462,297.029702970297,4,2,1,60,1,0
207462,-101.010101010101,4,2,1,60,0,0
207684,389.61038961039,4,2,1,60,1,0
207684,-76.9230769230769,4,2,1,60,0,0
207976,260.869565217391,4,2,1,60,1,0
207976,-114.942528735632,4,2,1,60,0,0
208171,317.460317460317,4,2,1,60,1,0
208171,-94.3396226415094,4,2,1,60,0,0
208409,338.983050847458,4,2,1,60,1,0
208409,-88.495575221239,4,2,1,60,0,0
208493,338.983050847458,4,2,1,60,1,0
208493,-88.4955752212389,4,2,1,60,0,0
208663,303.030303030303,4,2,1,60,1,0
208663,-99.009900990099,4,2,1,60,0,0
208890,272.727272727273,4,2,1,60,1,0
208890,-109.89010989011,4,2,1,60,0,0
209094,303.030303030303,4,2,1,60,1,0
209094,-99.009900990099,4,2,1,60,0,0
209397,324.324324324324,4,2,1,60,1,0
209397,-92.5925925925926,4,2,1,60,0,0
209723,315.789473684211,4,2,1,60,1,0
209723,-95.2380952380952,4,2,1,60,0,0
224880,315.789473684211,4,2,1,60,1,8
224880,-95.2380952380952,4,2,1,60,0,8
224882,300,4,2,1,60,1,0
224882,-101.010101010101,4,2,1,60,0,0
225082,-102.040816326531,4,2,1,60,0,0
225282,-103.092783505155,4,2,1,60,0,0
225482,-104.166666666667,4,2,1,60,0,0
225682,-105.263157894737,4,2,1,60,0,0
225882,-106.382978723404,4,2,1,60,0,0
226082,-107.52688172043,4,2,1,60,0,0
226282,-108.695652173913,4,2,1,60,0,0
226482,-109.89010989011,4,2,1,60,0,0
226682,-111.111111111111,4,2,1,60,0,0
226882,-112.359550561798,4,2,1,60,0,0
227082,-113.636363636364,4,2,1,60,0,0
227282,-114.942528735632,4,2,1,60,0,0
227482,-116.279069767442,4,2,1,60,0,0
227682,-117.647058823529,4,2,1,60,0,0
227882,-119.047619047619,4,2,1,60,0,0
228082,-120.481927710843,4,2,1,60,0,0
228282,-121.951219512195,4,2,1,60,0,0
228482,-123.456790123457,4,2,1,60,0,0
228682,-125,4,2,1,60,0,0
228882,-126.582278481013,4,2,1,60,0,0
229082,-128.205128205128,4,2,1,60,0,0
229282,-129.87012987013,4,2,1,60,0,0
229482,-131.578947368421,4,2,1,60,0,0
229682,-133.333333333333,4,2,1,60,0,0
244082,-131.578947368421,4,2,1,60,0,0
244432,-129.87012987013,4,2,1,60,0,0
244782,-128.205128205128,4,2,1,60,0,0
245132,-126.582278481013,4,2,1,60,0,0
245482,-125,4,2,1,60,0,0
245832,-123.456790123457,4,2,1,60,0,0
246182,-121.951219512195,4,2,1,60,0,0
246532,-120.481927710843,4,2,1,60,0,0
246882,-119.047619047619,4,2,1,60,0,0
247232,-117.647058823529,4,2,1,60,0,0
247582,-116.279069767442,4,2,1,60,0,0
247932,-114.942528735632,4,2,1,60,0,0
248282,-113.636363636364,4,2,1,60,0,0
248632,-112.359550561798,4,2,1,60,0,0
248982,-111.111111111111,4,2,1,60,0,0
249332,-109.89010989011,4,2,1,60,0,0
249682,-108.695652173913,4,2,1,60,0,0
250032,-107.52688172043,4,2,1,60,0,0
250382,-106.382978723404,4,2,1,60,0,0
250732,-105.263157894737,4,2,1,60,0,0
251082,-104.166666666667,4,2,1,60,0,0
251432,-103.092783505155,4,2,1,60,0,0
251782,-102.040816326531,4,2,1,60,0,0
252132,-101.010101010101,4,2,1,60,0,0
252482,-100,4,2,1,60,0,0
264182,-10,4,2,1,60,0,0
264219,-1000,4,2,1,60,0,0
265832,-500,4,2,1,60,0,0
265860,-277.777777777778,4,2,1,60,0,0
265888,-192.307692307692,4,2,1,60,0,0
265916,-147.058823529412,4,2,1,60,0,0
265944,-119.047619047619,4,2,1,60,0,0
265972,-100,4,2,1,60,0,0
266000,-86.2068965517241,4,2,1,60,0,0
266028,-75.7575757575758,4,2,1,60,0,0
266056,-67.5675675675676,4,2,1,60,0,0
266084,-60.9756097560976,4,2,1,60,0,0
266113,-55.5555555555556,4,2,1,60,0,0
266132,-66.6666666666667,4,2,1,60,0,0
266169,-200,4,2,1,60,0,0
266207,-66.6666666666667,4,2,1,60,0,0
266244,-200,4,2,1,60,0,0
266282,-66.6666666666667,4,2,1,60,0,0
266382,-200,4,2,1,60,0,0
266482,-66.6666666666667,4,2,1,60,0,0
266582,-200,4,2,1,60,0,0
266682,-66.6666666666667,4,2,1,60,0,0
266782,-200,4,2,1,60,0,0
266882,-100,4,2,1,60,0,0
274082,-10,4,2,1,60,0,0
274100,-1000,4,2,1,60,0,0
274588,-58.8235294117647,4,2,1,60,0,0
274682,-10,4,2,1,60,0,0
274700,-1000,4,2,1,60,0,0
275038,-58.8235294117647,4,2,1,60,0,0
275132,-66.6666666666667,4,2,1,60,0,0
275169,-200,4,2,1,60,0,0
275207,-66.6666666666667,4,2,1,60,0,0
275244,-200,4,2,1,60,0,0
275282,-66.6666666666667,4,2,1,60,0,0
275382,-200,4,2,1,60,0,0
275482,-66.6666666666667,4,2,1,60,0,0
275582,-200,4,2,1,60,0,0
275682,-66.6666666666667,4,2,1,60,0,0
275782,-200,4,2,1,60,0,0
275882,-100,4,2,1,60,0,0
276482,-100,4,2,1,60,0,1
301682,-100,4,2,1,60,0,0

[HitObjects]
64,192,666,128,0,1041:0:0:0:0:
448,192,666,128,0,741:0:0:0:0:
320,192,816,128,0,891:0:0:0:0:
192,192,966,128,0,1041:0:0:0:0:
64,192,1116,128,0,1191:0:0:0:0:
448,192,1116,128,0,1491:0:0:0:0:
192,192,1266,128,0,1341:0:0:0:0:
320,192,1416,128,0,1491:0:0:0:0:
64,192,1566,128,0,1641:0:0:0:0:
448,192,1716,128,0,1791:0:0:0:0:
64,192,1866,128,0,1941:0:0:0:0:
192,192,1866,128,0,2241:0:0:0:0:
320,192,2016,128,0,2091:0:0:0:0:
448,192,2166,128,0,2241:0:0:0:0:
64,192,2316,128,0,2691:0:0:0:0:
320,192,2316,128,0,2391:0:0:0:0:
192,192,2466,128,0,2541:0:0:0:0:
448,192,2616,128,0,2691:0:0:0:0:
192,192,2766,128,0,2841:0:0:0:0:
320,192,2916,128,0,2991:0:0:0:0:
64,192,3066,128,0,3141:0:0:0:0:
448,192,3066,128,0,3441:0:0:0:0:
192,192,3216,128,0,3291:0:0:0:0:
320,192,3366,128,0,3441:0:0:0:0:
64,192,3516,128,0,3591:0:0:0:0:
192,192,3516,128,0,3891:0:0:0:0:
448,192,3666,128,0,3741:0:0:0:0:
320,192,3816,128,0,3891:0:0:0:0:
64,192,3966,128,0,4041:0:0:0:0:
192,192,4116,128,0,4191:0:0:0:0:
320,192,4266,128,0,4641:0:0:0:0:
448,192,4266,128,0,4341:0:0:0:0:
64,192,4416,128,0,4491:0:0:0:0:
192,192,4566,128,0,4641:0:0:0:0:
320,192,4716,128,0,4791:0:0:0:0:
448,192,4716,128,0,5091:0:0:0:0:
192,192,4866,128,0,4941:0:0:0:0:
64,192,5016,128,0,5091:0:0:0:0:
448,192,5166,128,0,5241:0:0:0:0:
192,192,5316,128,0,5391:0:0:0:0:
64,192,5466,128,0,5541:0:0:0:0:
320,192,5466,128,0,5841:0:0:0:0:
448,192,5616,128,0,5691:0:0:0:0:
192,192,5766,128,0,5841:0:0:0:0:
64,192,5916,128,0,6291:0:0:0:0:
448,192,5916,128,0,5991:0:0:0:0:
320,192,6066,128,0,6141:0:0:0:0:
192,192,6216,128,0,6291:0:0:0:0:
448,192,6366,128,0,6441:0:0:0:0:
64,192,6516,128,0,6591:0:0:0:0:
320,192,6666,128,0,6741:0:0:0:0:
448,192,6666,128,0,7041:0:0:0:0:
192,192,6816,128,0,6891:0:0:0:0:
64,192,6966,128,0,7041:0:0:0:0:
192,192,7116,128,0,7491:0:0:0:0:
448,192,7116,128,0,7191:0:0:0:0:
320,192,7266,128,0,7341:0:0:0:0:
64,192,7416,128,0,7491:0:0:0:0:
320,192,7566,128,0,7641:0:0:0:0:
192,192,7716,128,0,7791:0:0:0:0:
320,192,7866,128,0,8241:0:0:0:0:
448,192,7866,128,0,7941:0:0:0:0:
64,192,8016,128,0,8091:0:0:0:0:
448,192,8166,128,0,8241:0:0:0:0:
192,192,8316,128,0,8691:0:0:0:0:
320,192,8316,128,0,8391:0:0:0:0:
64,192,8466,128,0,8541:0:0:0:0:
448,192,8616,128,0,8691:0:0:0:0:
64,192,8766,128,0,8841:0:0:0:0:
192,192,8916,128,0,8991:0:0:0:0:
320,192,9066,128,0,9141:0:0:0:0:
448,192,9066,128,0,9591:0:0:0:0:
64,192,9216,128,0,9291:0:0:0:0:
320,192,9366,128,0,9441:0:0:0:0:
192,192,9516,128,0,9591:0:0:0:0:
64,192,9666,128,0,9741:0:0:0:0:
320,192,9741,1,0,0:0:0:0:
192,192,9816,128,0,9891:0:0:0:0:
64,192,9891,1,0,0:0:0:0:
320,192,9966,128,0,10041:0:0:0:0:
448,192,9966,1,0,0:0:0:0:
64,192,10266,128,2,10341:0:0:0:0:
320,192,10266,1,4,0:0:0:0:
448,192,10266,128,0,10641:0:0:0:0:
192,192,10416,128,0,10491:0:0:0:0:
320,192,10566,128,0,10641:0:0:0:0:
64,192,10716,128,0,11091:0:0:0:0:
448,192,10716,128,0,10791:0:0:0:0:
320,192,10866,128,0,10941:0:0:0:0:
192,192,11016,128,0,11091:0:0:0:0:
320,192,11166,128,0,11241:0:0:0:0:
448,192,11166,1,0,0:0:0:0:
64,192,11316,128,0,11391:0:0:0:0:
320,192,11466,128,0,11841:0:0:0:0:
448,192,11466,128,0,11541:0:0:0:0:
192,192,11616,128,0,11691:0:0:0:0:
64,192,11766,128,0,11841:0:0:0:0:
320,192,11916,128,0,11991:0:0:0:0:
448,192,11916,128,0,12291:0:0:0:0:
64,192,12066,128,0,12141:0:0:0:0:
192,192,12066,1,0,0:0:0:0:
320,192,12216,128,0,12291:0:0:0:0:
192,192,12366,128,0,12441:0:0:0:0:
320,192,12516,128,0,12591:0:0:0:0:
64,192,12666,128,0,13041:0:0:0:0:
448,192,12666,128,0,12741:0:0:0:0:
320,192,12816,128,0,12891:0:0:0:0:
192,192,12966,128,0,13041:0:0:0:0:
320,192,13116,128,0,13491:0:0:0:0:
448,192,13116,128,0,13191:0:0:0:0:
64,192,13266,128,0,13341:0:0:0:0:
192,192,13416,128,0,13491:0:0:0:0:
64,192,13566,1,0,0:0:0:0:
320,192,13566,128,0,13641:0:0:0:0:
448,192,13716,128,0,13791:0:0:0:0:
192,192,13866,128,0,14241:0:0:0:0:
320,192,13866,128,0,13941:0:0:0:0:
64,192,14016,128,0,14091:0:0:0:0:
448,192,14016,1,0,0:0:0:0:
320,192,14166,128,0,14241:0:0:0:0:
64,192,14316,128,0,14691:0:0:0:0:
448,192,14316,128,0,14391:0:0:0:0:
192,192,14466,128,0,14541:0:0:0:0:
320,192,14466,1,0,0:0:0:0:
320,192,14616,128,0,14691:0:0:0:0:
448,192,14766,128,0,14841:0:0:0:0:
64,192,14916,128,0,14991:0:0:0:0:
192,192,15066,128,0,15441:0:0:0:0:
448,192,15066,128,0,15141:0:0:0:0:
64,192,15216,128,0,15291:0:0:0:0:
448,192,15216,1,0,0:0:0:0:
320,192,15366,128,0,15441:0:0:0:0:
64,192,15516,128,0,15591:0:0:0:0:
448,192,15516,128,0,15891:0:0:0:0:
192,192,15666,128,0,15741:0:0:0:0:
320,192,15816,128,0,15891:0:0:0:0:
64,192,15966,128,0,16041:0:0:0:0:
192,192,15966,1,0,0:0:0:0:
448,192,16116,128,0,16191:0:0:0:0:
192,192,16416,1,0,0:0:0:0:
320,192,16491,1,0,0:0:0:60:Tom2.wav
64,192,16566,1,0,0:0:0:60:Tom3.wav
448,192,16566,1,0,0:0:0:0:
192,192,16641,1,2,0:0:0:0:
64,192,16716,1,8,0:0:0:0:
320,192,16716,1,0,0:0:0:70:Crash 2.wav
448,192,16716,1,0,0:0:0:0:
64,192,17016,128,8,17091:0:0:0:0:
192,192,17016,128,0,17091:0:0:0:60:Tom3.wav
448,192,17016,128,0,17091:0:0:0:0:
64,192,17166,128,8,17241:0:0:0:0:
192,192,17166,128,0,17241:0:0:0:60:Tom3.wav
320,192,17166,128,0,17241:0:0:0:0:
192,192,17316,128,8,17391:0:0:0:0:
320,192,17316,128,0,17391:0:0:0:60:Tom3.wav
448,192,17316,128,0,17391:0:0:0:0:
64,192,17466,128,2,18066:0:0:0:0:
320,192,17466,128,4,17766:0:0:0:0:
448,192,17466,128,0,17616:0:0:0:0:
192,192,17616,128,0,17916:0:0:0:0:
448,192,17766,128,0,18066:0:0:0:0:
320,192,17916,128,0,18066:0:0:0:0:
192,192,18066,128,0,18366:0:0:0:0:
64,192,18216,128,0,18516:0:0:0:0:
320,192,18366,128,0,18516:0:0:0:0:
448,192,18366,128,0,18516:0:0:0:0:
192,192,18516,128,0,18816:0:0:0:0:
320,192,18666,128,0,18816:0:0:0:0:
64,192,18816,128,0,18966:0:0:0:0:
448,192,18816,128,0,18966:0:0:0:0:
320,192,18966,128,0,19116:0:0:0:0:
64,192,19116,128,0,19266:0:0:0:0:
192,192,19116,128,0,19266:0:0:0:0:
448,192,19266,128,0,19491:0:0:0:0:
320,192,19341,128,0,19491:0:0:0:0:
64,192,19416,128,8,19491:0:0:0:0:
192,192,19416,128,0,19491:0:0:0:0:
192,192,19566,128,8,19641:0:0:0:0:
320,192,19566,128,0,19641:0:0:0:0:
448,192,19566,128,0,19641:0:0:0:0:
320,192,19716,128,2,19791:0:0:0:0:
448,192,19716,128,0,19791:0:0:0:0:
64,192,19866,128,2,20016:0:0:0:0:
192,192,19866,128,4,20166:0:0:0:0:
448,192,19866,128,0,20466:0:0:0:0:
320,192,20016,128,0,20316:0:0:0:0:
64,192,20166,128,0,20466:0:0:0:0:
192,192,20316,128,0,20466:0:0:0:0:
320,192,20466,128,0,20766:0:0:0:0:
448,192,20616,128,0,20916:0:0:0:0:
64,192,20766,128,0,20916:0:0:0:0:
192,192,20766,128,0,20916:0:0:0:0:
320,192,20916,128,0,21216:0:0:0:0:
192,192,21066,128,0,21216:0:0:0:0:
64,192,21216,128,0,21366:0:0:0:0:
448,192,21216,128,0,21366:0:0:0:0:
192,192,21366,128,0,21516:0:0:0:0:
320,192,21516,128,0,21666:0:0:0:0:
448,192,21516,128,0,21666:0:0:0:0:
64,192,21666,128,0,21816:0:0:0:0:
192,192,21666,128,0,21816:0:0:0:0:
320,192,21741,128,0,21891:0:0:0:0:
448,192,21816,128,0,21891:0:0:0:0:
64,192,21891,128,0,22191:0:0:0:0:
320,192,21966,128,0,22191:0:0:0:0:
448,192,21966,128,0,22191:0:0:0:0:
64,192,22266,1,8,0:0:0:0:
192,192,22266,1,4,0:0:0:0:
448,192,22266,1,0,0:0:0:0:
320,192,22416,1,8,0:0:0:0:
448,192,22416,1,0,0:0:0:0:
192,192,22491,1,8,0:0:0:0:
64,192,22566,1,2,0:0:0:0:
320,192,22566,1,8,0:0:0:0:
448,192,22566,1,0,0:0:0:0:
192,192,22641,1,8,0:0:0:0:
64,192,22716,1,8,0:0:0:0:
448,192,22716,1,0,0:0:0:0:
320,192,22791,1,8,0:0:0:0:
64,192,22866,1,8,0:0:0:0:
192,192,22866,1,2,0:0:0:0:
448,192,22866,1,0,0:0:0:0:
320,192,22941,1,8,0:0:0:0:
64,192,23016,1,8,0:0:0:0:
192,192,23016,1,0,0:0:0:0:
448,192,23091,1,8,0:0:0:0:
64,192,23166,1,8,0:0:0:0:
192,192,23166,1,2,0:0:0:0:
320,192,23166,1,0,0:0:0:0:
448,192,23241,1,8,0:0:0:0:
192,192,23316,1,8,0:0:0:0:
320,192,23316,1,0,0:0:0:0:
64,192,23391,1,8,0:0:0:0:
192,192,23466,1,8,0:0:0:0:
320,192,23466,1,2,0:0:0:0:
448,192,23466,1,0,0:0:0:0:
64,192,23541,1,8,0:0:0:0:
320,192,23616,1,8,0:0:0:0:
448,192,23616,1,0,0:0:0:0:
192,192,23691,1,8,0:0:0:0:
64,192,23766,1,2,0:0:0:0:
320,192,23766,1,8,0:0:0:0:
448,192,23766,1,0,0:0:0:0:
192,192,23841,1,8,0:0:0:0:
64,192,23916,1,8,0:0:0:0:
448,192,23916,1,0,0:0:0:0:
320,192,23991,1,8,0:0:0:0:
64,192,24066,1,8,0:0:0:0:
192,192,24066,1,2,0:0:0:0:
320,192,24141,1,8,0:0:0:0:
448,192,24141,1,0,0:0:0:0:
64,192,24216,1,8,0:0:0:0:
192,192,24216,1,0,0:0:0:0:
320,192,24291,1,8,0:0:0:0:
448,192,24291,1,0,0:0:0:0:
64,192,24366,1,8,0:0:0:0:
192,192,24366,1,2,0:0:0:0:
320,192,24441,1,8,0:0:0:0:
448,192,24441,1,0,0:0:0:0:
64,192,24516,1,8,0:0:0:0:
192,192,24516,1,0,0:0:0:0:
320,192,24591,1,8,0:0:0:0:
64,192,24666,1,2,0:0:0:0:
192,192,24666,1,4,0:0:0:0:
448,192,24666,1,0,0:0:0:0:
320,192,24741,1,8,0:0:0:0:
64,192,24816,1,8,0:0:0:0:
448,192,24816,1,0,0:0:0:0:
192,192,24891,1,8,0:0:0:0:
320,192,24891,1,0,0:0:0:0:
64,192,24966,1,8,0:0:0:0:
448,192,24966,1,2,0:0:0:0:
192,192,25041,1,8,0:0:0:0:
320,192,25041,1,0,0:0:0:0:
64,192,25116,1,2,0:0:0:0:
448,192,25116,1,0,0:0:0:0:
192,192,25191,1,2,0:0:0:0:
320,192,25266,1,0,0:0:0:60:Tom1.wav
64,192,25341,1,0,0:0:0:60:Tom1.wav
192,192,25416,1,2,0:0:0:0:
448,192,25416,1,0,0:0:0:60:Tom2.wav
320,192,25491,1,0,0:0:0:60:Tom2.wav
64,192,25566,1,0,0:0:0:60:Tom3.wav
448,192,25641,1,0,0:0:0:60:Tom3.wav
64,192,25716,1,2,0:0:0:0:
192,192,25716,1,0,0:0:0:0:
320,192,25791,1,2,0:0:0:0:
64,192,25866,1,8,0:0:0:0:
192,192,25866,128,4,25941:0:0:0:0:
448,192,25866,1,0,0:0:0:0:
320,192,25941,128,0,26016:0:0:0:0:
448,192,26016,128,0,26691:0:0:0:0:
64,192,26166,128,0,26691:0:0:0:0:
192,192,26316,128,0,26691:0:0:0:0:
320,192,26466,128,0,26691:0:0:0:0:
64,192,26766,1,8,0:0:0:0:
320,192,26766,1,0,0:0:0:0:
448,192,26766,1,0,0:0:0:0:
64,192,27066,128,2,28191:0:0:0:0:
192,192,27066,128,4,27141:0:0:0:0:
448,192,27066,1,0,0:0:0:0:
192,192,27216,128,0,27291:0:0:0:0:
192,192,27366,128,8,27441:0:0:0:0:
448,192,27366,1,2,0:0:0:0:
320,192,27516,128,0,27591:0:0:0:0:
192,192,27666,1,2,0:0:0:0:
320,192,27666,128,0,27741:0:0:0:0:
320,192,27816,128,0,27891:0:0:0:0:
192,192,27966,1,8,0:0:0:0:
448,192,27966,128,2,28041:0:0:0:0:
448,192,28116,128,0,28191:0:0:0:0:
192,192,28266,128,2,29391:0:0:0:0:
320,192,28266,128,0,28341:0:0:0:0:
320,192,28416,128,0,28491:0:0:0:0:
64,192,28566,1,8,0:0:0:0:
320,192,28566,128,2,28641:0:0:0:0:
448,192,28716,128,0,28791:0:0:0:0:
64,192,28866,1,2,0:0:0:0:
448,192,28866,128,0,28941:0:0:0:0:
448,192,29016,128,0,29091:0:0:0:0:
64,192,29166,128,8,29241:0:0:0:0:
320,192,29166,1,2,0:0:0:0:
64,192,29316,128,0,29391:0:0:0:0:
192,192,29466,128,2,29541:0:0:0:0:
320,192,29466,128,0,30591:0:0:0:0:
192,192,29616,128,0,29691:0:0:0:0:
64,192,29766,1,8,0:0:0:0:
192,192,29766,128,2,29841:0:0:0:0:
448,192,29916,128,0,29991:0:0:0:0:
192,192,30066,1,2,0:0:0:0:
448,192,30066,128,0,30141:0:0:0:0:
448,192,30216,128,0,30291:0:0:0:0:
64,192,30366,128,8,30441:0:0:0:0:
192,192,30366,1,2,0:0:0:0:
64,192,30516,128,0,30591:0:0:0:0:
192,192,30666,128,2,30741:0:0:0:0:
448,192,30666,128,0,31791:0:0:0:0:
192,192,30816,128,0,30891:0:0:0:0:
64,192,30966,1,8,0:0:0:0:
192,192,30966,128,2,31041:0:0:0:0:
320,192,31116,128,0,31191:0:0:0:0:
64,192,31266,1,2,0:0:0:0:
320,192,31266,128,0,31341:0:0:0:0:
320,192,31416,128,0,31491:0:0:0:0:
64,192,31566,1,8,0:0:0:0:
192,192,31566,128,2,31641:0:0:0:0:
192,192,31716,128,0,31791:0:0:0:0:
64,192,31866,128,2,31941:0:0:0:0:
320,192,31866,128,4,32991:0:0:0:0:
448,192,31866,1,0,0:0:0:0:
64,192,32016,128,0,32091:0:0:0:0:
64,192,32166,128,8,32241:0:0:0:0:
448,192,32166,1,2,0:0:0:0:
192,192,32316,128,0,32391:0:0:0:0:
64,192,32466,1,2,0:0:0:0:
192,192,32466,128,0,32541:0:0:0:0:
192,192,32616,128,0,32691:0:0:0:0:
64,192,32766,1,8,0:0:0:0:
448,192,32766,128,2,32841:0:0:0:0:
448,192,32916,128,0,32991:0:0:0:0:
192,192,33066,128,2,34191:0:0:0:0:
320,192,33066,128,0,33141:0:0:0:0:
320,192,33216,128,0,33291:0:0:0:0:
320,192,33366,128,8,33441:0:0:0:0:
448,192,33366,1,2,0:0:0:0:
64,192,33516,128,0,33591:0:0:0:0:
64,192,33666,128,2,33741:0:0:0:0:
320,192,33666,1,0,0:0:0:0:
64,192,33816,128,0,33891:0:0:0:0:
320,192,33966,128,8,34041:0:0:0:0:
448,192,33966,1,2,0:0:0:0:
320,192,34116,128,0,34191:0:0:0:0:
64,192,34266,128,2,35391:0:0:0:0:
192,192,34266,1,4,0:0:0:0:
448,192,34266,128,0,34341:0:0:0:0:
448,192,34416,128,0,34491:0:0:0:0:
192,192,34566,1,8,0:0:0:0:
448,192,34566,128,2,34641:0:0:0:0:
320,192,34716,128,0,34791:0:0:0:0:
320,192,34866,128,2,34941:0:0:0:0:
448,192,34866,1,0,0:0:0:0:
320,192,35016,128,0,35091:0:0:0:0:
192,192,35166,128,8,35241:0:0:0:0:
448,192,35166,1,2,0:0:0:0:
192,192,35316,128,0,35391:0:0:0:0:
320,192,35466,128,2,35541:0:0:0:0:
448,192,35466,128,0,35541:0:0:0:0:
192,192,35616,128,2,35691:0:0:0:0:
320,192,35616,128,0,35691:0:0:0:0:
448,192,35616,1,0,0:0:0:0:
64,192,35766,128,8,35841:0:0:0:0:
192,192,35766,128,0,35841:0:0:0:0:
320,192,35766,1,0,0:0:0:0:
64,192,35916,1,2,0:0:0:0:
320,192,35916,128,4,36216:0:0:0:0:
448,192,35916,128,0,36216:0:0:0:0:
64,192,36216,1,8,0:0:0:0:
192,192,36216,1,0,0:0:0:0:
320,192,36291,1,8,0:0:0:0:
448,192,36291,1,0,0:0:0:0:
64,192,36366,1,8,0:0:0:0:
192,192,36366,1,0,0:0:0:0:
320,192,36441,1,8,0:0:0:0:
448,192,36441,1,0,0:0:0:0:
64,192,36516,1,8,0:0:0:0:
192,192,36516,1,0,0:0:0:0:
320,192,36591,1,8,0:0:0:0:
64,192,36666,1,2,0:0:0:0:
192,192,36666,128,4,36741:0:0:0:0:
448,192,36666,128,0,37791:0:0:0:0:
192,192,36816,128,0,36891:0:0:0:0:
64,192,36966,1,10,0:0:0:0:
192,192,36966,128,0,37041:0:0:0:70:Crash 2.wav
320,192,37116,128,0,37191:0:0:0:0:
192,192,37266,1,2,0:0:0:0:
320,192,37266,128,0,37341:0:0:0:0:
320,192,37416,128,0,37491:0:0:0:0:
64,192,37566,1,8,0:0:0:0:
192,192,37566,128,2,37641:0:0:0:0:
192,192,37716,128,0,37791:0:0:0:0:
64,192,37866,128,2,37941:0:0:0:0:
320,192,37866,128,0,38991:0:0:0:0:
64,192,38016,128,0,38091:0:0:0:0:
64,192,38166,128,8,38241:0:0:0:0:
448,192,38166,1,2,0:0:0:0:
192,192,38316,128,0,38391:0:0:0:0:
64,192,38466,1,2,0:0:0:0:
192,192,38466,128,0,38541:0:0:0:0:
192,192,38616,128,0,38691:0:0:0:0:
64,192,38766,1,8,0:0:0:0:
448,192,38766,128,2,38841:0:0:0:0:
448,192,38916,128,0,38991:0:0:0:0:
192,192,39066,128,2,40191:0:0:0:0:
320,192,39066,128,0,39141:0:0:0:0:
320,192,39216,128,0,39291:0:0:0:0:
320,192,39366,128,8,39441:0:0:0:0:
448,192,39366,1,2,0:0:0:0:
64,192,39516,128,0,39591:0:0:0:0:
64,192,39666,128,2,39741:0:0:0:0:
320,192,39666,1,0,0:0:0:0:
64,192,39816,128,0,39891:0:0:0:0:
320,192,39966,1,8,0:0:0:0:
448,192,39966,128,2,40041:0:0:0:0:
448,192,40116,128,0,40191:0:0:0:0:
64,192,40266,128,2,40641:0:0:0:0:
320,192,40266,128,0,40341:0:0:0:0:
320,192,40416,128,0,40491:0:0:0:0:
320,192,40566,128,8,40641:0:0:0:0:
448,192,40566,1,2,0:0:0:0:
192,192,40716,128,0,40791:0:0:0:0:
448,192,40716,128,0,41091:0:0:0:0:
64,192,40866,1,2,0:0:0:0:
192,192,40866,128,0,40941:0:0:0:0:
192,192,41016,128,2,41091:0:0:0:0:
320,192,41016,1,0,0:0:0:0:
64,192,41166,128,8,41241:0:0:0:0:
448,192,41166,1,0,0:0:0:0:
320,192,41241,1,8,0:0:0:0:
64,192,41316,128,2,41391:0:0:0:0:
192,192,41316,1,0,0:0:0:0:
448,192,41316,1,0,0:0:0:0:
320,192,41391,1,2,0:0:0:0:
64,192,41466,1,8,0:0:0:0:
192,192,41466,128,4,41541:0:0:0:0:
448,192,41466,1,0,0:0:0:0:
192,192,41616,128,2,41691:0:0:0:0:
320,192,41616,1,0,0:0:0:0:
64,192,41766,1,8,0:0:0:0:
192,192,41766,128,0,41841:0:0:0:60:Hat open.wav
448,192,41766,1,0,0:0:0:0:
64,192,41916,1,2,0:0:0:0:
320,192,41916,128,0,41991:0:0:0:0:
192,192,42066,1,8,0:0:0:0:
320,192,42066,128,0,42141:0:0:0:60:Hat open.wav
448,192,42066,1,0,0:0:0:0:
64,192,42216,1,2,0:0:0:0:
320,192,42216,128,0,42291:0:0:0:0:
64,192,42366,1,8,0:0:0:0:
192,192,42366,1,0,0:0:0:60:Hat open.wav
448,192,42366,128,0,42441:0:0:0:0:
320,192,42516,1,2,0:0:0:0:
448,192,42516,128,0,42591:0:0:0:0:
64,192,42666,1,8,0:0:0:0:
192,192,42666,1,0,0:0:0:0:
448,192,42666,1,0,0:0:0:0:
320,192,42741,1,0,0:0:0:60:Tom1.wav
64,192,42816,1,2,0:0:0:0:
192,192,42891,1,2,0:0:0:0:
64,192,42966,1,8,0:0:0:0:
320,192,42966,1,0,0:0:0:0:
448,192,42966,1,0,0:0:0:0:
64,192,43116,128,2,43266:0:0:0:0:
192,192,43116,128,4,43266:0:0:0:0:
448,192,43116,128,0,43416:0:0:0:0:
320,192,43266,128,0,43341:0:0:0:0:
192,192,43341,128,0,43416:0:0:0:0:
64,192,43416,1,8,0:0:0:0:
320,192,43416,128,0,43491:0:0:0:0:
448,192,43491,128,0,43566:0:0:0:0:
64,192,43566,1,8,0:0:0:0:
192,192,43566,128,0,43641:0:0:0:0:
320,192,43641,128,0,43716:0:0:0:0:
64,192,43716,128,8,43791:0:0:0:0:
448,192,43716,1,0,0:0:0:0:
192,192,43791,128,0,43866:0:0:0:0:
64,192,43866,1,2,0:0:0:0:
320,192,43866,1,4,0:0:0:0:
448,192,43866,128,0,44091:0:0:0:0:
64,192,44166,128,8,44241:0:0:0:0:
320,192,44166,1,2,0:0:0:0:
448,192,44166,1,0,0:0:0:0:
64,192,44316,128,0,44391:0:0:0:0:
64,192,44466,128,2,44541:0:0:0:0:
448,192,44466,1,0,0:0:0:0:
64,192,44616,128,8,44766:0:0:0:0:
192,192,44616,1,0,0:0:0:0:
320,192,44616,1,0,0:0:0:0:
320,192,44766,1,2,0:0:0:0:
448,192,44766,1,0,0:0:0:0:
64,192,44916,128,0,45066:0:0:0:0:
192,192,45066,1,2,0:0:0:0:
448,192,45066,1,0,0:0:0:0:
448,192,45216,128,0,45291:0:0:0:0:
64,192,45366,1,8,0:0:0:0:
320,192,45366,1,2,0:0:0:0:
448,192,45366,128,0,45441:0:0:0:0:
448,192,45516,128,0,45591:0:0:0:0:
64,192,45666,1,2,0:0:0:0:
448,192,45666,128,0,45741:0:0:0:0:
64,192,45816,1,8,0:0:0:0:
192,192,45816,1,0,0:0:0:0:
448,192,45816,128,0,45891:0:0:0:0:
320,192,45966,1,2,0:0:0:0:
448,192,45966,128,0,46041:0:0:0:0:
448,192,46116,128,0,46191:0:0:0:0:
64,192,46266,1,2,0:0:0:0:
448,192,46266,128,0,46491:0:0:0:0:
64,192,46566,1,8,0:0:0:0:
320,192,46566,128,2,46641:0:0:0:0:
448,192,46566,1,0,0:0:0:0:
320,192,46716,128,0,46791:0:0:0:0:
192,192,46866,1,2,0:0:0:0:
320,192,46866,128,0,46941:0:0:0:0:
64,192,47016,1,8,0:0:0:0:
320,192,47016,128,0,47166:0:0:0:0:
448,192,47016,1,0,0:0:0:0:
64,192,47166,1,2,0:0:0:0:
192,192,47166,1,0,0:0:0:0:
320,192,47316,128,0,47466:0:0:0:0:
64,192,47466,1,2,0:0:0:0:
192,192,47466,1,0,0:0:0:0:
192,192,47616,128,0,47691:0:0:0:0:
64,192,47766,1,8,0:0:0:0:
192,192,47766,128,2,47841:0:0:0:0:
448,192,47766,1,0,0:0:0:0:
192,192,47916,128,0,47991:0:0:0:0:
192,192,48066,128,2,48141:0:0:0:0:
320,192,48066,1,0,0:0:0:0:
64,192,48216,1,8,0:0:0:0:
192,192,48216,128,0,48291:0:0:0:0:
448,192,48216,1,0,0:0:0:0:
192,192,48366,128,2,48441:0:0:0:0:
320,192,48366,1,0,0:0:0:0:
64,192,48516,1,8,0:0:0:0:
192,192,48516,128,0,48591:0:0:0:0:
320,192,48591,1,8,0:0:0:0:
448,192,48591,1,0,0:0:0:0:
64,192,48666,1,2,0:0:0:0:
192,192,48666,128,0,48891:0:0:0:0:
192,192,48966,1,8,0:0:0:0:
320,192,48966,1,2,0:0:0:0:
448,192,48966,128,0,49041:0:0:0:0:
448,192,49116,128,0,49191:0:0:0:0:
64,192,49266,1,2,0:0:0:0:
448,192,49266,128,0,49341:0:0:0:0:
192,192,49416,1,8,0:0:0:0:
320,192,49416,1,0,0:0:0:0:
448,192,49416,128,0,49566:0:0:0:0:
64,192,49566,1,2,0:0:0:0:
192,192,49566,1,0,0:0:0:0:
448,192,49716,128,0,49866:0:0:0:0:
192,192,49866,1,2,0:0:0:0:
320,192,49866,1,0,0:0:0:0:
64,192,50016,128,0,50091:0:0:0:0:
64,192,50166,128,8,50241:0:0:0:0:
320,192,50166,1,2,0:0:0:0:
448,192,50166,1,0,0:0:0:0:
64,192,50316,128,0,50391:0:0:0:0:
64,192,50466,128,2,50541:0:0:0:0:
320,192,50466,1,0,0:0:0:0:
64,192,50616,128,8,50691:0:0:0:0:
192,192,50616,1,0,0:0:0:0:
448,192,50616,1,0,0:0:0:0:
64,192,50766,128,2,50841:0:0:0:0:
320,192,50766,1,0,0:0:0:0:
64,192,50916,128,0,50991:0:0:0:0:
64,192,51066,128,2,51291:0:0:0:0:
192,192,51066,1,0,0:0:0:0:
64,192,51366,1,8,0:0:0:0:
192,192,51366,128,0,51441:0:0:0:0:
448,192,51366,1,0,0:0:0:0:
192,192,51516,128,0,51591:0:0:0:0:
192,192,51666,128,2,51741:0:0:0:0:
320,192,51666,1,0,0:0:0:0:
64,192,51816,1,8,0:0:0:0:
192,192,51816,128,0,51966:0:0:0:0:
448,192,51816,1,0,0:0:0:0:
320,192,51966,1,2,0:0:0:0:
448,192,51966,1,0,0:0:0:0:
192,192,52116,128,0,52266:0:0:0:0:
64,192,52266,1,2,0:0:0:0:
320,192,52266,1,0,0:0:0:0:
64,192,52416,128,8,52566:0:0:0:0:
192,192,52416,128,0,52566:0:0:0:0:
448,192,52416,1,0,0:0:0:0:
320,192,52566,1,2,0:0:0:0:
448,192,52566,1,0,0:0:0:0:
64,192,52716,1,8,0:0:0:0:
320,192,52716,128,4,52866:0:0:0:0:
448,192,52716,128,0,52866:0:0:0:0:
64,192,52866,1,2,0:0:0:0:
192,192,52866,1,0,0:0:0:0:
320,192,53016,1,8,0:0:0:0:
448,192,53016,1,0,0:0:0:0:
64,192,53091,1,8,0:0:0:0:
192,192,53091,1,0,0:0:0:0:
320,192,53166,1,8,0:0:0:0:
448,192,53166,1,0,0:0:0:0:
64,192,53241,1,8,0:0:0:0:
192,192,53241,1,0,0:0:0:0:
320,192,53316,1,8,0:0:0:0:
448,192,53316,1,0,0:0:0:0:
192,192,53391,1,8,0:0:0:0:
64,192,53466,128,2,53691:0:0:0:0:
320,192,53466,1,4,0:0:0:0:
448,192,53466,1,0,0:0:0:0:
64,192,53766,1,8,0:0:0:0:
192,192,53766,1,0,0:0:0:70:Crash 2.wav
448,192,53766,128,0,53841:0:0:0:0:
448,192,53916,128,0,53991:0:0:0:0:
64,192,54066,1,2,0:0:0:0:
448,192,54066,128,0,54141:0:0:0:0:
64,192,54216,1,8,0:0:0:0:
192,192,54216,1,0,0:0:0:0:
448,192,54216,128,0,54366:0:0:0:0:
192,192,54366,1,2,0:0:0:0:
320,192,54366,1,0,0:0:0:0:
64,192,54516,1,8,0:0:0:0:
320,192,54516,1,0,0:0:0:0:
448,192,54516,128,0,54666:0:0:0:0:
64,192,54666,1,2,0:0:0:0:
192,192,54666,1,0,0:0:0:0:
192,192,54816,128,0,54891:0:0:0:0:
64,192,54966,1,8,0:0:0:0:
192,192,54966,128,0,55041:0:0:0:0:
448,192,54966,1,0,0:0:0:0:
192,192,55116,128,0,55191:0:0:0:0:
192,192,55266,128,2,55341:0:0:0:0:
320,192,55266,1,0,0:0:0:0:
192,192,55416,128,0,55566:0:0:0:0:
64,192,55566,1,8,0:0:0:0:
320,192,55566,1,0,0:0:0:0:
448,192,55566,1,0,0:0:0:0:
64,192,55716,1,8,0:0:0:0:
192,192,55716,1,0,0:0:0:0:
320,192,55791,1,8,0:0:0:0:
448,192,55791,1,0,0:0:0:0:
64,192,55866,1,2,0:0:0:0:
192,192,55866,128,0,56091:0:0:0:0:
64,192,56166,128,8,56241:0:0:0:0:
192,192,56166,1,0,0:0:0:0:
448,192,56166,1,0,0:0:0:0:
64,192,56316,128,0,56391:0:0:0:0:
64,192,56466,128,2,56541:0:0:0:0:
320,192,56466,1,0,0:0:0:0:
64,192,56616,128,8,56766:0:0:0:0:
192,192,56616,1,0,0:0:0:0:
448,192,56616,1,0,0:0:0:0:
192,192,56766,1,2,0:0:0:0:
320,192,56766,1,0,0:0:0:0:
64,192,56916,128,8,57066:0:0:0:0:
320,192,56916,1,0,0:0:0:0:
448,192,56916,1,0,0:0:0:0:
192,192,57066,1,2,0:0:0:0:
448,192,57066,1,0,0:0:0:0:
320,192,57216,128,0,57291:0:0:0:0:
64,192,57366,1,8,0:0:0:0:
320,192,57366,128,0,57441:0:0:0:0:
448,192,57366,1,0,0:0:0:0:
320,192,57516,128,0,57591:0:0:0:0:
64,192,57666,1,2,0:0:0:0:
320,192,57666,128,0,57741:0:0:0:0:
192,192,57816,128,8,57891:0:0:0:0:
320,192,57816,1,0,0:0:0:0:
64,192,57891,1,8,0:0:0:0:
448,192,57891,1,0,0:0:0:0:
192,192,57966,1,8,0:0:0:0:
320,192,57966,128,0,58041:0:0:0:0:
448,192,58041,1,8,0:0:0:0:
64,192,58116,1,8,0:0:0:0:
192,192,58116,128,0,58191:0:0:0:0:
320,192,58191,1,8,0:0:0:0:
448,192,58191,1,0,0:0:0:0:
64,192,58266,128,2,58491:0:0:0:0:
192,192,58266,1,4,0:0:0:0:
64,192,58566,1,8,0:0:0:0:
320,192,58566,1,0,0:0:0:0:
448,192,58566,128,0,58641:0:0:0:0:
448,192,58716,128,0,58791:0:0:0:0:
64,192,58866,1,2,0:0:0:0:
448,192,58866,128,0,58941:0:0:0:0:
64,192,59016,1,8,0:0:0:0:
192,192,59016,1,0,0:0:0:0:
448,192,59016,128,0,59166:0:0:0:0:
192,192,59166,1,2,0:0:0:0:
320,192,59166,1,0,0:0:0:0:
64,192,59316,1,8,0:0:0:0:
320,192,59316,1,0,0:0:0:0:
448,192,59316,128,0,59466:0:0:0:0:
64,192,59466,1,2,0:0:0:0:
192,192,59466,1,0,0:0:0:0:
320,192,59616,128,0,59691:0:0:0:0:
64,192,59766,1,8,0:0:0:0:
320,192,59766,128,0,59841:0:0:0:0:
448,192,59766,1,0,0:0:0:0:
320,192,59916,128,0,59991:0:0:0:0:
192,192,60066,1,2,0:0:0:0:
320,192,60066,128,0,60141:0:0:0:0:
320,192,60216,128,0,60366:0:0:0:0:
64,192,60366,1,8,0:0:0:0:
192,192,60366,1,0,0:0:0:0:
448,192,60366,1,0,0:0:0:0:
320,192,60516,128,8,60591:0:0:0:0:
448,192,60516,1,0,0:0:0:0:
64,192,60591,1,8,0:0:0:0:
192,192,60591,1,0,0:0:0:0:
320,192,60666,128,2,60891:0:0:0:0:
448,192,60666,1,0,0:0:0:0:
64,192,60966,1,8,0:0:0:0:
320,192,60966,1,0,0:0:0:0:
448,192,60966,1,0,0:0:0:0:
192,192,61116,128,0,61191:0:0:0:0:
192,192,61266,128,2,61341:0:0:0:0:
320,192,61266,1,0,0:0:0:0:
64,192,61416,1,8,0:0:0:0:
192,192,61416,128,0,61566:0:0:0:0:
448,192,61416,1,0,0:0:0:0:
320,192,61566,1,2,0:0:0:0:
448,192,61566,1,0,0:0:0:0:
64,192,61716,1,8,0:0:0:0:
192,192,61716,128,4,61866:0:0:0:0:
320,192,61716,1,0,0:0:0:0:
320,192,61866,1,2,0:0:0:0:
448,192,61866,1,0,0:0:0:0:
64,192,62016,128,8,62841:0:0:0:0:
192,192,62016,128,0,62241:0:0:0:70:Crash 2.wav
448,192,62016,1,0,0:0:0:0:
320,192,62166,128,2,62241:0:0:0:0:
192,192,62316,128,8,62391:0:0:0:0:
448,192,62316,1,4,0:0:0:0:
192,192,62466,1,2,0:0:0:0:
320,192,62466,128,0,62541:0:0:0:0:
320,192,62616,1,8,0:0:0:0:
448,192,62616,128,0,62691:0:0:0:60:Tom3.wav
192,192,62766,128,8,62841:0:0:0:0:
448,192,62766,1,0,0:0:0:60:Tom3.wav
64,192,62916,1,8,0:0:0:0:
192,192,62916,1,0,0:0:0:60:Tom3.wav
320,192,62916,1,0,0:0:0:0:
320,192,63066,128,2,63141:0:0:0:0:
448,192,63066,1,0,0:0:0:0:
64,192,63216,1,2,0:0:0:0:
192,192,63216,128,0,63291:0:0:0:0:
448,192,63291,1,2,0:0:0:0:
64,192,63366,128,2,63441:0:0:0:0:
320,192,63366,1,0,0:0:0:0:
320,192,63516,1,2,0:0:0:0:
448,192,63516,128,0,63591:0:0:0:0:
64,192,63591,1,2,0:0:0:0:
192,192,63666,1,8,0:0:0:0:
320,192,63666,1,0,0:0:0:0:
448,192,63666,1,0,0:0:0:0:
64,192,63816,128,2,63891:0:0:0:0:
192,192,63816,1,0,0:0:0:0:
64,192,63966,128,2,64041:0:0:0:0:
448,192,63966,1,0,0:0:0:0:
64,192,64116,128,8,64266:0:0:0:0:
320,192,64116,1,0,0:0:0:0:
448,192,64116,1,0,0:0:0:0:
192,192,64266,1,0,0:0:0:0:
64,192,64416,1,8,0:0:0:0:
320,192,64416,1,4,0:0:0:0:
448,192,64416,128,0,64491:0:0:0:0:
64,192,64566,1,8,0:0:0:0:
192,192,64566,1,4,0:0:0:0:
448,192,64566,128,0,64809:0:0:0:0:
64,192,64809,1,0,0:0:0:0:
192,192,64809,1,0,0:0:0:0:
320,192,64866,128,2,64941:0:0:0:0:
448,192,64866,1,0,0:0:0:0:
64,192,65016,1,8,0:0:0:0:
192,192,65016,128,0,65091:0:0:0:0:
448,192,65016,1,0,0:0:0:0:
64,192,65166,128,8,65241:0:0:0:0:
192,192,65166,1,0,0:0:0:0:
320,192,65166,1,0,0:0:0:0:
64,192,65316,1,8,0:0:0:0:
320,192,65316,1,0,0:0:0:0:
448,192,65316,128,0,65391:0:0:0:0:
192,192,65466,128,2,65541:0:0:0:0:
320,192,65466,1,4,0:0:0:0:
448,192,65466,1,0,0:0:0:0:
64,192,65616,1,2,0:0:0:0:
320,192,65616,128,0,65691:0:0:0:0:
192,192,65766,1,2,0:0:0:0:
448,192,65766,128,0,65841:0:0:0:0:
64,192,65916,128,2,65991:0:0:0:0:
320,192,65916,1,0,0:0:0:0:
64,192,66066,1,8,0:0:0:0:
192,192,66066,1,0,0:0:0:70:Crash 2.wav
448,192,66066,1,0,0:0:0:0:
192,192,66216,128,2,66291:0:0:0:0:
320,192,66216,1,0,0:0:0:0:
320,192,66366,128,2,66441:0:0:0:0:
448,192,66366,1,0,0:0:0:0:
64,192,66516,1,8,0:0:0:0:
192,192,66516,1,0,0:0:0:0:
448,192,66516,128,0,66666:0:0:0:0:
320,192,66666,1,0,0:0:0:0:
64,192,66816,128,8,66891:0:0:0:0:
192,192,66816,1,4,0:0:0:0:
448,192,66816,1,0,0:0:0:0:
64,192,66966,128,8,67166:0:0:0:0:
192,192,66966,1,4,0:0:0:0:
320,192,66966,1,0,0:0:0:0:
448,192,67166,1,8,0:0:0:0:
64,192,67266,1,8,0:0:0:0:
192,192,67266,1,0,0:0:0:0:
320,192,67366,1,8,0:0:0:0:
448,192,67366,1,0,0:0:0:0:
64,192,67466,1,0,0:0:0:60:Tom1.wav
448,192,67566,1,0,0:0:0:60:Tom1.wav
192,192,67666,1,0,0:0:0:60:Tom2.wav
320,192,67766,1,0,0:0:0:60:Tom2.wav
64,192,67866,128,2,67941:0:0:0:0:
192,192,67866,1,4,0:0:0:0:
448,192,67866,1,0,0:0:0:0:
192,192,68016,128,2,68091:0:0:0:0:
320,192,68016,1,0,0:0:0:0:
320,192,68166,128,2,68241:0:0:0:0:
448,192,68166,1,0,0:0:0:0:
64,192,68316,1,2,0:0:0:0:
448,192,68316,128,0,68391:0:0:0:0:
192,192,68466,1,0,0:0:0:0:
64,192,68616,1,8,0:0:0:0:
320,192,68616,128,4,68691:0:0:0:0:
448,192,68616,1,0,0:0:0:0:
192,192,68766,128,8,68841:0:0:0:0:
320,192,68766,1,0,0:0:0:0:
448,192,68766,1,0,0:0:0:0:
64,192,68916,128,2,68991:0:0:0:0:
192,192,68916,1,0,0:0:0:70:Crash 2.wav
448,192,68916,1,0,0:0:0:0:
320,192,69066,1,0,0:0:0:0:
64,192,69216,128,8,69291:0:0:0:0:
192,192,69216,1,0,0:0:0:0:
448,192,69216,1,0,0:0:0:0:
64,192,69366,1,8,0:0:0:0:
320,192,69366,1,0,0:0:0:0:
448,192,69366,128,0,69441:0:0:0:0:
192,192,69441,1,0,0:0:0:60:Tom1.wav
320,192,69516,128,0,69591:0:0:0:60:Tom2.wav
64,192,69591,1,0,0:0:0:60:Tom3.wav
192,192,69666,128,8,69741:0:0:0:0:
320,192,69666,1,0,0:0:0:0:
448,192,69666,1,0,0:0:0:0:
64,192,69816,128,2,69966:0:0:0:0:
448,192,69816,128,0,69966:0:0:0:60:Hat open.wav
64,192,70116,1,2,0:0:0:0:
192,192,70116,1,4,0:0:0:0:
320,192,70116,1,0,0:0:0:0:
448,192,70116,128,0,70491:0:0:0:0:
64,192,70416,1,2,0:0:0:0:
320,192,70416,1,0,0:0:0:0:
64,192,70566,128,8,70641:0:0:0:0:
192,192,70566,1,0,0:0:0:0:
448,192,70566,1,0,0:0:0:0:
64,192,70716,128,0,70791:0:0:0:0:
448,192,70791,1,0,0:0:0:60:Tom2.wav
64,192,70866,128,8,70941:0:0:0:0:
320,192,70866,1,0,0:0:0:60:Tom3.wav
64,192,71016,128,0,71091:0:0:0:60:Tom3.wav
192,192,71016,1,0,0:0:0:0:
192,192,71166,128,8,71241:0:0:0:0:
320,192,71166,1,0,0:0:0:0:
448,192,71166,1,0,0:0:0:0:
320,192,71316,128,0,71391:0:0:0:0:
64,192,71466,1,2,0:0:0:0:
448,192,71466,128,0,71541:0:0:0:60:Tom2.wav
192,192,71616,1,2,0:0:0:0:
448,192,71616,128,0,71691:0:0:0:0:
64,192,71766,1,8,0:0:0:0:
320,192,71766,1,4,0:0:0:0:
448,192,71766,128,0,71841:0:0:0:0:
192,192,71916,1,2,0:0:0:0:
448,192,71916,128,0,71991:0:0:0:0:
64,192,72066,1,8,0:0:0:0:
448,192,72066,1,0,0:0:0:0:
192,192,72141,1,0,0:0:0:60:Tom3.wav
320,192,72216,1,2,0:0:0:0:
64,192,72291,1,2,0:0:0:0:
320,192,72366,1,8,0:0:0:0:
448,192,72366,1,0,0:0:0:0:
64,192,72441,1,8,0:0:0:0:
192,192,72441,1,0,0:0:0:0:
320,192,72516,1,8,0:0:0:0:
448,192,72516,1,0,0:0:0:0:
64,192,72591,1,8,0:0:0:0:
192,192,72591,1,0,0:0:0:0:
320,192,72666,1,0,0:0:0:0:
448,192,72666,128,0,74166:0:0:0:0:
64,192,72766,128,0,73866:0:0:0:0:
192,192,73866,128,0,74166:0:0:0:0:
320,192,74166,128,0,74316:0:0:0:0:
448,192,74316,128,0,74616:0:0:0:0:
64,192,74541,128,0,74991:0:0:0:0:
192,192,74616,128,0,74991:0:0:0:0:
64,192,75066,1,2,0:0:0:0:
320,192,75066,1,4,0:0:0:0:
448,192,75066,1,0,0:0:0:0:
192,192,75216,1,0,0:0:0:60:Tom1.wav
448,192,75291,1,0,0:0:0:60:Tom2.wav
64,192,75366,1,0,0:0:0:60:Tom3.wav
192,192,75366,1,0,0:0:0:0:
320,192,75441,1,2,0:0:0:0:
64,192,75516,1,8,0:0:0:0:
192,192,75516,1,0,0:0:0:70:Crash 2.wav
448,192,75516,1,0,0:0:0:0:
320,192,75666,1,0,0:0:0:60:Tom1.wav
64,192,75741,1,0,0:0:0:60:Tom2.wav
320,192,75816,1,0,0:0:0:60:Tom3.wav
448,192,75816,1,0,0:0:0:0:
192,192,75891,1,2,0:0:0:0:
64,192,75966,1,8,0:0:0:0:
320,192,75966,1,4,0:0:0:0:
448,192,75966,1,0,0:0:0:0:
64,192,76116,1,2,0:0:0:0:
192,192,76116,1,0,0:0:0:60:Hat open.wav
448,192,76116,1,0,0:0:0:0:
320,192,76866,128,0,76941:0:0:0:0:
448,192,76866,128,0,77091:0:0:0:0:
64,192,76941,128,0,77016:0:0:0:0:
192,192,77016,128,0,77091:0:0:0:0:
320,192,77091,128,0,77166:0:0:0:0:
64,192,77166,128,0,77391:0:0:0:0:
192,192,77166,128,0,77241:0:0:0:0:
448,192,77241,128,0,77316:0:0:0:0:
320,192,77316,128,0,77391:0:0:0:0:
192,192,77391,128,0,77466:0:0:0:0:
64,192,77466,1,2,0:0:0:0:
320,192,77466,1,4,0:0:0:0:
448,192,77466,128,0,77991:0:0:0:0:
64,192,77766,128,8,77991:0:0:0:0:
192,192,77766,1,0,0:0:0:0:
320,192,77766,1,0,0:0:0:0:
320,192,77916,128,0,77991:0:0:0:0:
192,192,78066,128,2,78291:0:0:0:0:
448,192,78066,1,0,0:0:0:0:
64,192,78366,1,8,0:0:0:0:
320,192,78366,128,0,78591:0:0:0:0:
448,192,78366,1,0,0:0:0:0:
192,192,78516,128,0,78591:0:0:0:0:
192,192,78666,1,2,0:0:0:0:
448,192,78666,128,0,78891:0:0:0:0:
64,192,78966,128,8,79341:0:0:0:0:
320,192,78966,1,0,0:0:0:0:
448,192,78966,1,0,0:0:0:0:
192,192,79116,128,0,79341:0:0:0:0:
320,192,79266,1,2,0:0:0:0:
448,192,79266,1,0,0:0:0:0:
320,192,79416,128,0,79641:0:0:0:0:
64,192,79566,1,8,0:0:0:0:
192,192,79566,1,0,0:0:0:0:
448,192,79566,128,0,79641:0:0:0:0:
192,192,79716,128,0,80091:0:0:0:0:
64,192,79866,128,2,80091:0:0:0:0:
448,192,79866,1,0,0:0:0:0:
64,192,80166,1,8,0:0:0:0:
320,192,80166,128,0,80391:0:0:0:0:
448,192,80166,1,0,0:0:0:0:
192,192,80466,1,2,0:0:0:0:
448,192,80466,128,0,80691:0:0:0:0:
64,192,80766,128,8,80991:0:0:0:0:
320,192,80766,1,0,0:0:0:0:
448,192,80766,1,0,0:0:0:0:
64,192,81066,1,2,0:0:0:0:
448,192,81066,128,0,81666:0:0:0:0:
64,192,81366,1,8,0:0:0:0:
192,192,81366,1,0,0:0:0:0:
320,192,81366,1,0,0:0:0:0:
64,192,81666,1,2,0:0:0:0:
192,192,81666,1,0,0:0:0:0:
320,192,81816,128,0,81891:0:0:0:0:
64,192,81966,1,8,0:0:0:0:
192,192,81966,128,0,82041:0:0:0:0:
448,192,81966,1,0,0:0:0:0:
64,192,82116,128,0,82191:0:0:0:0:
192,192,82266,128,2,82341:0:0:0:0:
320,192,82266,1,4,0:0:0:0:
448,192,82266,1,0,0:0:0:0:
320,192,82416,128,0,82491:0:0:0:0:
64,192,82566,1,8,0:0:0:0:
192,192,82566,128,0,82641:0:0:0:0:
448,192,82566,1,0,0:0:0:0:
320,192,82716,128,0,82791:0:0:0:0:
192,192,82866,1,2,0:0:0:0:
448,192,82866,128,0,83091:0:0:0:0:
64,192,83166,1,8,0:0:0:0:
320,192,83166,128,0,83241:0:0:0:0:
448,192,83166,1,0,0:0:0:0:
192,192,83316,128,0,83391:0:0:0:0:
64,192,83466,1,2,0:0:0:0:
320,192,83466,128,0,83541:0:0:0:0:
192,192,83616,128,0,83691:0:0:0:0:
64,192,83766,128,8,84066:0:0:0:0:
320,192,83766,1,0,0:0:0:0:
448,192,83766,1,0,0:0:0:0:
192,192,84066,1,2,0:0:0:0:
320,192,84066,1,0,0:0:0:0:
448,192,84216,128,0,84291:0:0:0:0:
64,192,84366,1,8,0:0:0:0:
192,192,84366,1,0,0:0:0:0:
320,192,84366,128,0,84441:0:0:0:0:
192,192,84516,128,0,84591:0:0:0:0:
64,192,84666,128,2,84816:0:0:0:0:
448,192,84666,1,0,0:0:0:0:
448,192,84891,128,0,85191:0:0:0:0:
64,192,84966,1,8,0:0:0:0:
192,192,84966,1,0,0:0:0:0:
320,192,84966,128,0,85191:0:0:0:0:
64,192,85116,128,0,85416:0:0:0:0:
192,192,85266,128,2,85416:0:0:0:0:
320,192,85266,1,0,0:0:0:0:
448,192,85416,1,2,0:0:0:0:
320,192,85491,128,0,85791:0:0:0:0:
64,192,85566,1,8,0:0:0:0:
192,192,85566,1,0,0:0:0:0:
448,192,85566,1,0,0:0:0:0:
64,192,85716,1,2,0:0:0:0:
192,192,85716,1,0,0:0:0:0:
448,192,85791,1,2,0:0:0:0:
64,192,85866,1,8,0:0:0:0:
192,192,85866,1,4,0:0:0:0:
320,192,85866,1,0,0:0:0:0:
320,192,86016,1,2,0:0:0:0:
448,192,86016,1,0,0:0:0:0:
64,192,86166,1,8,0:0:0:0:
192,192,86166,1,4,0:0:0:0:
448,192,86166,1,0,0:0:0:0:
320,192,86466,1,8,0:0:0:0:
448,192,86466,1,2,0:0:0:0:
64,192,86541,1,8,0:0:0:0:
192,192,86541,1,0,0:0:0:0:
320,192,86616,1,8,0:0:0:0:
448,192,86616,1,0,0:0:0:0:
64,192,86691,1,8,0:0:0:0:
192,192,86691,1,0,0:0:0:0:
320,192,86766,1,8,0:0:0:0:
448,192,86766,1,2,0:0:0:0:
64,192,86841,1,8,0:0:0:0:
192,192,86841,1,0,0:0:0:0:
320,192,86916,1,8,0:0:0:0:
448,192,86916,1,0,0:0:0:0:
192,192,86991,1,8,0:0:0:0:
64,192,87066,1,2,0:0:0:0:
320,192,87066,128,4,87141:0:0:0:0:
448,192,87066,1,0,0:0:0:0:
192,192,87216,128,0,87291:0:0:0:0:
64,192,87366,128,8,87591:0:0:0:0:
320,192,87366,1,0,0:0:0:0:
448,192,87366,1,0,0:0:0:0:
192,192,87666,128,2,87891:0:0:0:0:
320,192,87666,1,0,0:0:0:0:
64,192,87966,1,8,0:0:0:0:
192,192,87966,1,0,0:0:0:0:
320,192,87966,128,0,88191:0:0:0:0:
448,192,88116,128,0,88191:0:0:0:0:
192,192,88266,128,2,88491:0:0:0:0:
448,192,88266,1,0,0:0:0:0:
64,192,88566,128,8,89091:0:0:0:0:
192,192,88566,1,0,0:0:0:0:
320,192,88566,1,0,0:0:0:0:
448,192,88716,128,0,89091:0:0:0:0:
192,192,88866,1,2,0:0:0:0:
320,192,88866,1,0,0:0:0:0:
192,192,89016,128,0,89091:0:0:0:0:
64,192,89166,1,8,0:0:0:0:
320,192,89166,128,0,89241:0:0:0:0:
448,192,89166,1,0,0:0:0:0:
448,192,89316,128,0,89391:0:0:0:0:
64,192,89466,128,2,89691:0:0:0:0:
320,192,89466,1,0,0:0:0:0:
64,192,89766,1,8,0:0:0:0:
192,192,89766,128,0,89991:0:0:0:0:
448,192,89766,1,0,0:0:0:0:
192,192,90066,1,2,0:0:0:0:
320,192,90066,128,0,90291:0:0:0:0:
64,192,90366,1,8,0:0:0:0:
320,192,90366,1,0,0:0:0:0:
448,192,90366,128,0,90591:0:0:0:0:
64,192,90666,128,2,91266:0:0:0:0:
448,192,90666,1,0,0:0:0:0:
192,192,90966,1,8,0:0:0:0:
320,192,90966,1,0,0:0:0:0:
448,192,90966,1,0,0:0:0:0:
192,192,91266,1,2,0:0:0:0:
320,192,91266,1,0,0:0:0:0:
448,192,91416,128,0,91641:0:0:0:0:
64,192,91566,128,8,91791:0:0:0:0:
192,192,91566,1,0,0:0:0:0:
320,192,91566,1,0,0:0:0:0:
192,192,91716,128,8,91791:0:0:0:0:
448,192,91716,1,0,0:0:0:0:
320,192,91791,1,8,0:0:0:0:
64,192,91866,1,2,0:0:0:0:
192,192,91866,1,4,0:0:0:0:
448,192,91866,128,0,92091:0:0:0:0:
320,192,92016,128,0,92091:0:0:0:0:
192,192,92166,128,8,92241:0:0:0:0:
320,192,92166,1,0,0:0:0:0:
448,192,92166,1,0,0:0:0:0:
64,192,92316,128,0,92391:0:0:0:0:
64,192,92466,1,2,0:0:0:0:
448,192,92466,128,0,92691:0:0:0:0:
64,192,92766,128,8,92991:0:0:0:0:
320,192,92766,1,0,0:0:0:0:
448,192,92766,1,0,0:0:0:0:
192,192,92916,128,0,92991:0:0:0:0:
64,192,93066,1,2,0:0:0:0:
320,192,93066,128,0,93141:0:0:0:0:
448,192,93216,128,0,93291:0:0:0:0:
64,192,93366,128,8,93591:0:0:0:0:
320,192,93366,1,0,0:0:0:0:
448,192,93366,1,0,0:0:0:0:
64,192,93666,1,2,0:0:0:0:
192,192,93666,128,0,93816:0:0:0:0:
192,192,93891,128,0,94191:0:0:0:0:
64,192,93966,1,8,0:0:0:0:
320,192,93966,1,0,0:0:0:0:
448,192,93966,1,0,0:0:0:0:
448,192,94116,128,0,94416:0:0:0:0:
64,192,94266,128,2,94416:0:0:0:0:
192,192,94266,1,4,0:0:0:0:
320,192,94266,1,0,0:0:0:0:
192,192,94491,128,8,94641:0:0:0:0:
448,192,94491,1,0,0:0:0:0:
64,192,94566,1,2,0:0:0:0:
320,192,94566,1,0,0:0:0:0:
192,192,94716,1,8,0:0:0:0:
320,192,94716,128,0,95016:0:0:0:0:
64,192,94866,1,2,0:0:0:0:
192,192,94866,1,4,0:0:0:0:
448,192,94866,128,0,95016:0:0:0:0:
64,192,95091,1,8,0:0:0:0:
448,192,95091,1,0,0:0:0:0:
192,192,95166,128,2,95241:0:0:0:0:
320,192,95166,1,0,0:0:0:0:
64,192,95316,128,8,95391:0:0:0:0:
192,192,95316,1,0,0:0:0:0:
448,192,95316,1,0,0:0:0:0:
64,192,95466,1,2,0:0:0:0:
448,192,95466,128,0,95841:0:0:0:0:
192,192,95616,1,2,0:0:0:0:
320,192,95616,1,0,0:0:0:0:
64,192,95766,1,8,0:0:0:0:
192,192,95766,1,0,0:0:0:70:Crash 2.wav
320,192,95766,1,0,0:0:0:0:
64,192,95916,128,0,96141:0:0:0:0:
192,192,96066,1,2,0:0:0:0:
448,192,96066,128,0,96291:0:0:0:0:
320,192,96141,1,8,0:0:0:0:
64,192,96216,1,8,0:0:0:0:
192,192,96216,1,0,0:0:0:0:
320,192,96291,1,8,0:0:0:0:
64,192,96366,1,8,0:0:0:0:
448,192,96366,1,2,0:0:0:0:
192,192,96441,1,8,0:0:0:0:
320,192,96441,1,0,0:0:0:0:
64,192,96516,1,8,0:0:0:0:
448,192,96516,1,0,0:0:0:0:
192,192,96591,1,8,0:0:0:0:
64,192,96666,1,2,0:0:0:0:
320,192,96666,128,4,96741:0:0:0:0:
448,192,96666,1,0,0:0:0:0:
192,192,96816,128,0,96891:0:0:0:0:
448,192,96816,128,0,97041:0:0:0:0:
64,192,96966,1,8,0:0:0:0:
192,192,96966,1,0,0:0:0:70:Crash 2.wav
320,192,96966,128,0,97041:0:0:0:0:
64,192,97116,128,0,97341:0:0:0:0:
448,192,97116,128,0,97191:0:0:0:0:
192,192,97266,128,2,97341:0:0:0:0:
320,192,97266,1,0,0:0:0:0:
320,192,97416,128,0,97641:0:0:0:0:
448,192,97416,128,0,97491:0:0:0:0:
64,192,97566,1,8,0:0:0:0:
192,192,97566,128,0,97641:0:0:0:0:
448,192,97566,1,0,0:0:0:0:
448,192,97716,128,0,98091:0:0:0:0:
64,192,97866,1,2,0:0:0:0:
320,192,97866,128,0,98091:0:0:0:0:
64,192,98166,128,8,98541:0:0:0:0:
320,192,98166,1,0,0:0:0:0:
448,192,98166,1,0,0:0:0:0:
192,192,98316,128,0,98541:0:0:0:0:
320,192,98466,1,2,0:0:0:0:
448,192,98466,1,0,0:0:0:0:
320,192,98616,128,0,98991:0:0:0:0:
64,192,98766,1,8,0:0:0:0:
192,192,98766,1,0,0:0:0:0:
448,192,98766,1,0,0:0:0:0:
64,192,98916,128,0,99141:0:0:0:0:
192,192,99066,128,2,99141:0:0:0:0:
448,192,99066,1,0,0:0:0:0:
320,192,99216,128,0,99291:0:0:0:0:
448,192,99216,128,0,99441:0:0:0:0:
64,192,99366,128,8,99441:0:0:0:0:
192,192,99366,1,0,0:0:0:0:
320,192,99366,1,0,0:0:0:0:
192,192,99516,128,0,99591:0:0:0:0:
320,192,99516,128,0,99741:0:0:0:0:
64,192,99666,1,2,0:0:0:0:
448,192,99666,128,0,99741:0:0:0:0:
192,192,99816,128,0,100041:0:0:0:0:
320,192,99816,128,0,99891:0:0:0:0:
64,192,99966,128,8,100041:0:0:0:0:
320,192,99966,1,0,0:0:0:0:
448,192,99966,1,0,0:0:0:0:
64,192,100116,128,0,100491:0:0:0:0:
192,192,100266,1,2,0:0:0:0:
448,192,100266,128,0,100491:0:0:0:0:
64,192,100566,1,8,0:0:0:0:
320,192,100566,128,0,100941:0:0:0:0:
448,192,100566,1,0,0:0:0:0:
64,192,100716,128,0,100941:0:0:0:0:
192,192,100866,1,2,0:0:0:0:
448,192,100866,1,0,0:0:0:0:
192,192,101016,128,0,101391:0:0:0:0:
64,192,101166,1,8,0:0:0:0:
320,192,101166,1,0,0:0:0:0:
448,192,101166,1,0,0:0:0:0:
64,192,101466,1,2,0:0:0:0:
192,192,101466,1,0,0:0:0:0:
320,192,101616,128,0,101691:0:0:0:0:
192,192,101766,128,8,101841:0:0:0:0:
320,192,101766,1,0,0:0:0:0:
448,192,101766,1,0,0:0:0:0:
64,192,101916,128,0,102441:0:0:0:0:
320,192,102066,1,2,0:0:0:0:
448,192,102066,1,0,0:0:0:0:
192,192,102216,128,0,102291:0:0:0:0:
192,192,102366,1,8,0:0:0:0:
320,192,102366,128,0,102441:0:0:0:0:
448,192,102366,1,0,0:0:0:0:
448,192,102516,128,0,102741:0:0:0:0:
64,192,102666,128,2,102741:0:0:0:0:
320,192,102666,1,0,0:0:0:0:
192,192,102816,128,0,102891:0:0:0:0:
64,192,102966,1,8,0:0:0:0:
320,192,102966,128,0,103041:0:0:0:0:
448,192,102966,1,0,0:0:0:0:
192,192,103116,128,0,103191:0:0:0:0:
64,192,103266,1,2,0:0:0:0:
320,192,103266,128,0,103341:0:0:0:0:
448,192,103416,128,0,103491:0:0:0:0:
64,192,103566,128,8,103866:0:0:0:0:
320,192,103566,1,0,0:0:0:0:
448,192,103566,1,0,0:0:0:0:
192,192,103866,1,2,0:0:0:0:
320,192,103866,1,0,0:0:0:0:
448,192,104016,128,0,104091:0:0:0:0:
64,192,104166,1,8,0:0:0:0:
320,192,104166,128,0,104241:0:0:0:0:
448,192,104166,1,0,0:0:0:0:
192,192,104316,128,0,104691:0:0:0:0:
64,192,104466,1,2,0:0:0:0:
448,192,104466,1,0,0:0:0:0:
320,192,104616,128,0,104691:0:0:0:0:
448,192,104616,128,0,104691:0:0:0:0:
64,192,104766,1,8,0:0:0:0:
192,192,104766,128,0,104841:0:0:0:0:
320,192,104766,128,0,104841:0:0:0:0:
64,192,104916,128,0,104991:0:0:0:0:
192,192,104916,128,0,104991:0:0:0:0:
320,192,105066,128,2,105141:0:0:0:0:
448,192,105066,128,0,105291:0:0:0:0:
64,192,105216,128,2,105441:0:0:0:0:
192,192,105216,128,0,105291:0:0:0:0:
192,192,105366,1,8,0:0:0:0:
320,192,105366,128,0,105441:0:0:0:0:
448,192,105366,128,0,105441:0:0:0:0:
64,192,105516,128,8,105741:0:0:0:0:
320,192,105516,128,0,105591:0:0:0:0:
192,192,105591,1,8,0:0:0:0:
320,192,105666,128,8,105891:0:0:0:0:
448,192,105666,128,0,105891:0:0:0:0:
64,192,105816,1,0,0:0:0:60:Tom1.wav
64,192,105966,128,0,106191:0:0:0:60:Tom2.wav
192,192,105966,128,0,106191:0:0:0:0:
448,192,106116,1,0,0:0:0:60:Tom3.wav
64,192,106266,1,2,0:0:0:0:
192,192,106266,1,4,0:0:0:0:
448,192,106266,1,0,0:0:0:0:
64,192,106416,1,2,0:0:0:0:
320,192,106416,1,0,0:0:0:0:
192,192,106566,128,2,106641:0:0:0:0:
320,192,106716,128,2,106791:0:0:0:0:
64,192,106866,1,8,0:0:0:0:
192,192,106866,128,0,106941:0:0:0:0:
448,192,106866,1,0,0:0:0:0:
64,192,107016,128,2,107091:0:0:0:0:
320,192,107016,1,4,0:0:0:0:
192,192,107166,128,0,107241:0:0:0:0:
64,192,107316,1,8,0:0:0:0:
320,192,107316,128,0,107391:0:0:0:0:
448,192,107316,1,0,0:0:0:0:
192,192,107466,1,2,0:0:0:0:
448,192,107466,128,0,107691:0:0:0:70:Crash 2.wav
64,192,107616,1,8,0:0:0:0:
192,192,107616,1,0,0:0:0:0:
320,192,107616,1,0,0:0:0:0:
64,192,107766,128,2,108291:0:0:0:0:
448,192,107766,1,0,0:0:0:0:
192,192,107916,128,2,108291:0:0:0:0:
320,192,107916,1,0,0:0:0:0:
320,192,108066,1,8,0:0:0:0:
448,192,108066,1,0,0:0:0:0:
320,192,108216,1,2,0:0:0:0:
448,192,108216,1,4,0:0:0:0:
448,192,108366,128,0,108591:0:0:0:0:
64,192,108516,1,8,0:0:0:0:
192,192,108516,1,0,0:0:0:0:
320,192,108516,1,0,0:0:0:0:
64,192,108666,1,2,0:0:0:0:
192,192,108666,1,0,0:0:0:70:Crash 2.wav
448,192,108666,1,0,0:0:0:0:
320,192,108816,1,2,0:0:0:0:
448,192,108816,1,0,0:0:0:0:
64,192,108966,1,2,0:0:0:0:
320,192,108966,128,0,109041:0:0:0:0:
192,192,109116,128,2,109191:0:0:0:0:
448,192,109116,1,0,0:0:0:0:
64,192,109266,1,8,0:0:0:0:
192,192,109266,1,0,0:0:0:0:
320,192,109266,128,0,109341:0:0:0:0:
64,192,109416,1,2,0:0:0:0:
320,192,109416,1,4,0:0:0:0:
448,192,109416,128,0,109491:0:0:0:0:
320,192,109566,128,0,109641:0:0:0:0:
64,192,109716,1,8,0:0:0:0:
192,192,109716,128,0,109791:0:0:0:0:
448,192,109716,1,0,0:0:0:0:
64,192,109866,128,2,110091:0:0:0:0:
192,192,109866,1,0,0:0:0:70:Crash 2.wav
320,192,109866,1,0,0:0:0:0:
320,192,110016,1,8,0:0:0:0:
448,192,110016,1,0,0:0:0:0:
64,192,110166,1,2,0:0:0:0:
192,192,110166,1,0,0:0:0:0:
448,192,110166,128,0,110466:0:0:0:0:
192,192,110316,1,2,0:0:0:0:
320,192,110316,128,0,110466:0:0:0:0:
64,192,110466,1,8,0:0:0:0:
192,192,110466,1,0,0:0:0:0:
320,192,110541,1,0,0:0:0:60:Tom1.wav
64,192,110616,128,2,110841:0:0:0:0:
448,192,110616,1,0,0:0:0:0:
192,192,110691,1,2,0:0:0:0:
320,192,110766,1,8,0:0:0:0:
448,192,110766,1,0,0:0:0:70:Crash 2.wav
192,192,110916,128,0,111291:0:0:0:0:
64,192,111066,1,2,0:0:0:0:
320,192,111066,1,4,0:0:0:0:
448,192,111066,128,0,111291:0:0:0:0:
64,192,111366,1,8,0:0:0:0:
192,192,111366,1,0,0:0:0:0:
320,192,111366,128,0,111741:0:0:0:0:
64,192,111516,128,0,111741:0:0:0:0:
192,192,111666,1,2,0:0:0:0:
448,192,111666,1,0,0:0:0:0:
64,192,111816,1,8,0:0:0:0:
192,192,111816,1,0,0:0:0:0:
320,192,111891,1,8,0:0:0:0:
448,192,111891,1,0,0:0:0:0:
64,192,111966,1,8,0:0:0:0:
192,192,111966,1,0,0:0:0:0:
320,192,112041,1,8,0:0:0:0:
448,192,112041,1,0,0:0:0:0:
64,192,112116,1,8,0:0:0:0:
192,192,112116,1,0,0:0:0:0:
320,192,112191,1,8,0:0:0:0:
448,192,112191,1,0,0:0:0:0:
64,192,112266,128,2,112341:0:0:0:0:
192,192,112266,128,0,112341:0:0:0:0:
64,192,112566,128,0,112641:0:0:0:0:
192,192,112566,128,0,112641:0:0:0:0:
64,192,112866,1,2,0:0:0:0:
448,192,112866,1,0,0:0:0:60:Hat open.wav
320,192,113016,1,8,0:0:0:0:
448,192,113016,1,0,0:0:0:0:
64,192,113091,1,8,0:0:0:0:
192,192,113091,1,0,0:0:0:0:
320,192,113166,1,8,0:0:0:0:
448,192,113166,1,0,0:0:0:0:
64,192,113241,1,8,0:0:0:0:
192,192,113241,1,0,0:0:0:0:
320,192,113316,1,8,0:0:0:0:
448,192,113316,1,0,0:0:0:0:
192,192,113391,1,8,0:0:0:0:
64,192,113466,128,2,114591:0:0:0:0:
320,192,113466,128,4,113541:0:0:0:0:
448,192,113466,1,0,0:0:0:0:
320,192,113616,128,0,113691:0:0:0:0:
320,192,113766,128,8,113841:0:0:0:0:
448,192,113766,1,0,0:0:0:0:
192,192,113916,128,0,113991:0:0:0:0:
192,192,114066,128,2,114141:0:0:0:0:
320,192,114066,1,0,0:0:0:0:
192,192,114216,128,0,114291:0:0:0:0:
320,192,114366,128,8,114441:0:0:0:0:
448,192,114366,1,0,0:0:0:0:
320,192,114516,128,0,114591:0:0:0:0:
192,192,114666,128,2,115791:0:0:0:0:
448,192,114666,128,0,114741:0:0:0:0:
448,192,114816,128,0,114891:0:0:0:0:
64,192,114966,1,8,0:0:0:0:
448,192,114966,128,0,115041:0:0:0:0:
320,192,115116,128,0,115191:0:0:0:0:
320,192,115266,128,2,115341:0:0:0:0:
448,192,115266,1,0,0:0:0:0:
320,192,115416,128,0,115491:0:0:0:0:
64,192,115566,128,8,115641:0:0:0:0:
448,192,115566,1,0,0:0:0:0:
64,192,115716,128,0,115791:0:0:0:0:
192,192,115866,128,2,115941:0:0:0:0:
320,192,115866,128,0,116991:0:0:0:0:
192,192,116016,128,0,116091:0:0:0:0:
64,192,116166,1,8,0:0:0:0:
192,192,116166,128,0,116241:0:0:0:0:
448,192,116316,128,0,116391:0:0:0:0:
192,192,116466,1,2,0:0:0:0:
448,192,116466,128,0,116541:0:0:0:0:
448,192,116616,128,0,116691:0:0:0:0:
64,192,116766,128,8,116841:0:0:0:0:
192,192,116766,1,0,0:0:0:0:
64,192,116916,128,0,116991:0:0:0:0:
192,192,117066,128,2,117141:0:0:0:0:
448,192,117066,128,0,117441:0:0:0:0:
192,192,117216,128,0,117291:0:0:0:0:
64,192,117366,1,8,0:0:0:0:
192,192,117366,128,0,117441:0:0:0:0:
64,192,117516,128,0,118191:0:0:0:0:
320,192,117516,128,0,117591:0:0:0:0:
320,192,117666,128,2,117741:0:0:0:0:
448,192,117666,1,0,0:0:0:0:
320,192,117816,128,0,117891:0:0:0:0:
192,192,117966,1,8,0:0:0:0:
448,192,117966,128,0,118041:0:0:0:0:
320,192,118116,1,8,0:0:0:0:
448,192,118116,128,0,118191:0:0:0:0:
192,192,118191,1,8,0:0:0:0:
64,192,118266,128,2,118341:0:0:0:0:
448,192,118266,1,0,0:0:0:0:
192,192,118416,128,0,118491:0:0:0:0:
64,192,118566,1,8,0:0:0:0:
320,192,118566,128,0,118641:0:0:0:0:
448,192,118566,1,0,0:0:0:0:
192,192,118716,128,0,118791:0:0:0:0:
64,192,118866,1,2,0:0:0:0:
320,192,118866,128,0,118941:0:0:0:0:
192,192,119016,1,2,0:0:0:0:
448,192,119016,128,0,119241:0:0:0:0:
64,192,119166,1,8,0:0:0:0:
192,192,119166,1,0,0:0:0:0:
320,192,119166,1,0,0:0:0:0:
64,192,119316,128,2,119541:0:0:0:0:
192,192,119316,128,4,119541:0:0:0:0:
448,192,119316,1,0,0:0:0:0:
64,192,119616,1,8,0:0:0:0:
192,192,119616,128,0,119691:0:0:0:60:Tom3.wav
320,192,119616,128,0,119691:0:0:0:0:
192,192,119766,1,8,0:0:0:0:
320,192,119766,128,0,119841:0:0:0:60:Tom3.wav
448,192,119766,128,0,119841:0:0:0:0:
64,192,119916,128,8,120141:0:0:0:0:
192,192,119916,128,0,120141:0:0:0:60:Tom3.wav
448,192,119916,1,0,0:0:0:0:
320,192,120066,1,2,0:0:0:0:
448,192,120066,1,0,0:0:0:0:
64,192,120216,128,8,120291:0:0:0:0:
192,192,120216,1,0,0:0:0:60:Tom3.wav
448,192,120216,128,0,120591:0:0:0:0:
64,192,120366,1,8,0:0:0:0:
192,192,120366,128,0,120441:0:0:0:60:Tom3.wav
320,192,120366,1,0,0:0:0:0:
64,192,120516,1,8,0:0:0:0:
192,192,120516,1,0,0:0:0:60:Tom3.wav
320,192,120516,128,0,120591:0:0:0:0:
64,192,120666,1,4,0:0:0:0:
320,192,120666,1,2,0:0:0:0:
448,192,120666,1,0,0:0:0:0:
320,192,120816,1,8,0:0:0:0:
448,192,120816,1,0,0:0:0:0:
64,192,120891,1,8,0:0:0:0:
192,192,120891,1,0,0:0:0:0:
320,192,120966,1,8,0:0:0:0:
448,192,120966,1,0,0:0:0:0:
64,192,121041,1,8,0:0:0:0:
192,192,121041,1,0,0:0:0:0:
320,192,121116,1,2,0:0:0:0:
64,192,121191,1,2,0:0:0:0:
192,192,121266,1,8,0:0:0:0:
320,192,121266,1,0,0:0:0:0:
448,192,121266,1,0,0:0:0:0:
64,192,121491,128,2,121641:0:0:0:0:
320,192,121491,1,4,0:0:0:0:
448,192,121491,1,0,0:0:0:0:
64,192,121716,1,2,0:0:0:0:
192,192,121716,128,0,121941:0:0:0:70:Crash 2.wav
448,192,121716,1,0,0:0:0:0:
192,192,122016,1,2,0:0:0:0:
448,192,122016,1,0,0:0:0:0:
320,192,122091,1,2,0:0:0:0:
64,192,122166,1,8,0:0:0:0:
192,192,122166,1,4,0:0:0:0:
448,192,122166,128,0,122466:0:0:0:0:
64,192,122466,128,0,122766:0:0:0:0:
448,192,122541,1,0,0:0:0:0:
320,192,122616,1,0,0:0:0:0:
192,192,122691,1,0,0:0:0:0:
448,192,122766,1,0,0:0:0:0:
64,192,123066,1,2,0:0:0:0:
192,192,123066,1,4,0:0:0:0:
320,192,123066,128,0,123216:0:0:0:0:
448,192,123066,1,0,0:0:0:0:
192,192,123216,128,0,123366:0:0:0:0:
64,192,123366,128,0,123516:0:0:0:0:
448,192,123516,128,0,124266:0:0:0:0:
64,192,123966,1,0,0:0:0:0:
192,192,124866,1,0,0:0:0:0:
320,192,125066,128,0,125316:0:0:0:0:
192,192,125316,128,0,125466:0:0:0:0:
64,192,125466,128,0,125616:0:0:0:0:
448,192,125666,128,0,125816:0:0:0:0:
320,192,125866,128,0,126016:0:0:0:0:
320,192,126066,128,0,126216:0:0:0:0:
192,192,126266,128,0,126416:0:0:0:0:
192,192,126466,128,0,126616:0:0:0:0:
64,192,126666,128,0,126816:0:0:0:0:
192,192,126866,128,0,127016:0:0:0:0:
192,192,127066,128,0,127216:0:0:0:0:
320,192,127266,128,0,127416:0:0:0:0:
320,192,127466,128,0,127616:0:0:0:0:
448,192,127666,128,0,128466:0:0:0:0:
192,192,127866,1,0,0:0:0:0:
64,192,128466,1,0,0:0:0:0:
320,192,128916,128,0,129666:0:0:0:0:
448,192,128916,1,0,0:0:0:0:
64,192,129366,1,0,0:0:0:0:
192,192,129666,128,0,129891:0:0:0:0:
64,192,129891,128,0,130116:0:0:0:0:
448,192,130116,128,0,130266:0:0:0:0:
192,192,130266,128,0,130341:0:0:0:0:
320,192,130341,128,0,130416:0:0:0:0:
192,192,130416,128,0,130491:0:0:0:0:
320,192,130491,128,0,130566:0:0:0:0:
192,192,130566,128,0,130641:0:0:0:0:
320,192,130641,128,0,130716:0:0:0:0:
192,192,130716,128,0,130791:0:0:0:0:
320,192,130791,128,0,130866:0:0:0:0:
64,192,130866,128,0,131466:0:0:0:0:
192,192,130866,128,0,131466:0:0:0:0:
448,192,131166,128,0,131466:0:0:0:0:
320,192,132066,1,8,0:0:0:0:
448,192,132066,1,0,0:0:0:0:
64,192,132141,1,8,0:0:0:0:
192,192,132141,1,0,0:0:0:0:
448,192,132216,1,2,0:0:0:0:
64,192,132291,1,2,0:0:0:0:
320,192,132366,1,0,0:0:0:60:Tom1.wav
192,192,132441,1,0,0:0:0:60:Tom1.wav
448,192,132516,1,2,0:0:0:0:
320,192,132591,1,2,0:0:0:0:
64,192,132666,1,8,0:0:0:0:
192,192,132666,1,0,0:0:0:0:
448,192,132741,1,2,0:0:0:0:
64,192,132816,1,2,0:0:0:0:
192,192,132891,1,2,0:0:0:0:
64,192,132966,1,8,0:0:0:0:
320,192,132966,128,4,133191:0:0:0:0:
448,192,132966,1,0,0:0:0:0:
192,192,133266,128,2,133341:0:0:0:0:
320,192,133266,1,0,0:0:0:0:
64,192,133416,1,8,0:0:0:0:
192,192,133416,128,0,133491:0:0:0:0:
448,192,133416,1,0,0:0:0:0:
192,192,133566,128,2,133641:0:0:0:0:
320,192,133566,1,0,0:0:0:0:
192,192,133716,128,2,133866:0:0:0:0:
448,192,133716,1,0,0:0:0:0:
64,192,133866,1,8,0:0:0:0:
320,192,133866,1,0,0:0:0:0:
448,192,133866,1,0,0:0:0:0:
64,192,134016,128,0,134091:0:0:0:0:
64,192,134166,128,2,134241:0:0:0:0:
320,192,134166,1,0,0:0:0:0:
64,192,134316,128,8,134391:0:0:0:0:
192,192,134316,1,0,0:0:0:0:
448,192,134316,1,0,0:0:0:0:
64,192,134466,128,2,134541:0:0:0:0:
320,192,134466,1,0,0:0:0:0:
64,192,134616,128,2,134766:0:0:0:0:
192,192,134616,1,0,0:0:0:0:
192,192,134766,1,8,0:0:0:0:
320,192,134766,1,0,0:0:0:0:
448,192,134766,1,0,0:0:0:0:
64,192,134916,1,8,0:0:0:0:
448,192,134916,1,0,0:0:0:0:
320,192,134991,1,8,0:0:0:0:
64,192,135066,1,2,0:0:0:0:
192,192,135066,1,4,0:0:0:0:
448,192,135066,128,0,135291:0:0:0:0:
192,192,135216,1,2,0:0:0:0:
320,192,135216,1,0,0:0:0:0:
64,192,135366,1,8,0:0:0:0:
320,192,135366,128,0,135441:0:0:0:0:
448,192,135366,1,0,0:0:0:0:
192,192,135516,1,2,0:0:0:0:
320,192,135516,128,0,135591:0:0:0:0:
64,192,135666,1,8,0:0:0:0:
320,192,135666,128,0,135741:0:0:0:0:
448,192,135666,1,0,0:0:0:0:
320,192,135816,128,0,135966:0:0:0:0:
64,192,135966,1,2,0:0:0:0:
192,192,135966,1,0,0:0:0:0:
64,192,136116,1,8,0:0:0:0:
320,192,136116,128,0,136266:0:0:0:0:
448,192,136116,1,0,0:0:0:0:
64,192,136266,1,2,0:0:0:0:
192,192,136266,1,0,0:0:0:0:
192,192,136416,128,2,136491:0:0:0:0:
320,192,136416,1,0,0:0:0:0:
64,192,136566,1,8,0:0:0:0:
192,192,136566,128,4,136641:0:0:0:0:
448,192,136566,1,0,0:0:0:0:
192,192,136716,128,0,136791:0:0:0:0:
64,192,136866,1,2,0:0:0:0:
192,192,136866,1,0,0:0:0:0:
320,192,136941,1,8,0:0:0:0:
448,192,136941,1,0,0:0:0:0:
64,192,137016,1,8,0:0:0:0:
192,192,137016,1,0,0:0:0:0:
320,192,137091,1,8,0:0:0:0:
448,192,137091,1,0,0:0:0:0:
64,192,137166,1,8,0:0:0:0:
192,192,137166,1,0,0:0:0:0:
320,192,137241,1,8,0:0:0:0:
448,192,137241,1,0,0:0:0:0:
64,192,137316,1,8,0:0:0:0:
192,192,137316,1,0,0:0:0:0:
320,192,137391,1,8,0:0:0:0:
64,192,137466,128,2,137691:0:0:0:0:
192,192,137466,1,4,0:0:0:0:
448,192,137466,1,0,0:0:0:0:
320,192,137616,1,2,0:0:0:0:
448,192,137616,1,0,0:0:0:0:
64,192,137766,1,8,0:0:0:0:
192,192,137766,128,0,137841:0:0:0:0:
320,192,137766,1,0,0:0:0:0:
192,192,137916,128,0,137991:0:0:0:0:
64,192,138066,1,2,0:0:0:0:
192,192,138066,128,0,138141:0:0:0:0:
192,192,138216,128,2,138291:0:0:0:0:
320,192,138216,1,0,0:0:0:0:
64,192,138366,1,8,0:0:0:0:
192,192,138366,128,0,138441:0:0:0:0:
448,192,138366,1,0,0:0:0:0:
192,192,138516,128,0,138666:0:0:0:0:
64,192,138666,1,2,0:0:0:0:
448,192,138666,128,0,138741:0:0:0:0:
192,192,138816,1,2,0:0:0:0:
448,192,138816,128,0,138891:0:0:0:0:
64,192,138966,1,8,0:0:0:0:
320,192,138966,1,0,0:0:0:0:
448,192,138966,128,0,139041:0:0:0:0:
448,192,139116,128,0,139191:0:0:0:0:
64,192,139266,1,2,0:0:0:0:
448,192,139266,128,0,139341:0:0:0:0:
192,192,139416,1,2,0:0:0:0:
448,192,139416,128,0,139566:0:0:0:0:
64,192,139566,1,8,0:0:0:0:
192,192,139566,1,0,0:0:0:0:
320,192,139566,1,0,0:0:0:0:
64,192,139716,128,2,139791:0:0:0:0:
448,192,139716,1,0,0:0:0:0:
320,192,139791,1,2,0:0:0:0:
64,192,139866,1,8,0:0:0:0:
192,192,139866,128,4,139941:0:0:0:0:
448,192,139866,1,0,0:0:0:0:
192,192,140016,1,2,0:0:0:0:
320,192,140016,128,0,140091:0:0:0:0:
64,192,140166,1,8,0:0:0:0:
320,192,140166,1,0,0:0:0:0:
448,192,140166,128,0,140241:0:0:0:0:
192,192,140316,128,2,140391:0:0:0:0:
448,192,140316,1,0,0:0:0:0:
64,192,140466,1,8,0:0:0:0:
192,192,140466,1,0,0:0:0:0:
320,192,140466,128,0,140541:0:0:0:0:
320,192,140616,1,2,0:0:0:0:
448,192,140616,128,0,140691:0:0:0:0:
64,192,140766,1,8,0:0:0:0:
192,192,140766,128,0,140841:0:0:0:0:
448,192,140766,1,0,0:0:0:0:
64,192,140916,1,2,0:0:0:0:
192,192,140916,1,0,0:0:0:0:
320,192,140916,128,0,141066:0:0:0:0:
192,192,141216,128,8,141366:0:0:0:0:
320,192,141216,1,0,0:0:0:0:
448,192,141216,1,0,0:0:0:0:
64,192,141516,128,4,141666:0:0:0:0:
320,192,141516,1,8,0:0:0:0:
448,192,141516,1,0,0:0:0:0:
192,192,141666,1,2,0:0:0:0:
320,192,141666,1,0,0:0:0:0:
64,192,141816,1,8,0:0:0:0:
192,192,141816,1,0,0:0:0:60:Hat open.wav
448,192,141816,128,0,141891:0:0:0:0:
64,192,141966,1,8,0:0:0:0:
320,192,141966,1,0,0:0:0:60:Hat open.wav
448,192,141966,128,0,142041:0:0:0:0:
192,192,142116,1,8,0:0:0:0:
320,192,142116,1,0,0:0:0:60:Hat open.wav
448,192,142116,128,0,142266:0:0:0:0:
64,192,142266,128,0,142566:0:0:0:0:
192,192,142416,128,0,142566:0:0:0:0:
320,192,142566,128,0,142716:0:0:0:0:
192,192,142716,128,0,142866:0:0:0:0:
64,192,142866,128,0,143016:0:0:0:0:
192,192,143016,128,0,143166:0:0:0:0:
320,192,143166,128,0,143316:0:0:0:0:
448,192,143316,128,0,143466:0:0:0:0:
64,192,143466,128,0,143766:0:0:0:0:
192,192,143766,128,0,144066:0:0:0:0:
320,192,144066,128,0,144366:0:0:0:0:
448,192,144516,128,0,144966:0:0:0:0:
192,192,144666,128,0,144966:0:0:0:0:
320,192,144966,128,0,145116:0:0:0:0:
192,192,145116,128,0,145266:0:0:0:0:
64,192,145266,128,0,145416:0:0:0:0:
192,192,145416,128,0,145566:0:0:0:0:
320,192,145566,128,0,145716:0:0:0:0:
448,192,145716,128,0,145866:0:0:0:0:
320,192,145866,128,0,146166:0:0:0:0:
192,192,146166,128,0,146466:0:0:0:0:
448,192,146316,128,0,146466:0:0:0:0:
64,192,146466,128,0,147066:0:0:0:0:
192,192,146916,128,0,147066:0:0:0:0:
320,192,147066,128,0,147366:0:0:0:0:
448,192,147216,128,0,147366:0:0:0:0:
64,192,147366,128,0,147516:0:0:0:0:
192,192,147516,128,0,147666:0:0:0:0:
320,192,147666,128,0,147816:0:0:0:0:
192,192,147816,128,0,147966:0:0:0:0:
320,192,147966,128,0,148116:0:0:0:0:
448,192,148116,128,0,148266:0:0:0:0:
64,192,148266,1,0,0:0:0:60:Hat open.wav
320,192,148266,128,0,148566:0:0:0:0:
192,192,148566,128,0,148866:0:0:0:60:Hat open.wav
448,192,148566,1,0,0:0:0:0:
64,192,148866,1,8,0:0:0:0:
320,192,148866,1,0,0:0:0:0:
448,192,148866,1,0,0:0:0:0:
192,192,148941,1,0,0:0:0:60:Tom1.wav
64,192,149016,1,2,0:0:0:0:
448,192,149016,1,0,0:0:0:0:
320,192,149091,1,2,0:0:0:0:
64,192,149166,1,8,0:0:0:0:
192,192,149166,1,0,0:0:0:70:Crash 2.wav
448,192,149166,1,0,0:0:0:0:
64,192,149466,1,2,0:0:0:0:
192,192,149466,1,4,0:0:0:0:
320,192,149466,1,0,0:0:0:0:
448,192,149466,1,0,0:0:0:0:
320,192,149616,1,8,0:0:0:0:
448,192,149616,1,0,0:0:0:0:
64,192,149691,1,8,0:0:0:0:
192,192,149691,1,0,0:0:0:0:
320,192,149766,1,8,0:0:0:0:
448,192,149766,1,0,0:0:0:0:
192,192,149841,1,8,0:0:0:0:
64,192,149916,1,8,0:0:0:0:
320,192,149916,1,2,0:0:0:0:
448,192,149916,1,0,0:0:0:0:
192,192,149991,1,8,0:0:0:0:
64,192,150066,1,8,0:0:0:0:
448,192,150066,1,0,0:0:0:0:
192,192,150141,1,8,0:0:0:0:
320,192,150141,1,0,0:0:0:0:
64,192,150216,1,8,0:0:0:0:
448,192,150216,1,0,0:0:0:0:
320,192,150291,1,8,0:0:0:0:
64,192,150366,1,8,0:0:0:0:
192,192,150366,1,2,0:0:0:0:
448,192,150366,1,0,0:0:0:0:
320,192,150441,1,8,0:0:0:0:
64,192,150516,1,8,0:0:0:0:
192,192,150516,1,0,0:0:0:0:
320,192,150591,1,8,0:0:0:0:
448,192,150591,1,0,0:0:0:0:
64,192,150666,1,8,0:0:0:0:
192,192,150666,1,0,0:0:0:0:
320,192,150741,1,8,0:0:0:0:
64,192,150816,1,8,0:0:0:0:
192,192,150816,1,2,0:0:0:0:
448,192,150816,1,0,0:0:0:0:
320,192,150891,1,8,0:0:0:0:
64,192,150966,1,8,0:0:0:0:
448,192,150966,1,0,0:0:0:0:
192,192,151041,1,8,0:0:0:0:
320,192,151041,1,0,0:0:0:0:
64,192,151116,1,8,0:0:0:0:
448,192,151116,1,0,0:0:0:0:
192,192,151191,1,8,0:0:0:0:
64,192,151266,1,8,0:0:0:0:
320,192,151266,1,2,0:0:0:0:
448,192,151266,1,0,0:0:0:0:
192,192,151341,1,8,0:0:0:0:
320,192,151416,1,8,0:0:0:0:
448,192,151416,1,0,0:0:0:0:
64,192,151491,1,8,0:0:0:0:
192,192,151491,1,0,0:0:0:0:
320,192,151566,1,8,0:0:0:0:
448,192,151566,1,2,0:0:0:0:
64,192,151641,1,8,0:0:0:0:
192,192,151641,1,0,0:0:0:0:
320,192,151716,1,8,0:0:0:0:
448,192,151716,1,0,0:0:0:0:
64,192,151791,1,8,0:0:0:0:
192,192,151866,1,2,0:0:0:0:
320,192,151866,1,4,0:0:0:0:
448,192,151866,1,0,0:0:0:0:
64,192,152166,1,2,0:0:0:0:
320,192,152166,1,0,0:0:0:70:Crash 2.wav
448,192,152166,1,0,0:0:0:0:
64,192,152466,1,8,0:0:0:0:
192,192,152466,1,0,0:0:0:0:
320,192,152466,1,0,0:0:0:0:
448,192,152541,1,0,0:0:0:60:Tom1.wav
192,192,152616,1,0,0:0:0:60:Tom2.wav
320,192,152691,1,0,0:0:0:60:Tom3.wav
64,192,152766,1,8,0:0:0:0:
192,192,152766,1,0,0:0:0:0:
448,192,152766,1,0,0:0:0:0:
64,192,152916,128,2,153141:0:0:0:0:
320,192,152916,128,4,153141:0:0:0:0:
448,192,152916,128,0,153141:0:0:0:0:
192,192,153216,1,8,0:0:0:0:
320,192,153216,1,0,0:0:0:70:Crash 2.wav
448,192,153216,1,0,0:0:0:0:
64,192,153366,1,8,0:0:0:0:
192,192,153366,1,0,0:0:0:0:
320,192,153366,1,0,0:0:0:0:
64,192,153516,1,8,0:0:0:0:
192,192,153516,1,0,0:0:0:60:Hat open.wav
448,192,153516,1,0,0:0:0:0:
64,192,154266,128,2,154491:0:0:0:0:
320,192,154266,1,4,0:0:0:0:
448,192,154266,1,0,0:0:0:0:
64,192,154566,1,8,0:0:0:0:
192,192,154566,1,0,0:0:0:0:
448,192,154566,128,0,154791:0:0:0:0:
320,192,154716,128,0,154791:0:0:0:0:
64,192,154866,128,2,155091:0:0:0:0:
448,192,154866,1,0,0:0:0:0:
192,192,155016,128,0,155091:0:0:0:0:
64,192,155166,1,8,0:0:0:0:
192,192,155166,1,0,0:0:0:0:
320,192,155166,128,0,155241:0:0:0:0:
448,192,155316,128,0,155391:0:0:0:0:
64,192,155466,128,2,155691:0:0:0:0:
448,192,155466,1,0,0:0:0:0:
64,192,155766,1,8,0:0:0:0:
192,192,155766,1,0,0:0:0:0:
448,192,155766,128,0,156141:0:0:0:0:
320,192,155916,128,0,156141:0:0:0:0:
64,192,156066,1,2,0:0:0:0:
192,192,156066,1,0,0:0:0:0:
192,192,156216,128,0,156291:0:0:0:0:
64,192,156366,1,8,0:0:0:0:
192,192,156366,128,0,156441:0:0:0:0:
448,192,156366,1,0,0:0:0:0:
320,192,156516,128,0,156591:0:0:0:0:
64,192,156666,1,2,0:0:0:0:
448,192,156666,128,0,156891:0:0:0:0:
64,192,156966,1,8,0:0:0:0:
192,192,156966,1,0,0:0:0:0:
320,192,156966,128,0,157191:0:0:0:0:
192,192,157266,128,2,157491:0:0:0:0:
448,192,157266,1,0,0:0:0:0:
64,192,157566,128,8,157791:0:0:0:0:
192,192,157566,1,0,0:0:0:0:
320,192,157566,1,0,0:0:0:0:
64,192,157866,1,2,0:0:0:0:
448,192,157866,128,0,158466:0:0:0:0:
64,192,158166,1,8,0:0:0:0:
192,192,158166,1,0,0:0:0:0:
320,192,158166,1,0,0:0:0:0:
64,192,158466,1,2,0:0:0:0:
192,192,158466,1,0,0:0:0:0:
320,192,158616,128,0,158691:0:0:0:0:
64,192,158766,1,8,0:0:0:0:
192,192,158766,128,0,158841:0:0:0:0:
448,192,158766,1,0,0:0:0:0:
64,192,158916,128,0,158991:0:0:0:0:
192,192,159066,1,2,0:0:0:0:
320,192,159066,1,4,0:0:0:0:
448,192,159066,128,0,159291:0:0:0:0:
64,192,159216,128,0,159291:0:0:0:0:
64,192,159366,1,8,0:0:0:0:
192,192,159366,128,0,159441:0:0:0:0:
448,192,159366,1,0,0:0:0:0:
320,192,159516,128,0,159591:0:0:0:0:
192,192,159666,1,2,0:0:0:0:
448,192,159666,128,0,159891:0:0:0:0:
64,192,159966,128,8,160191:0:0:0:0:
320,192,159966,1,0,0:0:0:0:
448,192,159966,1,0,0:0:0:0:
448,192,160116,128,0,160191:0:0:0:0:
64,192,160266,1,2,0:0:0:0:
320,192,160266,128,0,160341:0:0:0:0:
192,192,160416,128,0,160491:0:0:0:0:
64,192,160566,128,8,160866:0:0:0:0:
192,192,160566,1,0,0:0:0:0:
448,192,160566,1,0,0:0:0:0:
192,192,160866,1,2,0:0:0:0:
320,192,160866,1,0,0:0:0:0:
448,192,161016,128,0,161091:0:0:0:0:
64,192,161166,128,8,161241:0:0:0:0:
320,192,161166,1,0,0:0:0:0:
448,192,161166,1,0,0:0:0:0:
192,192,161316,128,0,161391:0:0:0:0:
64,192,161466,1,2,0:0:0:0:
320,192,161466,128,0,161841:0:0:0:0:
448,192,161691,128,0,161991:0:0:0:0:
64,192,161766,1,8,0:0:0:0:
192,192,161766,1,0,0:0:0:0:
64,192,161916,128,0,162291:0:0:0:0:
192,192,162066,128,2,162291:0:0:0:0:
448,192,162066,1,0,0:0:0:0:
320,192,162216,1,2,0:0:0:0:
448,192,162291,128,0,162441:0:0:0:0:
64,192,162366,1,8,0:0:0:0:
192,192,162366,1,0,0:0:0:0:
320,192,162441,1,8,0:0:0:0:
64,192,162516,1,2,0:0:0:0:
448,192,162516,1,0,0:0:0:0:
192,192,162591,1,2,0:0:0:0:
64,192,162666,1,8,0:0:0:0:
320,192,162666,1,4,0:0:0:0:
448,192,162666,1,0,0:0:0:0:
192,192,162816,1,2,0:0:0:0:
448,192,162816,1,0,0:0:0:0:
64,192,162966,1,8,0:0:0:0:
192,192,162966,1,4,0:0:0:0:
320,192,162966,1,0,0:0:0:0:
64,192,163266,1,2,0:0:0:0:
448,192,163266,1,0,0:0:0:0:
320,192,163416,1,8,0:0:0:0:
448,192,163416,1,0,0:0:0:0:
64,192,163491,1,8,0:0:0:0:
192,192,163491,1,0,0:0:0:0:
320,192,163566,1,8,0:0:0:0:
448,192,163566,1,0,0:0:0:0:
64,192,163641,1,8,0:0:0:0:
192,192,163641,1,0,0:0:0:0:
320,192,163716,1,8,0:0:0:0:
448,192,163716,1,0,0:0:0:0:
192,192,163791,1,8,0:0:0:0:
64,192,163866,128,2,164091:0:0:0:0:
320,192,163866,1,4,0:0:0:0:
448,192,163866,1,0,0:0:0:0:
320,192,164016,128,0,164241:0:0:0:0:
64,192,164166,1,8,0:0:0:0:
192,192,164166,1,0,0:0:0:0:
448,192,164166,128,0,164241:0:0:0:0:
64,192,164316,128,0,164616:0:0:0:0:
192,192,164466,128,2,164616:0:0:0:0:
448,192,164466,1,0,0:0:0:0:
448,192,164691,128,0,164841:0:0:0:0:
64,192,164766,1,8,0:0:0:0:
192,192,164766,1,0,0:0:0:0:
320,192,164766,1,0,0:0:0:0:
320,192,164916,128,0,165291:0:0:0:0:
64,192,165066,128,2,165291:0:0:0:0:
448,192,165066,1,0,0:0:0:0:
64,192,165366,1,8,0:0:0:0:
192,192,165366,128,0,165741:0:0:0:0:
448,192,165366,1,0,0:0:0:0:
448,192,165516,128,0,165741:0:0:0:0:
64,192,165666,1,2,0:0:0:0:
320,192,165666,1,0,0:0:0:0:
320,192,165816,128,0,165891:0:0:0:0:
64,192,165966,1,8,0:0:0:0:
192,192,165966,128,0,166041:0:0:0:0:
448,192,165966,1,0,0:0:0:0:
64,192,166116,128,0,166191:0:0:0:0:
320,192,166266,1,2,0:0:0:0:
448,192,166266,128,0,166491:0:0:0:0:
64,192,166566,128,8,166791:0:0:0:0:
320,192,166566,1,0,0:0:0:0:
448,192,166566,1,0,0:0:0:0:
192,192,166866,128,2,167091:0:0:0:0:
448,192,166866,1,0,0:0:0:0:
64,192,167166,1,8,0:0:0:0:
192,192,167166,1,0,0:0:0:0:
320,192,167166,128,0,167391:0:0:0:0:
320,192,167466,1,2,0:0:0:0:
448,192,167466,128,0,168066:0:0:0:0:
64,192,167766,1,8,0:0:0:0:
192,192,167766,1,0,0:0:0:0:
320,192,167766,1,0,0:0:0:0:
64,192,168066,1,2,0:0:0:0:
192,192,168066,1,0,0:0:0:0:
320,192,168216,128,0,168291:0:0:0:0:
64,192,168366,1,8,0:0:0:0:
192,192,168366,128,0,168441:0:0:0:0:
448,192,168366,1,0,0:0:0:0:
64,192,168516,128,0,168591:0:0:0:0:
192,192,168666,1,2,0:0:0:0:
448,192,168666,128,0,168741:0:0:0:0:
320,192,168816,128,0,168891:0:0:0:0:
64,192,168966,1,8,0:0:0:0:
192,192,168966,128,0,169041:0:0:0:0:
448,192,168966,1,0,0:0:0:0:
320,192,169116,128,0,169191:0:0:0:0:
64,192,169266,1,2,0:0:0:0:
192,192,169266,128,0,169491:0:0:0:0:
64,192,169566,1,8,0:0:0:0:
192,192,169566,1,0,0:0:0:0:
448,192,169566,128,0,169641:0:0:0:0:
320,192,169716,128,0,169791:0:0:0:0:
192,192,169866,128,2,169941:0:0:0:0:
448,192,169866,1,0,0:0:0:0:
320,192,170016,128,0,170091:0:0:0:0:
64,192,170166,1,8,0:0:0:0:
192,192,170166,128,0,170391:0:0:0:0:
448,192,170166,1,0,0:0:0:0:
64,192,170466,128,2,170616:0:0:0:0:
320,192,170466,1,0,0:0:0:0:
192,192,170691,128,0,170841:0:0:0:0:
64,192,170766,1,8,0:0:0:0:
320,192,170766,1,0,0:0:0:0:
448,192,170766,1,0,0:0:0:0:
320,192,170916,128,0,171216:0:0:0:0:
64,192,171066,1,2,0:0:0:0:
192,192,171066,1,4,0:0:0:0:
448,192,171066,128,0,171216:0:0:0:0:
192,192,171291,128,8,171441:0:0:0:0:
448,192,171291,1,0,0:0:0:0:
64,192,171366,1,2,0:0:0:0:
320,192,171366,1,0,0:0:0:0:
64,192,171516,128,8,171816:0:0:0:0:
192,192,171516,1,0,0:0:0:0:
448,192,171516,1,0,0:0:0:0:
192,192,171666,1,2,0:0:0:0:
320,192,171666,1,4,0:0:0:0:
448,192,171666,128,0,171816:0:0:0:0:
64,192,171891,1,8,0:0:0:0:
448,192,171891,1,0,0:0:0:0:
192,192,171966,1,2,0:0:0:0:
320,192,171966,128,0,172191:0:0:0:0:
64,192,172116,128,8,172341:0:0:0:0:
192,192,172116,1,0,0:0:0:0:
448,192,172116,1,0,0:0:0:0:
192,192,172266,1,2,0:0:0:0:
320,192,172266,1,4,0:0:0:0:
448,192,172266,128,0,172791:0:0:0:0:
64,192,172416,1,2,0:0:0:0:
320,192,172416,1,0,0:0:0:0:
64,192,172566,1,8,0:0:0:0:
192,192,172566,1,0,0:0:0:70:Crash 2.wav
320,192,172566,1,0,0:0:0:0:
64,192,172716,128,0,173016:0:0:0:0:
192,192,172866,128,2,173016:0:0:0:0:
448,192,172866,1,0,0:0:0:0:
320,192,173016,1,8,0:0:0:0:
448,192,173016,1,0,0:0:0:0:
64,192,173091,1,8,0:0:0:0:
192,192,173091,1,0,0:0:0:0:
320,192,173166,1,8,0:0:0:0:
448,192,173166,1,0,0:0:0:0:
64,192,173241,1,8,0:0:0:0:
192,192,173241,1,0,0:0:0:0:
320,192,173316,1,8,0:0:0:0:
448,192,173316,1,0,0:0:0:0:
192,192,173391,1,8,0:0:0:0:
64,192,173466,1,2,0:0:0:0:
320,192,173466,128,4,173541:0:0:0:0:
448,192,173466,1,0,0:0:0:0:
192,192,173616,128,0,173691:0:0:0:0:
448,192,173616,128,0,173841:0:0:0:0:
64,192,173766,1,8,0:0:0:0:
192,192,173766,1,0,0:0:0:0:
320,192,173766,128,0,173841:0:0:0:0:
64,192,173916,128,0,174141:0:0:0:0:
448,192,173916,128,0,173991:0:0:0:0:
192,192,174066,128,2,174141:0:0:0:0:
320,192,174066,1,0,0:0:0:0:
320,192,174216,128,0,174441:0:0:0:0:
448,192,174216,128,0,174291:0:0:0:0:
64,192,174366,1,8,0:0:0:0:
192,192,174366,128,0,174441:0:0:0:0:
448,192,174366,1,0,0:0:0:0:
448,192,174516,128,0,174891:0:0:0:0:
64,192,174666,1,2,0:0:0:0:
320,192,174666,128,0,174891:0:0:0:0:
64,192,174966,128,8,175341:0:0:0:0:
320,192,174966,1,0,0:0:0:0:
448,192,174966,1,0,0:0:0:0:
192,192,175116,128,0,175341:0:0:0:0:
320,192,175266,1,2,0:0:0:0:
448,192,175266,1,0,0:0:0:0:
320,192,175416,128,0,175791:0:0:0:0:
64,192,175566,1,8,0:0:0:0:
192,192,175566,1,0,0:0:0:0:
448,192,175566,1,0,0:0:0:0:
64,192,175716,128,0,175941:0:0:0:0:
192,192,175866,128,2,175941:0:0:0:0:
448,192,175866,1,0,0:0:0:0:
320,192,176016,128,0,176091:0:0:0:0:
448,192,176016,128,0,176241:0:0:0:0:
64,192,176166,128,8,176241:0:0:0:0:
192,192,176166,1,0,0:0:0:0:
320,192,176166,1,0,0:0:0:0:
192,192,176316,128,0,176391:0:0:0:0:
320,192,176316,128,0,176541:0:0:0:0:
64,192,176466,1,2,0:0:0:0:
448,192,176466,128,0,176541:0:0:0:0:
192,192,176616,128,0,176841:0:0:0:0:
320,192,176616,128,0,176691:0:0:0:0:
64,192,176766,128,8,176841:0:0:0:0:
320,192,176766,1,0,0:0:0:0:
448,192,176766,1,0,0:0:0:0:
64,192,176916,128,0,177291:0:0:0:0:
192,192,177066,1,2,0:0:0:0:
448,192,177066,128,0,177291:0:0:0:0:
64,192,177366,1,8,0:0:0:0:
320,192,177366,128,0,177741:0:0:0:0:
448,192,177366,1,0,0:0:0:0:
64,192,177516,128,0,177741:0:0:0:0:
192,192,177666,1,2,0:0:0:0:
448,192,177666,1,0,0:0:0:0:
192,192,177816,128,0,178191:0:0:0:0:
64,192,177966,1,8,0:0:0:0:
320,192,177966,1,0,0:0:0:0:
448,192,177966,1,0,0:0:0:0:
64,192,178266,1,2,0:0:0:0:
192,192,178266,1,0,0:0:0:0:
320,192,178416,128,0,178491:0:0:0:0:
192,192,178566,128,8,178641:0:0:0:0:
320,192,178566,1,0,0:0:0:0:
448,192,178566,1,0,0:0:0:0:
64,192,178716,128,0,179241:0:0:0:0:
320,192,178866,1,2,0:0:0:0:
448,192,178866,1,0,0:0:0:0:
192,192,179016,128,0,179091:0:0:0:0:
192,192,179166,1,8,0:0:0:0:
320,192,179166,128,0,179241:0:0:0:0:
448,192,179166,1,0,0:0:0:0:
448,192,179316,128,0,179541:0:0:0:0:
64,192,179466,1,2,0:0:0:0:
192,192,179466,128,0,179691:0:0:0:0:
320,192,179616,128,0,179691:0:0:0:0:
64,192,179766,1,8,0:0:0:0:
192,192,179766,1,0,0:0:0:0:
320,192,179766,128,0,179991:0:0:0:0:
448,192,179916,128,0,179991:0:0:0:0:
64,192,180066,128,2,180291:0:0:0:0:
448,192,180066,1,0,0:0:0:0:
192,192,180216,128,0,180291:0:0:0:0:
64,192,180366,1,8,0:0:0:0:
320,192,180366,1,0,0:0:0:0:
448,192,180366,128,0,180666:0:0:0:0:
64,192,180666,1,2,0:0:0:0:
192,192,180666,1,0,0:0:0:0:
448,192,180816,128,0,180891:0:0:0:0:
64,192,180966,1,8,0:0:0:0:
320,192,180966,128,0,181041:0:0:0:0:
448,192,180966,1,0,0:0:0:0:
192,192,181116,128,0,181491:0:0:0:0:
64,192,181266,1,2,0:0:0:0:
448,192,181266,1,0,0:0:0:0:
320,192,181416,128,0,181491:0:0:0:0:
448,192,181416,128,0,181491:0:0:0:0:
64,192,181566,1,8,0:0:0:0:
192,192,181566,128,0,181641:0:0:0:0:
320,192,181566,128,0,181641:0:0:0:0:
64,192,181716,128,0,181791:0:0:0:0:
192,192,181716,128,0,181791:0:0:0:0:
320,192,181866,128,2,181941:0:0:0:0:
448,192,181866,128,0,182091:0:0:0:0:
64,192,182016,128,2,182391:0:0:0:0:
192,192,182016,128,0,182091:0:0:0:0:
192,192,182166,1,8,0:0:0:0:
320,192,182166,128,4,182391:0:0:0:0:
448,192,182166,128,0,182391:0:0:0:0:
64,192,182466,128,8,182666:0:0:0:0:
192,192,182466,128,0,182566:0:0:0:0:
320,192,182566,1,8,0:0:0:0:
192,192,182666,1,8,0:0:0:0:
320,192,182766,128,0,182866:0:0:0:60:Tom2.wav
448,192,182766,128,0,182966:0:0:0:0:
64,192,182866,1,0,0:0:0:60:Tom2.wav
192,192,182966,1,0,0:0:0:60:Tom3.wav
64,192,183066,1,2,0:0:0:0:
320,192,183066,1,4,0:0:0:0:
448,192,183066,1,0,0:0:0:0:
192,192,183216,1,2,0:0:0:0:
448,192,183216,1,0,0:0:0:0:
320,192,183366,128,2,183441:0:0:0:0:
192,192,183516,128,2,183591:0:0:0:0:
64,192,183666,1,8,0:0:0:0:
320,192,183666,128,0,183741:0:0:0:0:
448,192,183666,1,0,0:0:0:0:
192,192,183816,1,2,0:0:0:0:
448,192,183816,128,4,183891:0:0:0:0:
320,192,183966,128,0,184041:0:0:0:0:
64,192,184116,1,8,0:0:0:0:
192,192,184116,128,0,184191:0:0:0:0:
448,192,184116,1,0,0:0:0:0:
64,192,184266,128,2,184491:0:0:0:0:
320,192,184266,1,0,0:0:0:70:Crash 2.wav
192,192,184416,1,8,0:0:0:0:
320,192,184416,1,0,0:0:0:0:
448,192,184416,1,0,0:0:0:0:
64,192,184566,1,2,0:0:0:0:
448,192,184566,128,0,185091:0:0:0:0:
192,192,184716,1,2,0:0:0:0:
320,192,184716,128,0,185091:0:0:0:0:
64,192,184866,1,8,0:0:0:0:
192,192,184866,1,0,0:0:0:0:
64,192,185016,1,2,0:0:0:0:
192,192,185016,1,4,0:0:0:0:
64,192,185166,128,0,185391:0:0:0:0:
192,192,185316,1,8,0:0:0:0:
320,192,185316,1,0,0:0:0:0:
448,192,185316,1,0,0:0:0:0:
64,192,185466,1,2,0:0:0:0:
320,192,185466,1,0,0:0:0:70:Crash 2.wav
448,192,185466,1,0,0:0:0:0:
64,192,185616,1,2,0:0:0:0:
192,192,185616,1,0,0:0:0:0:
192,192,185766,128,2,185841:0:0:0:0:
448,192,185766,1,0,0:0:0:0:
64,192,185916,1,2,0:0:0:0:
320,192,185916,128,0,185991:0:0:0:0:
192,192,186066,128,8,186141:0:0:0:0:
320,192,186066,1,0,0:0:0:0:
448,192,186066,1,0,0:0:0:0:
64,192,186216,128,2,186291:0:0:0:0:
192,192,186216,1,4,0:0:0:0:
448,192,186216,1,0,0:0:0:0:
192,192,186366,128,0,186441:0:0:0:0:
64,192,186516,1,8,0:0:0:0:
320,192,186516,128,0,186591:0:0:0:0:
448,192,186516,1,0,0:0:0:0:
192,192,186666,1,2,0:0:0:0:
320,192,186666,1,0,0:0:0:70:Crash 2.wav
448,192,186666,128,0,186891:0:0:0:0:
64,192,186816,1,8,0:0:0:0:
192,192,186816,1,0,0:0:0:0:
64,192,186966,128,2,187266:0:0:0:0:
320,192,186966,1,0,0:0:0:0:
448,192,186966,1,0,0:0:0:0:
192,192,187116,128,2,187266:0:0:0:0:
320,192,187116,1,0,0:0:0:0:
320,192,187266,1,8,0:0:0:0:
448,192,187266,1,0,0:0:0:0:
192,192,187341,1,0,0:0:0:60:Tom1.wav
64,192,187416,1,0,0:0:0:60:Tom2.wav
448,192,187416,128,0,187791:0:0:0:0:
320,192,187491,1,0,0:0:0:60:Tom3.wav
64,192,187566,1,8,0:0:0:0:
192,192,187566,1,0,0:0:0:70:Crash 2.wav
320,192,187716,128,0,187791:0:0:0:0:
192,192,187866,128,2,187941:0:0:0:0:
448,192,187866,1,4,0:0:0:0:
64,192,188016,128,2,188091:0:0:0:0:
320,192,188016,1,0,0:0:0:0:
64,192,188166,1,8,0:0:0:0:
192,192,188166,1,0,0:0:0:0:
448,192,188166,128,0,188616:0:0:0:0:
320,192,188316,128,0,188616:0:0:0:0:
64,192,188466,1,2,0:0:0:0:
192,192,188466,1,0,0:0:0:0:
64,192,188616,1,8,0:0:0:0:
192,192,188616,1,0,0:0:0:0:
320,192,188691,1,8,0:0:0:0:
448,192,188691,1,0,0:0:0:0:
64,192,188766,1,8,0:0:0:0:
192,192,188766,1,0,0:0:0:0:
320,192,188841,1,8,0:0:0:0:
448,192,188841,1,0,0:0:0:0:
64,192,188916,1,8,0:0:0:0:
192,192,188916,1,0,0:0:0:0:
320,192,188991,1,8,0:0:0:0:
448,192,188991,1,0,0:0:0:0:
64,192,189066,128,2,189141:0:0:0:0:
192,192,189066,128,0,189141:0:0:0:0:
64,192,189366,1,2,0:0:0:0:
448,192,189366,1,0,0:0:0:0:
320,192,189516,1,8,0:0:0:0:
448,192,189516,1,0,0:0:0:0:
64,192,189591,1,8,0:0:0:0:
192,192,189591,1,0,0:0:0:0:
320,192,189666,1,8,0:0:0:0:
448,192,189666,1,0,0:0:0:0:
192,192,189816,1,0,0:0:0:60:Tom1.wav
64,192,189966,1,0,0:0:0:60:Tom2.wav
448,192,190116,1,0,0:0:0:60:Tom3.wav
64,192,190266,128,2,192666:0:0:0:0:
192,192,190266,1,4,0:0:0:0:
320,192,190266,1,0,0:0:0:0:
448,192,190866,1,0,0:0:0:60:Hat open.wav
320,192,192066,1,0,0:0:0:60:Hat open.wav
192,192,192666,1,2,0:0:0:0:
320,192,192666,1,4,0:0:0:0:
448,192,192666,128,0,193866:0:0:0:0:
64,192,193266,1,0,0:0:0:60:Hat open.wav
64,192,193866,1,2,0:0:0:0:
192,192,193866,1,4,0:0:0:0:
320,192,193866,128,0,194316:0:0:0:0:
64,192,194316,1,2,0:0:0:0:
192,192,194316,1,0,0:0:0:0:
320,192,194391,1,2,0:0:0:0:
64,192,194466,1,8,0:0:0:0:
192,192,194466,1,0,0:0:0:0:
448,192,194466,1,0,0:0:0:0:
320,192,194666,1,2,0:0:0:0:
448,192,194666,1,0,0:0:0:0:
64,192,194866,1,2,0:0:0:0:
192,192,194866,1,0,0:0:0:0:
192,192,195066,128,2,196866:0:0:0:0:
320,192,195066,1,4,0:0:0:0:
448,192,195066,1,0,0:0:0:0:
320,192,195666,1,0,0:0:0:60:Hat open.wav
64,192,196866,1,0,0:0:0:60:Hat open.wav
448,192,197016,128,0,197166:0:0:0:0:
320,192,197166,128,0,197316:0:0:0:0:
192,192,197316,128,0,197466:0:0:0:0:
64,192,197466,128,2,198366:0:0:0:0:
320,192,197466,1,4,0:0:0:0:
448,192,197466,1,0,0:0:0:0:
448,192,198066,1,0,0:0:0:60:Hat open.wav
192,192,198366,128,0,198516:0:0:0:0:
320,192,198516,128,0,198666:0:0:0:0:
64,192,198666,1,2,0:0:0:0:
192,192,198666,1,4,0:0:0:0:
448,192,198666,128,0,199191:0:0:0:0:
64,192,199116,1,2,0:0:0:0:
192,192,199116,1,0,0:0:0:0:
320,192,199191,1,2,0:0:0:0:
64,192,199266,1,8,0:0:0:0:
192,192,199266,1,0,0:0:0:0:
448,192,199266,1,0,0:0:0:0:
64,192,199466,1,8,0:0:0:0:
320,192,199466,1,0,0:0:0:0:
448,192,199466,1,0,0:0:0:0:
192,192,199666,1,8,0:0:0:0:
320,192,199666,1,0,0:0:0:0:
448,192,199666,1,0,0:0:0:0:
64,192,199866,1,2,0:0:0:0:
192,192,199866,1,4,0:0:0:0:
320,192,199866,1,0,0:0:0:0:
64,192,200166,1,2,0:0:0:0:
448,192,200166,1,0,0:0:0:0:
64,192,200466,1,2,0:0:0:0:
448,192,200466,1,0,0:0:0:0:
64,192,200766,1,2,0:0:0:0:
448,192,200766,1,0,0:0:0:0:
64,192,201066,1,2,0:0:0:0:
320,192,201066,1,0,0:0:0:0:
448,192,201066,1,0,0:0:0:0:
64,192,201366,1,2,0:0:0:0:
320,192,201366,1,0,0:0:0:0:
448,192,201366,1,0,0:0:0:0:
64,192,201666,1,2,0:0:0:0:
320,192,201666,1,0,0:0:0:0:
448,192,201666,1,0,0:0:0:0:
64,192,201966,1,2,0:0:0:0:
320,192,201966,1,0,0:0:0:0:
448,192,201966,1,0,0:0:0:0:
64,192,202266,1,2,0:0:0:0:
192,192,202266,1,4,0:0:0:0:
320,192,202266,1,0,0:0:0:0:
448,192,202266,1,0,0:0:0:0:
64,192,202566,1,2,0:0:0:0:
192,192,202566,1,4,0:0:0:0:
320,192,202566,1,0,0:0:0:0:
448,192,202566,1,0,0:0:0:0:
64,192,202866,1,2,0:0:0:0:
192,192,202866,1,4,0:0:0:0:
320,192,202866,1,0,0:0:0:0:
448,192,202866,1,0,0:0:0:0:
64,192,203166,1,2,0:0:0:0:
192,192,203166,1,4,0:0:0:0:
320,192,203166,1,0,0:0:0:0:
448,192,203166,1,0,0:0:0:0:
64,192,203466,128,0,203766:0:0:0:0:
448,192,203466,128,0,203766:0:0:0:0:
192,192,203616,128,0,203766:0:0:0:0:
320,192,203766,128,0,203916:0:0:0:0:
448,192,203916,128,0,204066:0:0:0:0:
64,192,204066,128,0,204216:0:0:0:0:
192,192,204216,128,0,204366:0:0:0:0:
320,192,204366,128,0,204516:0:0:0:0:
192,192,204516,128,0,204666:0:0:0:0:
64,192,204666,128,2,205062:0:0:0:0:
320,192,204666,128,4,204904:0:0:0:0:
448,192,204666,128,0,204904:0:0:0:0:
192,192,204904,128,0,205062:0:0:0:0:
64,192,205142,128,0,205434:0:0:0:0:
448,192,205142,128,0,205521:0:0:0:0:
320,192,205434,128,0,205521:0:0:0:0:
64,192,205609,128,0,206021:0:0:0:0:
192,192,205609,128,0,205778:0:0:0:0:
448,192,205863,128,0,206021:0:0:0:0:
192,192,206101,128,0,206377:0:0:0:0:
320,192,206101,128,0,206520:0:0:0:0:
448,192,206377,128,0,206520:0:0:0:0:
64,192,206592,128,0,207063:0:0:0:0:
448,192,206592,128,0,206892:0:0:0:0:
192,192,206892,128,0,207063:0:0:0:0:
448,192,207063,128,0,207121:0:0:0:0:
320,192,207121,128,0,207178:0:0:0:0:
192,192,207178,128,0,207235:0:0:0:0:
64,192,207235,128,0,207462:0:0:0:0:
448,192,207235,128,0,207610:0:0:0:0:
320,192,207462,128,0,207610:0:0:0:0:
192,192,207684,128,0,208106:0:0:0:0:
448,192,207684,128,0,207976:0:0:0:0:
64,192,207976,128,0,208106:0:0:0:0:
192,192,208171,128,0,208409:0:0:0:0:
320,192,208171,128,0,208577:0:0:0:0:
448,192,208409,128,0,208577:0:0:0:0:
192,192,208663,128,0,209026:0:0:0:0:
320,192,208663,128,0,208890:0:0:0:0:
64,192,208890,128,0,209026:0:0:0:0:
64,192,209094,128,0,209397:0:0:0:0:
448,192,209094,128,0,209640:0:0:0:0:
192,192,209169,1,0,0:0:0:0:
320,192,209245,1,0,0:0:0:0:
192,192,209321,1,0,0:0:0:0:
320,192,209397,128,0,209640:0:0:0:60:Hat open.wav
64,192,209723,1,4,0:0:0:0:
320,192,209723,1,8,0:0:0:0:
448,192,209723,1,2,0:0:0:0:
64,192,209880,1,8,0:0:0:0:
448,192,209880,1,0,0:0:0:0:
192,192,209959,1,8,0:0:0:0:
320,192,209959,1,0,0:0:0:0:
64,192,210038,1,8,0:0:0:0:
448,192,210038,1,0,0:0:0:0:
320,192,210117,1,8,0:0:0:0:
64,192,210196,1,8,0:0:0:0:
192,192,210196,1,2,0:0:0:0:
448,192,210196,1,0,0:0:0:0:
320,192,210275,1,8,0:0:0:0:
64,192,210354,1,8,0:0:0:0:
192,192,210354,1,0,0:0:0:0:
320,192,210433,1,8,0:0:0:0:
448,192,210433,1,0,0:0:0:0:
64,192,210512,1,8,0:0:0:0:
192,192,210512,1,0,0:0:0:0:
448,192,210591,1,8,0:0:0:0:
64,192,210670,1,8,0:0:0:0:
192,192,210670,1,2,0:0:0:0:
320,192,210670,1,0,0:0:0:0:
448,192,210749,1,8,0:0:0:0:
192,192,210828,1,8,0:0:0:0:
320,192,210828,1,0,0:0:0:0:
64,192,210907,1,8,0:0:0:0:
448,192,210907,1,0,0:0:0:0:
192,192,210986,1,8,0:0:0:0:
320,192,210986,1,0,0:0:0:0:
64,192,211065,1,8,0:0:0:0:
192,192,211144,1,8,0:0:0:0:
320,192,211144,1,2,0:0:0:0:
448,192,211144,1,0,0:0:0:0:
64,192,211223,1,8,0:0:0:0:
320,192,211301,1,8,0:0:0:0:
448,192,211301,1,0,0:0:0:0:
64,192,211380,1,8,0:0:0:0:
192,192,211380,1,0,0:0:0:0:
320,192,211459,1,8,0:0:0:0:
448,192,211459,1,0,0:0:0:0:
192,192,211538,1,8,0:0:0:0:
64,192,211617,1,8,0:0:0:0:
320,192,211617,1,2,0:0:0:0:
448,192,211617,1,0,0:0:0:0:
192,192,211696,1,8,0:0:0:0:
448,192,211775,1,8,0:0:0:0:
320,192,211854,1,8,0:0:0:0:
64,192,211933,1,8,0:0:0:0:
192,192,211933,1,2,0:0:0:0:
448,192,211933,1,0,0:0:0:0:
320,192,212012,1,8,0:0:0:0:
64,192,212091,1,8,0:0:0:0:
192,192,212170,1,8,0:0:0:0:
64,192,212249,1,8,0:0:0:0:
320,192,212249,1,4,0:0:0:0:
448,192,212249,1,2,0:0:0:0:
192,192,212328,1,8,0:0:0:0:
64,192,212407,1,8,0:0:0:0:
448,192,212407,1,0,0:0:0:0:
192,192,212486,1,8,0:0:0:0:
320,192,212486,1,0,0:0:0:0:
64,192,212565,1,8,0:0:0:0:
448,192,212565,1,0,0:0:0:0:
192,192,212644,1,8,0:0:0:0:
64,192,212723,1,8,0:0:0:0:
320,192,212723,1,2,0:0:0:0:
448,192,212723,1,0,0:0:0:70:Crash 2.wav
192,192,212801,1,8,0:0:0:0:
320,192,212880,1,8,0:0:0:0:
448,192,212880,1,0,0:0:0:0:
64,192,212959,1,8,0:0:0:0:
192,192,212959,1,0,0:0:0:0:
320,192,213038,1,8,0:0:0:0:
448,192,213038,1,0,0:0:0:0:
64,192,213117,1,8,0:0:0:0:
192,192,213196,1,8,0:0:0:0:
320,192,213196,1,2,0:0:0:0:
448,192,213196,1,4,0:0:0:0:
64,192,213275,1,8,0:0:0:0:
192,192,213354,1,8,0:0:0:0:
320,192,213354,1,0,0:0:0:0:
64,192,213433,1,8,0:0:0:0:
448,192,213433,1,0,0:0:0:0:
192,192,213512,1,8,0:0:0:0:
320,192,213512,1,0,0:0:0:0:
448,192,213591,1,8,0:0:0:0:
64,192,213670,1,8,0:0:0:0:
192,192,213670,1,2,0:0:0:0:
320,192,213670,1,0,0:0:0:70:Crash 2.wav
448,192,213749,1,8,0:0:0:0:
64,192,213828,1,8,0:0:0:0:
192,192,213828,1,0,0:0:0:0:
320,192,213907,1,8,0:0:0:0:
448,192,213907,1,0,0:0:0:0:
64,192,213986,1,8,0:0:0:0:
192,192,213986,1,0,0:0:0:0:
320,192,214065,1,8,0:0:0:0:
64,192,214144,1,8,0:0:0:0:
192,192,214144,1,2,0:0:0:0:
448,192,214144,1,4,0:0:0:0:
320,192,214223,1,8,0:0:0:0:
64,192,214301,1,8,0:0:0:0:
192,192,214380,1,8,0:0:0:0:
64,192,214459,1,8,0:0:0:0:
320,192,214459,1,2,0:0:0:0:
448,192,214459,1,0,0:0:0:70:Crash 2.wav
192,192,214538,1,8,0:0:0:0:
448,192,214617,1,8,0:0:0:0:
320,192,214696,1,8,0:0:0:0:
64,192,214775,1,8,0:0:0:0:
192,192,214775,1,2,0:0:0:0:
448,192,214775,1,4,0:0:0:0:
320,192,214854,1,8,0:0:0:0:
64,192,214933,1,8,0:0:0:0:
192,192,214933,1,0,0:0:0:0:
320,192,215012,1,8,0:0:0:0:
448,192,215012,1,0,0:0:0:0:
64,192,215091,1,8,0:0:0:0:
192,192,215091,1,0,0:0:0:0:
320,192,215170,1,8,0:0:0:0:
64,192,215249,1,8,0:0:0:0:
192,192,215249,1,2,0:0:0:0:
448,192,215249,1,0,0:0:0:70:Crash 2.wav
320,192,215328,1,8,0:0:0:0:
64,192,215407,1,8,0:0:0:0:
448,192,215407,1,0,0:0:0:0:
192,192,215486,1,8,0:0:0:0:
320,192,215486,1,0,0:0:0:0:
64,192,215565,1,8,0:0:0:0:
448,192,215565,1,0,0:0:0:0:
192,192,215644,1,8,0:0:0:0:
64,192,215723,1,8,0:0:0:0:
320,192,215723,1,2,0:0:0:0:
448,192,215723,1,4,0:0:0:0:
192,192,215801,1,8,0:0:0:0:
320,192,215880,1,8,0:0:0:0:
448,192,215880,1,0,0:0:0:0:
64,192,215959,1,8,0:0:0:0:
192,192,215959,1,0,0:0:0:0:
320,192,216038,1,8,0:0:0:0:
448,192,216038,1,0,0:0:0:0:
192,192,216117,1,8,0:0:0:0:
64,192,216196,1,8,0:0:0:0:
320,192,216196,1,2,0:0:0:0:
448,192,216196,1,0,0:0:0:70:Crash 2.wav
192,192,216275,1,8,0:0:0:0:
64,192,216354,1,8,0:0:0:0:
448,192,216354,1,0,0:0:0:0:
192,192,216433,1,8,0:0:0:0:
320,192,216433,1,0,0:0:0:0:
64,192,216512,1,8,0:0:0:0:
448,192,216512,1,0,0:0:0:0:
320,192,216591,1,8,0:0:0:0:
64,192,216670,1,8,0:0:0:0:
192,192,216670,1,2,0:0:0:0:
448,192,216670,1,4,0:0:0:0:
320,192,216749,1,8,0:0:0:0:
192,192,216828,1,8,0:0:0:0:
320,192,216907,1,8,0:0:0:0:
64,192,216986,1,8,0:0:0:0:
192,192,216986,1,2,0:0:0:0:
448,192,216986,1,0,0:0:0:70:Crash 2.wav
320,192,217065,1,8,0:0:0:0:
64,192,217144,1,8,0:0:0:0:
192,192,217223,1,8,0:0:0:0:
64,192,217301,1,8,0:0:0:0:
320,192,217301,1,2,0:0:0:0:
448,192,217301,1,4,0:0:0:0:
192,192,217380,1,8,0:0:0:0:
320,192,217459,1,8,0:0:0:0:
448,192,217459,1,0,0:0:0:0:
64,192,217538,1,8,0:0:0:0:
192,192,217538,1,0,0:0:0:0:
320,192,217617,1,8,0:0:0:0:
448,192,217617,1,0,0:0:0:0:
192,192,217696,1,8,0:0:0:0:
64,192,217775,1,8,0:0:0:0:
320,192,217775,1,2,0:0:0:0:
448,192,217775,1,0,0:0:0:70:Crash 2.wav
192,192,217854,1,8,0:0:0:0:
64,192,217933,1,8,0:0:0:0:
448,192,217933,1,0,0:0:0:0:
192,192,218012,1,8,0:0:0:0:
320,192,218012,1,0,0:0:0:0:
64,192,218091,1,8,0:0:0:0:
448,192,218091,1,0,0:0:0:0:
320,192,218170,1,8,0:0:0:0:
64,192,218249,1,8,0:0:0:0:
192,192,218249,1,2,0:0:0:0:
448,192,218249,1,4,0:0:0:0:
320,192,218328,1,8,0:0:0:0:
64,192,218407,1,8,0:0:0:0:
192,192,218407,1,0,0:0:0:0:
320,192,218486,1,8,0:0:0:0:
448,192,218486,1,0,0:0:0:0:
64,192,218565,1,8,0:0:0:0:
192,192,218565,1,0,0:0:0:0:
320,192,218644,1,8,0:0:0:0:
64,192,218723,1,8,0:0:0:0:
192,192,218723,1,2,0:0:0:0:
448,192,218723,1,0,0:0:0:70:Crash 2.wav
320,192,218801,1,8,0:0:0:0:
64,192,218880,1,8,0:0:0:0:
448,192,218880,1,0,0:0:0:0:
192,192,218959,1,8,0:0:0:0:
320,192,218959,1,0,0:0:0:0:
64,192,219038,1,8,0:0:0:0:
448,192,219038,1,0,0:0:0:0:
192,192,219117,1,8,0:0:0:0:
64,192,219196,1,4,0:0:0:0:
320,192,219196,1,2,0:0:0:0:
448,192,219196,1,8,0:0:0:0:
192,192,219275,1,8,0:0:0:0:
320,192,219354,1,8,0:0:0:0:
448,192,219354,1,0,0:0:0:0:
64,192,219433,1,8,0:0:0:0:
192,192,219433,1,0,0:0:0:0:
320,192,219512,1,10,0:0:0:0:
448,192,219512,1,0,0:0:0:70:Crash 2.wav
64,192,219591,1,8,0:0:0:0:
192,192,219591,1,0,0:0:0:0:
320,192,219670,1,2,0:0:0:0:
448,192,219670,1,0,0:0:0:0:
64,192,219749,1,2,0:0:0:0:
192,192,219828,1,4,0:0:0:0:
320,192,219828,1,8,0:0:0:0:
448,192,219828,1,0,0:0:0:0:
192,192,219986,1,0,0:0:0:60:Tom2.wav
320,192,220065,1,0,0:0:0:60:Tom1.wav
64,192,220144,1,2,0:0:0:0:
448,192,220223,1,2,0:0:0:0:
64,192,220301,1,8,0:0:0:0:
192,192,220301,1,4,0:0:0:0:
320,192,220301,1,0,0:0:0:0:
320,192,220459,1,8,0:0:0:0:
448,192,220459,1,0,0:0:0:0:
64,192,220538,1,8,0:0:0:0:
192,192,220538,1,0,0:0:0:0:
448,192,220617,1,2,0:0:0:0:
64,192,220696,1,2,0:0:0:0:
192,192,220775,1,8,0:0:0:0:
320,192,220775,1,0,0:0:0:70:Crash 2.wav
448,192,220775,1,0,0:0:0:0:
64,192,220933,1,2,0:0:0:0:
192,192,220933,1,0,0:0:0:0:
320,192,221012,1,8,0:0:0:0:
448,192,221012,1,0,0:0:0:0:
64,192,221091,1,2,0:0:0:0:
192,192,221170,1,2,0:0:0:0:
64,192,221249,1,8,0:0:0:0:
320,192,221249,1,4,0:0:0:0:
448,192,221249,1,0,0:0:0:0:
192,192,221407,1,8,0:0:0:0:
448,192,221407,1,0,0:0:0:0:
64,192,221486,1,8,0:0:0:0:
320,192,221486,1,0,0:0:0:0:
192,192,221565,1,2,0:0:0:0:
320,192,221644,1,2,0:0:0:0:
64,192,221723,1,8,0:0:0:0:
192,192,221723,1,4,0:0:0:0:
448,192,221723,1,0,0:0:0:0:
64,192,221880,1,2,0:0:0:0:
192,192,221959,1,2,0:0:0:0:
64,192,222038,1,8,0:0:0:0:
320,192,222038,1,4,0:0:0:0:
448,192,222038,1,0,0:0:0:0:
320,192,222196,1,2,0:0:0:0:
192,192,222275,1,2,0:0:0:0:
64,192,222354,1,8,0:0:0:0:
320,192,222354,1,0,0:0:0:0:
448,192,222354,1,0,0:0:0:0:
192,192,222433,1,0,0:0:0:60:Tom1.wav
448,192,222512,1,0,0:0:0:60:Tom2.wav
64,192,222591,1,0,0:0:0:60:Tom3.wav
192,192,222670,1,2,0:0:0:0:
320,192,222749,1,2,0:0:0:0:
64,192,222828,1,8,0:0:0:0:
192,192,222828,1,4,0:0:0:0:
448,192,222828,1,0,0:0:0:0:
320,192,222907,1,0,0:0:0:60:Tom1.wav
64,192,222986,1,0,0:0:0:60:Tom2.wav
448,192,223065,1,0,0:0:0:60:Tom3.wav
320,192,223144,1,2,0:0:0:0:
192,192,223223,1,2,0:0:0:0:
64,192,223301,1,8,0:0:0:0:
320,192,223301,1,4,0:0:0:0:
448,192,223301,1,0,0:0:0:0:
192,192,223380,1,0,0:0:0:60:Tom1.wav
448,192,223459,1,0,0:0:0:60:Tom2.wav
320,192,223538,1,0,0:0:0:60:Tom3.wav
64,192,223617,1,2,0:0:0:0:
192,192,223696,1,2,0:0:0:0:
320,192,223775,1,8,0:0:0:0:
448,192,223775,1,4,0:0:0:0:
64,192,223854,1,8,0:0:0:0:
192,192,223854,1,0,0:0:0:0:
320,192,223933,1,8,0:0:0:0:
448,192,223933,1,0,0:0:0:0:
64,192,224012,1,8,0:0:0:0:
192,192,224012,1,0,0:0:0:0:
320,192,224091,1,8,0:0:0:0:
448,192,224091,1,0,0:0:0:0:
192,192,224170,1,8,0:0:0:0:
64,192,224249,1,2,0:0:0:0:
448,192,224249,1,4,0:0:0:0:
320,192,224328,1,2,0:0:0:0:
64,192,224407,1,2,0:0:0:0:
192,192,224407,1,0,0:0:0:0:
448,192,224486,1,6,0:0:0:0:
192,192,224565,1,2,0:0:0:0:
320,192,224565,1,4,0:0:0:0:
64,192,224644,1,6,0:0:0:0:
320,192,224723,1,2,0:0:0:0:
448,192,224723,1,0,0:0:0:0:
192,192,224801,1,2,0:0:0:0:
64,192,224880,1,0,0:0:0:0:
320,192,224882,1,2,0:0:0:0:
448,192,224882,128,4,225332:0:0:0:0:
320,192,225182,128,0,225332:0:0:0:0:
192,192,225332,128,0,225782:0:0:0:0:
64,192,225782,128,0,226082:0:0:0:0:
192,192,226082,128,0,226382:0:0:0:0:
320,192,226382,128,0,226532:0:0:0:0:
448,192,226532,128,0,226682:0:0:0:0:
64,192,226682,128,0,226982:0:0:0:0:
192,192,226982,128,0,227282:0:0:0:0:
320,192,227282,128,0,227732:0:0:0:0:
192,192,227732,128,0,228182:0:0:0:0:
64,192,228182,128,0,228482:0:0:0:0:
192,192,228482,128,0,228782:0:0:0:0:
320,192,228782,128,0,228932:0:0:0:0:
448,192,228932,128,0,229082:0:0:0:0:
64,192,229082,128,0,229382:0:0:0:0:
448,192,229382,128,0,229682:0:0:0:0:
320,192,229682,128,0,230132:0:0:0:0:
192,192,230132,128,0,230582:0:0:0:0:
64,192,230582,128,0,230882:0:0:0:0:
448,192,230882,128,0,231182:0:0:0:0:
320,192,231182,128,0,231332:0:0:0:0:
192,192,231332,128,0,231482:0:0:0:0:
64,192,231482,128,0,231782:0:0:0:0:
448,192,231782,128,0,232082:0:0:0:0:
192,192,232082,128,0,232532:0:0:0:0:
320,192,232532,128,0,232982:0:0:0:0:
448,192,232982,128,0,233282:0:0:0:0:
64,192,233282,128,0,233582:0:0:0:0:
192,192,233582,128,0,233732:0:0:0:0:
320,192,233732,128,0,233882:0:0:0:0:
448,192,233882,128,0,234182:0:0:0:0:
64,192,234182,128,0,234482:0:0:0:0:
320,192,234482,128,0,234932:0:0:0:0:
192,192,234932,128,0,235382:0:0:0:0:
64,192,235382,128,0,235682:0:0:0:0:
192,192,235682,128,0,235982:0:0:0:0:
320,192,235982,128,0,236132:0:0:0:0:
448,192,236132,128,0,236282:0:0:0:0:
64,192,236282,128,0,236582:0:0:0:0:
192,192,236582,128,0,236882:0:0:0:0:
320,192,236882,128,0,237332:0:0:0:0:
64,192,237332,128,0,237782:0:0:0:0:
448,192,237782,128,0,238082:0:0:0:0:
320,192,238082,128,0,238382:0:0:0:0:
192,192,238382,128,0,238532:0:0:0:0:
64,192,238532,128,0,238682:0:0:0:0:
448,192,238682,128,0,238982:0:0:0:0:
64,192,238982,128,0,239282:0:0:0:0:
320,192,239282,128,0,239732:0:0:0:0:
192,192,239732,128,0,240182:0:0:0:0:
320,192,240182,128,0,240482:0:0:0:0:
448,192,240482,128,0,240782:0:0:0:0:
64,192,240782,128,0,240932:0:0:0:0:
192,192,240932,128,0,241082:0:0:0:0:
320,192,241082,128,0,241382:0:0:0:0:
448,192,241382,128,0,241682:0:0:0:0:
64,192,241682,128,0,242132:0:0:0:0:
320,192,242132,128,0,242582:0:0:0:0:
192,192,242582,128,0,242882:0:0:0:0:
64,192,242882,128,0,243182:0:0:0:0:
192,192,243182,128,0,243332:0:0:0:0:
320,192,243332,128,0,243482:0:0:0:0:
448,192,243482,128,0,243782:0:0:0:0:
64,192,243782,1,0,0:0:0:0:
320,192,243782,128,0,244082:0:0:0:0:
64,192,244082,1,2,0:0:0:0:
192,192,244082,128,4,244157:0:0:0:0:
448,192,244082,1,0,0:0:0:0:
320,192,244157,128,0,244232:0:0:0:0:
448,192,244232,128,0,244382:0:0:0:0:
64,192,244382,128,0,244532:0:0:0:0:
192,192,244532,128,0,244682:0:0:0:0:
320,192,244682,128,2,244982:0:0:0:0:
448,192,244682,1,0,0:0:0:0:
64,192,244982,128,0,245282:0:0:0:0:
320,192,245282,128,2,245357:0:0:0:0:
448,192,245282,1,0,0:0:0:0:
192,192,245357,128,0,245432:0:0:0:0:
64,192,245432,128,0,245582:0:0:0:0:
320,192,245582,128,0,245732:0:0:0:0:
192,192,245732,128,0,245882:0:0:0:0:
320,192,245882,128,2,246182:0:0:0:0:
448,192,245882,1,0,0:0:0:0:
64,192,246182,128,0,246482:0:0:0:0:
192,192,246482,1,2,0:0:0:0:
448,192,246482,128,0,246557:0:0:0:0:
320,192,246557,128,0,246632:0:0:0:0:
192,192,246632,128,0,246782:0:0:0:0:
320,192,246782,128,0,246932:0:0:0:0:
64,192,246932,128,0,247082:0:0:0:0:
192,192,247082,128,2,247232:0:0:0:0:
448,192,247082,1,0,0:0:0:0:
320,192,247232,128,0,247382:0:0:0:0:
448,192,247382,128,0,247532:0:0:0:0:
320,192,247532,128,0,247682:0:0:0:0:
192,192,247682,128,2,247757:0:0:0:0:
448,192,247682,1,0,0:0:0:0:
64,192,247757,128,0,247832:0:0:0:0:
192,192,247832,128,0,247982:0:0:0:0:
448,192,247982,128,0,248132:0:0:0:0:
320,192,248132,128,0,248282:0:0:0:0:
192,192,248282,128,2,248432:0:0:0:0:
448,192,248282,1,0,0:0:0:0:
320,192,248432,128,0,248582:0:0:0:0:
448,192,248582,128,0,248732:0:0:0:0:
192,192,248732,128,0,248882:0:0:0:0:
64,192,248882,1,2,0:0:0:0:
320,192,248882,128,0,249032:0:0:0:0:
192,192,249032,128,0,249182:0:0:0:0:
64,192,249182,128,0,249332:0:0:0:0:
192,192,249332,128,0,249482:0:0:0:0:
64,192,249482,1,2,0:0:0:0:
320,192,249482,128,0,249632:0:0:0:0:
448,192,249632,128,0,249782:0:0:0:0:
320,192,249782,128,0,249932:0:0:0:0:
192,192,249932,128,0,250082:0:0:0:0:
64,192,250082,128,2,250157:0:0:0:0:
320,192,250082,1,0,0:0:0:0:
192,192,250157,128,0,250232:0:0:0:0:
320,192,250232,128,0,250382:0:0:0:0:
192,192,250382,128,0,250532:0:0:0:0:
448,192,250532,128,0,250682:0:0:0:0:
64,192,250682,1,2,0:0:0:0:
320,192,250682,128,0,250832:0:0:0:0:
192,192,250832,128,0,250982:0:0:0:0:
320,192,250982,128,0,251132:0:0:0:0:
448,192,251132,128,0,251282:0:0:0:0:
64,192,251282,1,2,0:0:0:0:
192,192,251282,128,0,251357:0:0:0:0:
320,192,251357,128,0,251432:0:0:0:0:
192,192,251432,128,0,251582:0:0:0:0:
64,192,251582,128,0,251732:0:0:0:0:
320,192,251732,128,0,251882:0:0:0:0:
64,192,251882,1,2,0:0:0:0:
192,192,251882,128,0,252032:0:0:0:0:
320,192,252032,128,0,252182:0:0:0:0:
448,192,252182,128,0,252332:0:0:0:0:
320,192,252332,128,0,252482:0:0:0:0:
64,192,252482,1,2,0:0:0:0:
192,192,252482,128,0,252632:0:0:0:0:
320,192,252632,128,0,252782:0:0:0:0:
64,192,252782,128,2,252932:0:0:0:0:
192,192,252782,1,0,0:0:0:0:
448,192,252932,128,0,253082:0:0:0:0:
64,192,253082,1,2,0:0:0:0:
192,192,253082,128,0,253232:0:0:0:0:
320,192,253232,1,8,0:0:0:0:
448,192,253232,1,0,0:0:0:0:
64,192,253307,1,8,0:0:0:0:
192,192,253307,1,0,0:0:0:0:
320,192,253382,1,8,0:0:0:0:
448,192,253382,1,0,0:0:0:0:
64,192,253457,1,8,0:0:0:0:
192,192,253457,1,0,0:0:0:0:
320,192,253532,1,8,0:0:0:0:
448,192,253532,1,0,0:0:0:0:
192,192,253607,1,8,0:0:0:0:
64,192,253682,128,2,253907:0:0:0:0:
320,192,253682,1,4,0:0:0:0:
448,192,253682,1,0,0:0:0:0:
64,192,253982,1,2,0:0:0:0:
448,192,253982,128,0,254057:0:0:0:0:
448,192,254132,128,0,254207:0:0:0:0:
192,192,254282,1,2,0:0:0:0:
448,192,254282,128,0,254357:0:0:0:0:
448,192,254432,128,0,254507:0:0:0:0:
320,192,254582,1,2,0:0:0:0:
448,192,254582,128,0,254657:0:0:0:0:
64,192,254732,1,8,0:0:0:0:
192,192,254732,1,4,0:0:0:0:
448,192,254732,128,0,254807:0:0:0:0:
64,192,254882,1,2,0:0:0:0:
448,192,254882,128,0,254957:0:0:0:0:
448,192,255032,128,0,255107:0:0:0:0:
192,192,255182,1,2,0:0:0:0:
448,192,255182,128,0,255257:0:0:0:0:
448,192,255332,128,0,255407:0:0:0:0:
320,192,255482,1,2,0:0:0:0:
448,192,255482,128,0,255557:0:0:0:0:
448,192,255632,128,0,255707:0:0:0:0:
64,192,255782,1,2,0:0:0:0:
448,192,255782,128,0,255857:0:0:0:0:
192,192,255932,1,8,0:0:0:0:
448,192,255932,128,0,256007:0:0:0:0:
320,192,256007,1,8,0:0:0:0:
64,192,256082,1,2,0:0:0:0:
192,192,256082,1,4,0:0:0:0:
448,192,256082,128,0,256307:0:0:0:0:
192,192,256382,128,2,256457:0:0:0:0:
448,192,256382,1,0,0:0:0:0:
192,192,256532,128,0,256607:0:0:0:0:
64,192,256682,1,2,0:0:0:0:
192,192,256682,128,0,256757:0:0:0:0:
192,192,256832,128,0,256907:0:0:0:0:
192,192,256982,128,2,257057:0:0:0:0:
320,192,256982,1,0,0:0:0:0:
64,192,257132,1,8,0:0:0:0:
192,192,257132,128,0,257207:0:0:0:0:
448,192,257132,1,0,0:0:0:0:
64,192,257282,1,2,0:0:0:0:
192,192,257282,128,0,257507:0:0:0:0:
192,192,257582,128,2,257657:0:0:0:0:
448,192,257582,1,0,0:0:0:0:
64,192,257732,1,8,0:0:0:0:
320,192,257732,128,0,257807:0:0:0:0:
192,192,257807,1,8,0:0:0:0:
320,192,257882,1,8,0:0:0:0:
448,192,257882,128,0,257957:0:0:0:0:
64,192,258032,128,0,258107:0:0:0:60:Tom2.wav
192,192,258182,128,2,258257:0:0:0:0:
320,192,258332,128,0,258407:0:0:0:60:Hat open.wav
64,192,258482,1,4,0:0:0:0:
192,192,258482,128,2,258707:0:0:0:0:
448,192,258482,1,0,0:0:0:0:
192,192,258782,1,2,0:0:0:0:
320,192,258782,128,0,258857:0:0:0:0:
320,192,258932,128,0,259007:0:0:0:0:
64,192,259082,1,2,0:0:0:0:
320,192,259082,128,0,259157:0:0:0:0:
320,192,259232,128,0,259307:0:0:0:0:
64,192,259382,1,8,0:0:0:0:
320,192,259382,128,4,259607:0:0:0:0:
448,192,259382,1,0,0:0:0:0:
192,192,259682,1,2,0:0:0:0:
320,192,259682,1,0,0:0:0:0:
64,192,259832,1,8,0:0:0:0:
192,192,259832,1,0,0:0:0:0:
448,192,259832,1,0,0:0:0:0:
64,192,259982,1,2,0:0:0:0:
448,192,259982,1,0,0:0:0:0:
192,192,260132,1,2,0:0:0:0:
320,192,260132,1,0,0:0:0:0:
64,192,260282,1,8,0:0:0:0:
320,192,260282,1,0,0:0:0:0:
448,192,260282,1,0,0:0:0:0:
192,192,260432,1,2,0:0:0:0:
448,192,260432,1,0,0:0:0:0:
64,192,260582,1,8,0:0:0:0:
192,192,260582,1,0,0:0:0:70:Crash 2.wav
320,192,260582,1,0,0:0:0:0:
64,192,260882,1,8,0:0:0:0:
320,192,260882,1,4,0:0:0:0:
448,192,260882,1,0,0:0:0:0:
64,192,261182,1,2,0:0:0:0:
448,192,261182,1,0,0:0:0:0:
64,192,261482,1,2,0:0:0:0:
448,192,261482,1,0,0:0:0:0:
64,192,261782,1,2,0:0:0:0:
448,192,261782,1,0,0:0:0:0:
64,192,262082,1,2,0:0:0:0:
320,192,262082,1,0,0:0:0:0:
448,192,262082,1,0,0:0:0:0:
64,192,262382,1,2,0:0:0:0:
320,192,262382,1,0,0:0:0:70:Crash 2.wav
448,192,262382,1,0,0:0:0:0:
64,192,262682,1,2,0:0:0:0:
320,192,262682,1,4,0:0:0:0:
448,192,262682,1,0,0:0:0:0:
64,192,262982,1,2,0:0:0:0:
320,192,262982,1,0,0:0:0:70:Crash 2.wav
448,192,262982,1,0,0:0:0:0:
64,192,263282,1,2,0:0:0:0:
192,192,263282,1,4,0:0:0:0:
320,192,263282,1,0,0:0:0:0:
448,192,263282,1,0,0:0:0:0:
64,192,263582,1,2,0:0:0:0:
192,192,263582,1,0,0:0:0:70:Crash 2.wav
320,192,263582,1,0,0:0:0:0:
448,192,263582,1,0,0:0:0:0:
64,192,263882,1,2,0:0:0:0:
192,192,263882,1,4,0:0:0:0:
320,192,263882,1,0,0:0:0:0:
448,192,263882,1,0,0:0:0:0:
64,192,264182,1,2,0:0:0:0:
192,192,264182,1,0,0:0:0:70:Crash 2.wav
320,192,264182,1,0,0:0:0:0:
448,192,264182,1,0,0:0:0:0:
64,192,266132,1,2,0:0:0:0:
448,192,266132,1,0,0:0:0:0:
320,192,266207,1,2,0:0:0:0:
64,192,266282,1,8,0:0:0:0:
192,192,266282,1,0,0:0:0:60:Tom3.wav
448,192,266282,1,0,0:0:0:0:
192,192,266482,1,2,0:0:0:0:
320,192,266482,1,0,0:0:0:0:
320,192,266682,1,2,0:0:0:0:
448,192,266682,1,0,0:0:0:0:
64,192,266882,128,4,268007:0:0:0:0:
192,192,266882,128,2,268007:0:0:0:0:
448,192,266882,128,0,268007:0:0:0:0:
320,192,267782,128,0,268007:0:0:0:0:
64,192,268082,128,2,269207:0:0:0:0:
320,192,268082,128,4,269207:0:0:0:0:
448,192,268082,128,0,269207:0:0:0:0:
192,192,268982,128,0,269207:0:0:0:0:
64,192,269282,128,2,270407:0:0:0:0:
192,192,269282,128,4,270407:0:0:0:0:
320,192,269282,128,0,270407:0:0:0:0:
448,192,270182,128,0,270407:0:0:0:0:
192,192,270482,128,2,271607:0:0:0:0:
320,192,270482,128,4,271607:0:0:0:0:
448,192,270482,128,0,271607:0:0:0:0:
64,192,271382,128,0,271607:0:0:0:0:
64,192,271682,128,2,271982:0:0:0:0:
192,192,271682,128,4,271832:0:0:0:0:
448,192,271682,128,0,272132:0:0:0:0:
320,192,271832,128,0,272132:0:0:0:0:
192,192,271982,128,0,272132:0:0:0:0:
64,192,272132,128,0,272282:0:0:0:0:
192,192,272282,128,2,272732:0:0:0:0:
320,192,272282,128,4,272582:0:0:0:0:
448,192,272282,128,0,272432:0:0:0:0:
64,192,272432,128,0,272732:0:0:0:0:
448,192,272582,128,0,272732:0:0:0:0:
320,192,272732,128,0,272882:0:0:0:0:
64,192,272882,128,2,273332:0:0:0:0:
192,192,272882,128,4,273032:0:0:0:0:
448,192,272882,128,0,273182:0:0:0:0:
320,192,273032,128,0,273332:0:0:0:0:
192,192,273182,128,0,273332:0:0:0:0:
448,192,273332,128,0,273482:0:0:0:0:
64,192,273482,128,2,273632:0:0:0:0:
192,192,273482,128,4,273782:0:0:0:0:
320,192,273482,128,0,273932:0:0:0:0:
448,192,273632,128,0,273932:0:0:0:0:
64,192,273782,128,0,273932:0:0:0:0:
192,192,273932,128,0,274082:0:0:0:0:
64,192,274082,1,2,0:0:0:0:
320,192,274082,1,4,0:0:0:0:
448,192,274082,1,0,0:0:0:0:
64,192,274682,1,2,0:0:0:0:
192,192,274682,1,4,0:0:0:0:
320,192,274682,1,0,0:0:0:0:
448,192,274682,1,0,0:0:0:0:
320,192,275132,1,2,0:0:0:0:
448,192,275132,1,0,0:0:0:0:
192,192,275207,1,2,0:0:0:0:
64,192,275282,1,8,0:0:0:0:
320,192,275282,1,4,0:0:0:0:
448,192,275282,1,0,0:0:0:0:
64,192,275482,1,8,0:0:0:0:
192,192,275482,1,4,0:0:0:0:
320,192,275482,1,0,0:0:0:0:
192,192,275682,1,8,0:0:0:0:
320,192,275682,1,4,0:0:0:0:
448,192,275682,1,0,0:0:0:0:
64,192,275882,1,2,0:0:0:0:
192,192,275882,1,0,0:0:0:70:Crash 2.wav
448,192,275882,1,0,0:0:0:0:
320,192,276032,1,8,0:0:0:0:
448,192,276032,1,0,0:0:0:0:
64,192,276107,1,8,0:0:0:0:
192,192,276107,1,0,0:0:0:0:
320,192,276182,1,8,0:0:0:0:
448,192,276182,1,2,0:0:0:0:
64,192,276257,1,8,0:0:0:0:
192,192,276257,1,0,0:0:0:0:
320,192,276332,1,8,0:0:0:0:
448,192,276332,1,0,0:0:0:0:
192,192,276407,1,8,0:0:0:0:
64,192,276482,1,4,0:0:0:0:
320,192,276482,128,2,276557:0:0:0:0:
448,192,276482,1,0,0:0:0:0:
192,192,276632,128,0,276707:0:0:0:0:
64,192,276782,128,8,277007:0:0:0:0:
320,192,276782,1,0,0:0:0:70:Crash 2.wav
448,192,276782,1,0,0:0:0:0:
192,192,277082,128,2,277307:0:0:0:0:
320,192,277082,1,0,0:0:0:0:
64,192,277382,1,8,0:0:0:0:
192,192,277382,1,0,0:0:0:0:
320,192,277382,128,0,277607:0:0:0:0:
448,192,277532,128,0,277607:0:0:0:0:
192,192,277682,128,2,277907:0:0:0:0:
448,192,277682,1,0,0:0:0:0:
64,192,277982,128,8,278507:0:0:0:0:
192,192,277982,1,0,0:0:0:0:
320,192,277982,1,0,0:0:0:0:
448,192,278132,128,0,278507:0:0:0:0:
192,192,278282,1,2,0:0:0:0:
320,192,278282,1,0,0:0:0:0:
192,192,278432,128,0,278507:0:0:0:0:
64,192,278582,1,8,0:0:0:0:
320,192,278582,128,0,278657:0:0:0:0:
448,192,278582,1,0,0:0:0:0:
448,192,278732,128,0,278807:0:0:0:0:
64,192,278882,128,2,279107:0:0:0:0:
320,192,278882,1,0,0:0:0:0:
64,192,279182,1,8,0:0:0:0:
192,192,279182,128,0,279407:0:0:0:0:
448,192,279182,1,0,0:0:0:0:
192,192,279482,1,2,0:0:0:0:
320,192,279482,128,0,279707:0:0:0:0:
64,192,279782,1,8,0:0:0:0:
320,192,279782,1,0,0:0:0:0:
448,192,279782,128,0,280007:0:0:0:0:
64,192,280082,128,2,280682:0:0:0:0:
448,192,280082,1,0,0:0:0:0:
192,192,280382,1,8,0:0:0:0:
320,192,280382,1,0,0:0:0:0:
448,192,280382,1,0,0:0:0:0:
192,192,280682,1,2,0:0:0:0:
320,192,280682,1,0,0:0:0:0:
448,192,280832,128,0,281057:0:0:0:0:
64,192,280982,128,8,281207:0:0:0:0:
192,192,280982,1,0,0:0:0:0:
320,192,280982,1,0,0:0:0:0:
192,192,281132,128,8,281207:0:0:0:0:
448,192,281132,1,0,0:0:0:0:
320,192,281207,1,8,0:0:0:0:
64,192,281282,1,4,0:0:0:0:
192,192,281282,1,2,0:0:0:0:
448,192,281282,128,0,281507:0:0:0:0:
320,192,281432,128,0,281507:0:0:0:0:
192,192,281582,128,8,281657:0:0:0:0:
320,192,281582,1,0,0:0:0:0:
448,192,281582,1,0,0:0:0:0:
64,192,281732,128,0,281807:0:0:0:0:
64,192,281882,1,2,0:0:0:0:
448,192,281882,128,0,282107:0:0:0:0:
64,192,282182,128,8,282407:0:0:0:0:
320,192,282182,1,0,0:0:0:0:
448,192,282182,1,0,0:0:0:0:
192,192,282332,128,0,282407:0:0:0:0:
64,192,282482,1,2,0:0:0:0:
320,192,282482,128,0,282557:0:0:0:0:
448,192,282632,128,0,282707:0:0:0:0:
64,192,282782,128,8,283007:0:0:0:0:
320,192,282782,1,0,0:0:0:0:
448,192,282782,1,0,0:0:0:0:
64,192,283082,1,2,0:0:0:0:
192,192,283082,128,0,283232:0:0:0:0:
192,192,283307,128,0,283607:0:0:0:0:
64,192,283382,1,8,0:0:0:0:
320,192,283382,1,0,0:0:0:0:
448,192,283382,1,0,0:0:0:0:
448,192,283532,128,0,283832:0:0:0:0:
64,192,283682,128,4,283832:0:0:0:0:
192,192,283682,1,2,0:0:0:0:
320,192,283682,1,0,0:0:0:0:
192,192,283907,128,8,284057:0:0:0:0:
448,192,283907,1,0,0:0:0:0:
64,192,283982,1,2,0:0:0:0:
320,192,283982,1,0,0:0:0:0:
192,192,284132,1,8,0:0:0:0:
320,192,284132,128,0,284432:0:0:0:0:
64,192,284282,1,4,0:0:0:0:
192,192,284282,1,2,0:0:0:0:
448,192,284282,128,0,284432:0:0:0:0:
64,192,284507,1,8,0:0:0:0:
448,192,284507,1,0,0:0:0:0:
192,192,284582,128,2,284657:0:0:0:0:
320,192,284582,1,0,0:0:0:0:
64,192,284732,128,8,284807:0:0:0:0:
192,192,284732,1,0,0:0:0:0:
448,192,284732,1,0,0:0:0:0:
64,192,284882,1,4,0:0:0:0:
320,192,284882,1,2,0:0:0:0:
448,192,284882,1,0,0:0:0:0:
192,192,284957,1,8,0:0:0:0:
320,192,285032,1,8,0:0:0:0:
448,192,285032,1,0,0:0:0:0:
192,192,285107,1,8,0:0:0:0:
64,192,285182,1,8,0:0:0:0:
448,192,285182,1,2,0:0:0:0:
320,192,285257,1,8,0:0:0:0:
64,192,285332,1,8,0:0:0:0:
192,192,285332,1,0,0:0:0:0:
320,192,285407,1,8,0:0:0:0:
64,192,285482,1,8,0:0:0:0:
192,192,285482,1,2,0:0:0:0:
448,192,285482,1,0,0:0:0:70:Crash 2.wav
320,192,285557,1,8,0:0:0:0:
64,192,285632,1,8,0:0:0:0:
448,192,285632,1,0,0:0:0:0:
192,192,285707,1,8,0:0:0:0:
320,192,285782,1,8,0:0:0:0:
448,192,285782,1,2,0:0:0:0:
64,192,285857,1,8,0:0:0:0:
192,192,285932,1,8,0:0:0:0:
320,192,285932,1,0,0:0:0:0:
448,192,286007,1,8,0:0:0:0:
64,192,286082,1,0,0:0:0:60:Tom2.wav
192,192,286082,1,0,0:0:0:0:
320,192,286157,1,0,0:0:0:60:Tom1.wav
64,192,286232,1,2,0:0:0:0:
448,192,286232,1,0,0:0:0:0:
192,192,286307,1,2,0:0:0:0:
64,192,286382,128,8,286457:0:0:0:0:
320,192,286382,1,4,0:0:0:0:
448,192,286382,1,0,0:0:0:0:
192,192,286532,128,0,286607:0:0:0:0:
448,192,286532,128,0,286757:0:0:0:0:
64,192,286682,1,2,0:0:0:0:
320,192,286682,128,0,286757:0:0:0:0:
192,192,286832,128,0,287057:0:0:0:0:
448,192,286832,128,0,286907:0:0:0:0:
64,192,286982,1,8,0:0:0:0:
320,192,286982,128,0,287057:0:0:0:0:
448,192,286982,1,0,0:0:0:0:
64,192,287132,128,0,287507:0:0:0:0:
192,192,287282,128,2,287507:0:0:0:0:
448,192,287282,1,0,0:0:0:0:
64,192,287582,1,8,0:0:0:0:
192,192,287582,1,0,0:0:0:0:
448,192,287582,128,0,287957:0:0:0:0:
320,192,287732,128,0,287957:0:0:0:0:
64,192,287882,1,2,0:0:0:0:
192,192,287882,1,0,0:0:0:0:
192,192,288032,128,0,288407:0:0:0:0:
64,192,288182,1,8,0:0:0:0:
320,192,288182,1,0,0:0:0:0:
448,192,288182,1,0,0:0:0:0:
448,192,288332,128,0,288557:0:0:0:0:
64,192,288482,1,2,0:0:0:0:
320,192,288482,128,0,288557:0:0:0:0:
64,192,288632,128,0,288857:0:0:0:0:
192,192,288632,128,0,288707:0:0:0:0:
192,192,288782,1,8,0:0:0:0:
320,192,288782,1,0,0:0:0:0:
448,192,288782,128,0,288857:0:0:0:0:
192,192,288932,128,0,289157:0:0:0:0:
320,192,288932,128,0,289007:0:0:0:0:
64,192,289082,128,2,289157:0:0:0:0:
448,192,289082,1,0,0:0:0:0:
192,192,289232,128,0,289307:0:0:0:0:
320,192,289232,128,0,289457:0:0:0:0:
64,192,289382,1,8,0:0:0:0:
192,192,289382,1,0,0:0:0:0:
448,192,289382,128,0,289457:0:0:0:0:
448,192,289532,128,0,289907:0:0:0:0:
64,192,289682,128,2,289907:0:0:0:0:
320,192,289682,1,0,0:0:0:0:
64,192,289982,1,8,0:0:0:0:
192,192,289982,128,0,290357:0:0:0:0:
448,192,289982,1,0,0:0:0:0:
448,192,290132,128,0,290357:0:0:0:0:
64,192,290282,1,2,0:0:0:0:
320,192,290282,1,0,0:0:0:0:
320,192,290432,128,0,290807:0:0:0:0:
64,192,290582,1,8,0:0:0:0:
192,192,290582,1,0,0:0:0:0:
448,192,290582,1,0,0:0:0:0:
320,192,290882,1,2,0:0:0:0:
448,192,290882,1,0,0:0:0:0:
192,192,291032,128,0,291107:0:0:0:0:
64,192,291182,1,8,0:0:0:0:
192,192,291182,1,0,0:0:0:0:
320,192,291182,128,0,291257:0:0:0:0:
448,192,291332,128,0,291857:0:0:0:0:
64,192,291482,1,2,0:0:0:0:
192,192,291482,1,0,0:0:0:0:
320,192,291632,128,0,291707:0:0:0:0:
64,192,291782,1,8,0:0:0:0:
192,192,291782,128,0,291857:0:0:0:0:
320,192,291782,1,0,0:0:0:0:
64,192,291932,128,0,292157:0:0:0:0:
192,192,292082,1,2,0:0:0:0:
448,192,292082,128,0,292157:0:0:0:0:
320,192,292232,128,0,292307:0:0:0:0:
64,192,292382,1,8,0:0:0:0:
192,192,292382,128,0,292457:0:0:0:0:
448,192,292382,1,0,0:0:0:0:
320,192,292532,128,0,292607:0:0:0:0:
192,192,292682,128,2,292757:0:0:0:0:
448,192,292682,1,0,0:0:0:0:
64,192,292832,128,0,292907:0:0:0:0:
64,192,292982,1,8,0:0:0:0:
192,192,292982,1,0,0:0:0:0:
448,192,292982,128,0,293282:0:0:0:0:
192,192,293282,1,2,0:0:0:0:
320,192,293282,1,0,0:0:0:0:
64,192,293432,128,0,293507:0:0:0:0:
64,192,293582,1,8,0:0:0:0:
192,192,293582,128,0,293657:0:0:0:0:
448,192,293582,1,0,0:0:0:0:
320,192,293732,128,0,294107:0:0:0:0:
64,192,293882,1,2,0:0:0:0:
448,192,293882,1,0,0:0:0:0:
64,192,294032,128,2,294107:0:0:0:0:
192,192,294032,128,0,294107:0:0:0:0:
64,192,294182,1,8,0:0:0:0:
192,192,294182,128,0,294257:0:0:0:0:
320,192,294182,128,0,294257:0:0:0:0:
320,192,294332,128,2,294407:0:0:0:0:
448,192,294332,128,0,294407:0:0:0:0:
64,192,294482,128,8,294707:0:0:0:0:
192,192,294482,128,4,294557:0:0:0:0:
448,192,294482,1,0,0:0:0:0:
320,192,294632,128,2,294707:0:0:0:0:
448,192,294632,128,0,294857:0:0:0:0:
64,192,294782,128,8,294857:0:0:0:0:
192,192,294782,128,4,294857:0:0:0:0:
320,192,294782,1,0,0:0:0:0:
192,192,294932,128,0,295007:0:0:0:0:
448,192,294932,128,0,295082:0:0:0:0:
64,192,295082,128,8,295282:0:0:0:0:
192,192,295082,128,0,295182:0:0:0:0:
320,192,295182,1,8,0:0:0:0:
192,192,295282,1,8,0:0:0:0:
320,192,295382,128,0,295482:0:0:0:60:Tom2.wav
448,192,295382,128,0,295582:0:0:0:0:
64,192,295482,1,0,0:0:0:60:Tom2.wav
192,192,295582,1,0,0:0:0:60:Tom3.wav
64,192,295682,1,4,0:0:0:0:
320,192,295682,1,2,0:0:0:0:
448,192,295682,1,0,0:0:0:0:
192,192,295832,1,2,0:0:0:0:
448,192,295832,1,0,0:0:0:0:
320,192,295982,128,2,296057:0:0:0:0:
192,192,296132,128,2,296207:0:0:0:0:
64,192,296282,1,8,0:0:0:0:
320,192,296282,128,0,296357:0:0:0:0:
448,192,296282,1,0,0:0:0:0:
192,192,296432,1,4,0:0:0:0:
448,192,296432,128,2,296507:0:0:0:0:
320,192,296582,128,0,296657:0:0:0:0:
64,192,296732,1,8,0:0:0:0:
192,192,296732,128,0,296807:0:0:0:0:
448,192,296732,1,0,0:0:0:0:
64,192,296882,128,2,297107:0:0:0:0:
320,192,296882,1,0,0:0:0:0:
192,192,297032,1,8,0:0:0:0:
320,192,297032,1,0,0:0:0:0:
448,192,297032,1,0,0:0:0:0:
64,192,297182,1,2,0:0:0:0:
448,192,297182,128,0,297707:0:0:0:0:
192,192,297332,1,2,0:0:0:0:
320,192,297332,128,0,297707:0:0:0:0:
64,192,297482,1,8,0:0:0:0:
192,192,297482,1,0,0:0:0:0:
64,192,297632,1,4,0:0:0:0:
192,192,297632,1,2,0:0:0:0:
64,192,297782,128,0,298007:0:0:0:0:
64,192,298082,1,2,0:0:0:0:
320,192,298082,1,0,0:0:0:70:Crash 2.wav
448,192,298082,1,0,0:0:0:0:
64,192,298232,1,2,0:0:0:0:
192,192,298232,1,0,0:0:0:0:
192,192,298382,128,2,298457:0:0:0:0:
448,192,298382,1,0,0:0:0:0:
64,192,298532,1,2,0:0:0:0:
320,192,298532,128,0,298607:0:0:0:0:
192,192,298682,128,8,298757:0:0:0:0:
320,192,298682,1,0,0:0:0:0:
448,192,298682,1,0,0:0:0:0:
64,192,298832,128,4,298907:0:0:0:0:
192,192,298832,1,2,0:0:0:0:
448,192,298832,1,0,0:0:0:0:
192,192,298982,128,0,299057:0:0:0:0:
64,192,299132,1,0,0:0:0:0:
320,192,299132,128,0,299207:0:0:0:0:
448,192,299132,1,0,0:0:0:0:
192,192,299282,1,2,0:0:0:0:
320,192,299282,1,0,0:0:0:0:
448,192,299282,128,0,299507:0:0:0:0:
64,192,299432,1,8,0:0:0:0:
192,192,299432,1,0,0:0:0:0:
320,192,299432,1,0,0:0:0:0:
64,192,299582,128,2,299882:0:0:0:0:
448,192,299582,1,0,0:0:0:0:
192,192,299732,128,2,299882:0:0:0:0:
320,192,299732,1,0,0:0:0:0:
320,192,299882,1,8,0:0:0:0:
448,192,299882,1,0,0:0:0:0:
192,192,299957,1,0,0:0:0:60:Tom1.wav
64,192,300032,1,0,0:0:0:60:Tom2.wav
448,192,300032,128,0,300257:0:0:0:0:
320,192,300107,1,0,0:0:0:60:Tom3.wav
64,192,300182,1,4,0:0:0:0:
192,192,300182,1,8,0:0:0:0:
192,192,300332,128,0,300707:0:0:0:0:
64,192,300482,128,4,300707:0:0:0:0:
320,192,300482,1,2,0:0:0:0:
448,192,300482,1,0,0:0:0:0:
320,192,300632,1,2,0:0:0:0:
448,192,300632,1,0,0:0:0:0:
64,192,300782,1,8,0:0:0:0:
192,192,300782,1,0,0:0:0:0:
448,192,300782,128,0,301157:0:0:0:0:
64,192,300932,1,2,0:0:0:0:
320,192,300932,128,0,301157:0:0:0:0:
64,192,301082,1,8,0:0:0:0:
192,192,301082,1,0,0:0:0:0:
320,192,301232,1,8,0:0:0:0:
448,192,301232,1,0,0:0:0:0:
64,192,301307,1,8,0:0:0:0:
192,192,301307,1,0,0:0:0:0:
320,192,301382,1,8,0:0:0:0:
448,192,301382,1,0,0:0:0:0:
64,192,301457,1,8,0:0:0:0:
192,192,301457,1,0,0:0:0:0:
320,192,301532,1,8,0:0:0:0:
448,192,301532,1,0,0:0:0:0:
64,192,301607,1,8,0:0:0:0:
192,192,301607,1,0,0:0:0:0:
320,192,301682,128,2,301757:0:0:0:0:
448,192,301682,128,4,301757:0:0:0:0:
320,192,301982,128,0,302057:0:0:0:0:
448,192,301982,128,0,302057:0:0:0:0:
64,192,302282,1,2,0:0:0:0:
448,192,302282,1,0,0:0:0:0:
64,192,302432,1,8,0:0:0:0:
192,192,302432,1,0,0:0:0:0:
320,192,302507,1,8,0:0:0:0:
448,192,302507,1,0,0:0:0:0:
64,192,302582,1,8,0:0:0:0:
192,192,302582,1,0,0:0:0:0:
320,192,302657,1,8,0:0:0:0:
448,192,302657,1,0,0:0:0:0:
64,192,302732,1,8,0:0:0:0:
192,192,302732,1,0,0:0:0:0:
320,192,302807,1,8,0:0:0:0:
64,192,302882,1,4,0:0:0:0:
192,192,302882,128,2,302957:0:0:0:0:
448,192,302882,128,0,304007:0:0:0:0:
192,192,303032,128,0,303107:0:0:0:0:
64,192,303182,1,8,0:0:0:0:
192,192,303182,128,0,303257:0:0:0:70:Crash 2.wav
320,192,303332,128,0,303407:0:0:0:0:
192,192,303482,1,2,0:0:0:0:
320,192,303482,128,0,303557:0:0:0:0:
320,192,303632,128,0,303707:0:0:0:0:
64,192,303782,1,8,0:0:0:0:
192,192,303782,128,0,303857:0:0:0:0:
192,192,303932,128,0,304007:0:0:0:0:
64,192,304082,128,2,304157:0:0:0:0:
320,192,304082,128,0,305207:0:0:0:0:
64,192,304232,128,0,304307:0:0:0:0:
64,192,304382,128,8,304457:0:0:0:0:
448,192,304382,1,0,0:0:0:0:
192,192,304532,128,0,304607:0:0:0:0:
64,192,304682,1,2,0:0:0:0:
192,192,304682,128,0,304757:0:0:0:0:
192,192,304832,128,0,304907:0:0:0:0:
64,192,304982,1,8,0:0:0:0:
448,192,304982,128,0,305057:0:0:0:0:
448,192,305132,128,0,305207:0:0:0:0:
192,192,305282,128,2,306407:0:0:0:0:
320,192,305282,128,0,305357:0:0:0:0:
320,192,305432,128,0,305507:0:0:0:0:
320,192,305582,128,8,305657:0:0:0:0:
448,192,305582,1,0,0:0:0:0:
64,192,305732,128,0,305807:0:0:0:0:
64,192,305882,128,2,305957:0:0:0:0:
320,192,305882,1,0,0:0:0:0:
64,192,306032,128,0,306107:0:0:0:0:
320,192,306182,1,8,0:0:0:0:
448,192,306182,128,0,306257:0:0:0:0:
448,192,306332,128,0,306407:0:0:0:0:
64,192,306482,128,2,306857:0:0:0:0:
320,192,306482,128,0,306557:0:0:0:0:
320,192,306632,128,0,306707:0:0:0:0:
320,192,306782,128,8,306857:0:0:0:0:
448,192,306782,1,0,0:0:0:0:
192,192,306932,128,0,307007:0:0:0:0:
448,192,306932,128,0,307607:0:0:0:0:
64,192,307082,1,2,0:0:0:0:
192,192,307082,128,0,307157:0:0:0:0:
192,192,307232,128,2,307307:0:0:0:0:
64,192,307382,128,8,307457:0:0:0:0:
320,192,307382,1,0,0:0:0:0:
64,192,307532,128,2,307607:0:0:0:0:
192,192,307532,1,0,0:0:0:0:
320,192,307607,1,2,0:0:0:0:
64,192,307682,1,8,0:0:0:0:
192,192,307682,1,4,0:0:0:0:
448,192,307682,128,0,307757:0:0:0:0:
192,192,307832,1,2,0:0:0:0:
320,192,307832,128,0,307907:0:0:0:0:
64,192,307982,1,8,0:0:0:0:
192,192,307982,128,4,308057:0:0:0:0:
448,192,307982,1,0,0:0:0:0:
64,192,308132,1,2,0:0:0:0:
320,192,308132,128,0,308207:0:0:0:0:
192,192,308282,128,8,308357:0:0:0:0:
320,192,308282,1,4,0:0:0:0:
448,192,308282,1,0,0:0:0:0:
64,192,308432,128,2,308657:0:0:0:0:
192,192,308432,1,0,0:0:0:0:
192,192,308582,1,8,0:0:0:0:
320,192,308582,1,4,0:0:0:0:
448,192,308582,1,0,0:0:0:0:
64,192,308732,1,2,0:0:0:0:
320,192,308732,128,0,308957:0:0:0:70:Crash 2.wav
448,192,308732,128,0,308957:0:0:0:0:
192,192,309032,128,8,309107:0:0:0:0:
320,192,309032,128,0,309107:0:0:0:60:Tom3.wav
448,192,309032,1,0,0:0:0:0:
64,192,309182,128,8,309257:0:0:0:0:
192,192,309182,128,0,309257:0:0:0:60:Tom3.wav
320,192,309182,1,0,0:0:0:0:
64,192,309332,1,8,0:0:0:0:
320,192,309332,128,0,309557:0:0:0:60:Tom3.wav
448,192,309332,128,0,309557:0:0:0:0:
64,192,309482,1,2,0:0:0:0:
192,192,309482,1,0,0:0:0:0:
64,192,309632,128,8,310082:0:0:0:0:
320,192,309632,1,0,0:0:0:60:Tom3.wav
448,192,309632,128,0,309707:0:0:0:0:
192,192,309782,1,8,0:0:0:0:
320,192,309782,128,0,309857:0:0:0:60:Tom3.wav
448,192,309782,1,0,0:0:0:0:
192,192,309932,128,8,310082:0:0:0:0:
320,192,309932,1,0,0:0:0:60:Hat open.wav
448,192,309932,1,0,0:0:0:0:
