osu file format v14

[General]
AudioFilename: audio.mp3
AudioLeadIn: 0
PreviewTime: 153516
Countdown: 0
SampleSet: Soft
StackLeniency: 0.7
Mode: 3
LetterboxInBreaks: 0
SpecialStyle: 0
WidescreenStoryboard: 0

[Editor]
Bookmarks: 10266,17466,22266,27066,43866,53466,63066,72666,77466,113466,120666,123066,132966,142266,149466,154266,190266,204666,209723,219828,224880,244082,253682,266882,276482,302882
DistanceSpacing: 0.9
BeatDivisor: 4
GridSize: 4
TimelineZoom: 1.3

[Metadata]
Title:1,000,000 TIMES
TitleUnicode:1,000,000 TIMES
Artist:MY FIRST STORY feat. chelly (EGOIST)
ArtistUnicode:MY FIRST STORY feat. chelly (EGOIST)
Creator:Salty Mermaid
Version:Until the End of Eternity
Source:DUEL MASTERS PLAY’S
Tags:デュエル・マスターズ プレイス one million 1000000 full version MFS Myfirststory opening video game mobile japanese rock j-rock jrock Single plays play's
BeatmapID:3250519
BeatmapSetID:1591530

[Difficulty]
HPDrainRate:8
CircleSize:6
OverallDifficulty:8
ApproachRate:5
SliderMultiplier:1.4
SliderTickRate:1

[Events]
//Background and Video events
0,0,"bruuuh.jpg",0,0
//Break Periods
//Storyboard Layer 0 (Background)
//Storyboard Layer 1 (Fail)
//Storyboard Layer 2 (Pass)
//Storyboard Layer 3 (Foreground)
//Storyboard Layer 4 (Overlay)
//Storyboard Sound Samples
Sample,120666,0,"Kick3.wav",70
Sample,120816,0,"Clap.wav",60
Sample,121116,0,"Kick3.wav",70
Sample,122016,0,"Kick3.wav",60
Sample,122466,0,"D#6H_Eb6H.wav",60
Sample,224882,0,"Kick3.wav",70

[TimingPoints]
666,300,4,2,22,10,1,0
10266,-100,4,2,22,10,0,0
17466,-100,4,2,22,15,0,0
22266,-100,4,2,22,20,0,0
27066,-100,4,2,22,30,0,1
43866,-100,4,2,22,20,0,0
53466,-100,4,2,22,25,0,0
76266,-10,4,2,22,30,0,0
76284,-2000,4,2,22,30,0,0
76378,-1000,4,2,22,30,0,0
76416,-500,4,2,22,30,0,0
76453,-333.333333333333,4,2,22,30,0,0
76491,-250,4,2,22,30,0,0
76528,-200,4,2,22,30,0,0
76566,-166.666666666667,4,2,22,30,0,0
76603,-142.857142857143,4,2,22,30,0,0
76641,-125,4,2,22,30,0,0
76678,-111.111111111111,4,2,22,30,0,0
76716,-100,4,2,22,30,0,0
76753,-90.9090909090909,4,2,22,30,0,0
76791,-83.3333333333333,4,2,22,30,0,0
76828,-76.9230769230769,4,2,22,30,0,0
76866,-100,4,2,22,30,0,0
77466,-100,4,2,22,30,0,1
106266,-101.010101010101,4,2,22,25,0,0
113466,-101.010101010101,4,2,22,30,0,1
120666,-101.010101010101,4,2,22,10,0,0
121266,-102.040816326531,4,2,22,10,0,0
121378,-103.092783505155,4,2,22,10,0,0
121491,-104.166666666667,4,2,22,10,0,0
121603,-105.263157894737,4,2,22,10,0,0
121716,-106.382978723404,4,2,22,10,0,0
121828,-107.52688172043,4,2,22,10,0,0
121941,-108.695652173913,4,2,22,10,0,0
122053,-109.89010989011,4,2,22,10,0,0
122166,-111.111111111111,4,2,22,10,0,0
122278,-112.359550561798,4,2,22,10,0,0
122391,-113.636363636364,4,2,22,10,0,0
122503,-114.942528735632,4,2,22,10,0,0
122616,-116.279069767442,4,2,22,10,0,0
122728,-117.647058823529,4,2,22,10,0,0
122841,-119.047619047619,4,2,22,10,0,0
122953,-120.481927710843,4,2,22,10,0,0
123066,-121.951219512195,4,2,22,10,0,0
130266,-116.279069767442,4,2,22,15,0,0
130399,-111.111111111111,4,2,22,20,0,0
130532,-106.382978723404,4,2,22,20,0,0
130666,-102.040816326531,4,2,22,25,0,0
130799,-98.0392156862745,4,2,22,25,0,0
130932,-94.3396226415094,4,2,22,30,0,0
131066,-90.9090909090909,4,2,22,30,0,0
131199,-87.719298245614,4,2,22,30,0,0
131332,-84.7457627118644,4,2,22,30,0,0
131466,-10,4,2,22,30,0,0
131484,-2000,4,2,22,20,0,0
131578,-1000,4,2,22,20,0,0
131616,-500,4,2,22,20,0,0
131653,-333.333333333333,4,2,22,20,0,0
131691,-250,4,2,22,20,0,0
131728,-200,4,2,22,20,0,0
131766,-166.666666666667,4,2,22,20,0,0
131803,-142.857142857143,4,2,22,20,0,0
131841,-125,4,2,22,20,0,0
131878,-111.111111111111,4,2,22,20,0,0
131916,-100,4,2,22,20,0,0
131953,-90.9090909090909,4,2,22,20,0,0
131991,-83.3333333333333,4,2,22,20,0,0
132028,-76.9230769230769,4,2,22,20,0,0
132066,-100,4,2,22,20,0,0
132966,-100,4,2,22,25,0,0
142341,-116.279069767442,4,2,22,10,0,0
148266,-113.636363636364,4,2,22,10,0,0
148341,-111.111111111111,4,2,22,10,0,0
148416,-108.695652173913,4,2,22,10,0,0
148491,-106.382978723404,4,2,22,10,0,0
148566,-104.166666666667,4,2,22,10,0,0
148641,-102.040816326531,4,2,22,10,0,0
148716,-100,4,2,22,25,0,0
149466,-100,4,2,22,15,0,0
153516,-100,4,2,22,25,0,0
154266,-100,4,2,22,30,0,1
183066,-100,4,2,22,25,0,0
190266,-121.951219512195,4,2,22,20,0,0
199866,-119.047619047619,4,2,22,15,0,0
200166,-117.647058823529,4,2,22,15,0,0
200466,-114.942528735632,4,2,22,15,0,0
200766,-113.636363636364,4,2,22,15,0,0
201066,-111.111111111111,4,2,22,15,0,0
201366,-109.89010989011,4,2,22,15,0,0
201666,-107.52688172043,4,2,22,15,0,0
201966,-106.382978723404,4,2,22,15,0,0
202266,-104.166666666667,4,2,22,15,0,0
202566,-103.092783505155,4,2,22,15,0,0
202866,-101.010101010101,4,2,22,15,0,0
203166,-100,4,2,22,15,0,0
203616,-100,4,2,22,15,0,0
204666,317.460317460317,4,2,22,15,1,0
204666,-94.3396226415094,4,2,22,15,0,0
205142,389.61038961039,4,2,22,15,1,8
205142,-76.9230769230769,4,2,22,15,0,0
205434,350.877192982456,4,2,22,15,1,8
205434,-85.4700854700855,4,2,22,15,0,0
205609,338.983050847458,4,2,22,15,1,8
205609,-88.495575221239,4,2,22,15,0,0
205863,317.460317460317,4,2,22,15,1,8
205863,-94.3396226415094,4,2,22,15,0,0
206101,368.098159509202,4,2,22,15,1,8
206101,-81.3008130081301,4,2,22,15,0,0
206377,287.081339712919,4,2,22,15,1,8
206377,-104.166666666667,4,2,22,15,0,0
206592,400,4,2,22,15,1,8
206592,-75.187969924812,4,2,22,15,0,0
206892,458.015267175573,4,2,22,15,1,8
206892,-65.359477124183,4,2,22,15,0,0
207235,303.030303030303,4,2,22,15,1,0
207235,-99.009900990099,4,2,22,15,0,0
207462,297.029702970297,4,2,22,15,1,8
207462,-101.010101010101,4,2,22,15,0,0
207684,389.61038961039,4,2,22,15,1,8
207684,-76.9230769230769,4,2,22,15,0,0
207976,260.869565217391,4,2,22,15,1,8
207976,-114.942528735632,4,2,22,15,0,0
208171,317.460317460317,4,2,22,15,1,8
208171,-94.3396226415094,4,2,22,15,0,0
208409,338.983050847458,4,2,22,15,1,8
208409,-88.495575221239,4,2,22,15,0,0
208663,303.030303030303,4,2,22,15,1,8
208663,-99.009900990099,4,2,22,15,0,0
208890,272.727272727273,4,2,22,15,1,8
208890,-109.89010989011,4,2,22,15,0,0
209094,303.030303030303,4,2,22,15,1,8
209094,-99.009900990099,4,2,22,15,0,0
209397,324.324324324324,4,2,22,15,1,8
209397,-92.5925925925926,4,2,22,15,0,0
209723,315.789473684211,4,2,22,15,1,0
209723,-95.2380952380952,4,2,22,15,0,0
224882,600,4,2,22,15,1,0
224882,-50.5050505050505,4,2,22,15,0,0
225182,-51.0204081632653,4,2,22,15,0,0
225482,-51.5463917525773,4,2,22,15,0,0
225782,-52.0833333333333,4,2,22,15,0,0
226082,-52.6315789473684,4,2,22,15,0,0
226382,-53.1914893617021,4,2,22,15,0,0
226682,-53.763440860215,4,2,22,15,0,0
226982,-54.3478260869565,4,2,22,15,0,0
227282,-54.9450549450549,4,2,22,15,0,0
227582,-55.5555555555556,4,2,22,15,0,0
227882,-56.1797752808989,4,2,22,15,0,0
228182,-56.8181818181818,4,2,22,15,0,0
228482,-57.4712643678161,4,2,22,15,0,0
228782,-58.1395348837209,4,2,22,15,0,0
229082,-58.8235294117647,4,2,22,15,0,0
229382,-59.5238095238095,4,2,22,15,0,0
229682,-60.2409638554217,4,2,22,15,0,0
244082,-59.5238095238095,4,2,22,30,0,0
244682,-58.8235294117647,4,2,22,15,0,0
245282,-58.1395348837209,4,2,22,15,0,0
245882,-57.4712643678161,4,2,22,15,0,0
246482,-56.8181818181818,4,2,22,15,0,0
247082,-56.1797752808989,4,2,22,15,0,0
247682,-55.5555555555556,4,2,22,15,0,0
248282,-54.9450549450549,4,2,22,15,0,0
248882,-54.3478260869565,4,2,22,15,0,0
249482,-53.763440860215,4,2,22,15,0,0
250082,-53.1914893617021,4,2,22,15,0,0
250682,-52.6315789473684,4,2,22,15,0,0
251282,-54.9450549450549,4,2,22,15,0,0
251882,-54.3478260869565,4,2,22,15,0,0
252482,-51.0204081632653,4,2,22,15,0,0
253082,-50.5050505050505,4,2,22,15,0,0
253682,300,4,2,22,25,1,0
260882,-100,4,2,22,20,0,0
264482,-10,4,2,22,30,0,0
264500,-1000,4,2,22,30,0,0
265719,-500,4,2,22,30,0,0
265757,-333.333333333333,4,2,22,30,0,0
265794,-250,4,2,22,30,0,0
265832,-200,4,2,22,30,0,0
265869,-166.666666666667,4,2,22,30,0,0
265907,-142.857142857143,4,2,22,30,0,0
265944,-125,4,2,22,30,0,0
265982,-111.111111111111,4,2,22,30,0,0
266019,-100,4,2,22,30,0,0
266057,-90.9090909090909,4,2,22,30,0,0
266094,-83.3333333333333,4,2,22,30,0,0
266132,-100,4,2,22,30,0,0
275282,-100,4,2,22,20,0,0
276482,-100,4,2,22,30,0,1
284882,-100,4,2,22,15,0,1
286382,-100,4,2,22,30,0,1
295682,-100,4,2,22,25,0,0
302882,-100,4,2,22,30,0,1
310082,-100,4,2,22,30,0,0

[HitObjects]
298,192,666,128,0,2766:0:0:0:0:
213,192,816,1,0,0:0:0:0:
469,192,966,128,0,1041:0:0:0:0:
42,192,1116,1,0,0:0:0:0:
213,192,1266,1,0,0:0:0:0:
469,192,1416,128,0,1491:0:0:0:0:
384,192,1566,1,0,0:0:0:0:
128,192,1716,1,0,0:0:0:0:
42,192,1866,1,0,0:0:0:0:
213,192,2016,1,0,0:0:0:0:
469,192,2166,128,0,2241:0:0:0:0:
42,192,2316,1,0,0:0:0:0:
213,192,2466,1,0,0:0:0:0:
469,192,2616,128,0,2691:0:0:0:0:
213,192,2766,128,0,3216:0:0:0:0:
384,192,2916,1,0,0:0:0:0:
42,192,3066,1,0,0:0:0:0:
298,192,3216,128,0,4866:0:0:0:0:
469,192,3366,128,0,3441:0:0:0:0:
42,192,3516,1,0,0:0:0:0:
213,192,3666,1,0,0:0:0:0:
469,192,3816,128,0,3891:0:0:0:0:
384,192,3966,1,0,0:0:0:0:
128,192,4116,1,0,0:0:0:0:
42,192,4266,1,0,0:0:0:0:
213,192,4416,1,0,0:0:0:0:
469,192,4566,128,0,4641:0:0:0:0:
42,192,4716,1,0,0:0:0:0:
213,192,4866,1,0,0:0:0:0:
469,192,5016,128,0,5091:0:0:0:0:
384,192,5166,1,0,0:0:0:0:
128,192,5316,1,0,0:0:0:0:
469,192,5466,128,0,6366:0:0:0:0:
213,192,5616,1,0,0:0:0:0:
384,192,5766,128,0,5841:0:0:0:0:
42,192,5916,1,0,0:0:0:0:
213,192,6066,1,0,0:0:0:0:
384,192,6216,128,0,6291:0:0:0:0:
128,192,6366,1,0,0:0:0:0:
298,192,6366,128,0,6666:0:0:0:0:
384,192,6516,1,0,0:0:0:0:
213,192,6666,128,0,7566:0:0:0:0:
298,192,6816,1,0,0:0:0:0:
469,192,6966,128,0,7041:0:0:0:0:
42,192,7116,1,0,0:0:0:0:
298,192,7266,1,0,0:0:0:0:
469,192,7416,128,0,7491:0:0:0:0:
42,192,7566,128,0,9066:0:0:0:0:
384,192,7716,1,0,0:0:0:0:
128,192,7866,1,0,0:0:0:0:
298,192,8016,1,0,0:0:0:0:
469,192,8166,128,0,8241:0:0:0:0:
128,192,8316,1,0,0:0:0:0:
298,192,8466,1,0,0:0:0:0:
469,192,8616,128,0,8691:0:0:0:0:
384,192,8766,1,0,0:0:0:0:
213,192,8916,1,0,0:0:0:0:
298,192,9066,1,0,0:0:0:0:
384,192,9216,1,0,0:0:0:0:
469,192,9366,128,0,9516:0:0:0:0:
42,192,9666,128,0,9816:0:0:0:0:
469,192,9741,1,0,0:0:0:0:
384,192,9816,1,0,0:0:0:0:
298,192,9891,1,0,0:0:0:0:
128,192,9966,128,0,10066:0:0:0:0:
42,192,10266,1,0,0:0:0:85:Crash2.wav
213,192,10266,1,0,0:0:0:70:Kick3.wav
298,192,10266,128,0,12366:0:0:0:0:
469,192,10266,1,0,0:0:0:0:
128,192,10716,128,0,10791:0:0:0:70:LR_Hat Synth x2Vlm.wav
384,192,11166,128,0,11278:0:0:0:80:LR_Hat Synth x2Vlm.wav
42,192,11316,1,0,0:0:0:0:
213,192,11391,1,0,0:0:0:0:
469,192,11466,1,0,0:0:0:0:
128,192,11616,128,0,11691:0:0:0:70:LR_Hat Synth x2Vlm.wav
469,192,11766,1,0,0:0:0:0:
42,192,11916,1,0,0:0:0:0:
384,192,12066,128,0,12178:0:0:0:80:LR_Hat Synth x2Vlm.wav
213,192,12366,128,0,12816:0:0:0:0:
469,192,12516,1,0,0:0:0:0:
42,192,12591,1,0,0:0:0:0:
384,192,12666,1,0,0:0:0:0:
298,192,12816,128,0,14466:0:0:0:0:
469,192,12966,1,0,0:0:0:0:
128,192,13116,128,0,13191:0:0:0:70:LR_Hat Synth x2Vlm.wav
42,192,13266,1,0,0:0:0:0:
469,192,13416,1,0,0:0:0:0:
384,192,13566,128,0,13678:0:0:0:80:LR_Hat Synth x2Vlm.wav
42,192,13866,1,0,0:0:0:0:
128,192,14016,128,0,14091:0:0:0:70:LR_Hat Synth x2Vlm.wav
469,192,14166,1,0,0:0:0:0:
213,192,14316,1,0,0:0:0:0:
384,192,14466,128,0,14578:0:0:0:80:LR_Hat Synth x2Vlm.wav
42,192,14766,1,0,0:0:0:0:
213,192,14916,1,0,0:0:0:0:
469,192,15066,128,0,15966:0:0:0:0:
128,192,15216,128,0,15291:0:0:0:70:LR_Hat Synth x2Vlm.wav
298,192,15366,1,0,0:0:0:0:
128,192,15516,128,0,15591:0:0:0:60:LR_Hat Synth x2Vlm.wav
298,192,15666,1,0,0:0:0:0:
128,192,15766,128,0,15841:0:0:0:50:LR_Hat Synth x2Vlm.wav
213,192,15966,1,0,0:0:0:0:
298,192,15966,128,0,16266:0:0:0:0:
42,192,16266,1,0,0:0:0:70:Crash.wav
128,192,16266,1,0,0:0:0:70:Calp.wav
384,192,16266,1,0,0:0:0:70:Kick3.wav
469,192,16266,1,0,0:0:0:0:
42,192,16416,1,0,0:0:0:50:Kick3.wav
469,192,16416,1,0,0:0:0:0:
298,192,16491,1,0,0:0:0:50:Kick3.wav
128,192,16566,1,0,0:0:0:50:Kick3.wav
384,192,16641,1,0,0:0:0:50:Kick3.wav
42,192,16716,128,0,16866:0:0:0:70:Calp.wav
128,192,16716,128,0,16866:0:0:0:0:
213,192,16716,128,0,16866:0:0:0:0:
42,192,17016,128,0,17091:0:0:0:70:Calp.wav
128,192,17016,128,0,17091:0:0:0:0:
298,192,17016,128,0,17091:0:0:0:0:
42,192,17166,128,0,17241:0:0:0:70:Calp.wav
128,192,17166,128,0,17241:0:0:0:0:
298,192,17166,128,0,17241:0:0:0:0:
42,192,17316,128,0,17391:0:0:0:70:Calp.wav
128,192,17316,128,0,17391:0:0:0:0:
298,192,17316,128,0,17391:0:0:0:0:
42,192,17466,1,0,0:0:0:70:Crush.wav
298,192,17466,128,0,17766:0:0:0:70:Kick3.wav
384,192,17466,128,0,17991:0:0:0:0:
469,192,17466,128,0,17991:0:0:0:0:
213,192,17616,128,0,17766:0:0:0:0:
128,192,17766,128,0,17916:0:0:0:0:
42,192,17916,128,0,18066:0:0:0:0:
213,192,18066,128,0,18216:0:0:0:0:
128,192,18216,128,0,18366:0:0:0:0:
42,192,18366,128,0,18516:0:0:0:0:
298,192,18516,128,0,18666:0:0:0:0:
384,192,18666,128,0,18816:0:0:0:0:
42,192,18816,128,0,18966:0:0:0:0:
213,192,18966,128,0,19116:0:0:0:0:
42,192,19116,128,0,19266:0:0:0:0:
469,192,19266,1,0,0:0:0:0:
384,192,19341,1,0,0:0:0:0:
42,192,19416,128,0,19491:0:0:0:70:Calp.wav
128,192,19416,128,0,19491:0:0:0:0:
298,192,19416,128,0,19491:0:0:0:0:
42,192,19566,128,0,19641:0:0:0:70:Calp.wav
128,192,19566,128,0,19641:0:0:0:0:
384,192,19566,128,0,19641:0:0:0:0:
128,192,19716,128,0,19791:0:0:0:70:Kick3.wav
213,192,19716,128,0,19791:0:0:0:0:
469,192,19716,128,0,19791:0:0:0:0:
42,192,19866,1,0,0:0:0:70:Crush.wav
298,192,19866,128,0,20166:0:0:0:70:Kick3.wav
384,192,19866,128,0,20391:0:0:0:0:
469,192,19866,128,0,20391:0:0:0:0:
213,192,20016,128,0,20166:0:0:0:0:
128,192,20166,128,0,20316:0:0:0:0:
42,192,20316,128,0,20466:0:0:0:0:
213,192,20466,128,0,20616:0:0:0:0:
128,192,20616,128,0,20766:0:0:0:0:
42,192,20766,128,0,20916:0:0:0:0:
298,192,20916,128,0,21066:0:0:0:0:
384,192,21066,128,0,21216:0:0:0:0:
42,192,21216,128,0,21366:0:0:0:0:
213,192,21366,128,0,21516:0:0:0:0:
42,192,21516,128,0,21666:0:0:0:0:
469,192,21666,1,0,0:0:0:0:
384,192,21741,1,0,0:0:0:0:
298,192,21816,128,0,22116:0:0:0:0:
42,192,21966,128,0,22266:0:0:0:0:
128,192,22266,1,0,0:0:0:70:Crash.wav
213,192,22266,1,0,0:0:0:70:Kick3.wav
469,192,22266,1,0,0:0:0:0:
298,192,22416,1,0,0:0:0:30:Clap.wav
384,192,22491,1,0,0:0:0:30:Clap.wav
42,192,22566,1,0,0:0:0:30:Clap.wav
469,192,22566,1,0,0:0:0:70:Kick3.wav
128,192,22641,1,0,0:0:0:30:Clap.wav
213,192,22716,1,0,0:0:0:30:Clap.wav
298,192,22791,1,0,0:0:0:30:Clap.wav
128,192,22866,1,0,0:0:0:40:Clap.wav
384,192,22866,1,0,0:0:0:70:Kick3.wav
213,192,22941,1,0,0:0:0:40:Clap.wav
469,192,23016,1,0,0:0:0:40:Clap.wav
213,192,23091,1,0,0:0:0:40:Clap.wav
128,192,23166,1,0,0:0:0:40:Clap.wav
384,192,23166,1,0,0:0:0:70:Kick3.wav
298,192,23241,1,0,0:0:0:40:Clap.wav
42,192,23316,1,0,0:0:0:40:Clap.wav
298,192,23391,1,0,0:0:0:40:Clap.wav
128,192,23466,1,0,0:0:0:50:Clap.wav
384,192,23466,1,0,0:0:0:70:Kick3.wav
213,192,23541,1,0,0:0:0:50:Clap.wav
298,192,23616,1,0,0:0:0:50:Clap.wav
469,192,23616,1,0,0:0:0:0:
213,192,23691,1,0,0:0:0:50:Clap.wav
128,192,23766,1,0,0:0:0:50:Clap.wav
384,192,23766,1,0,0:0:0:70:Kick3.wav
298,192,23841,1,0,0:0:0:50:Clap.wav
42,192,23916,1,0,0:0:0:50:Clap.wav
213,192,23916,1,0,0:0:0:0:
298,192,23991,1,0,0:0:0:50:Clap.wav
384,192,24066,1,0,0:0:0:60:Clap.wav
469,192,24066,1,0,0:0:0:70:Kick3.wav
42,192,24141,1,0,0:0:0:60:Clap.wav
128,192,24141,1,0,0:0:0:0:
384,192,24216,1,0,0:0:0:60:Clap.wav
469,192,24216,1,0,0:0:0:0:
128,192,24291,1,0,0:0:0:60:Clap.wav
213,192,24291,1,0,0:0:0:0:
298,192,24366,1,0,0:0:0:60:Clap.wav
384,192,24366,1,0,0:0:0:70:Kick3.wav
128,192,24441,1,0,0:0:0:60:Clap.wav
213,192,24441,1,0,0:0:0:0:
384,192,24516,1,0,0:0:0:60:Clap.wav
469,192,24516,1,0,0:0:0:0:
42,192,24591,1,0,0:0:0:60:Clap.wav
128,192,24591,1,0,0:0:0:0:
298,192,24666,1,0,0:0:0:70:Crash.wav
384,192,24666,1,0,0:0:0:70:Kick3.wav
469,192,24666,1,0,0:0:0:0:
128,192,24741,1,0,0:0:0:60:Clap.wav
213,192,24741,1,0,0:0:0:0:
42,192,24816,1,0,0:0:0:60:Clap.wav
469,192,24816,1,0,0:0:0:0:
298,192,24891,1,0,0:0:0:60:Clap.wav
384,192,24891,1,0,0:0:0:0:
128,192,24966,1,0,0:0:0:60:Clap.wav
213,192,24966,1,0,0:0:0:0:
298,192,25041,1,0,0:0:0:60:Clap.wav
384,192,25041,1,0,0:0:0:0:
42,192,25116,1,0,0:0:0:50:Kick3.wav
469,192,25116,1,0,0:0:0:0:
128,192,25191,1,0,0:0:0:50:Kick3.wav
298,192,25266,1,0,0:0:0:50:Kick3.wav
42,192,25341,1,0,0:0:0:50:Kick3.wav
298,192,25416,1,0,0:0:0:50:Kick3.wav
128,192,25491,1,0,0:0:0:50:Kick3.wav
213,192,25566,1,0,0:0:0:50:Kick3.wav
469,192,25641,1,0,0:0:0:50:Kick3.wav
213,192,25716,1,0,0:0:0:50:Kick3.wav
384,192,25791,1,0,0:0:0:50:Kick3.wav
42,192,25866,1,0,0:0:0:70:Crash3.wav
128,192,25866,1,0,0:0:0:70:Calp.wav
298,192,25866,1,0,0:0:0:70:Kick3.wav
384,192,26016,128,0,26166:0:0:0:0:
42,192,26166,128,0,26466:0:0:0:0:
469,192,26316,128,0,26466:0:0:0:0:
213,192,26466,128,0,26541:0:0:0:0:
298,192,26541,128,0,26616:0:0:0:0:
213,192,26616,128,0,26691:0:0:0:0:
298,192,26691,128,0,26766:0:0:0:0:
128,192,26766,1,0,0:0:0:70:Calp.wav
213,192,26766,128,0,26916:0:0:0:0:
384,192,26766,1,0,0:0:0:0:
469,192,26766,1,0,0:0:0:0:
42,192,26916,128,0,27066:0:0:0:0:
128,192,27066,1,0,0:0:0:70:Crush.wav
213,192,27066,1,0,0:0:0:70:Kick3.wav
298,192,27066,1,0,0:0:0:0:
384,192,27066,128,0,27141:0:0:0:0:
384,192,27216,128,0,27291:0:0:0:0:
42,192,27366,1,0,0:0:0:70:Calp.wav
298,192,27366,1,0,0:0:0:70:Kick3.wav
384,192,27366,128,0,27441:0:0:0:0:
213,192,27516,128,0,27591:0:0:0:0:
213,192,27666,128,0,27741:0:0:0:70:Kick3.wav
469,192,27666,1,0,0:0:0:0:
213,192,27816,128,0,27891:0:0:0:0:
42,192,27966,128,0,28041:0:0:0:70:Calp.wav
128,192,27966,1,0,0:0:0:70:Kick3.wav
384,192,27966,1,0,0:0:0:0:
42,192,28116,128,0,28191:0:0:0:0:
213,192,28266,1,0,0:0:0:70:Kick3.wav
469,192,28266,128,0,28341:0:0:0:0:
469,192,28416,128,0,28491:0:0:0:0:
128,192,28566,1,0,0:0:0:70:Calp.wav
384,192,28566,1,0,0:0:0:70:Kick3.wav
469,192,28566,128,0,28641:0:0:0:0:
298,192,28716,128,0,28791:0:0:0:0:
42,192,28866,1,0,0:0:0:70:Kick3.wav
298,192,28866,128,0,28941:0:0:0:0:
298,192,29016,128,0,29091:0:0:0:0:
128,192,29166,128,0,29241:0:0:0:70:Calp.wav
213,192,29166,1,0,0:0:0:70:Kick3.wav
469,192,29166,1,0,0:0:0:0:
128,192,29316,128,0,29391:0:0:0:0:
128,192,29466,1,0,0:0:0:70:Kick3.wav
384,192,29466,128,0,29541:0:0:0:0:
384,192,29616,128,0,29691:0:0:0:0:
42,192,29766,1,0,0:0:0:70:Calp.wav
298,192,29766,1,0,0:0:0:70:Kick3.wav
384,192,29766,128,0,29841:0:0:0:0:
213,192,29916,128,0,29991:0:0:0:0:
213,192,30066,128,0,30141:0:0:0:70:Kick3.wav
469,192,30066,1,0,0:0:0:0:
213,192,30216,128,0,30291:0:0:0:0:
42,192,30366,128,0,30441:0:0:0:70:Calp.wav
128,192,30366,1,0,0:0:0:70:Kick3.wav
384,192,30366,1,0,0:0:0:0:
42,192,30516,128,0,30591:0:0:0:0:
213,192,30666,1,0,0:0:0:70:Kick3.wav
469,192,30666,128,0,30741:0:0:0:0:
469,192,30816,128,0,30891:0:0:0:0:
128,192,30966,1,0,0:0:0:70:Calp.wav
384,192,30966,1,0,0:0:0:70:Kick3.wav
469,192,30966,128,0,31041:0:0:0:0:
298,192,31116,128,0,31191:0:0:0:0:
42,192,31266,1,0,0:0:0:70:Kick3.wav
298,192,31266,128,0,31341:0:0:0:0:
298,192,31416,128,0,31491:0:0:0:0:
128,192,31566,128,0,31641:0:0:0:70:Calp.wav
213,192,31566,1,0,0:0:0:70:Kick3.wav
469,192,31566,1,0,0:0:0:0:
128,192,31716,128,0,31791:0:0:0:0:
128,192,31866,1,0,0:0:0:70:Crash.wav
384,192,31866,128,0,31941:0:0:0:70:Kick3.wav
469,192,31866,1,0,0:0:0:0:
384,192,32016,128,0,32091:0:0:0:0:
42,192,32166,1,0,0:0:0:70:Calp.wav
298,192,32166,1,0,0:0:0:70:Kick3.wav
384,192,32166,128,0,32241:0:0:0:0:
213,192,32316,128,0,32391:0:0:0:0:
213,192,32466,128,0,32541:0:0:0:70:Kick3.wav
469,192,32466,1,0,0:0:0:0:
213,192,32616,128,0,32691:0:0:0:0:
42,192,32766,128,0,32841:0:0:0:70:Calp.wav
128,192,32766,1,0,0:0:0:70:Kick3.wav
384,192,32766,1,0,0:0:0:0:
42,192,32916,128,0,32991:0:0:0:0:
213,192,33066,1,0,0:0:0:70:Kick3.wav
469,192,33066,128,0,33141:0:0:0:0:
469,192,33216,128,0,33291:0:0:0:0:
128,192,33366,1,0,0:0:0:70:Calp.wav
384,192,33366,1,0,0:0:0:70:Kick3.wav
469,192,33366,128,0,33441:0:0:0:0:
298,192,33516,128,0,33591:0:0:0:0:
42,192,33666,1,0,0:0:0:70:Kick3.wav
298,192,33666,128,0,33741:0:0:0:0:
298,192,33816,128,0,33891:0:0:0:0:
128,192,33966,128,0,34041:0:0:0:70:Calp.wav
213,192,33966,1,0,0:0:0:70:Kick3.wav
469,192,33966,1,0,0:0:0:0:
128,192,34116,128,0,34191:0:0:0:0:
128,192,34266,1,0,0:0:0:70:Kick3.wav
384,192,34266,128,0,34341:0:0:0:0:
384,192,34416,128,0,34491:0:0:0:0:
42,192,34566,1,0,0:0:0:70:Calp.wav
298,192,34566,1,0,0:0:0:70:Kick3.wav
384,192,34566,128,0,34641:0:0:0:0:
213,192,34716,128,0,34791:0:0:0:0:
213,192,34866,128,0,34941:0:0:0:70:Kick3.wav
469,192,34866,1,0,0:0:0:0:
213,192,35016,128,0,35091:0:0:0:0:
42,192,35166,128,0,35241:0:0:0:70:Calp.wav
128,192,35166,1,0,0:0:0:70:Kick3.wav
384,192,35166,1,0,0:0:0:0:
42,192,35316,128,0,35391:0:0:0:0:
213,192,35466,128,0,35541:0:0:0:70:Kick3.wav
469,192,35466,1,0,0:0:0:0:
42,192,35616,1,0,0:0:0:70:Kick3.wav
298,192,35616,128,0,35691:0:0:0:0:
42,192,35766,1,0,0:0:0:70:Calp.wav
213,192,35766,128,0,35841:0:0:0:0:
128,192,35916,1,0,0:0:0:70:Crash2.wav
384,192,35916,1,0,0:0:0:70:Kick3.wav
469,192,35916,128,0,36028:0:0:0:0:
298,192,36028,128,0,36141:0:0:0:0:
469,192,36141,128,0,36216:0:0:0:0:
42,192,36216,1,0,0:0:0:60:Clap.wav
128,192,36216,1,0,0:0:0:0:
213,192,36291,1,0,0:0:0:60:Clap.wav
298,192,36291,1,0,0:0:0:0:
384,192,36366,1,0,0:0:0:60:Clap.wav
469,192,36366,1,0,0:0:0:0:
42,192,36441,1,0,0:0:0:60:Clap.wav
128,192,36441,1,0,0:0:0:0:
384,192,36516,1,0,0:0:0:60:Clap.wav
469,192,36516,1,0,0:0:0:0:
42,192,36591,1,0,0:0:0:60:Clap.wav
128,192,36591,1,0,0:0:0:0:
298,192,36666,1,0,0:0:0:70:Crush.wav
384,192,36666,128,0,36741:0:0:0:70:Kick3.wav
469,192,36666,1,0,0:0:0:0:
384,192,36816,128,0,36891:0:0:0:0:
42,192,36966,1,0,0:0:0:70:Calp.wav
298,192,36966,1,0,0:0:0:70:Kick3.wav
384,192,36966,128,0,37041:0:0:0:0:
213,192,37116,128,0,37191:0:0:0:0:
213,192,37266,128,0,37341:0:0:0:70:Kick3.wav
469,192,37266,1,0,0:0:0:0:
213,192,37416,128,0,37491:0:0:0:0:
42,192,37566,128,0,37641:0:0:0:70:Calp.wav
128,192,37566,1,0,0:0:0:70:Kick3.wav
384,192,37566,1,0,0:0:0:0:
42,192,37716,128,0,37791:0:0:0:0:
213,192,37866,1,0,0:0:0:70:Kick3.wav
469,192,37866,128,0,37941:0:0:0:0:
469,192,38016,128,0,38091:0:0:0:0:
128,192,38166,1,0,0:0:0:70:Calp.wav
384,192,38166,1,0,0:0:0:70:Kick3.wav
469,192,38166,128,0,38241:0:0:0:0:
298,192,38316,128,0,38391:0:0:0:0:
42,192,38466,1,0,0:0:0:70:Kick3.wav
298,192,38466,128,0,38541:0:0:0:0:
298,192,38616,128,0,38691:0:0:0:0:
128,192,38766,128,0,38841:0:0:0:70:Calp.wav
213,192,38766,1,0,0:0:0:70:Kick3.wav
469,192,38766,1,0,0:0:0:0:
128,192,38916,128,0,38991:0:0:0:0:
128,192,39066,1,0,0:0:0:70:Kick3.wav
384,192,39066,128,0,39141:0:0:0:0:
384,192,39216,128,0,39291:0:0:0:0:
42,192,39366,1,0,0:0:0:70:Calp.wav
298,192,39366,1,0,0:0:0:70:Kick3.wav
384,192,39366,128,0,39441:0:0:0:0:
213,192,39516,128,0,39591:0:0:0:0:
213,192,39666,128,0,39741:0:0:0:70:Kick3.wav
469,192,39666,1,0,0:0:0:0:
213,192,39816,128,0,39891:0:0:0:0:
42,192,39966,128,0,40041:0:0:0:70:Calp.wav
128,192,39966,1,0,0:0:0:70:Kick3.wav
384,192,39966,1,0,0:0:0:0:
42,192,40116,128,0,40191:0:0:0:0:
213,192,40266,1,0,0:0:0:70:Kick3.wav
469,192,40266,128,0,40341:0:0:0:0:
469,192,40416,128,0,40491:0:0:0:0:
128,192,40566,1,0,0:0:0:70:Calp.wav
384,192,40566,1,0,0:0:0:70:Kick3.wav
469,192,40566,128,0,40641:0:0:0:0:
298,192,40716,128,0,40791:0:0:0:0:
42,192,40866,1,0,0:0:0:70:Kick3.wav
298,192,40866,128,0,40941:0:0:0:0:
42,192,41016,1,0,0:0:0:0:
298,192,41016,128,0,41091:0:0:0:0:
128,192,41166,1,0,0:0:0:70:Calp.wav
469,192,41166,1,0,0:0:0:70:Kick3.wav
213,192,41241,1,0,0:0:0:60:Clap.wav
384,192,41241,1,0,0:0:0:0:
42,192,41316,1,0,0:0:0:70:Kick3.wav
128,192,41391,1,0,0:0:0:70:Kick3.wav
213,192,41466,1,0,0:0:0:70:Calp.wav
298,192,41466,1,0,0:0:0:0:
384,192,41466,128,0,41541:0:0:0:0:
42,192,41616,1,0,0:0:0:70:Kick3.wav
384,192,41616,128,0,41691:0:0:0:0:
42,192,41766,1,0,0:0:0:70:Calp.wav
298,192,41766,1,0,0:0:0:0:
384,192,41766,128,0,41841:0:0:0:0:
213,192,41916,128,0,41991:0:0:0:70:Kick3.wav
469,192,41916,1,0,0:0:0:0:
213,192,42066,128,0,42141:0:0:0:70:Calp.wav
298,192,42066,1,0,0:0:0:0:
469,192,42066,1,0,0:0:0:0:
213,192,42216,128,0,42291:0:0:0:70:Kick3.wav
384,192,42216,1,0,0:0:0:0:
42,192,42366,128,0,42441:0:0:0:70:Calp.wav
128,192,42366,1,0,0:0:0:0:
384,192,42366,1,0,0:0:0:0:
42,192,42516,128,0,42591:0:0:0:70:Kick3.wav
298,192,42516,1,0,0:0:0:0:
42,192,42666,1,0,0:0:0:70:Calp.wav
213,192,42666,1,0,0:0:0:0:
469,192,42666,1,0,0:0:0:0:
384,192,42741,1,0,0:0:0:50:Kick3.wav
298,192,42816,1,0,0:0:0:50:Kick3.wav
213,192,42891,1,0,0:0:0:50:Kick3.wav
42,192,42966,1,0,0:0:0:70:Calp.wav
128,192,42966,1,0,0:0:0:70:Kick3.wav
469,192,42966,1,0,0:0:0:0:
42,192,43116,1,0,0:0:0:70:Crash2.wav
384,192,43116,1,0,0:0:0:70:Kick3.wav
469,192,43116,1,0,0:0:0:0:
42,192,43416,1,0,0:0:0:70:Calp.wav
213,192,43416,1,0,0:0:0:0:
298,192,43416,1,0,0:0:0:0:
128,192,43566,1,0,0:0:0:70:Calp.wav
298,192,43566,1,0,0:0:0:70:Kick3.wav
384,192,43566,1,0,0:0:0:0:
213,192,43716,1,0,0:0:0:70:Calp.wav
384,192,43716,1,0,0:0:0:0:
469,192,43716,1,0,0:0:0:0:
298,192,43866,128,0,44166:0:0:0:70:Crash.wav
469,192,43866,1,0,0:0:0:70:Kick3.wav
384,192,44016,1,0,0:0:0:0:
42,192,44166,1,0,0:0:0:70:Calp.wav
128,192,44166,1,0,0:0:0:70:Kick3.wav
213,192,44166,1,0,0:0:0:0:
42,192,44316,1,0,0:0:0:0:
42,192,44466,1,0,0:0:0:70:Kick3.wav
469,192,44466,1,0,0:0:0:0:
128,192,44616,1,0,0:0:0:70:Calp.wav
213,192,44616,1,0,0:0:0:0:
298,192,44616,128,0,44766:0:0:0:0:
42,192,44766,1,0,0:0:0:70:Kick3.wav
469,192,44766,1,0,0:0:0:0:
298,192,44916,128,0,45066:0:0:0:0:
42,192,45066,1,0,0:0:0:70:Kick3.wav
469,192,45066,1,0,0:0:0:0:
42,192,45216,1,0,0:0:0:0:
42,192,45366,1,0,0:0:0:70:Calp.wav
298,192,45366,1,0,0:0:0:70:Kick3.wav
384,192,45366,1,0,0:0:0:0:
42,192,45516,1,0,0:0:0:0:
42,192,45666,1,0,0:0:0:70:Kick3.wav
469,192,45666,1,0,0:0:0:0:
42,192,45816,1,0,0:0:0:70:Calp.wav
298,192,45816,1,0,0:0:0:0:
384,192,45816,1,0,0:0:0:0:
42,192,45966,1,0,0:0:0:70:Kick3.wav
469,192,45966,1,0,0:0:0:0:
42,192,46116,1,0,0:0:0:0:
298,192,46266,128,0,46566:0:0:0:70:Kick3.wav
469,192,46266,1,0,0:0:0:0:
384,192,46416,1,0,0:0:0:0:
42,192,46566,1,0,0:0:0:70:Calp.wav
128,192,46566,1,0,0:0:0:70:Kick3.wav
213,192,46566,1,0,0:0:0:0:
42,192,46716,1,0,0:0:0:0:
42,192,46866,1,0,0:0:0:70:Kick3.wav
469,192,46866,1,0,0:0:0:0:
128,192,47016,1,0,0:0:0:70:Calp.wav
213,192,47016,1,0,0:0:0:0:
298,192,47016,128,0,47166:0:0:0:0:
42,192,47166,1,0,0:0:0:70:Kick3.wav
469,192,47166,1,0,0:0:0:0:
298,192,47316,128,0,47466:0:0:0:0:
42,192,47466,1,0,0:0:0:70:Kick3.wav
469,192,47466,1,0,0:0:0:0:
42,192,47616,1,0,0:0:0:0:
42,192,47766,1,0,0:0:0:70:Calp.wav
298,192,47766,1,0,0:0:0:70:Kick3.wav
384,192,47766,1,0,0:0:0:0:
42,192,47916,1,0,0:0:0:0:
42,192,48066,1,0,0:0:0:70:Kick3.wav
469,192,48066,1,0,0:0:0:0:
42,192,48216,1,0,0:0:0:70:Calp.wav
298,192,48216,1,0,0:0:0:0:
384,192,48216,1,0,0:0:0:0:
42,192,48366,1,0,0:0:0:70:Kick3.wav
469,192,48366,1,0,0:0:0:0:
42,192,48516,1,0,0:0:0:60:Clap.wav
298,192,48516,1,0,0:0:0:0:
128,192,48591,1,0,0:0:0:60:Clap.wav
213,192,48591,1,0,0:0:0:0:
298,192,48666,128,0,48966:0:0:0:70:Kick3.wav
469,192,48666,1,0,0:0:0:0:
384,192,48816,1,0,0:0:0:0:
42,192,48966,1,0,0:0:0:70:Calp.wav
128,192,48966,1,0,0:0:0:70:Kick3.wav
213,192,48966,1,0,0:0:0:0:
42,192,49116,1,0,0:0:0:0:
42,192,49266,1,0,0:0:0:70:Kick3.wav
469,192,49266,1,0,0:0:0:0:
128,192,49416,1,0,0:0:0:70:Calp.wav
213,192,49416,1,0,0:0:0:0:
298,192,49416,128,0,49566:0:0:0:0:
42,192,49566,1,0,0:0:0:70:Kick3.wav
469,192,49566,1,0,0:0:0:0:
298,192,49716,128,0,49866:0:0:0:0:
42,192,49866,1,0,0:0:0:70:Kick3.wav
469,192,49866,1,0,0:0:0:0:
42,192,50016,1,0,0:0:0:0:
42,192,50166,1,0,0:0:0:70:Calp.wav
298,192,50166,1,0,0:0:0:70:Kick3.wav
384,192,50166,1,0,0:0:0:0:
42,192,50316,1,0,0:0:0:0:
42,192,50466,1,0,0:0:0:70:Kick3.wav
469,192,50466,1,0,0:0:0:0:
42,192,50616,1,0,0:0:0:70:Calp.wav
298,192,50616,1,0,0:0:0:0:
384,192,50616,1,0,0:0:0:0:
42,192,50766,1,0,0:0:0:70:Kick3.wav
469,192,50766,1,0,0:0:0:0:
42,192,50916,1,0,0:0:0:0:
298,192,51066,128,0,51366:0:0:0:70:Kick3.wav
469,192,51066,1,0,0:0:0:0:
384,192,51216,1,0,0:0:0:0:
42,192,51366,1,0,0:0:0:70:Calp.wav
128,192,51366,1,0,0:0:0:70:Kick3.wav
213,192,51366,1,0,0:0:0:0:
42,192,51516,1,0,0:0:0:0:
42,192,51666,1,0,0:0:0:70:Kick3.wav
469,192,51666,1,0,0:0:0:0:
128,192,51816,1,0,0:0:0:70:Calp.wav
213,192,51816,1,0,0:0:0:0:
298,192,51816,128,0,51966:0:0:0:0:
42,192,51966,1,0,0:0:0:70:Kick3.wav
469,192,51966,1,0,0:0:0:0:
298,192,52116,128,0,52266:0:0:0:0:
42,192,52266,1,0,0:0:0:70:Kick3.wav
469,192,52266,1,0,0:0:0:0:
42,192,52416,128,0,52566:0:0:0:70:Calp.wav
128,192,52416,1,0,0:0:0:0:
298,192,52416,128,0,52566:0:0:0:0:
384,192,52566,1,0,0:0:0:70:Kick3.wav
469,192,52566,1,0,0:0:0:0:
213,192,52716,128,0,52866:0:0:0:70:Calp.wav
298,192,52716,1,0,0:0:0:0:
469,192,52716,128,0,52866:0:0:0:0:
42,192,52866,1,0,0:0:0:70:Kick3.wav
128,192,52866,1,0,0:0:0:0:
42,192,53016,1,0,0:0:0:60:Clap.wav
469,192,53016,1,0,0:0:0:0:
128,192,53091,1,0,0:0:0:60:Clap.wav
384,192,53091,1,0,0:0:0:0:
213,192,53166,1,0,0:0:0:60:Clap.wav
298,192,53166,1,0,0:0:0:70:Kick3.wav
469,192,53241,1,0,0:0:0:60:Clap.wav
384,192,53241,1,0,0:0:0:0:
42,192,53316,1,0,0:0:0:60:Clap.wav
128,192,53316,1,0,0:0:0:0:
213,192,53391,1,0,0:0:0:60:Clap.wav
298,192,53391,1,0,0:0:0:0:
42,192,53466,1,0,0:0:0:70:Crash.wav
384,192,53466,128,0,53766:0:0:0:70:Kick3.wav
469,192,53466,128,0,53766:0:0:0:0:
42,192,53766,1,0,0:0:0:70:Calp.wav
213,192,53766,1,0,0:0:0:70:Kick3.wav
298,192,53766,1,0,0:0:0:0:
213,192,53916,1,0,0:0:0:0:
128,192,54066,1,0,0:0:0:70:Kick3.wav
213,192,54066,1,0,0:0:0:0:
42,192,54216,1,0,0:0:0:70:Calp.wav
384,192,54216,128,0,54366:0:0:0:0:
469,192,54216,128,0,54366:0:0:0:0:
128,192,54366,1,0,0:0:0:70:Kick3.wav
213,192,54366,1,0,0:0:0:0:
298,192,54516,128,0,54666:0:0:0:70:Calp.wav
384,192,54516,1,0,0:0:0:0:
469,192,54516,128,0,54666:0:0:0:0:
128,192,54666,1,0,0:0:0:70:Kick3.wav
213,192,54666,1,0,0:0:0:0:
213,192,54816,1,0,0:0:0:0:
213,192,54966,1,0,0:0:0:70:Calp.wav
384,192,54966,1,0,0:0:0:70:Kick3.wav
469,192,54966,1,0,0:0:0:0:
213,192,55116,1,0,0:0:0:0:
128,192,55266,1,0,0:0:0:70:Kick3.wav
213,192,55266,1,0,0:0:0:0:
384,192,55416,128,0,55566:0:0:0:0:
469,192,55416,128,0,55566:0:0:0:0:
42,192,55566,1,0,0:0:0:70:Calp.wav
213,192,55566,1,0,0:0:0:70:Kick3.wav
298,192,55566,1,0,0:0:0:0:
42,192,55716,1,0,0:0:0:60:Clap.wav
469,192,55716,1,0,0:0:0:0:
298,192,55791,1,0,0:0:0:60:Clap.wav
384,192,55791,1,0,0:0:0:0:
128,192,55866,128,0,56166:0:0:0:70:Kick3.wav
213,192,55866,128,0,56166:0:0:0:0:
42,192,56166,1,0,0:0:0:70:Calp.wav
298,192,56166,1,0,0:0:0:70:Kick3.wav
384,192,56166,1,0,0:0:0:0:
384,192,56316,1,0,0:0:0:0:
384,192,56466,1,0,0:0:0:70:Kick3.wav
128,192,56616,128,0,56766:0:0:0:70:Calp.wav
213,192,56616,128,0,56766:0:0:0:0:
298,192,56616,1,0,0:0:0:0:
384,192,56766,1,0,0:0:0:70:Kick3.wav
469,192,56766,1,0,0:0:0:0:
42,192,56916,128,0,57066:0:0:0:70:Calp.wav
128,192,56916,1,0,0:0:0:0:
213,192,56916,128,0,57066:0:0:0:0:
384,192,57066,1,0,0:0:0:70:Kick3.wav
469,192,57066,1,0,0:0:0:0:
384,192,57216,1,0,0:0:0:0:
42,192,57366,1,0,0:0:0:70:Calp.wav
213,192,57366,1,0,0:0:0:70:Kick3.wav
384,192,57366,1,0,0:0:0:0:
384,192,57516,1,0,0:0:0:0:
384,192,57666,1,0,0:0:0:70:Kick3.wav
469,192,57666,1,0,0:0:0:0:
213,192,57816,1,0,0:0:0:60:Clap.wav
298,192,57816,1,0,0:0:0:0:
42,192,57891,1,0,0:0:0:60:Clap.wav
128,192,57891,1,0,0:0:0:0:
384,192,57966,1,0,0:0:0:60:Clap.wav
469,192,57966,1,0,0:0:0:70:Kick3.wav
213,192,58041,1,0,0:0:0:60:Clap.wav
298,192,58041,1,0,0:0:0:0:
42,192,58116,1,0,0:0:0:60:Clap.wav
128,192,58116,1,0,0:0:0:0:
384,192,58191,1,0,0:0:0:60:Clap.wav
469,192,58191,1,0,0:0:0:0:
42,192,58266,128,0,58566:0:0:0:70:Kick3.wav
128,192,58266,128,0,58566:0:0:0:0:
213,192,58566,1,0,0:0:0:70:Calp.wav
298,192,58566,1,0,0:0:0:70:Kick3.wav
469,192,58566,1,0,0:0:0:0:
298,192,58716,1,0,0:0:0:0:
298,192,58866,1,0,0:0:0:70:Kick3.wav
384,192,58866,1,0,0:0:0:0:
42,192,59016,128,0,59166:0:0:0:70:Calp.wav
213,192,59016,128,0,59166:0:0:0:0:
469,192,59016,1,0,0:0:0:0:
298,192,59166,1,0,0:0:0:70:Kick3.wav
384,192,59166,1,0,0:0:0:0:
42,192,59316,128,0,59466:0:0:0:70:Calp.wav
128,192,59316,128,0,59466:0:0:0:0:
213,192,59316,1,0,0:0:0:0:
298,192,59466,1,0,0:0:0:70:Kick3.wav
384,192,59466,1,0,0:0:0:0:
298,192,59616,1,0,0:0:0:0:
42,192,59766,1,0,0:0:0:70:Calp.wav
128,192,59766,1,0,0:0:0:70:Kick3.wav
298,192,59766,1,0,0:0:0:0:
298,192,59916,1,0,0:0:0:0:
298,192,60066,1,0,0:0:0:70:Kick3.wav
384,192,60066,1,0,0:0:0:0:
42,192,60216,128,0,60366:0:0:0:0:
213,192,60216,128,0,60366:0:0:0:0:
128,192,60366,1,0,0:0:0:70:Calp.wav
298,192,60366,1,0,0:0:0:70:Kick3.wav
469,192,60366,1,0,0:0:0:0:
42,192,60516,1,0,0:0:0:60:Clap.wav
469,192,60516,1,0,0:0:0:0:
128,192,60591,1,0,0:0:0:60:Clap.wav
213,192,60591,1,0,0:0:0:0:
298,192,60666,128,0,60966:0:0:0:70:Kick3.wav
384,192,60666,128,0,60966:0:0:0:0:
128,192,60966,1,0,0:0:0:70:Calp.wav
213,192,60966,1,0,0:0:0:70:Kick3.wav
469,192,60966,1,0,0:0:0:0:
128,192,61116,1,0,0:0:0:0:
128,192,61266,1,0,0:0:0:70:Kick3.wav
213,192,61416,1,0,0:0:0:70:Calp.wav
298,192,61416,128,0,61566:0:0:0:0:
469,192,61416,128,0,61566:0:0:0:0:
42,192,61566,1,0,0:0:0:70:Kick3.wav
128,192,61566,1,0,0:0:0:0:
298,192,61716,128,0,61866:0:0:0:70:Calp.wav
384,192,61716,128,0,61866:0:0:0:0:
469,192,61716,1,0,0:0:0:0:
42,192,61866,1,0,0:0:0:70:Kick3.wav
128,192,61866,1,0,0:0:0:0:
42,192,62016,128,0,62166:0:0:0:70:Calp.wav
128,192,62016,128,0,62166:0:0:0:0:
298,192,62016,1,0,0:0:0:0:
384,192,62166,1,0,0:0:0:70:Kick3.wav
469,192,62166,1,0,0:0:0:0:
213,192,62316,1,0,0:0:0:70:Calp.wav
384,192,62316,128,0,62466:0:0:0:0:
469,192,62316,128,0,62466:0:0:0:0:
42,192,62466,1,0,0:0:0:70:Kick3.wav
128,192,62466,1,0,0:0:0:0:
42,192,62616,128,0,62916:0:0:0:70:Calp.wav
298,192,62616,1,0,0:0:0:0:
384,192,62616,1,0,0:0:0:0:
213,192,62766,1,0,0:0:0:70:Calp.wav
298,192,62766,1,0,0:0:0:0:
384,192,62766,1,0,0:0:0:0:
128,192,62916,1,0,0:0:0:70:Calp.wav
298,192,62916,1,0,0:0:0:0:
384,192,62916,1,0,0:0:0:0:
42,192,63066,1,0,0:0:0:70:Kick3.wav
213,192,63066,128,0,63141:0:0:0:0:
469,192,63066,128,0,63141:0:0:0:0:
213,192,63216,128,0,63291:0:0:0:70:Kick3.wav
469,192,63216,128,0,63291:0:0:0:0:
213,192,63366,128,0,63441:0:0:0:70:Kick3.wav
469,192,63366,128,0,63441:0:0:0:0:
213,192,63516,128,0,63591:0:0:0:70:Kick3.wav
469,192,63516,128,0,63591:0:0:0:0:
42,192,63666,1,0,0:0:0:70:Calp.wav
128,192,63666,1,0,0:0:0:0:
298,192,63666,1,0,0:0:0:0:
298,192,63816,128,0,63891:0:0:0:70:Kick3.wav
469,192,63816,128,0,63891:0:0:0:0:
298,192,63966,128,0,64041:0:0:0:70:Kick3.wav
469,192,63966,128,0,64041:0:0:0:0:
42,192,64116,1,0,0:0:0:70:Calp.wav
298,192,64116,128,0,64191:0:0:0:0:
469,192,64116,128,0,64191:0:0:0:0:
213,192,64416,128,0,64491:0:0:0:70:Calp.wav
384,192,64416,128,0,64491:0:0:0:0:
42,192,64416,1,0,0:0:0:0:
213,192,64566,128,0,64791:0:0:0:70:Calp.wav
384,192,64566,128,0,64791:0:0:0:0:
42,192,64566,1,0,0:0:0:0:
128,192,64791,1,0,0:0:0:40:Kick3.wav
298,192,64866,1,0,0:0:0:70:Kick3.wav
469,192,64866,1,0,0:0:0:0:
213,192,65016,1,0,0:0:0:70:Calp.wav
384,192,65016,1,0,0:0:0:0:
469,192,65016,1,0,0:0:0:0:
42,192,65166,1,0,0:0:0:70:Calp.wav
128,192,65166,1,0,0:0:0:0:
298,192,65166,1,0,0:0:0:0:
42,192,65316,1,0,0:0:0:70:Calp.wav
213,192,65316,1,0,0:0:0:0:
469,192,65316,1,0,0:0:0:0:
128,192,65466,128,0,65541:0:0:0:70:Kick3.wav
298,192,65466,1,0,0:0:0:0:
384,192,65466,128,0,65541:0:0:0:0:
128,192,65616,128,0,65691:0:0:0:70:Kick3.wav
384,192,65616,128,0,65691:0:0:0:0:
128,192,65766,128,0,65841:0:0:0:70:Kick3.wav
384,192,65766,128,0,65841:0:0:0:0:
128,192,65916,128,0,65991:0:0:0:70:Kick3.wav
384,192,65916,128,0,65991:0:0:0:0:
42,192,66066,1,0,0:0:0:70:Calp.wav
213,192,66066,1,0,0:0:0:0:
469,192,66066,1,0,0:0:0:0:
213,192,66216,128,0,66291:0:0:0:70:Kick3.wav
384,192,66216,128,0,66291:0:0:0:0:
213,192,66366,128,0,66441:0:0:0:70:Kick3.wav
384,192,66366,128,0,66441:0:0:0:0:
213,192,66516,128,0,66591:0:0:0:70:Calp.wav
384,192,66516,128,0,66591:0:0:0:0:
469,192,66516,1,0,0:0:0:0:
469,192,66816,1,0,0:0:0:70:Calp.wav
128,192,66816,128,0,66891:0:0:0:0:
298,192,66816,128,0,66891:0:0:0:0:
469,192,66966,1,0,0:0:0:70:Calp.wav
128,192,66966,128,0,67191:0:0:0:0:
298,192,66966,128,0,67191:0:0:0:0:
384,192,67191,1,0,0:0:0:0:
128,192,67266,1,0,0:0:0:70:Calp.wav
213,192,67266,1,0,0:0:0:0:
128,192,67366,1,0,0:0:0:50:Kick3.wav
213,192,67366,1,0,0:0:0:0:
469,192,67466,1,0,0:0:0:50:Kick3.wav
469,192,67566,1,0,0:0:0:50:Kick3.wav
42,192,67666,1,0,0:0:0:40:Kick3.wav
42,192,67766,1,0,0:0:0:40:Kick3.wav
128,192,67866,1,0,0:0:0:70:Kick3.wav
213,192,67866,128,0,67941:0:0:0:0:
469,192,67866,128,0,67941:0:0:0:0:
213,192,68016,128,0,68091:0:0:0:70:Kick3.wav
469,192,68016,128,0,68091:0:0:0:0:
213,192,68166,128,0,68241:0:0:0:70:Kick3.wav
469,192,68166,128,0,68241:0:0:0:0:
213,192,68316,128,0,68391:0:0:0:70:Kick3.wav
469,192,68316,128,0,68391:0:0:0:0:
42,192,68616,1,0,0:0:0:70:Calp.wav
298,192,68616,128,0,68691:0:0:0:0:
469,192,68616,128,0,68691:0:0:0:0:
42,192,68766,1,0,0:0:0:70:Calp.wav
298,192,68766,128,0,68841:0:0:0:0:
469,192,68766,128,0,68841:0:0:0:0:
213,192,68916,1,0,0:0:0:70:Kick3.wav
298,192,68916,128,0,68991:0:0:0:0:
469,192,68916,128,0,68991:0:0:0:0:
213,192,69216,128,0,69291:0:0:0:70:Calp.wav
384,192,69216,128,0,69291:0:0:0:0:
469,192,69216,1,0,0:0:0:0:
213,192,69366,128,0,69441:0:0:0:70:Calp.wav
384,192,69366,128,0,69441:0:0:0:0:
469,192,69366,1,0,0:0:0:0:
42,192,69441,1,0,0:0:0:50:Kick3.wav
298,192,69516,1,0,0:0:0:50:Kick3.wav
128,192,69591,1,0,0:0:0:50:Kick3.wav
213,192,69666,128,0,69741:0:0:0:70:Calp.wav
384,192,69666,128,0,69741:0:0:0:0:
469,192,69666,1,0,0:0:0:0:
42,192,69816,128,0,69966:0:0:0:70:Kick3.wav
298,192,69816,128,0,69966:0:0:0:0:
42,192,70116,128,0,70566:0:0:0:70:Crash.wav
213,192,70116,128,0,70416:0:0:0:70:Kick3.wav
469,192,70116,1,0,0:0:0:0:
298,192,70416,1,0,0:0:0:70:Kick3.wav
384,192,70416,1,0,0:0:0:0:
128,192,70566,1,0,0:0:0:70:Calp.wav
213,192,70566,1,0,0:0:0:0:
469,192,70566,1,0,0:0:0:0:
469,192,70716,1,0,0:0:0:0:
42,192,70791,1,0,0:0:0:40:Kick3.wav
213,192,70866,1,0,0:0:0:70:Kick3.wav
469,192,70866,1,0,0:0:0:0:
213,192,71016,1,0,0:0:0:70:Kick3.wav
469,192,71016,1,0,0:0:0:0:
42,192,71166,1,0,0:0:0:70:Calp.wav
128,192,71166,1,0,0:0:0:0:
469,192,71166,1,0,0:0:0:0:
469,192,71316,1,0,0:0:0:0:
213,192,71466,1,0,0:0:0:70:Kick3.wav
469,192,71466,1,0,0:0:0:0:
213,192,71616,1,0,0:0:0:70:Kick3.wav
469,192,71616,128,0,71766:0:0:0:0:
42,192,71766,128,0,72066:0:0:0:70:Calp.wav
298,192,71766,1,0,0:0:0:0:
384,192,71766,1,0,0:0:0:0:
128,192,71916,1,0,0:0:0:70:Kick3.wav
213,192,71916,1,0,0:0:0:0:
298,192,72066,1,0,0:0:0:50:Kick3.wav
469,192,72066,1,0,0:0:0:0:
213,192,72141,1,0,0:0:0:50:Kick3.wav
42,192,72216,1,0,0:0:0:50:Kick3.wav
213,192,72291,1,0,0:0:0:50:Kick3.wav
384,192,72366,1,0,0:0:0:60:Clap.wav
469,192,72366,1,0,0:0:0:0:
42,192,72441,1,0,0:0:0:60:Clap.wav
128,192,72441,1,0,0:0:0:0:
384,192,72516,1,0,0:0:0:60:Clap.wav
469,192,72516,1,0,0:0:0:0:
42,192,72591,1,0,0:0:0:60:Clap.wav
128,192,72591,1,0,0:0:0:0:
213,192,72666,128,0,72741:0:0:0:30:D#5H_Eb5H.wav
298,192,72716,128,0,72791:0:0:0:50:A#5H_Bb5H.wav
384,192,72766,128,0,72841:0:0:0:50:D#6H_Eb6H.wav
42,192,74166,128,0,74222:0:0:0:70:G#5H_Ab5H.wav
213,192,74316,128,0,74372:0:0:0:70:A#5H_Bb5H.wav
384,192,74616,128,0,74728:0:0:0:70:A#6H_Bb6H.wav
469,192,74616,128,0,74728:0:0:0:70:A#7H_Bb7H.wav
42,192,75066,1,0,0:0:0:70:Crash2.wav
128,192,75066,1,0,0:0:0:90:A#5H_Bb5H_s.wav
469,192,75066,1,0,0:0:0:70:Calp.wav
298,192,75216,1,0,0:0:0:50:Kick3.wav
469,192,75291,1,0,0:0:0:50:Kick3.wav
298,192,75366,1,0,0:0:0:50:Kick3.wav
213,192,75441,1,0,0:0:0:50:Kick3.wav
42,192,75516,1,0,0:0:0:70:Crash3.wav
384,192,75516,1,0,0:0:0:70:Calp.wav
469,192,75516,1,0,0:0:0:0:
213,192,75666,1,0,0:0:0:50:Kick3.wav
42,192,75741,1,0,0:0:0:50:Kick3.wav
213,192,75816,1,0,0:0:0:50:Kick3.wav
298,192,75891,1,0,0:0:0:50:Kick3.wav
42,192,75966,1,0,0:0:0:70:Calp.wav
128,192,75966,1,0,0:0:0:0:
469,192,75966,1,0,0:0:0:0:
128,192,76116,128,0,76266:0:0:0:70:Kick3.wav
384,192,76116,128,0,76266:0:0:0:0:
42,192,76866,128,0,76978:0:0:0:0:
128,192,76941,128,0,77053:0:0:0:0:
298,192,77016,128,0,77128:0:0:0:0:
384,192,77091,128,0,77203:0:0:0:0:
128,192,77166,128,0,77278:0:0:0:0:
213,192,77241,128,0,77353:0:0:0:0:
384,192,77316,128,0,77428:0:0:0:0:
469,192,77353,128,0,77466:0:0:0:0:
42,192,77466,1,0,0:0:0:70:Crush.wav
128,192,77466,1,0,0:0:0:70:Kick3.wav
213,192,77466,1,0,0:0:0:0:
298,192,77466,128,0,78666:0:0:0:0:
42,192,77766,1,0,0:0:0:70:Calp.wav
128,192,77766,1,0,0:0:0:70:Kick3.wav
469,192,77766,1,0,0:0:0:0:
384,192,77916,1,0,0:0:0:0:
213,192,78066,1,0,0:0:0:70:Kick3.wav
469,192,78066,1,0,0:0:0:0:
213,192,78216,1,0,0:0:0:0:
42,192,78366,1,0,0:0:0:70:Calp.wav
128,192,78366,1,0,0:0:0:70:Kick3.wav
384,192,78366,1,0,0:0:0:0:
42,192,78516,1,0,0:0:0:0:
213,192,78666,128,0,79866:0:0:0:70:Kick3.wav
469,192,78666,1,0,0:0:0:0:
42,192,78966,1,0,0:0:0:70:Calp.wav
384,192,78966,1,0,0:0:0:70:Kick3.wav
469,192,78966,1,0,0:0:0:0:
469,192,79116,1,0,0:0:0:0:
42,192,79266,1,0,0:0:0:70:Kick3.wav
128,192,79266,1,0,0:0:0:0:
298,192,79416,1,0,0:0:0:0:
128,192,79566,1,0,0:0:0:70:Calp.wav
384,192,79566,1,0,0:0:0:70:Kick3.wav
469,192,79566,1,0,0:0:0:0:
469,192,79716,1,0,0:0:0:0:
42,192,79866,128,0,81066:0:0:0:70:Kick3.wav
298,192,79866,1,0,0:0:0:0:
384,192,80016,1,0,0:0:0:0:
128,192,80166,1,0,0:0:0:70:Calp.wav
213,192,80166,1,0,0:0:0:70:Kick3.wav
469,192,80166,1,0,0:0:0:0:
298,192,80316,1,0,0:0:0:0:
128,192,80466,1,0,0:0:0:70:Kick3.wav
384,192,80466,1,0,0:0:0:0:
213,192,80616,1,0,0:0:0:0:
298,192,80766,1,0,0:0:0:70:Calp.wav
384,192,80766,1,0,0:0:0:70:Kick3.wav
469,192,80766,1,0,0:0:0:0:
128,192,80916,1,0,0:0:0:0:
213,192,81066,1,0,0:0:0:70:Kick3.wav
384,192,81066,128,0,82266:0:0:0:0:
42,192,81366,1,0,0:0:0:70:Calp.wav
128,192,81366,1,0,0:0:0:70:Kick3.wav
298,192,81366,1,0,0:0:0:0:
42,192,81666,1,0,0:0:0:70:Kick3.wav
469,192,81666,1,0,0:0:0:0:
213,192,81816,1,0,0:0:0:0:
128,192,81966,1,0,0:0:0:70:Calp.wav
298,192,81966,1,0,0:0:0:70:Kick3.wav
469,192,81966,1,0,0:0:0:0:
128,192,82116,1,0,0:0:0:0:
42,192,82266,1,0,0:0:0:70:Crash.wav
213,192,82266,1,0,0:0:0:70:Kick3.wav
469,192,82266,128,0,83466:0:0:0:0:
384,192,82416,1,0,0:0:0:0:
42,192,82566,1,0,0:0:0:70:Calp.wav
128,192,82566,1,0,0:0:0:70:Kick3.wav
384,192,82566,1,0,0:0:0:0:
42,192,82716,1,0,0:0:0:0:
213,192,82866,1,0,0:0:0:70:Kick3.wav
384,192,82866,1,0,0:0:0:0:
42,192,83166,1,0,0:0:0:70:Calp.wav
128,192,83166,1,0,0:0:0:70:Kick3.wav
213,192,83166,1,0,0:0:0:0:
298,192,83316,1,0,0:0:0:0:
213,192,83466,1,0,0:0:0:70:Kick3.wav
298,192,83466,128,0,84666:0:0:0:0:
213,192,83616,1,0,0:0:0:0:
42,192,83766,1,0,0:0:0:70:Calp.wav
128,192,83766,1,0,0:0:0:70:Kick3.wav
469,192,83766,1,0,0:0:0:0:
213,192,84066,1,0,0:0:0:70:Kick3.wav
469,192,84066,1,0,0:0:0:0:
42,192,84216,1,0,0:0:0:0:
42,192,84366,1,0,0:0:0:70:Calp.wav
213,192,84366,1,0,0:0:0:70:Kick3.wav
469,192,84366,1,0,0:0:0:0:
384,192,84516,1,0,0:0:0:0:
42,192,84666,128,0,85566:0:0:0:70:Kick3.wav
384,192,84666,1,0,0:0:0:0:
298,192,84891,1,0,0:0:0:0:
213,192,84966,1,0,0:0:0:70:Calp.wav
384,192,84966,1,0,0:0:0:70:Kick3.wav
469,192,84966,1,0,0:0:0:0:
128,192,85116,1,0,0:0:0:0:
128,192,85266,1,0,0:0:0:70:Kick3.wav
469,192,85266,1,0,0:0:0:0:
298,192,85416,1,0,0:0:0:70:Kick3.wav
384,192,85416,1,0,0:0:0:0:
213,192,85491,1,0,0:0:0:0:
298,192,85566,1,0,0:0:0:70:Calp.wav
384,192,85566,1,0,0:0:0:70:Kick3.wav
469,192,85566,1,0,0:0:0:0:
213,192,85716,1,0,0:0:0:70:Kick3.wav
469,192,85791,1,0,0:0:0:70:Kick3.wav
42,192,85866,128,0,86016:0:0:0:70:Calp.wav
128,192,85866,1,0,0:0:0:0:
298,192,85866,1,0,0:0:0:0:
298,192,86016,1,0,0:0:0:70:Kick3.wav
469,192,86016,1,0,0:0:0:0:
42,192,86166,128,0,86316:0:0:0:70:Calp.wav
128,192,86166,1,0,0:0:0:0:
469,192,86166,1,0,0:0:0:0:
213,192,86316,1,0,0:0:0:0:
384,192,86466,1,0,0:0:0:70:Kick3.wav
469,192,86466,1,0,0:0:0:0:
213,192,86541,1,0,0:0:0:60:Clap.wav
298,192,86541,1,0,0:0:0:0:
42,192,86616,1,0,0:0:0:60:Clap.wav
128,192,86616,1,0,0:0:0:0:
298,192,86691,1,0,0:0:0:60:Clap.wav
384,192,86691,1,0,0:0:0:0:
128,192,86766,1,0,0:0:0:60:Clap.wav
213,192,86766,1,0,0:0:0:70:Kick3.wav
384,192,86841,1,0,0:0:0:60:Clap.wav
469,192,86841,1,0,0:0:0:0:
213,192,86916,1,0,0:0:0:60:Clap.wav
298,192,86916,1,0,0:0:0:0:
42,192,86991,1,0,0:0:0:60:Clap.wav
128,192,86991,1,0,0:0:0:0:
298,192,87066,128,0,88266:0:0:0:70:Crash2.wav
384,192,87066,1,0,0:0:0:70:Kick3.wav
469,192,87066,1,0,0:0:0:0:
213,192,87216,1,0,0:0:0:0:
213,192,87366,1,0,0:0:0:70:Calp.wav
128,192,87366,1,0,0:0:0:70:Kick3.wav
469,192,87366,1,0,0:0:0:0:
42,192,87666,1,0,0:0:0:70:Kick3.wav
469,192,87666,1,0,0:0:0:0:
42,192,87966,1,0,0:0:0:70:Calp.wav
128,192,87966,1,0,0:0:0:70:Kick3.wav
384,192,87966,1,0,0:0:0:0:
469,192,88116,1,0,0:0:0:0:
213,192,88266,128,0,89466:0:0:0:70:Kick3.wav
469,192,88266,1,0,0:0:0:0:
42,192,88566,1,0,0:0:0:70:Calp.wav
128,192,88566,1,0,0:0:0:70:Kick3.wav
384,192,88566,1,0,0:0:0:0:
384,192,88716,1,0,0:0:0:0:
128,192,88866,1,0,0:0:0:70:Kick3.wav
469,192,88866,1,0,0:0:0:0:
42,192,89016,1,0,0:0:0:0:
42,192,89166,1,0,0:0:0:70:Calp.wav
384,192,89166,1,0,0:0:0:70:Kick3.wav
469,192,89166,1,0,0:0:0:0:
298,192,89316,1,0,0:0:0:0:
42,192,89466,128,0,90666:0:0:0:70:Kick3.wav
298,192,89466,1,0,0:0:0:0:
213,192,89616,1,0,0:0:0:0:
128,192,89766,1,0,0:0:0:70:Calp.wav
384,192,89766,1,0,0:0:0:70:Kick3.wav
469,192,89766,1,0,0:0:0:0:
298,192,89916,1,0,0:0:0:0:
213,192,90066,1,0,0:0:0:70:Kick3.wav
469,192,90066,1,0,0:0:0:0:
384,192,90216,1,0,0:0:0:0:
128,192,90366,1,0,0:0:0:70:Calp.wav
213,192,90366,1,0,0:0:0:70:Kick3.wav
298,192,90366,1,0,0:0:0:0:
469,192,90516,1,0,0:0:0:0:
128,192,90666,1,0,0:0:0:70:Kick3.wav
384,192,90666,128,0,91866:0:0:0:0:
42,192,90966,1,0,0:0:0:70:Calp.wav
213,192,90966,1,0,0:0:0:70:Kick3.wav
298,192,90966,1,0,0:0:0:0:
42,192,91266,1,0,0:0:0:70:Kick3.wav
213,192,91266,1,0,0:0:0:0:
298,192,91416,1,0,0:0:0:0:
213,192,91566,1,0,0:0:0:70:Calp.wav
298,192,91566,1,0,0:0:0:70:Kick3.wav
469,192,91566,1,0,0:0:0:0:
42,192,91716,1,0,0:0:0:60:Clap.wav
128,192,91716,1,0,0:0:0:0:
213,192,91791,1,0,0:0:0:60:Clap.wav
298,192,91791,1,0,0:0:0:0:
42,192,91866,1,0,0:0:0:70:Crash.wav
128,192,91866,1,0,0:0:0:70:Kick3.wav
469,192,91866,128,0,93066:0:0:0:0:
298,192,92016,1,0,0:0:0:0:
42,192,92166,1,0,0:0:0:70:Calp.wav
128,192,92166,1,0,0:0:0:70:Kick3.wav
213,192,92166,1,0,0:0:0:0:
42,192,92316,1,0,0:0:0:0:
42,192,92466,1,0,0:0:0:70:Kick3.wav
298,192,92466,1,0,0:0:0:0:
42,192,92766,1,0,0:0:0:70:Calp.wav
213,192,92766,1,0,0:0:0:70:Kick3.wav
298,192,92766,1,0,0:0:0:0:
384,192,92916,1,0,0:0:0:0:
213,192,93066,1,0,0:0:0:70:Kick3.wav
298,192,93066,128,0,94266:0:0:0:0:
213,192,93216,1,0,0:0:0:0:
42,192,93366,1,0,0:0:0:70:Calp.wav
213,192,93366,1,0,0:0:0:70:Kick3.wav
469,192,93366,1,0,0:0:0:0:
42,192,93666,1,0,0:0:0:70:Kick3.wav
213,192,93666,1,0,0:0:0:0:
213,192,93891,1,0,0:0:0:0:
42,192,93966,1,0,0:0:0:70:Calp.wav
128,192,93966,1,0,0:0:0:70:Kick3.wav
384,192,93966,1,0,0:0:0:0:
469,192,94116,1,0,0:0:0:0:
128,192,94266,128,0,95466:0:0:0:70:Kick3.wav
469,192,94266,1,0,0:0:0:0:
42,192,94491,1,0,0:0:0:70:Calp.wav
384,192,94491,1,0,0:0:0:0:
469,192,94491,1,0,0:0:0:0:
213,192,94566,1,0,0:0:0:70:Kick3.wav
298,192,94566,1,0,0:0:0:0:
42,192,94716,1,0,0:0:0:70:Calp.wav
384,192,94716,1,0,0:0:0:0:
469,192,94716,1,0,0:0:0:0:
213,192,94866,1,0,0:0:0:70:Kick3.wav
469,192,94866,1,0,0:0:0:0:
42,192,95091,1,0,0:0:0:70:Calp.wav
384,192,95091,1,0,0:0:0:0:
469,192,95091,1,0,0:0:0:0:
213,192,95166,1,0,0:0:0:70:Kick3.wav
298,192,95166,1,0,0:0:0:0:
42,192,95316,1,0,0:0:0:70:Calp.wav
384,192,95316,1,0,0:0:0:0:
469,192,95316,1,0,0:0:0:0:
42,192,95466,128,0,96066:0:0:0:70:Kick3.wav
298,192,95466,1,0,0:0:0:0:
213,192,95616,1,0,0:0:0:70:Kick3.wav
298,192,95616,1,0,0:0:0:0:
128,192,95766,1,0,0:0:0:70:Calp.wav
213,192,95766,1,0,0:0:0:0:
469,192,95766,1,0,0:0:0:0:
384,192,95916,1,0,0:0:0:0:
384,192,96066,1,0,0:0:0:70:Kick3.wav
469,192,96066,1,0,0:0:0:0:
42,192,96141,1,0,0:0:0:60:Clap.wav
128,192,96141,1,0,0:0:0:0:
213,192,96216,1,0,0:0:0:60:Clap.wav
298,192,96216,1,0,0:0:0:0:
384,192,96291,1,0,0:0:0:60:Clap.wav
469,192,96291,1,0,0:0:0:0:
128,192,96366,1,0,0:0:0:60:Clap.wav
213,192,96366,1,0,0:0:0:70:Kick3.wav
298,192,96441,1,0,0:0:0:60:Clap.wav
384,192,96441,1,0,0:0:0:0:
42,192,96516,1,0,0:0:0:60:Clap.wav
128,192,96516,1,0,0:0:0:0:
213,192,96591,1,0,0:0:0:60:Clap.wav
298,192,96591,1,0,0:0:0:0:
42,192,96666,128,0,97866:0:0:0:70:Crash2.wav
384,192,96666,1,0,0:0:0:70:Kick3.wav
469,192,96666,1,0,0:0:0:0:
298,192,96816,1,0,0:0:0:0:
128,192,96966,1,0,0:0:0:70:Calp.wav
298,192,96966,1,0,0:0:0:70:Kick3.wav
384,192,96966,1,0,0:0:0:0:
128,192,97116,1,0,0:0:0:0:
128,192,97266,1,0,0:0:0:70:Kick3.wav
469,192,97266,1,0,0:0:0:0:
384,192,97416,1,0,0:0:0:0:
213,192,97566,1,0,0:0:0:70:Calp.wav
384,192,97566,1,0,0:0:0:70:Kick3.wav
469,192,97566,1,0,0:0:0:0:
213,192,97716,1,0,0:0:0:0:
213,192,97866,1,0,0:0:0:70:Kick3.wav
298,192,97866,128,0,99066:0:0:0:0:
42,192,98166,1,0,0:0:0:70:Calp.wav
128,192,98166,1,0,0:0:0:70:Kick3.wav
469,192,98166,1,0,0:0:0:0:
469,192,98316,1,0,0:0:0:0:
128,192,98466,1,0,0:0:0:70:Kick3.wav
384,192,98466,1,0,0:0:0:0:
213,192,98616,1,0,0:0:0:0:
42,192,98766,1,0,0:0:0:70:Calp.wav
384,192,98766,1,0,0:0:0:70:Kick3.wav
469,192,98766,1,0,0:0:0:0:
213,192,98841,1,0,0:0:0:0:
42,192,99066,1,0,0:0:0:70:Kick3.wav
469,192,99066,128,0,100266:0:0:0:0:
42,192,99216,1,0,0:0:0:0:
42,192,99366,1,0,0:0:0:70:Calp.wav
213,192,99366,1,0,0:0:0:70:Kick3.wav
384,192,99366,1,0,0:0:0:0:
298,192,99516,1,0,0:0:0:0:
128,192,99666,1,0,0:0:0:70:Kick3.wav
298,192,99666,1,0,0:0:0:0:
128,192,99816,1,0,0:0:0:0:
42,192,99966,1,0,0:0:0:70:Calp.wav
128,192,99966,1,0,0:0:0:70:Kick3.wav
298,192,99966,1,0,0:0:0:0:
384,192,100116,1,0,0:0:0:0:
213,192,100266,128,0,101466:0:0:0:70:Kick3.wav
384,192,100266,1,0,0:0:0:0:
42,192,100566,1,0,0:0:0:70:Calp.wav
384,192,100566,1,0,0:0:0:70:Kick3.wav
469,192,100566,1,0,0:0:0:0:
42,192,100716,1,0,0:0:0:0:
128,192,100866,1,0,0:0:0:70:Kick3.wav
384,192,100866,1,0,0:0:0:0:
298,192,101016,1,0,0:0:0:0:
42,192,101166,1,0,0:0:0:70:Calp.wav
128,192,101166,1,0,0:0:0:70:Kick3.wav
469,192,101166,1,0,0:0:0:0:
42,192,101466,128,0,102666:0:0:0:70:Kick3.wav
469,192,101466,1,0,0:0:0:0:
384,192,101616,1,0,0:0:0:0:
128,192,101766,1,0,0:0:0:70:Calp.wav
213,192,101766,1,0,0:0:0:70:Kick3.wav
298,192,101766,1,0,0:0:0:0:
298,192,101916,1,0,0:0:0:0:
128,192,102066,1,0,0:0:0:70:Kick3.wav
469,192,102066,1,0,0:0:0:0:
213,192,102216,1,0,0:0:0:0:
213,192,102366,1,0,0:0:0:70:Calp.wav
384,192,102366,1,0,0:0:0:70:Kick3.wav
469,192,102366,1,0,0:0:0:0:
384,192,102516,1,0,0:0:0:0:
128,192,102666,1,0,0:0:0:70:Kick3.wav
298,192,102666,128,0,103866:0:0:0:0:
128,192,102816,1,0,0:0:0:0:
42,192,102966,1,0,0:0:0:70:Calp.wav
384,192,102966,1,0,0:0:0:70:Kick3.wav
469,192,102966,1,0,0:0:0:0:
469,192,103116,1,0,0:0:0:0:
42,192,103266,1,0,0:0:0:70:Kick3.wav
213,192,103266,1,0,0:0:0:0:
42,192,103416,1,0,0:0:0:0:
42,192,103566,1,0,0:0:0:70:Calp.wav
384,192,103566,1,0,0:0:0:70:Kick3.wav
469,192,103566,1,0,0:0:0:0:
128,192,103866,1,0,0:0:0:70:Kick3.wav
469,192,103866,128,0,105066:0:0:0:0:
213,192,104016,1,0,0:0:0:0:
42,192,104166,1,0,0:0:0:70:Calp.wav
213,192,104166,1,0,0:0:0:70:Kick3.wav
298,192,104166,1,0,0:0:0:0:
384,192,104316,1,0,0:0:0:0:
42,192,104466,1,0,0:0:0:70:Kick3.wav
213,192,104466,1,0,0:0:0:0:
128,192,104616,1,0,0:0:0:0:
128,192,104766,1,0,0:0:0:70:Calp.wav
298,192,104766,1,0,0:0:0:70:Kick3.wav
384,192,104766,1,0,0:0:0:0:
298,192,104916,1,0,0:0:0:0:
42,192,105066,1,0,0:0:0:70:Kick3.wav
213,192,105066,1,0,0:0:0:0:
42,192,105216,1,0,0:0:0:70:Kick3.wav
213,192,105216,1,0,0:0:0:0:
128,192,105366,1,0,0:0:0:70:Calp.wav
384,192,105366,1,0,0:0:0:0:
469,192,105366,1,0,0:0:0:0:
42,192,105516,1,0,0:0:0:60:Clap.wav
298,192,105516,1,0,0:0:0:0:
213,192,105591,1,0,0:0:0:60:Clap.wav
384,192,105591,1,0,0:0:0:0:
128,192,105666,1,0,0:0:0:70:Calp.wav
469,192,105666,1,0,0:0:0:0:
128,192,105816,1,0,0:0:0:70:Kick3.wav
384,192,105966,1,0,0:0:0:60:Kick3.wav
384,192,106116,1,0,0:0:0:50:Kick3.wav
42,192,106266,128,0,106341:0:0:0:70:Crash.wav
128,192,106266,128,0,106341:0:0:0:70:Kick3.wav
469,192,106266,1,0,0:0:0:0:
42,192,106416,128,0,106491:0:0:0:70:Kick3.wav
128,192,106416,128,0,106491:0:0:0:0:
42,192,106566,128,0,106641:0:0:0:70:Kick3.wav
128,192,106566,128,0,106641:0:0:0:0:
298,192,106716,128,0,106866:0:0:0:70:Kick3.wav
384,192,106716,1,0,0:0:0:0:
42,192,106866,1,0,0:0:0:70:Calp.wav
128,192,106866,1,0,0:0:0:0:
469,192,106866,128,0,107016:0:0:0:0:
42,192,107016,1,0,0:0:0:70:Crash2.wav
213,192,107016,1,0,0:0:0:70:Kick3.wav
298,192,107016,128,0,107166:0:0:0:0:
469,192,107166,128,0,107316:0:0:0:0:
42,192,107316,1,0,0:0:0:70:Calp.wav
128,192,107316,1,0,0:0:0:0:
298,192,107316,128,0,107466:0:0:0:0:
42,192,107466,128,0,107541:0:0:0:70:Crash.wav
213,192,107466,128,0,107541:0:0:0:70:Kick3.wav
384,192,107466,1,0,0:0:0:0:
42,192,107616,128,0,107691:0:0:0:70:Calp.wav
213,192,107616,128,0,107691:0:0:0:0:
469,192,107616,1,0,0:0:0:0:
42,192,107766,128,0,107841:0:0:0:70:Kick3.wav
213,192,107766,128,0,107841:0:0:0:0:
298,192,107916,128,0,108066:0:0:0:70:Kick3.wav
469,192,107916,1,0,0:0:0:0:
42,192,108066,1,0,0:0:0:70:Calp.wav
213,192,108066,1,0,0:0:0:0:
384,192,108066,128,0,108216:0:0:0:0:
128,192,108216,1,0,0:0:0:70:Crash2.wav
213,192,108216,1,0,0:0:0:70:Kick3.wav
469,192,108216,128,0,108366:0:0:0:0:
298,192,108366,128,0,108516:0:0:0:0:
42,192,108516,1,0,0:0:0:70:Calp.wav
213,192,108516,1,0,0:0:0:0:
384,192,108516,128,0,108666:0:0:0:0:
128,192,108666,128,0,108741:0:0:0:70:Crash.wav
213,192,108666,128,0,108741:0:0:0:70:Kick3.wav
469,192,108666,1,0,0:0:0:0:
128,192,108816,128,0,108891:0:0:0:70:Kick3.wav
213,192,108816,128,0,108891:0:0:0:0:
128,192,108966,128,0,109041:0:0:0:70:Kick3.wav
213,192,108966,128,0,109041:0:0:0:0:
298,192,109116,1,0,0:0:0:70:Kick3.wav
384,192,109116,128,0,109266:0:0:0:0:
42,192,109266,1,0,0:0:0:70:Calp.wav
213,192,109266,1,0,0:0:0:0:
469,192,109266,128,0,109416:0:0:0:0:
42,192,109416,1,0,0:0:0:70:Crash2.wav
128,192,109416,1,0,0:0:0:70:Kick3.wav
384,192,109416,128,0,109566:0:0:0:0:
298,192,109566,128,0,109716:0:0:0:0:
42,192,109716,1,0,0:0:0:70:Calp.wav
213,192,109716,1,0,0:0:0:0:
469,192,109716,128,0,109866:0:0:0:0:
42,192,109866,128,0,109941:0:0:0:70:Crash.wav
128,192,109866,128,0,109941:0:0:0:70:Kick3.wav
384,192,109866,1,0,0:0:0:0:
42,192,110016,128,0,110091:0:0:0:70:Calp.wav
128,192,110016,128,0,110091:0:0:0:0:
298,192,110016,1,0,0:0:0:0:
42,192,110166,128,0,110241:0:0:0:70:Kick3.wav
128,192,110166,128,0,110241:0:0:0:0:
42,192,110316,128,0,110391:0:0:0:70:Kick3.wav
128,192,110316,128,0,110391:0:0:0:0:
213,192,110466,1,0,0:0:0:70:Calp.wav
469,192,110466,1,0,0:0:0:0:
384,192,110541,1,0,0:0:0:50:Kick3.wav
128,192,110616,1,0,0:0:0:50:Kick3.wav
469,192,110691,1,0,0:0:0:50:Kick3.wav
42,192,110766,1,0,0:0:0:70:Crash3.wav
213,192,110766,1,0,0:0:0:70:Calp.wav
298,192,110766,1,0,0:0:0:0:
384,192,110916,1,0,0:0:0:0:
42,192,111066,128,0,111666:0:0:0:70:Kick3.wav
213,192,111066,1,0,0:0:0:0:
213,192,111216,1,0,0:0:0:0:
128,192,111366,1,0,0:0:0:70:Calp.wav
298,192,111366,1,0,0:0:0:70:Kick3.wav
469,192,111366,1,0,0:0:0:0:
298,192,111516,1,0,0:0:0:0:
213,192,111666,1,0,0:0:0:70:Kick3.wav
469,192,111666,1,0,0:0:0:0:
42,192,111816,1,0,0:0:0:60:Clap.wav
384,192,111816,1,0,0:0:0:0:
213,192,111891,1,0,0:0:0:60:Clap.wav
298,192,111891,1,0,0:0:0:0:
128,192,111966,1,0,0:0:0:60:Clap.wav
469,192,111966,1,0,0:0:0:70:Kick3.wav
298,192,112041,1,0,0:0:0:60:Clap.wav
384,192,112041,1,0,0:0:0:0:
42,192,112116,1,0,0:0:0:60:Clap.wav
128,192,112116,1,0,0:0:0:0:
384,192,112191,1,0,0:0:0:60:Clap.wav
469,192,112191,1,0,0:0:0:0:
213,192,112266,128,0,112416:0:0:0:70:Kick3.wav
298,192,112266,128,0,112416:0:0:0:0:
42,192,112416,1,0,0:0:0:0:
213,192,112566,128,0,112716:0:0:0:0:
298,192,112566,128,0,112716:0:0:0:0:
469,192,112716,1,0,0:0:0:0:
42,192,112866,1,0,0:0:0:70:Kick3.wav
128,192,112866,1,0,0:0:0:0:
213,192,113016,1,0,0:0:0:60:Clap.wav
298,192,113016,1,0,0:0:0:0:
384,192,113091,1,0,0:0:0:60:Clap.wav
469,192,113091,1,0,0:0:0:0:
128,192,113166,1,0,0:0:0:60:Clap.wav
213,192,113166,1,0,0:0:0:70:Kick3.wav
298,192,113241,1,0,0:0:0:60:Clap.wav
384,192,113241,1,0,0:0:0:0:
42,192,113316,1,0,0:0:0:60:Clap.wav
128,192,113316,1,0,0:0:0:0:
213,192,113391,1,0,0:0:0:60:Clap.wav
298,192,113391,1,0,0:0:0:0:
42,192,113466,1,0,0:0:0:70:Crush.wav
128,192,113466,1,0,0:0:0:70:Kick3.wav
384,192,113466,128,0,113541:0:0:0:0:
469,192,113466,1,0,0:0:0:0:
384,192,113616,128,0,113691:0:0:0:0:
42,192,113766,1,0,0:0:0:70:Calp.wav
298,192,113766,1,0,0:0:0:70:Kick3.wav
384,192,113766,128,0,113841:0:0:0:0:
213,192,113916,128,0,113991:0:0:0:0:
213,192,114066,128,0,114141:0:0:0:70:Kick3.wav
469,192,114066,1,0,0:0:0:0:
213,192,114216,128,0,114291:0:0:0:0:
42,192,114366,128,0,114441:0:0:0:70:Calp.wav
128,192,114366,1,0,0:0:0:70:Kick3.wav
384,192,114366,1,0,0:0:0:0:
42,192,114516,128,0,114591:0:0:0:0:
213,192,114666,1,0,0:0:0:70:Kick3.wav
469,192,114666,128,0,114741:0:0:0:0:
469,192,114816,128,0,114891:0:0:0:0:
128,192,114966,1,0,0:0:0:70:Calp.wav
384,192,114966,1,0,0:0:0:70:Kick3.wav
469,192,114966,128,0,115041:0:0:0:0:
298,192,115116,128,0,115191:0:0:0:0:
42,192,115266,1,0,0:0:0:70:Kick3.wav
298,192,115266,128,0,115341:0:0:0:0:
298,192,115416,128,0,115491:0:0:0:0:
128,192,115566,128,0,115641:0:0:0:70:Calp.wav
213,192,115566,1,0,0:0:0:70:Kick3.wav
469,192,115566,1,0,0:0:0:0:
128,192,115716,128,0,115791:0:0:0:0:
128,192,115866,1,0,0:0:0:70:Kick3.wav
384,192,115866,128,0,115941:0:0:0:0:
384,192,116016,128,0,116091:0:0:0:0:
42,192,116166,1,0,0:0:0:70:Calp.wav
298,192,116166,1,0,0:0:0:70:Kick3.wav
384,192,116166,128,0,116241:0:0:0:0:
213,192,116316,128,0,116391:0:0:0:0:
213,192,116466,128,0,116541:0:0:0:70:Kick3.wav
469,192,116466,1,0,0:0:0:0:
213,192,116616,128,0,116691:0:0:0:0:
42,192,116766,128,0,116841:0:0:0:70:Calp.wav
128,192,116766,1,0,0:0:0:70:Kick3.wav
384,192,116766,1,0,0:0:0:0:
42,192,116916,128,0,116991:0:0:0:0:
213,192,117066,1,0,0:0:0:70:Kick3.wav
469,192,117066,128,0,117141:0:0:0:0:
469,192,117216,128,0,117291:0:0:0:0:
128,192,117366,1,0,0:0:0:70:Calp.wav
384,192,117366,1,0,0:0:0:70:Kick3.wav
469,192,117366,128,0,117441:0:0:0:0:
298,192,117516,128,0,117591:0:0:0:0:
42,192,117666,1,0,0:0:0:70:Kick3.wav
298,192,117666,128,0,117741:0:0:0:0:
298,192,117816,128,0,117891:0:0:0:0:
128,192,117966,128,0,118041:0:0:0:70:Calp.wav
213,192,117966,1,0,0:0:0:70:Kick3.wav
469,192,117966,1,0,0:0:0:0:
128,192,118116,128,0,118191:0:0:0:60:Clap.wav
469,192,118116,1,0,0:0:0:0:
298,192,118191,1,0,0:0:0:60:Clap.wav
384,192,118191,1,0,0:0:0:0:
42,192,118266,1,0,0:0:0:70:Kick3.wav
213,192,118266,128,0,118341:0:0:0:0:
469,192,118416,128,0,118491:0:0:0:0:
42,192,118566,1,0,0:0:0:70:Calp.wav
128,192,118566,128,0,118641:0:0:0:70:Kick3.wav
298,192,118566,1,0,0:0:0:0:
384,192,118716,128,0,118791:0:0:0:0:
42,192,118866,128,0,118941:0:0:0:70:Kick3.wav
469,192,118866,1,0,0:0:0:0:
298,192,119016,128,0,119316:0:0:0:70:Kick3.wav
469,192,119016,1,0,0:0:0:0:
42,192,119166,1,0,0:0:0:70:Calp.wav
128,192,119166,1,0,0:0:0:0:
213,192,119166,1,0,0:0:0:0:
42,192,119316,128,0,119541:0:0:0:70:Crash2.wav
128,192,119316,128,0,119541:0:0:0:70:Kick3.wav
384,192,119316,1,0,0:0:0:0:
42,192,119616,1,0,0:0:0:80:Clap.wav
213,192,119616,1,0,0:0:0:0:
469,192,119616,1,0,0:0:0:0:
42,192,119766,1,0,0:0:0:80:Clap.wav
298,192,119766,1,0,0:0:0:0:
469,192,119766,1,0,0:0:0:0:
42,192,119916,1,0,0:0:0:80:Clap.wav
213,192,119916,1,0,0:0:0:0:
469,192,119916,1,0,0:0:0:0:
128,192,120066,1,0,0:0:0:70:Kick3.wav
384,192,120066,1,0,0:0:0:0:
42,192,120216,1,0,0:0:0:70:Calp.wav
298,192,120216,1,0,0:0:0:0:
384,192,120216,1,0,0:0:0:0:
213,192,120366,1,0,0:0:0:70:Calp.wav
298,192,120366,1,0,0:0:0:0:
469,192,120366,1,0,0:0:0:0:
128,192,120516,1,0,0:0:0:70:Calp.wav
213,192,120516,1,0,0:0:0:0:
384,192,120516,1,0,0:0:0:0:
42,192,120666,1,0,0:0:0:70:Crash.wav
128,192,120666,1,0,0:0:0:40:G#4H_Ab4H.wav
298,192,120666,1,0,0:0:0:40:G#5H_Ab5H.wav
384,192,120816,1,0,0:0:0:40:D#4H_Eb4H.wav
469,192,120816,1,0,0:0:0:40:D#5H_Eb5H.wav
42,192,120891,1,0,0:0:0:60:Clap.wav
128,192,120891,1,0,0:0:0:0:
384,192,120966,1,0,0:0:0:70:B6H.wav
469,192,120966,1,0,0:0:0:60:Clap.wav
42,192,121041,1,0,0:0:0:60:Clap.wav
128,192,121041,1,0,0:0:0:0:
213,192,121116,1,0,0:0:0:70:A#6H_Bb6H.wav
298,192,121191,1,0,0:0:0:70:Kick3.wav
42,192,121266,128,0,121491:0:0:0:40:B4H.wav
469,192,121266,1,0,0:0:0:70:Calp.wav
384,192,121266,1,0,0:0:0:0:
128,192,121491,128,0,121716:0:0:0:70:Crash.wav
384,192,121491,1,0,0:0:0:60:C#6H_Db6H.wav
298,192,121491,1,0,0:0:0:70:Kick3.wav
42,192,121716,1,0,0:0:0:70:Crash2.wav
469,192,121716,1,0,0:0:0:70:Kick3.wav
384,192,121716,1,0,0:0:0:0:
213,192,121766,128,0,121866:0:0:0:50:G#5H_Ab5H.wav
298,192,122016,1,0,0:0:0:60:A#5H_Bb5H.wav
384,192,122016,128,0,122116:0:0:0:20:F#6H_Gb6H.wav
42,192,122091,1,0,0:0:0:60:Kick3.wav
128,192,122166,1,0,0:0:0:70:Crash3.wav
213,192,122166,1,0,0:0:0:70:Calp.wav
469,192,122166,1,0,0:0:0:0:
469,192,122466,128,0,123066:0:0:0:90:A#6H_Bb6H.wav
42,192,123066,1,0,0:0:0:70:Crash2.wav
128,192,123066,128,0,123166:0:0:0:60:B4H.wav
384,192,123066,1,0,0:0:0:70:Kick3.wav
213,192,123216,128,0,123316:0:0:0:50:D#5H_Eb5H.wav
298,192,123366,128,0,123466:0:0:0:70:A#5H_Bb5H.wav
384,192,123516,128,0,123616:0:0:0:70:B5H.wav
213,192,125066,128,0,125141:0:0:0:40:D#6H_Eb6H.wav
469,192,125266,128,0,125341:0:0:0:50:D#7H_Eb7H.wav
469,192,125466,128,0,125566:0:0:0:80:D#7H_Eb7H.wav
213,192,125666,128,0,125766:0:0:0:40:D#6H_Eb6H.wav
469,192,125866,128,0,125966:0:0:0:60:D#7H_Eb7H.wav
469,192,126066,128,0,126166:0:0:0:80:D#7H_Eb7H.wav
298,192,126266,128,0,126366:0:0:0:50:C#6H_Db6H.wav
298,192,126466,128,0,126566:0:0:0:50:C#6H_Db6H.wav
298,192,126641,128,0,126741:0:0:0:50:C#6H_Db6H.wav
42,192,126866,128,0,126966:0:0:0:50:A#5H_Bb5H.wav
42,192,127066,128,0,127166:0:0:0:50:A#5H_Bb5H.wav
42,192,127241,128,0,127341:0:0:0:50:A#5H_Bb5H.wav
42,192,127441,128,0,127541:0:0:0:50:A#5H_Bb5H.wav
384,192,127641,128,0,128916:0:0:0:50:B5H.wav
42,192,128916,1,0,0:0:0:80:LR_Hat Synth x2Vlm.wav
469,192,128916,128,0,129666:0:0:0:70:F#6H_Gb6H.wav
128,192,129666,128,0,129766:0:0:0:50:A#5H_Bb5H.wav
213,192,129891,128,0,129991:0:0:0:50:C#6H_Db6H.wav
384,192,130116,128,0,130216:0:0:0:60:E6H.wav
42,192,130266,128,0,131466:0:0:0:60:D#6H_Eb6H.wav
298,192,130266,128,0,131466:0:0:0:0:
128,192,130566,128,0,131466:0:0:0:0:
213,192,130866,128,0,131466:0:0:0:0:
384,192,131166,128,0,131466:0:0:0:0:
42,192,132066,1,0,0:0:0:60:Clap.wav
128,192,132066,1,0,0:0:0:0:
213,192,132066,1,0,0:0:0:0:
298,192,132141,1,0,0:0:0:60:Clap.wav
384,192,132141,1,0,0:0:0:0:
469,192,132141,1,0,0:0:0:0:
213,192,132216,1,0,0:0:0:50:Kick3.wav
469,192,132291,1,0,0:0:0:50:Kick3.wav
128,192,132366,1,0,0:0:0:50:Kick3.wav
384,192,132441,1,0,0:0:0:50:Kick3.wav
42,192,132516,1,0,0:0:0:50:Kick3.wav
298,192,132591,1,0,0:0:0:50:Kick3.wav
42,192,132666,1,0,0:0:0:70:Calp.wav
128,192,132666,1,0,0:0:0:0:
213,192,132666,1,0,0:0:0:0:
384,192,132741,1,0,0:0:0:50:Kick3.wav
298,192,132816,1,0,0:0:0:50:Kick3.wav
213,192,132891,1,0,0:0:0:50:Kick3.wav
42,192,132966,128,0,133266:0:0:0:70:Crush.wav
128,192,132966,1,0,0:0:0:70:Calp.wav
384,192,132966,1,0,0:0:0:0:
469,192,132966,128,0,133266:0:0:0:0:
128,192,133266,1,0,0:0:0:70:Kick3.wav
298,192,133266,1,0,0:0:0:0:
128,192,133416,1,0,0:0:0:70:Calp.wav
213,192,133416,1,0,0:0:0:0:
469,192,133416,128,0,133566:0:0:0:0:
298,192,133566,1,0,0:0:0:70:Kick3.wav
384,192,133566,1,0,0:0:0:0:
42,192,133716,128,0,133866:0:0:0:70:Kick3.wav
384,192,133716,1,0,0:0:0:0:
128,192,133866,1,0,0:0:0:70:Calp.wav
213,192,133866,1,0,0:0:0:0:
298,192,133866,1,0,0:0:0:0:
298,192,134016,1,0,0:0:0:0:
42,192,134166,1,0,0:0:0:70:Kick3.wav
298,192,134166,1,0,0:0:0:0:
128,192,134316,1,0,0:0:0:70:Calp.wav
213,192,134316,1,0,0:0:0:0:
298,192,134316,1,0,0:0:0:0:
42,192,134466,1,0,0:0:0:70:Kick3.wav
298,192,134466,1,0,0:0:0:0:
42,192,134616,1,0,0:0:0:70:Kick3.wav
469,192,134616,128,0,134766:0:0:0:0:
128,192,134766,1,0,0:0:0:70:Calp.wav
213,192,134766,1,0,0:0:0:0:
298,192,134766,1,0,0:0:0:0:
128,192,134916,1,0,0:0:0:60:Clap.wav
384,192,134916,1,0,0:0:0:0:
213,192,134991,1,0,0:0:0:60:Clap.wav
298,192,134991,1,0,0:0:0:0:
42,192,135066,1,0,0:0:0:70:Crash2.wav
128,192,135066,128,0,135366:0:0:0:70:Kick3.wav
384,192,135066,128,0,135366:0:0:0:0:
213,192,135216,1,0,0:0:0:70:Kick3.wav
298,192,135216,1,0,0:0:0:0:
42,192,135366,1,0,0:0:0:70:Calp.wav
298,192,135366,1,0,0:0:0:0:
469,192,135366,1,0,0:0:0:0:
42,192,135516,1,0,0:0:0:70:Kick3.wav
384,192,135516,1,0,0:0:0:0:
42,192,135666,1,0,0:0:0:70:Calp.wav
298,192,135666,1,0,0:0:0:0:
469,192,135666,1,0,0:0:0:0:
384,192,135816,128,0,135966:0:0:0:0:
42,192,135966,1,0,0:0:0:70:Kick3.wav
298,192,135966,1,0,0:0:0:0:
128,192,136116,128,0,136266:0:0:0:70:Calp.wav
298,192,136116,1,0,0:0:0:0:
469,192,136116,1,0,0:0:0:0:
42,192,136266,1,0,0:0:0:0:
42,192,136416,1,0,0:0:0:70:Kick3.wav
298,192,136416,1,0,0:0:0:0:
213,192,136491,1,0,0:0:0:0:
42,192,136566,1,0,0:0:0:70:Crash.wav
298,192,136566,1,0,0:0:0:70:Calp.wav
469,192,136566,1,0,0:0:0:0:
42,192,136716,1,0,0:0:0:0:
128,192,136866,1,0,0:0:0:70:Kick3.wav
213,192,136866,1,0,0:0:0:0:
384,192,136941,1,0,0:0:0:60:Clap.wav
469,192,136941,1,0,0:0:0:0:
128,192,137016,1,0,0:0:0:60:Clap.wav
213,192,137016,1,0,0:0:0:0:
384,192,137091,1,0,0:0:0:60:Clap.wav
469,192,137091,1,0,0:0:0:0:
213,192,137166,1,0,0:0:0:60:Clap.wav
298,192,137166,1,0,0:0:0:70:Kick3.wav
42,192,137241,1,0,0:0:0:60:Clap.wav
128,192,137241,1,0,0:0:0:0:
298,192,137316,1,0,0:0:0:60:Clap.wav
384,192,137316,1,0,0:0:0:0:
42,192,137391,1,0,0:0:0:60:Clap.wav
128,192,137391,1,0,0:0:0:0:
213,192,137466,128,0,137766:0:0:0:70:Crash2.wav
298,192,137466,128,0,137766:0:0:0:70:Kick3.wav
384,192,137466,1,0,0:0:0:0:
42,192,137616,1,0,0:0:0:70:Kick3.wav
128,192,137616,1,0,0:0:0:0:
42,192,137766,1,0,0:0:0:70:Calp.wav
128,192,137766,1,0,0:0:0:0:
469,192,137766,1,0,0:0:0:0:
469,192,137916,1,0,0:0:0:0:
213,192,138066,1,0,0:0:0:70:Kick3.wav
469,192,138066,1,0,0:0:0:0:
42,192,138216,1,0,0:0:0:70:Kick3.wav
298,192,138216,128,0,138366:0:0:0:0:
42,192,138366,1,0,0:0:0:70:Calp.wav
128,192,138366,1,0,0:0:0:0:
469,192,138366,1,0,0:0:0:0:
213,192,138516,128,0,138666:0:0:0:0:
128,192,138666,1,0,0:0:0:70:Kick3.wav
469,192,138666,1,0,0:0:0:0:
42,192,138816,1,0,0:0:0:70:Kick3.wav
469,192,138816,1,0,0:0:0:0:
42,192,138966,1,0,0:0:0:70:Calp.wav
128,192,138966,1,0,0:0:0:0:
469,192,138966,1,0,0:0:0:0:
469,192,139116,1,0,0:0:0:0:
213,192,139266,1,0,0:0:0:70:Kick3.wav
469,192,139266,1,0,0:0:0:0:
42,192,139416,1,0,0:0:0:70:Kick3.wav
298,192,139416,128,0,139566:0:0:0:0:
42,192,139566,1,0,0:0:0:70:Calp.wav
128,192,139566,1,0,0:0:0:0:
469,192,139566,1,0,0:0:0:0:
298,192,139716,1,0,0:0:0:70:Kick3.wav
213,192,139791,1,0,0:0:0:60:Kick3.wav
42,192,139866,1,0,0:0:0:70:Crash.wav
128,192,139866,128,0,140166:0:0:0:70:Calp.wav
384,192,139866,128,0,140166:0:0:0:0:
213,192,140016,1,0,0:0:0:70:Kick3.wav
298,192,140016,1,0,0:0:0:0:
42,192,140166,1,0,0:0:0:70:Calp.wav
298,192,140166,1,0,0:0:0:0:
469,192,140166,1,0,0:0:0:0:
42,192,140316,1,0,0:0:0:70:Kick3.wav
384,192,140316,1,0,0:0:0:0:
42,192,140466,1,0,0:0:0:70:Calp.wav
298,192,140466,1,0,0:0:0:0:
469,192,140466,1,0,0:0:0:0:
128,192,140616,128,0,140766:0:0:0:70:Kick3.wav
298,192,140616,1,0,0:0:0:0:
42,192,140766,1,0,0:0:0:70:Calp.wav
298,192,140766,1,0,0:0:0:0:
469,192,140766,1,0,0:0:0:0:
128,192,140916,1,0,0:0:0:70:Crash2.wav
213,192,140916,128,0,141066:0:0:0:70:Kick3.wav
469,192,140916,1,0,0:0:0:0:
42,192,141216,128,0,141366:0:0:0:70:Calp.wav
298,192,141216,128,0,141366:0:0:0:0:
384,192,141216,1,0,0:0:0:0:
128,192,141516,128,0,141666:0:0:0:70:Calp.wav
384,192,141516,128,0,141666:0:0:0:0:
469,192,141516,1,0,0:0:0:0:
42,192,141666,1,0,0:0:0:70:Kick3.wav
298,192,141666,1,0,0:0:0:0:
128,192,141816,1,0,0:0:0:70:Calp.wav
213,192,141816,1,0,0:0:0:0:
469,192,141816,1,0,0:0:0:0:
128,192,141966,1,0,0:0:0:70:Calp.wav
213,192,141966,1,0,0:0:0:0:
298,192,141966,1,0,0:0:0:0:
128,192,142116,1,0,0:0:0:70:Calp.wav
213,192,142116,1,0,0:0:0:0:
469,192,142116,1,0,0:0:0:0:
42,192,142266,128,0,142341:0:0:0:70:A#6H_Bb6H.wav
42,192,143166,128,0,143241:0:0:0:70:A#6H_Bb6H.wav
128,192,143916,128,0,143991:0:0:0:70:B6H.wav
298,192,144216,128,0,144291:0:0:0:80:C#7H_Db7H.wav
128,192,144666,128,0,144741:0:0:0:70:B6H.wav
469,192,145566,128,0,145641:0:0:0:80:F#7H_Gb7H.wav
298,192,146316,128,0,146391:0:0:0:80:C#7H_Db7H.wav
128,192,146766,128,0,146841:0:0:0:70:B6H.wav
384,192,147066,128,0,147141:0:0:0:80:D#7H_Eb7H.wav
42,192,147966,128,0,148041:0:0:0:70:A#6H_Bb6H.wav
213,192,148266,128,0,148416:0:0:0:40:Crash.wav
298,192,148566,128,0,148716:0:0:0:50:Crash2.wav
42,192,148753,128,0,148828:0:0:0:0:
128,192,148791,128,0,148866:0:0:0:0:
213,192,148828,128,0,148903:0:0:0:0:
298,192,148866,1,0,0:0:0:70:Calp.wav
384,192,148866,1,0,0:0:0:0:
469,192,148866,1,0,0:0:0:0:
42,192,148941,1,0,0:0:0:60:Clap.wav
128,192,149016,1,0,0:0:0:60:Clap.wav
469,192,149016,128,0,149128:0:0:0:0:
384,192,149091,128,0,149203:0:0:0:60:Clap.wav
42,192,149166,128,0,149428:0:0:0:70:Calp.wav
213,192,149166,128,0,149353:0:0:0:0:
298,192,149166,128,0,149278:0:0:0:0:
298,192,149466,1,0,0:0:0:70:Crash.wav
384,192,149466,1,0,0:0:0:70:Kick3.wav
469,192,149466,1,0,0:0:0:0:
42,192,149616,1,0,0:0:0:50:Clap.wav
128,192,149616,1,0,0:0:0:0:
213,192,149691,1,0,0:0:0:50:Clap.wav
298,192,149691,1,0,0:0:0:0:
384,192,149766,1,0,0:0:0:50:Clap.wav
469,192,149766,1,0,0:0:0:0:
42,192,149841,1,0,0:0:0:50:Clap.wav
128,192,149841,1,0,0:0:0:0:
384,192,149916,1,0,0:0:0:50:Clap.wav
469,192,149916,1,0,0:0:0:70:Kick3.wav
128,192,149991,1,0,0:0:0:50:Clap.wav
213,192,149991,1,0,0:0:0:0:
298,192,150066,1,0,0:0:0:50:Clap.wav
384,192,150066,1,0,0:0:0:0:
42,192,150141,1,0,0:0:0:50:Clap.wav
128,192,150141,1,0,0:0:0:0:
213,192,150216,1,0,0:0:0:50:Clap.wav
298,192,150216,1,0,0:0:0:0:
384,192,150291,1,0,0:0:0:50:Clap.wav
469,192,150291,1,0,0:0:0:0:
213,192,150366,1,0,0:0:0:50:Clap.wav
298,192,150366,1,0,0:0:0:70:Kick3.wav
42,192,150441,1,0,0:0:0:50:Clap.wav
128,192,150441,1,0,0:0:0:0:
384,192,150516,1,0,0:0:0:50:Clap.wav
469,192,150516,1,0,0:0:0:0:
213,192,150591,1,0,0:0:0:50:Clap.wav
298,192,150591,1,0,0:0:0:0:
42,192,150666,1,0,0:0:0:50:Clap.wav
128,192,150666,1,0,0:0:0:0:
384,192,150741,1,0,0:0:0:50:Clap.wav
469,192,150741,1,0,0:0:0:0:
42,192,150816,1,0,0:0:0:50:Clap.wav
128,192,150816,1,0,0:0:0:70:Kick3.wav
298,192,150891,1,0,0:0:0:50:Clap.wav
384,192,150891,1,0,0:0:0:0:
128,192,150966,1,0,0:0:0:50:Clap.wav
213,192,150966,1,0,0:0:0:0:
384,192,151041,1,0,0:0:0:50:Clap.wav
469,192,151041,1,0,0:0:0:0:
213,192,151116,1,0,0:0:0:50:Clap.wav
298,192,151116,1,0,0:0:0:0:
42,192,151191,1,0,0:0:0:50:Clap.wav
128,192,151191,1,0,0:0:0:0:
213,192,151266,1,0,0:0:0:50:Clap.wav
298,192,151266,1,0,0:0:0:70:Kick3.wav
384,192,151341,1,0,0:0:0:50:Clap.wav
469,192,151341,1,0,0:0:0:0:
42,192,151416,1,0,0:0:0:50:Clap.wav
128,192,151416,1,0,0:0:0:0:
298,192,151491,1,0,0:0:0:50:Clap.wav
384,192,151491,1,0,0:0:0:0:
42,192,151566,1,0,0:0:0:50:Clap.wav
128,192,151566,1,0,0:0:0:70:Kick3.wav
384,192,151641,1,0,0:0:0:50:Clap.wav
469,192,151641,1,0,0:0:0:0:
128,192,151716,1,0,0:0:0:50:Clap.wav
213,192,151716,1,0,0:0:0:0:
384,192,151791,1,0,0:0:0:50:Clap.wav
469,192,151791,1,0,0:0:0:0:
42,192,151866,1,0,0:0:0:70:Crash2.wav
128,192,151866,1,0,0:0:0:70:Kick3.wav
298,192,151866,1,0,0:0:0:0:
213,192,152166,1,0,0:0:0:70:Crash.wav
384,192,152166,1,0,0:0:0:70:Kick3.wav
469,192,152166,1,0,0:0:0:0:
128,192,152466,1,0,0:0:0:70:Calp.wav
298,192,152466,1,0,0:0:0:0:
469,192,152541,1,0,0:0:0:50:Kick3.wav
213,192,152616,1,0,0:0:0:50:Kick3.wav
384,192,152691,1,0,0:0:0:50:Kick3.wav
42,192,152766,1,0,0:0:0:70:Calp.wav
128,192,152766,1,0,0:0:0:0:
213,192,152766,1,0,0:0:0:0:
42,192,152916,1,0,0:0:0:70:Crash2.wav
298,192,152916,1,0,0:0:0:70:Kick3.wav
469,192,152916,1,0,0:0:0:0:
42,192,153216,1,0,0:0:0:70:Calp.wav
213,192,153216,1,0,0:0:0:0:
469,192,153216,1,0,0:0:0:0:
128,192,153366,1,0,0:0:0:70:Calp.wav
298,192,153366,1,0,0:0:0:0:
469,192,153366,1,0,0:0:0:0:
213,192,153516,128,0,153666:0:0:0:70:Calp.wav
384,192,153516,1,0,0:0:0:0:
469,192,153516,1,0,0:0:0:0:
42,192,153666,128,0,153816:0:0:0:0:
298,192,153816,128,0,153966:0:0:0:0:
128,192,153966,128,0,154116:0:0:0:0:
384,192,154116,128,0,154266:0:0:0:0:
42,192,154266,1,0,0:0:0:70:Crush.wav
128,192,154266,1,0,0:0:0:70:Kick3.wav
213,192,154266,128,0,154491:0:0:0:0:
469,192,154266,1,0,0:0:0:0:
42,192,154566,1,0,0:0:0:70:Calp.wav
298,192,154566,128,0,154641:0:0:0:70:Kick3.wav
469,192,154566,1,0,0:0:0:0:
128,192,154716,128,0,154791:0:0:0:0:
128,192,154866,1,0,0:0:0:70:Kick3.wav
384,192,154866,128,0,155016:0:0:0:0:
213,192,155016,128,0,155166:0:0:0:0:
42,192,155166,1,0,0:0:0:70:Calp.wav
128,192,155166,128,0,155241:0:0:0:70:Kick3.wav
469,192,155166,1,0,0:0:0:0:
298,192,155316,128,0,155391:0:0:0:0:
298,192,155466,1,0,0:0:0:70:Kick3.wav
469,192,155466,128,0,155766:0:0:0:0:
42,192,155766,1,0,0:0:0:70:Calp.wav
213,192,155766,1,0,0:0:0:70:Kick3.wav
384,192,155766,128,0,155916:0:0:0:0:
128,192,155916,128,0,156141:0:0:0:0:
42,192,156066,1,0,0:0:0:70:Kick3.wav
298,192,156066,1,0,0:0:0:0:
213,192,156216,128,0,156291:0:0:0:0:
213,192,156366,128,0,156441:0:0:0:70:Calp.wav
384,192,156366,1,0,0:0:0:70:Kick3.wav
469,192,156366,1,0,0:0:0:0:
298,192,156516,128,0,156591:0:0:0:0:
42,192,156666,128,0,156891:0:0:0:70:Kick3.wav
384,192,156666,1,0,0:0:0:0:
469,192,156816,1,0,0:0:0:0:
42,192,156966,1,0,0:0:0:70:Calp.wav
298,192,156966,1,0,0:0:0:70:Kick3.wav
384,192,156966,128,0,157266:0:0:0:0:
213,192,157116,1,0,0:0:0:0:
128,192,157266,128,0,157491:0:0:0:70:Kick3.wav
469,192,157266,1,0,0:0:0:0:
298,192,157416,1,0,0:0:0:0:
128,192,157566,1,0,0:0:0:70:Calp.wav
384,192,157566,1,0,0:0:0:70:Kick3.wav
469,192,157566,128,0,157866:0:0:0:0:
42,192,157716,1,0,0:0:0:0:
213,192,157866,1,0,0:0:0:70:Kick3.wav
298,192,157866,128,0,158316:0:0:0:0:
42,192,158166,1,0,0:0:0:70:Calp.wav
128,192,158166,1,0,0:0:0:70:Kick3.wav
469,192,158166,1,0,0:0:0:0:
128,192,158466,1,0,0:0:0:70:Kick3.wav
384,192,158466,1,0,0:0:0:0:
213,192,158616,128,0,158691:0:0:0:0:
42,192,158766,128,0,158841:0:0:0:70:Calp.wav
298,192,158766,1,0,0:0:0:70:Kick3.wav
469,192,158766,1,0,0:0:0:0:
213,192,158916,128,0,158991:0:0:0:0:
128,192,159066,128,0,159141:0:0:0:70:Crash.wav
298,192,159066,1,0,0:0:0:70:Kick3.wav
384,192,159066,1,0,0:0:0:0:
298,192,159216,128,0,159291:0:0:0:0:
42,192,159366,128,0,159441:0:0:0:70:Calp.wav
128,192,159366,1,0,0:0:0:70:Kick3.wav
469,192,159366,1,0,0:0:0:0:
213,192,159516,128,0,159591:0:0:0:0:
213,192,159666,1,0,0:0:0:70:Kick3.wav
384,192,159666,128,0,159816:0:0:0:0:
42,192,159966,1,0,0:0:0:70:Calp.wav
213,192,159966,128,0,160041:0:0:0:70:Kick3.wav
384,192,159966,1,0,0:0:0:0:
384,192,160116,128,0,160191:0:0:0:0:
128,192,160266,128,0,160341:0:0:0:70:Kick3.wav
469,192,160266,1,0,0:0:0:0:
298,192,160416,128,0,160491:0:0:0:0:
42,192,160566,1,0,0:0:0:70:Calp.wav
298,192,160566,1,0,0:0:0:70:Kick3.wav
469,192,160566,128,0,160866:0:0:0:0:
42,192,160866,1,0,0:0:0:70:Kick3.wav
384,192,160866,1,0,0:0:0:0:
128,192,161016,128,0,161091:0:0:0:0:
42,192,161166,1,0,0:0:0:70:Calp.wav
298,192,161166,128,0,161241:0:0:0:70:Kick3.wav
469,192,161166,1,0,0:0:0:0:
213,192,161316,128,0,161391:0:0:0:0:
213,192,161466,1,0,0:0:0:70:Kick3.wav
384,192,161466,128,0,161616:0:0:0:0:
128,192,161691,128,0,161841:0:0:0:0:
298,192,161766,1,0,0:0:0:70:Calp.wav
384,192,161766,1,0,0:0:0:70:Kick3.wav
469,192,161766,1,0,0:0:0:0:
42,192,161916,128,0,162066:0:0:0:0:
384,192,162066,128,0,162216:0:0:0:70:Kick3.wav
469,192,162066,1,0,0:0:0:0:
42,192,162216,1,0,0:0:0:70:Kick3.wav
298,192,162216,1,0,0:0:0:0:
128,192,162291,128,0,162441:0:0:0:0:
213,192,162366,1,0,0:0:0:70:Calp.wav
469,192,162366,1,0,0:0:0:70:Kick3.wav
298,192,162441,1,0,0:0:0:60:Clap.wav
384,192,162441,1,0,0:0:0:0:
42,192,162516,128,0,162666:0:0:0:50:Kick3.wav
128,192,162591,1,0,0:0:0:50:Kick3.wav
213,192,162666,1,0,0:0:0:70:Calp.wav
384,192,162666,1,0,0:0:0:0:
469,192,162666,128,0,162891:0:0:0:0:
128,192,162816,1,0,0:0:0:70:Kick3.wav
213,192,162816,1,0,0:0:0:0:
42,192,162966,128,0,163116:0:0:0:70:Calp.wav
298,192,162966,1,0,0:0:0:0:
384,192,162966,1,0,0:0:0:0:
298,192,163116,128,0,163416:0:0:0:0:
42,192,163266,1,0,0:0:0:70:Kick3.wav
128,192,163266,1,0,0:0:0:0:
384,192,163416,1,0,0:0:0:60:Clap.wav
469,192,163416,1,0,0:0:0:0:
42,192,163491,1,0,0:0:0:60:Clap.wav
298,192,163491,1,0,0:0:0:0:
128,192,163566,1,0,0:0:0:60:Clap.wav
213,192,163566,1,0,0:0:0:70:Kick3.wav
384,192,163641,1,0,0:0:0:60:Clap.wav
469,192,163641,1,0,0:0:0:0:
42,192,163716,1,0,0:0:0:60:Clap.wav
298,192,163716,1,0,0:0:0:0:
128,192,163791,1,0,0:0:0:60:Clap.wav
213,192,163791,1,0,0:0:0:0:
298,192,163866,1,0,0:0:0:70:Crash2.wav
384,192,163866,128,0,164016:0:0:0:70:Kick3.wav
469,192,163866,1,0,0:0:0:0:
213,192,164091,128,0,164241:0:0:0:0:
42,192,164166,1,0,0:0:0:70:Calp.wav
128,192,164166,1,0,0:0:0:70:Kick3.wav
469,192,164166,1,0,0:0:0:0:
298,192,164316,128,0,164466:0:0:0:0:
128,192,164466,128,0,164616:0:0:0:70:Kick3.wav
384,192,164466,1,0,0:0:0:0:
213,192,164616,128,0,164766:0:0:0:0:
42,192,164766,1,0,0:0:0:70:Calp.wav
298,192,164766,128,0,164841:0:0:0:70:Kick3.wav
469,192,164766,1,0,0:0:0:0:
298,192,164916,128,0,164991:0:0:0:0:
128,192,165066,1,0,0:0:0:70:Kick3.wav
469,192,165066,128,0,165291:0:0:0:0:
213,192,165366,128,0,165516:0:0:0:70:Calp.wav
298,192,165366,1,0,0:0:0:70:Kick3.wav
384,192,165366,1,0,0:0:0:0:
42,192,165516,128,0,165741:0:0:0:0:
384,192,165666,1,0,0:0:0:70:Kick3.wav
469,192,165666,1,0,0:0:0:0:
298,192,165816,128,0,165891:0:0:0:0:
42,192,165966,1,0,0:0:0:70:Calp.wav
128,192,165966,128,0,166041:0:0:0:70:Kick3.wav
469,192,165966,1,0,0:0:0:0:
384,192,166116,128,0,166191:0:0:0:0:
213,192,166266,128,0,166491:0:0:0:70:Kick3.wav
384,192,166266,1,0,0:0:0:0:
298,192,166416,1,0,0:0:0:0:
42,192,166566,128,0,166866:0:0:0:70:Calp.wav
213,192,166566,1,0,0:0:0:70:Kick3.wav
469,192,166566,1,0,0:0:0:0:
384,192,166716,1,0,0:0:0:0:
128,192,166866,128,0,167091:0:0:0:70:Kick3.wav
213,192,166866,1,0,0:0:0:0:
469,192,167016,1,0,0:0:0:0:
128,192,167166,1,0,0:0:0:70:Calp.wav
298,192,167166,128,0,167466:0:0:0:70:Kick3.wav
384,192,167166,1,0,0:0:0:0:
42,192,167316,1,0,0:0:0:0:
213,192,167466,1,0,0:0:0:70:Kick3.wav
469,192,167466,128,0,168066:0:0:0:0:
42,192,167766,1,0,0:0:0:70:Calp.wav
128,192,167766,1,0,0:0:0:70:Kick3.wav
384,192,167766,1,0,0:0:0:0:
42,192,168066,1,0,0:0:0:70:Kick3.wav
298,192,168066,1,0,0:0:0:0:
213,192,168216,128,0,168291:0:0:0:0:
42,192,168366,128,0,168441:0:0:0:70:Calp.wav
128,192,168366,1,0,0:0:0:70:Kick3.wav
469,192,168366,1,0,0:0:0:0:
213,192,168516,128,0,168591:0:0:0:0:
298,192,168666,1,0,0:0:0:70:Kick3.wav
384,192,168666,128,0,168741:0:0:0:0:
213,192,168816,128,0,168891:0:0:0:0:
42,192,168966,128,0,169041:0:0:0:70:Calp.wav
384,192,168966,1,0,0:0:0:70:Kick3.wav
469,192,168966,1,0,0:0:0:0:
128,192,169116,128,0,169191:0:0:0:0:
128,192,169266,1,0,0:0:0:70:Kick3.wav
298,192,169266,128,0,169491:0:0:0:0:
42,192,169566,1,0,0:0:0:70:Calp.wav
213,192,169566,1,0,0:0:0:70:Kick3.wav
469,192,169566,128,0,169641:0:0:0:0:
298,192,169716,128,0,169791:0:0:0:0:
128,192,169866,128,0,169941:0:0:0:70:Kick3.wav
384,192,169866,1,0,0:0:0:0:
213,192,170016,128,0,170091:0:0:0:0:
42,192,170166,1,0,0:0:0:70:Calp.wav
213,192,170166,1,0,0:0:0:70:Kick3.wav
384,192,170166,128,0,170391:0:0:0:0:
42,192,170466,128,0,170616:0:0:0:70:Kick3.wav
469,192,170466,1,0,0:0:0:0:
128,192,170691,128,0,170841:0:0:0:0:
213,192,170766,1,0,0:0:0:70:Calp.wav
298,192,170766,1,0,0:0:0:70:Kick3.wav
469,192,170766,1,0,0:0:0:0:
384,192,170916,128,0,171066:0:0:0:0:
42,192,171066,128,0,171216:0:0:0:70:Crash.wav
298,192,171066,1,0,0:0:0:70:Kick3.wav
128,192,171291,128,0,171441:0:0:0:70:Calp.wav
384,192,171291,1,0,0:0:0:0:
469,192,171291,1,0,0:0:0:0:
213,192,171366,1,0,0:0:0:70:Kick3.wav
298,192,171366,1,0,0:0:0:0:
128,192,171516,1,0,0:0:0:70:Calp.wav
384,192,171516,128,0,171666:0:0:0:0:
469,192,171516,1,0,0:0:0:0:
42,192,171666,128,0,171891:0:0:0:70:Kick3.wav
298,192,171666,1,0,0:0:0:0:
128,192,171891,1,0,0:0:0:70:Calp.wav
384,192,171891,1,0,0:0:0:0:
469,192,171891,1,0,0:0:0:0:
213,192,171966,1,0,0:0:0:70:Kick3.wav
298,192,171966,128,0,172116:0:0:0:0:
42,192,172116,128,0,172266:0:0:0:70:Calp.wav
384,192,172116,1,0,0:0:0:0:
469,192,172116,1,0,0:0:0:0:
213,192,172266,1,0,0:0:0:70:Kick3.wav
469,192,172266,128,0,172716:0:0:0:0:
213,192,172416,1,0,0:0:0:70:Kick3.wav
298,192,172416,1,0,0:0:0:0:
42,192,172566,1,0,0:0:0:70:Calp.wav
298,192,172566,1,0,0:0:0:0:
384,192,172566,1,0,0:0:0:0:
128,192,172716,128,0,172866:0:0:0:0:
213,192,172866,1,0,0:0:0:70:Kick3.wav
469,192,172866,1,0,0:0:0:0:
42,192,173016,1,0,0:0:0:60:Clap.wav
384,192,173016,1,0,0:0:0:0:
128,192,173091,1,0,0:0:0:60:Clap.wav
469,192,173091,1,0,0:0:0:0:
213,192,173166,1,0,0:0:0:60:Clap.wav
298,192,173166,1,0,0:0:0:70:Kick3.wav
42,192,173241,1,0,0:0:0:60:Clap.wav
384,192,173241,1,0,0:0:0:0:
128,192,173316,1,0,0:0:0:60:Clap.wav
469,192,173316,1,0,0:0:0:0:
213,192,173391,1,0,0:0:0:60:Clap.wav
298,192,173391,1,0,0:0:0:0:
42,192,173466,1,0,0:0:0:70:Crash2.wav
128,192,173466,128,0,173541:0:0:0:70:Kick3.wav
384,192,173466,1,0,0:0:0:0:
469,192,173616,128,0,173691:0:0:0:0:
128,192,173766,1,0,0:0:0:70:Calp.wav
213,192,173766,128,0,173841:0:0:0:70:Kick3.wav
469,192,173766,1,0,0:0:0:0:
298,192,173916,128,0,173991:0:0:0:0:
42,192,174066,128,0,174141:0:0:0:70:Kick3.wav
384,192,174066,1,0,0:0:0:0:
298,192,174216,128,0,174291:0:0:0:0:
42,192,174366,1,0,0:0:0:70:Calp.wav
128,192,174366,128,0,174441:0:0:0:70:Kick3.wav
298,192,174366,1,0,0:0:0:0:
213,192,174516,128,0,174591:0:0:0:0:
213,192,174666,1,0,0:0:0:70:Kick3.wav
469,192,174666,128,0,174966:0:0:0:0:
42,192,174966,1,0,0:0:0:70:Calp.wav
298,192,174966,128,0,175116:0:0:0:70:Kick3.wav
384,192,174966,1,0,0:0:0:0:
42,192,175116,128,0,175341:0:0:0:0:
213,192,175266,1,0,0:0:0:70:Kick3.wav
469,192,175266,1,0,0:0:0:0:
384,192,175416,128,0,175866:0:0:0:0:
42,192,175566,1,0,0:0:0:70:Calp.wav
128,192,175566,1,0,0:0:0:70:Kick3.wav
298,192,175566,1,0,0:0:0:0:
213,192,175716,128,0,175791:0:0:0:0:
42,192,175866,1,0,0:0:0:70:Kick3.wav
298,192,175866,128,0,175941:0:0:0:0:
128,192,176016,128,0,176091:0:0:0:0:
128,192,176166,1,0,0:0:0:70:Calp.wav
384,192,176166,128,0,176241:0:0:0:70:Kick3.wav
469,192,176166,1,0,0:0:0:0:
42,192,176316,128,0,176391:0:0:0:0:
298,192,176466,128,0,176541:0:0:0:70:Kick3.wav
384,192,176466,1,0,0:0:0:0:
128,192,176616,128,0,176691:0:0:0:0:
128,192,176766,1,0,0:0:0:70:Calp.wav
384,192,176766,128,0,176841:0:0:0:70:Kick3.wav
469,192,176766,1,0,0:0:0:0:
213,192,176916,128,0,176991:0:0:0:0:
213,192,177066,1,0,0:0:0:70:Kick3.wav
469,192,177066,128,0,177291:0:0:0:0:
42,192,177366,1,0,0:0:0:70:Calp.wav
213,192,177366,1,0,0:0:0:70:Kick3.wav
384,192,177366,128,0,177516:0:0:0:0:
213,192,177516,128,0,177741:0:0:0:0:
298,192,177666,1,0,0:0:0:70:Kick3.wav
469,192,177666,1,0,0:0:0:0:
42,192,177816,128,0,178116:0:0:0:0:
128,192,177966,1,0,0:0:0:70:Calp.wav
384,192,177966,1,0,0:0:0:70:Kick3.wav
469,192,177966,1,0,0:0:0:0:
42,192,178266,1,0,0:0:0:70:Kick3.wav
298,192,178266,1,0,0:0:0:0:
213,192,178416,128,0,178491:0:0:0:0:
42,192,178566,128,0,178641:0:0:0:70:Calp.wav
128,192,178566,1,0,0:0:0:70:Kick3.wav
384,192,178566,1,0,0:0:0:0:
384,192,178716,128,0,179016:0:0:0:0:
213,192,178866,1,0,0:0:0:70:Kick3.wav
298,192,178866,1,0,0:0:0:0:
128,192,179016,128,0,179091:0:0:0:0:
42,192,179166,1,0,0:0:0:70:Calp.wav
298,192,179166,128,0,179241:0:0:0:70:Kick3.wav
384,192,179166,1,0,0:0:0:0:
469,192,179316,128,0,179466:0:0:0:0:
128,192,179466,1,0,0:0:0:70:Kick3.wav
213,192,179466,128,0,179541:0:0:0:0:
42,192,179616,128,0,179691:0:0:0:0:
213,192,179766,1,0,0:0:0:70:Calp.wav
298,192,179766,1,0,0:0:0:70:Kick3.wav
384,192,179766,128,0,179841:0:0:0:0:
42,192,179916,128,0,179991:0:0:0:0:
128,192,180066,1,0,0:0:0:70:Kick3.wav
469,192,180066,128,0,180291:0:0:0:0:
42,192,180366,1,0,0:0:0:70:Calp.wav
213,192,180366,1,0,0:0:0:70:Kick3.wav
298,192,180366,128,0,180666:0:0:0:0:
384,192,180666,1,0,0:0:0:70:Kick3.wav
469,192,180666,1,0,0:0:0:0:
213,192,180816,128,0,180891:0:0:0:0:
42,192,180966,128,0,181041:0:0:0:70:Calp.wav
128,192,180966,1,0,0:0:0:70:Kick3.wav
384,192,180966,1,0,0:0:0:0:
384,192,181116,128,0,181416:0:0:0:0:
42,192,181266,1,0,0:0:0:70:Kick3.wav
298,192,181266,1,0,0:0:0:0:
128,192,181416,128,0,181491:0:0:0:0:
128,192,181566,128,0,181641:0:0:0:70:Calp.wav
213,192,181566,1,0,0:0:0:70:Kick3.wav
384,192,181566,1,0,0:0:0:0:
469,192,181716,128,0,181791:0:0:0:0:
298,192,181866,1,0,0:0:0:70:Kick3.wav
384,192,181866,128,0,181941:0:0:0:0:
213,192,182016,128,0,182091:0:0:0:70:Kick3.wav
298,192,182016,1,0,0:0:0:0:
42,192,182166,128,0,182316:0:0:0:70:Calp.wav
128,192,182166,1,0,0:0:0:0:
469,192,182166,1,0,0:0:0:0:
42,192,182466,1,0,0:0:0:70:Calp.wav
128,192,182466,1,0,0:0:0:0:
469,192,182466,128,0,182666:0:0:0:0:
42,192,182566,1,0,0:0:0:70:Kick3.wav
128,192,182566,1,0,0:0:0:0:
298,192,182666,1,0,0:0:0:70:Kick3.wav
384,192,182666,1,0,0:0:0:0:
213,192,182766,128,0,183066:0:0:0:60:Kick3.wav
298,192,182866,1,0,0:0:0:60:Kick3.wav
298,192,182966,1,0,0:0:0:50:Kick3.wav
42,192,183066,128,0,183141:0:0:0:70:Crash.wav
128,192,183066,128,0,183141:0:0:0:70:Kick3.wav
469,192,183066,1,0,0:0:0:0:
42,192,183216,128,0,183291:0:0:0:70:Kick3.wav
128,192,183216,128,0,183291:0:0:0:0:
42,192,183366,128,0,183441:0:0:0:70:Kick3.wav
128,192,183366,128,0,183441:0:0:0:0:
298,192,183516,128,0,183666:0:0:0:70:Kick3.wav
384,192,183516,1,0,0:0:0:0:
42,192,183666,1,0,0:0:0:70:Calp.wav
128,192,183666,1,0,0:0:0:0:
469,192,183666,128,0,183816:0:0:0:0:
42,192,183816,1,0,0:0:0:70:Crash2.wav
213,192,183816,1,0,0:0:0:70:Kick3.wav
298,192,183816,128,0,183966:0:0:0:0:
469,192,183966,128,0,184116:0:0:0:0:
42,192,184116,1,0,0:0:0:70:Calp.wav
128,192,184116,1,0,0:0:0:0:
298,192,184116,128,0,184266:0:0:0:0:
42,192,184266,128,0,184341:0:0:0:70:Crash.wav
213,192,184266,128,0,184341:0:0:0:70:Kick3.wav
384,192,184266,1,0,0:0:0:0:
42,192,184416,128,0,184491:0:0:0:70:Calp.wav
213,192,184416,128,0,184491:0:0:0:0:
469,192,184416,1,0,0:0:0:0:
42,192,184566,128,0,184641:0:0:0:70:Kick3.wav
213,192,184566,128,0,184641:0:0:0:0:
298,192,184716,128,0,184866:0:0:0:70:Kick3.wav
469,192,184716,1,0,0:0:0:0:
42,192,184866,1,0,0:0:0:70:Calp.wav
213,192,184866,1,0,0:0:0:0:
384,192,184866,128,0,185016:0:0:0:0:
128,192,185016,1,0,0:0:0:70:Crash2.wav
213,192,185016,1,0,0:0:0:70:Kick3.wav
469,192,185016,128,0,185166:0:0:0:0:
298,192,185166,128,0,185316:0:0:0:0:
42,192,185316,1,0,0:0:0:70:Calp.wav
213,192,185316,1,0,0:0:0:0:
384,192,185316,128,0,185466:0:0:0:0:
128,192,185466,128,0,185541:0:0:0:70:Crash.wav
213,192,185466,128,0,185541:0:0:0:70:Kick3.wav
469,192,185466,1,0,0:0:0:0:
128,192,185616,128,0,185691:0:0:0:70:Kick3.wav
213,192,185616,128,0,185691:0:0:0:0:
128,192,185766,128,0,185841:0:0:0:70:Kick3.wav
213,192,185766,128,0,185841:0:0:0:0:
298,192,185916,1,0,0:0:0:70:Kick3.wav
384,192,185916,128,0,186066:0:0:0:0:
42,192,186066,1,0,0:0:0:70:Calp.wav
213,192,186066,1,0,0:0:0:0:
469,192,186066,128,0,186216:0:0:0:0:
42,192,186216,1,0,0:0:0:70:Crash2.wav
128,192,186216,1,0,0:0:0:70:Kick3.wav
384,192,186216,128,0,186366:0:0:0:0:
298,192,186366,128,0,186516:0:0:0:0:
42,192,186516,1,0,0:0:0:70:Calp.wav
213,192,186516,1,0,0:0:0:0:
469,192,186516,128,0,186666:0:0:0:0:
42,192,186666,128,0,186741:0:0:0:70:Crash.wav
128,192,186666,128,0,186741:0:0:0:70:Kick3.wav
384,192,186666,1,0,0:0:0:0:
42,192,186816,128,0,186891:0:0:0:70:Calp.wav
128,192,186816,128,0,186891:0:0:0:0:
298,192,186816,1,0,0:0:0:0:
42,192,186966,128,0,187041:0:0:0:70:Kick3.wav
128,192,186966,128,0,187041:0:0:0:0:
42,192,187116,128,0,187191:0:0:0:70:Kick3.wav
128,192,187116,128,0,187191:0:0:0:0:
213,192,187266,1,0,0:0:0:70:Calp.wav
298,192,187266,1,0,0:0:0:0:
128,192,187341,1,0,0:0:0:50:Kick3.wav
384,192,187416,1,0,0:0:0:50:Kick3.wav
42,192,187491,1,0,0:0:0:50:Kick3.wav
213,192,187566,1,0,0:0:0:70:Crash3.wav
298,192,187566,1,0,0:0:0:70:Calp.wav
469,192,187566,1,0,0:0:0:0:
128,192,187716,128,0,187791:0:0:0:0:
213,192,187866,128,0,187941:0:0:0:70:Kick3.wav
469,192,187866,1,0,0:0:0:0:
42,192,188016,1,0,0:0:0:70:Kick3.wav
298,192,188016,128,0,188091:0:0:0:0:
42,192,188166,1,0,0:0:0:70:Calp.wav
128,192,188166,1,0,0:0:0:0:
384,192,188166,128,0,188241:0:0:0:0:
469,192,188316,128,0,188616:0:0:0:0:
42,192,188466,1,0,0:0:0:70:Kick3.wav
128,192,188466,1,0,0:0:0:0:
128,192,188616,1,0,0:0:0:60:Clap.wav
213,192,188616,1,0,0:0:0:0:
298,192,188691,1,0,0:0:0:60:Clap.wav
384,192,188691,1,0,0:0:0:0:
42,192,188766,1,0,0:0:0:60:Clap.wav
469,192,188766,1,0,0:0:0:70:Kick3.wav
128,192,188841,1,0,0:0:0:60:Clap.wav
213,192,188841,1,0,0:0:0:0:
298,192,188916,1,0,0:0:0:60:Clap.wav
384,192,188916,1,0,0:0:0:0:
42,192,188991,1,0,0:0:0:60:Clap.wav
469,192,188991,1,0,0:0:0:0:
128,192,189066,1,0,0:0:0:70:Kick3.wav
213,192,189066,128,0,189141:0:0:0:0:
298,192,189216,128,0,189291:0:0:0:0:
213,192,189366,128,0,189441:0:0:0:70:Kick3.wav
384,192,189366,1,0,0:0:0:0:
42,192,189516,128,0,189591:0:0:0:60:Clap.wav
128,192,189516,1,0,0:0:0:0:
213,192,189591,1,0,0:0:0:60:Clap.wav
298,192,189591,1,0,0:0:0:0:
384,192,189666,128,0,189891:0:0:0:70:Kick3.wav
469,192,189666,1,0,0:0:0:0:
298,192,189816,1,0,0:0:0:50:Kick3.wav
42,192,189891,128,0,190041:0:0:0:0:
213,192,189966,1,0,0:0:0:70:Kick3.wav
128,192,190116,1,0,0:0:0:70:Kick3.wav
298,192,190116,128,0,190266:0:0:0:0:
42,192,190266,128,0,192441:0:0:0:60:Crash3.wav
384,192,190266,1,0,0:0:0:70:Kick3.wav
469,192,190266,128,0,193866:0:0:0:0:
213,192,190866,1,0,0:0:0:70:LR_Hat Synth x2Vlm.wav
213,192,192066,1,0,0:0:0:70:LR_Hat Synth x2Vlm.wav
298,192,192441,128,0,192666:0:0:0:0:
128,192,192666,128,0,193491:0:0:0:70:Crash3.wav
213,192,192666,1,0,0:0:0:70:Kick3.wav
384,192,192666,1,0,0:0:0:0:
213,192,193266,1,0,0:0:0:70:LR_Hat Synth x2Vlm.wav
384,192,193491,128,0,193866:0:0:0:0:
42,192,193866,1,0,0:0:0:60:Crash.wav
213,192,193866,128,0,194666:0:0:0:70:Kick3.wav
298,192,193866,1,0,0:0:0:0:
469,192,194316,1,0,0:0:0:70:Kick3.wav
384,192,194391,1,0,0:0:0:60:Kick3.wav
42,192,194466,1,0,0:0:0:60:Calp.wav
128,192,194466,1,0,0:0:0:0:
298,192,194466,1,0,0:0:0:0:
384,192,194666,1,0,0:0:0:70:Kick3.wav
469,192,194666,1,0,0:0:0:0:
298,192,194716,128,0,194866:0:0:0:0:
42,192,194866,1,0,0:0:0:70:Kick3.wav
128,192,194866,1,0,0:0:0:0:
213,192,194916,128,0,195066:0:0:0:0:
298,192,195066,128,0,197016:0:0:0:60:Crash2.wav
384,192,195066,1,0,0:0:0:70:Kick3.wav
469,192,195066,1,0,0:0:0:0:
213,192,195666,1,0,0:0:0:70:LR_Hat Synth x2Vlm.wav
213,192,196866,1,0,0:0:0:70:LR_Hat Synth x2Vlm.wav
42,192,197016,128,0,197166:0:0:0:0:
384,192,197166,128,0,197316:0:0:0:0:
128,192,197316,128,0,197466:0:0:0:0:
213,192,197466,1,0,0:0:0:60:Crash.wav
298,192,197466,1,0,0:0:0:70:Kick3.wav
384,192,197466,128,0,198291:0:0:0:0:
213,192,198066,1,0,0:0:0:70:LR_Hat Synth x2Vlm.wav
128,192,198291,128,0,198366:0:0:0:0:
469,192,198366,128,0,198516:0:0:0:0:
213,192,198516,128,0,198666:0:0:0:0:
298,192,198666,1,0,0:0:0:60:Crash2.wav
384,192,198666,1,0,0:0:0:70:Kick3.wav
469,192,198666,128,0,199116:0:0:0:0:
213,192,199116,1,0,0:0:0:70:Kick3.wav
128,192,199191,1,0,0:0:0:60:Kick3.wav
42,192,199266,1,0,0:0:0:60:Calp.wav
298,192,199266,1,0,0:0:0:0:
469,192,199266,1,0,0:0:0:0:
42,192,199466,1,0,0:0:0:60:Calp.wav
298,192,199466,1,0,0:0:0:0:
469,192,199466,1,0,0:0:0:0:
42,192,199666,1,0,0:0:0:60:Calp.wav
298,192,199666,1,0,0:0:0:0:
469,192,199666,1,0,0:0:0:0:
42,192,199866,1,0,0:0:0:60:Crash.wav
213,192,199866,1,0,0:0:0:70:Kick3.wav
469,192,199866,1,0,0:0:0:0:
42,192,200166,1,0,0:0:0:70:Kick3.wav
213,192,200166,1,0,0:0:0:0:
42,192,200466,1,0,0:0:0:70:Kick3.wav
213,192,200466,1,0,0:0:0:0:
42,192,200766,1,0,0:0:0:70:Kick3.wav
213,192,200766,1,0,0:0:0:0:
42,192,201066,1,0,0:0:0:70:Kick3.wav
213,192,201066,1,0,0:0:0:0:
42,192,201366,1,0,0:0:0:70:Kick3.wav
298,192,201366,1,0,0:0:0:0:
42,192,201666,1,0,0:0:0:70:Kick3.wav
384,192,201666,1,0,0:0:0:0:
42,192,201966,1,0,0:0:0:70:Kick3.wav
469,192,201966,1,0,0:0:0:0:
42,192,202266,1,0,0:0:0:70:Kick3.wav
128,192,202266,1,0,0:0:0:0:
469,192,202266,1,0,0:0:0:0:
42,192,202566,1,0,0:0:0:70:Kick3.wav
213,192,202566,1,0,0:0:0:0:
469,192,202566,1,0,0:0:0:0:
42,192,202866,1,0,0:0:0:70:Kick3.wav
298,192,202866,1,0,0:0:0:0:
469,192,202866,1,0,0:0:0:0:
42,192,203166,1,0,0:0:0:70:Kick3.wav
384,192,203166,1,0,0:0:0:0:
469,192,203166,1,0,0:0:0:0:
469,192,203616,1,0,0:0:0:0:
298,192,203766,1,0,0:0:0:0:
42,192,203916,1,0,0:0:0:0:
42,192,204066,1,0,0:0:0:0:
128,192,204216,1,0,0:0:0:0:
213,192,204366,1,0,0:0:0:0:
298,192,204516,1,0,0:0:0:0:
42,192,204666,128,0,204824:0:0:0:70:Crush.wav
213,192,204666,128,0,204824:0:0:0:70:Kick3.wav
384,192,204666,128,0,204904:0:0:0:0:
469,192,204666,1,0,0:0:0:0:
128,192,204904,128,0,205036:0:0:0:0:
213,192,204904,128,0,205036:0:0:0:0:
469,192,204904,128,0,205036:0:0:0:0:
42,192,205142,128,0,205336:0:0:0:0:
213,192,205142,128,0,205336:0:0:0:0:
384,192,205142,128,0,205434:0:0:0:0:
128,192,205434,128,0,205521:0:0:0:0:
213,192,205434,128,0,205521:0:0:0:0:
469,192,205434,128,0,205521:0:0:0:0:
42,192,205609,128,0,205778:0:0:0:0:
128,192,205609,128,0,205778:0:0:0:0:
384,192,205609,128,0,205863:0:0:0:0:
42,192,205863,128,0,206021:0:0:0:0:
213,192,205863,128,0,206021:0:0:0:0:
469,192,205863,128,0,206021:0:0:0:0:
42,192,206101,128,0,206285:0:0:0:0:
128,192,206101,128,0,206285:0:0:0:0:
384,192,206101,128,0,206377:0:0:0:0:
42,192,206377,128,0,206496:0:0:0:0:
213,192,206377,128,0,206496:0:0:0:0:
469,192,206377,128,0,206496:0:0:0:0:
42,192,206592,128,0,206792:0:0:0:0:
128,192,206592,128,0,206792:0:0:0:0:
384,192,206592,128,0,206792:0:0:0:0:
42,192,206892,128,0,207063:0:0:0:0:
128,192,206892,128,0,207063:0:0:0:0:
384,192,206892,128,0,207063:0:0:0:0:
298,192,207095,1,0,0:0:0:0:
213,192,207146,1,0,0:0:0:0:
128,192,207197,1,0,0:0:0:0:
42,192,207235,128,0,207462:0:0:0:0:
298,192,207235,128,0,207386:0:0:0:0:
384,192,207235,128,0,207386:0:0:0:0:
213,192,207462,128,0,207585:0:0:0:0:
298,192,207462,128,0,207585:0:0:0:0:
469,192,207462,128,0,207585:0:0:0:0:
128,192,207684,128,0,207976:0:0:0:0:
298,192,207684,128,0,207878:0:0:0:0:
384,192,207684,128,0,207878:0:0:0:0:
213,192,207976,128,0,208062:0:0:0:0:
298,192,207976,128,0,208062:0:0:0:0:
469,192,207976,128,0,208062:0:0:0:0:
42,192,208171,128,0,208409:0:0:0:0:
298,192,208171,128,0,208329:0:0:0:0:
469,192,208171,128,0,208329:0:0:0:0:
128,192,208409,128,0,208550:0:0:0:0:
384,192,208409,128,0,208550:0:0:0:0:
469,192,208409,128,0,208550:0:0:0:0:
42,192,208663,128,0,208890:0:0:0:0:
298,192,208663,128,0,208814:0:0:0:0:
469,192,208663,128,0,208814:0:0:0:0:
128,192,208890,128,0,209003:0:0:0:0:
384,192,208890,128,0,209003:0:0:0:0:
469,192,208890,128,0,209003:0:0:0:0:
42,192,209094,128,0,209321:0:0:0:0:
384,192,209094,128,0,209321:0:0:0:0:
469,192,209094,128,0,209321:0:0:0:0:
128,192,209169,1,0,0:0:0:0:
213,192,209245,1,0,0:0:0:0:
298,192,209321,1,0,0:0:0:0:
213,192,209397,1,0,0:0:0:0:
42,192,209451,128,0,209640:0:0:0:0:
384,192,209451,128,0,209640:0:0:0:0:
469,192,209451,128,0,209640:0:0:0:0:
42,192,209723,1,0,0:0:0:70:Crush.wav
128,192,209723,1,0,0:0:0:70:Calp.wav
384,192,209723,1,0,0:0:0:0:
469,192,209723,1,0,0:0:0:0:
298,192,209880,1,0,0:0:0:50:Clap.wav
128,192,209959,1,0,0:0:0:60:Clap.wav
384,192,209959,1,0,0:0:0:0:
213,192,210038,1,0,0:0:0:60:Clap.wav
469,192,210038,1,0,0:0:0:0:
42,192,210117,1,0,0:0:0:60:Clap.wav
298,192,210117,1,0,0:0:0:0:
128,192,210196,1,0,0:0:0:60:Clap.wav
384,192,210196,1,0,0:0:0:70:Kick3.wav
469,192,210196,1,0,0:0:0:0:
213,192,210275,1,0,0:0:0:50:Clap.wav
298,192,210354,1,0,0:0:0:50:Clap.wav
128,192,210433,1,0,0:0:0:60:Clap.wav
384,192,210433,1,0,0:0:0:0:
213,192,210512,1,0,0:0:0:60:Clap.wav
469,192,210512,1,0,0:0:0:0:
42,192,210591,1,0,0:0:0:60:Clap.wav
298,192,210591,1,0,0:0:0:0:
128,192,210670,1,0,0:0:0:60:Clap.wav
384,192,210670,1,0,0:0:0:70:Kick3.wav
469,192,210670,1,0,0:0:0:0:
298,192,210749,1,0,0:0:0:50:Clap.wav
213,192,210828,1,0,0:0:0:50:Clap.wav
128,192,210907,1,0,0:0:0:60:Clap.wav
384,192,210907,1,0,0:0:0:0:
42,192,210986,1,0,0:0:0:60:Clap.wav
298,192,210986,1,0,0:0:0:0:
213,192,211065,1,0,0:0:0:60:Clap.wav
469,192,211065,1,0,0:0:0:0:
42,192,211144,1,0,0:0:0:60:Clap.wav
128,192,211144,1,0,0:0:0:70:Kick3.wav
384,192,211144,1,0,0:0:0:0:
298,192,211223,1,0,0:0:0:50:Clap.wav
213,192,211301,1,0,0:0:0:50:Clap.wav
128,192,211380,1,0,0:0:0:60:Clap.wav
384,192,211380,1,0,0:0:0:0:
42,192,211459,1,0,0:0:0:60:Clap.wav
298,192,211459,1,0,0:0:0:0:
213,192,211538,1,0,0:0:0:60:Clap.wav
469,192,211538,1,0,0:0:0:0:
42,192,211617,1,0,0:0:0:60:Clap.wav
128,192,211617,1,0,0:0:0:70:Kick3.wav
384,192,211617,1,0,0:0:0:0:
298,192,211696,1,0,0:0:0:50:Clap.wav
128,192,211775,1,0,0:0:0:60:Clap.wav
213,192,211775,1,0,0:0:0:0:
298,192,211854,1,0,0:0:0:60:Clap.wav
384,192,211854,1,0,0:0:0:0:
42,192,211933,1,0,0:0:0:60:Clap.wav
128,192,211933,1,0,0:0:0:70:Kick3.wav
469,192,211933,1,0,0:0:0:0:
213,192,212012,1,0,0:0:0:50:Clap.wav
298,192,212091,1,0,0:0:0:60:Clap.wav
384,192,212091,1,0,0:0:0:0:
128,192,212170,1,0,0:0:0:60:Clap.wav
213,192,212170,1,0,0:0:0:0:
42,192,212249,1,0,0:0:0:50:Crash.wav
384,192,212249,1,0,0:0:0:60:Clap.wav
469,192,212249,1,0,0:0:0:70:Kick3.wav
298,192,212328,1,0,0:0:0:50:Clap.wav
213,192,212407,1,0,0:0:0:50:Clap.wav
128,192,212486,1,0,0:0:0:60:Clap.wav
384,192,212486,1,0,0:0:0:0:
42,192,212565,1,0,0:0:0:60:Clap.wav
298,192,212565,1,0,0:0:0:0:
213,192,212644,1,0,0:0:0:60:Clap.wav
469,192,212644,1,0,0:0:0:0:
42,192,212723,1,0,0:0:0:50:Crash2.wav
128,192,212723,1,0,0:0:0:60:Clap.wav
384,192,212723,1,0,0:0:0:70:Kick3.wav
298,192,212801,1,0,0:0:0:50:Clap.wav
213,192,212880,1,0,0:0:0:50:Clap.wav
128,192,212959,1,0,0:0:0:60:Clap.wav
384,192,212959,1,0,0:0:0:0:
42,192,213038,1,0,0:0:0:60:Clap.wav
298,192,213038,1,0,0:0:0:0:
213,192,213117,1,0,0:0:0:60:Clap.wav
469,192,213117,1,0,0:0:0:0:
42,192,213196,1,0,0:0:0:50:Crash.wav
128,192,213196,1,0,0:0:0:60:Clap.wav
384,192,213196,1,0,0:0:0:70:Kick3.wav
213,192,213275,1,0,0:0:0:50:Clap.wav
298,192,213354,1,0,0:0:0:50:Clap.wav
128,192,213433,1,0,0:0:0:60:Clap.wav
384,192,213433,1,0,0:0:0:0:
213,192,213512,1,0,0:0:0:60:Clap.wav
469,192,213512,1,0,0:0:0:0:
42,192,213591,1,0,0:0:0:60:Clap.wav
298,192,213591,1,0,0:0:0:0:
128,192,213670,1,0,0:0:0:50:Crash2.wav
384,192,213670,1,0,0:0:0:60:Clap.wav
469,192,213670,1,0,0:0:0:70:Kick3.wav
213,192,213749,1,0,0:0:0:50:Clap.wav
298,192,213828,1,0,0:0:0:50:Clap.wav
128,192,213907,1,0,0:0:0:60:Clap.wav
384,192,213907,1,0,0:0:0:0:
213,192,213986,1,0,0:0:0:60:Clap.wav
469,192,213986,1,0,0:0:0:0:
42,192,214065,1,0,0:0:0:60:Clap.wav
298,192,214065,1,0,0:0:0:0:
128,192,214144,1,0,0:0:0:50:Crash.wav
384,192,214144,1,0,0:0:0:60:Clap.wav
469,192,214144,1,0,0:0:0:70:Kick3.wav
213,192,214223,1,0,0:0:0:50:Clap.wav
298,192,214301,1,0,0:0:0:60:Clap.wav
384,192,214301,1,0,0:0:0:0:
128,192,214380,1,0,0:0:0:60:Clap.wav
213,192,214380,1,0,0:0:0:0:
42,192,214459,1,0,0:0:0:50:Crash2.wav
384,192,214459,1,0,0:0:0:60:Clap.wav
469,192,214459,1,0,0:0:0:70:Kick3.wav
298,192,214538,1,0,0:0:0:50:Clap.wav
128,192,214617,1,0,0:0:0:60:Clap.wav
213,192,214617,1,0,0:0:0:0:
298,192,214696,1,0,0:0:0:60:Clap.wav
384,192,214696,1,0,0:0:0:0:
42,192,214775,1,0,0:0:0:50:Crash.wav
128,192,214775,1,0,0:0:0:60:Clap.wav
469,192,214775,1,0,0:0:0:70:Kick3.wav
213,192,214854,1,0,0:0:0:50:Clap.wav
298,192,214933,1,0,0:0:0:50:Clap.wav
42,192,215012,1,0,0:0:0:60:Clap.wav
384,192,215012,1,0,0:0:0:0:
128,192,215091,1,0,0:0:0:60:Clap.wav
213,192,215091,1,0,0:0:0:0:
298,192,215170,1,0,0:0:0:60:Clap.wav
384,192,215170,1,0,0:0:0:0:
42,192,215249,1,0,0:0:0:50:Crash2.wav
128,192,215249,1,0,0:0:0:60:Clap.wav
469,192,215249,1,0,0:0:0:70:Kick3.wav
213,192,215328,1,0,0:0:0:50:Clap.wav
298,192,215407,1,0,0:0:0:50:Clap.wav
128,192,215486,1,0,0:0:0:60:Clap.wav
42,192,215486,1,0,0:0:0:0:
384,192,215565,1,0,0:0:0:60:Clap.wav
469,192,215565,1,0,0:0:0:0:
213,192,215644,1,0,0:0:0:60:Clap.wav
298,192,215644,1,0,0:0:0:0:
128,192,215723,1,0,0:0:0:50:Crash.wav
42,192,215723,1,0,0:0:0:60:Clap.wav
469,192,215723,1,0,0:0:0:70:Kick3.wav
298,192,215801,1,0,0:0:0:50:Clap.wav
213,192,215880,1,0,0:0:0:50:Clap.wav
469,192,215959,1,0,0:0:0:60:Clap.wav
384,192,215959,1,0,0:0:0:0:
42,192,216038,1,0,0:0:0:60:Clap.wav
128,192,216038,1,0,0:0:0:0:
213,192,216117,1,0,0:0:0:60:Clap.wav
298,192,216117,1,0,0:0:0:0:
42,192,216196,1,0,0:0:0:50:Crash2.wav
469,192,216196,1,0,0:0:0:60:Clap.wav
384,192,216196,1,0,0:0:0:70:Kick3.wav
213,192,216275,1,0,0:0:0:50:Clap.wav
298,192,216354,1,0,0:0:0:50:Clap.wav
42,192,216433,1,0,0:0:0:60:Clap.wav
128,192,216433,1,0,0:0:0:0:
384,192,216512,1,0,0:0:0:60:Clap.wav
469,192,216512,1,0,0:0:0:0:
213,192,216591,1,0,0:0:0:60:Clap.wav
298,192,216591,1,0,0:0:0:0:
42,192,216670,1,0,0:0:0:50:Crash.wav
128,192,216670,1,0,0:0:0:60:Clap.wav
469,192,216670,1,0,0:0:0:70:Kick3.wav
213,192,216749,1,0,0:0:0:50:Clap.wav
298,192,216828,1,0,0:0:0:60:Clap.wav
384,192,216828,1,0,0:0:0:0:
42,192,216907,1,0,0:0:0:60:Clap.wav
128,192,216907,1,0,0:0:0:0:
213,192,216986,1,0,0:0:0:50:Crash2.wav
384,192,216986,1,0,0:0:0:60:Clap.wav
469,192,216986,1,0,0:0:0:70:Kick3.wav
298,192,217065,1,0,0:0:0:50:Clap.wav
128,192,217144,1,0,0:0:0:60:Clap.wav
213,192,217144,1,0,0:0:0:0:
384,192,217223,1,0,0:0:0:60:Clap.wav
469,192,217223,1,0,0:0:0:0:
42,192,217301,1,0,0:0:0:50:Crash.wav
128,192,217301,1,0,0:0:0:60:Clap.wav
298,192,217301,1,0,0:0:0:70:Kick3.wav
213,192,217380,1,0,0:0:0:50:Clap.wav
128,192,217459,1,0,0:0:0:50:Clap.wav
42,192,217538,1,0,0:0:0:60:Clap.wav
469,192,217538,1,0,0:0:0:0:
298,192,217617,1,0,0:0:0:60:Clap.wav
384,192,217617,1,0,0:0:0:0:
128,192,217696,1,0,0:0:0:60:Clap.wav
213,192,217696,1,0,0:0:0:0:
42,192,217775,1,0,0:0:0:70:Crash2.wav
384,192,217775,1,0,0:0:0:60:Clap.wav
469,192,217775,1,0,0:0:0:70:Kick3.wav
298,192,217854,1,0,0:0:0:50:Clap.wav
213,192,217933,1,0,0:0:0:50:Clap.wav
42,192,218012,1,0,0:0:0:60:Clap.wav
128,192,218012,1,0,0:0:0:0:
384,192,218091,1,0,0:0:0:60:Clap.wav
469,192,218091,1,0,0:0:0:0:
213,192,218170,1,0,0:0:0:60:Clap.wav
298,192,218170,1,0,0:0:0:0:
42,192,218249,1,0,0:0:0:50:Crash.wav
128,192,218249,1,0,0:0:0:60:Clap.wav
469,192,218249,1,0,0:0:0:70:Kick3.wav
213,192,218328,1,0,0:0:0:50:Clap.wav
298,192,218407,1,0,0:0:0:50:Clap.wav
42,192,218486,1,0,0:0:0:60:Clap.wav
384,192,218486,1,0,0:0:0:0:
128,192,218565,1,0,0:0:0:60:Clap.wav
213,192,218565,1,0,0:0:0:0:
298,192,218644,1,0,0:0:0:60:Clap.wav
384,192,218644,1,0,0:0:0:0:
42,192,218723,1,0,0:0:0:50:Crash2.wav
128,192,218723,1,0,0:0:0:60:Clap.wav
469,192,218723,1,0,0:0:0:70:Kick3.wav
213,192,218801,1,0,0:0:0:50:Clap.wav
298,192,218880,1,0,0:0:0:50:Clap.wav
384,192,218959,1,0,0:0:0:60:Clap.wav
469,192,218959,1,0,0:0:0:0:
42,192,219038,1,0,0:0:0:60:Clap.wav
128,192,219038,1,0,0:0:0:0:
213,192,219117,1,0,0:0:0:60:Clap.wav
298,192,219117,1,0,0:0:0:0:
42,192,219196,1,0,0:0:0:50:Crash.wav
384,192,219196,1,0,0:0:0:60:Clap.wav
469,192,219196,1,0,0:0:0:70:Kick3.wav
298,192,219275,1,0,0:0:0:50:Clap.wav
128,192,219354,1,0,0:0:0:60:Clap.wav
213,192,219354,1,0,0:0:0:0:
384,192,219433,1,0,0:0:0:60:Clap.wav
469,192,219433,1,0,0:0:0:0:
42,192,219512,1,0,0:0:0:60:Clap.wav
298,192,219512,1,0,0:0:0:0:
213,192,219591,1,0,0:0:0:50:Clap.wav
384,192,219670,1,0,0:0:0:50:Kick3.wav
128,192,219749,1,0,0:0:0:50:Kick3.wav
213,192,219828,1,0,0:0:0:60:Crash.wav
298,192,219828,1,0,0:0:0:70:Calp.wav
384,192,219828,1,0,0:0:0:0:
469,192,219828,1,0,0:0:0:0:
42,192,219986,1,0,0:0:0:50:Kick3.wav
298,192,220065,1,0,0:0:0:50:Kick3.wav
42,192,220144,1,0,0:0:0:70:Kick3.wav
213,192,220223,1,0,0:0:0:70:Kick3.wav
42,192,220301,1,0,0:0:0:60:Crash2.wav
298,192,220301,1,0,0:0:0:70:Calp.wav
384,192,220301,1,0,0:0:0:0:
469,192,220301,1,0,0:0:0:0:
384,192,220459,1,0,0:0:0:60:Clap.wav
469,192,220459,1,0,0:0:0:0:
384,192,220538,1,0,0:0:0:60:Clap.wav
469,192,220538,1,0,0:0:0:0:
213,192,220617,1,0,0:0:0:70:Kick3.wav
298,192,220696,1,0,0:0:0:70:Kick3.wav
42,192,220775,1,0,0:0:0:60:Crash.wav
128,192,220775,1,0,0:0:0:70:Calp.wav
213,192,220775,1,0,0:0:0:0:
469,192,220775,1,0,0:0:0:0:
298,192,220933,1,0,0:0:0:60:Clap.wav
384,192,220933,1,0,0:0:0:0:
128,192,221012,1,0,0:0:0:60:Clap.wav
213,192,221012,1,0,0:0:0:0:
298,192,221091,1,0,0:0:0:70:Kick3.wav
384,192,221170,1,0,0:0:0:70:Kick3.wav
42,192,221249,1,0,0:0:0:70:Crash2.wav
128,192,221249,1,0,0:0:0:70:Calp.wav
213,192,221249,1,0,0:0:0:0:
469,192,221249,1,0,0:0:0:0:
42,192,221407,1,0,0:0:0:60:Clap.wav
128,192,221407,1,0,0:0:0:0:
42,192,221486,1,0,0:0:0:60:Clap.wav
128,192,221486,1,0,0:0:0:0:
298,192,221565,1,0,0:0:0:70:Kick3.wav
213,192,221644,1,0,0:0:0:70:Kick3.wav
42,192,221723,1,0,0:0:0:60:Crash.wav
298,192,221723,1,0,0:0:0:70:Calp.wav
384,192,221723,1,0,0:0:0:0:
469,192,221723,1,0,0:0:0:0:
213,192,221880,1,0,0:0:0:70:Kick3.wav
298,192,221959,1,0,0:0:0:70:Kick3.wav
42,192,222038,1,0,0:0:0:60:Crash2.wav
128,192,222038,1,0,0:0:0:70:Calp.wav
213,192,222038,1,0,0:0:0:0:
469,192,222038,1,0,0:0:0:0:
298,192,222196,1,0,0:0:0:70:Kick3.wav
213,192,222275,1,0,0:0:0:70:Kick3.wav
42,192,222354,1,0,0:0:0:70:Calp.wav
128,192,222354,1,0,0:0:0:0:
469,192,222354,1,0,0:0:0:0:
298,192,222433,1,0,0:0:0:50:Kick3.wav
384,192,222512,1,0,0:0:0:50:Kick3.wav
213,192,222591,1,0,0:0:0:40:Kick3.wav
298,192,222670,1,0,0:0:0:40:Kick3.wav
128,192,222749,1,0,0:0:0:30:Kick3.wav
213,192,222828,1,0,0:0:0:70:Calp.wav
384,192,222828,1,0,0:0:0:0:
469,192,222828,1,0,0:0:0:0:
298,192,222907,1,0,0:0:0:50:Kick3.wav
42,192,222986,1,0,0:0:0:50:Kick3.wav
384,192,223065,1,0,0:0:0:40:Kick3.wav
128,192,223144,1,0,0:0:0:40:Kick3.wav
469,192,223223,1,0,0:0:0:30:Kick3.wav
42,192,223301,1,0,0:0:0:70:Calp.wav
298,192,223301,1,0,0:0:0:0:
384,192,223301,1,0,0:0:0:0:
213,192,223380,1,0,0:0:0:50:Kick3.wav
384,192,223459,1,0,0:0:0:50:Kick3.wav
128,192,223538,1,0,0:0:0:40:Kick3.wav
298,192,223617,1,0,0:0:0:40:Kick3.wav
42,192,223696,1,0,0:0:0:30:Kick3.wav
384,192,223775,1,0,0:0:0:60:Clap.wav
469,192,223775,1,0,0:0:0:0:
42,192,223854,1,0,0:0:0:60:Clap.wav
128,192,223854,1,0,0:0:0:0:
384,192,223933,1,0,0:0:0:60:Clap.wav
469,192,223933,1,0,0:0:0:0:
42,192,224012,1,0,0:0:0:60:Clap.wav
128,192,224012,1,0,0:0:0:0:
384,192,224091,1,0,0:0:0:60:Clap.wav
469,192,224091,1,0,0:0:0:0:
42,192,224170,1,0,0:0:0:60:Clap.wav
128,192,224170,1,0,0:0:0:0:
384,192,224249,1,0,0:0:0:45:Crash3.wav
469,192,224249,1,0,0:0:0:40:Kick3.wav
298,192,224328,1,0,0:0:0:40:Kick3.wav
42,192,224407,1,0,0:0:0:55:Crash3.wav
213,192,224407,1,0,0:0:0:40:Kick3.wav
384,192,224486,1,0,0:0:0:40:Kick3.wav
128,192,224565,1,0,0:0:0:65:Crash3.wav
298,192,224565,1,0,0:0:0:40:Kick3.wav
469,192,224644,1,0,0:0:0:40:Kick3.wav
213,192,224723,1,0,0:0:0:75:Crash3.wav
384,192,224723,1,0,0:0:0:40:Kick3.wav
128,192,224801,1,0,0:0:0:40:Kick3.wav
42,192,224882,128,0,225107:0:0:0:85:Crash3.wav
298,192,224882,128,0,225332:0:0:0:40:E5H.wav
469,192,224882,1,0,0:0:0:40:A#4H_Bb4H.wav
213,192,225107,128,0,225332:0:0:0:30:F#5H_Gb5H.wav
128,192,225332,128,0,225782:0:0:0:60:C#6H_Db6H.wav
384,192,225332,128,0,225782:0:0:0:40:B4H.wav
213,192,225782,128,0,226119:0:0:0:30:A#4H_Bb4H.wav
298,192,225782,128,0,226082:0:0:0:70:blank.wav
469,192,226082,128,0,226532:0:0:0:60:F#5H_Gb5H.wav
128,192,226119,128,0,226382:0:0:0:30:B5H.wav
213,192,226382,128,0,226682:0:0:0:30:A#4H_Bb4H.wav
384,192,226532,128,0,226982:0:0:0:40:B4H.wav
42,192,226682,128,0,226982:0:0:0:40:E5H.wav
213,192,226982,128,0,227282:0:0:0:30:A#4H_Bb4H.wav
298,192,226982,128,0,227132:0:0:0:70:blank.wav
42,192,227282,128,0,227769:0:0:0:50:F#5H_Gb5H.wav
298,192,227282,128,0,227732:0:0:0:40:A#4H_Bb4H.wav
384,192,227732,128,0,228144:0:0:0:40:B4H.wav
213,192,227769,128,0,228182:0:0:0:60:D#6H_Eb6H.wav
298,192,228144,128,0,228444:0:0:0:70:blank.wav
128,192,228182,128,0,228482:0:0:0:30:A#4H_Bb4H.wav
469,192,228444,128,0,228932:0:0:0:60:F#5H_Gb5H.wav
213,192,228482,128,0,228782:0:0:0:60:C#6H_Db6H.wav
128,192,228782,128,0,229082:0:0:0:30:A#4H_Bb4H.wav
298,192,228932,128,0,229382:0:0:0:40:A#4H_Bb4H.wav
42,192,229082,128,0,229382:0:0:0:50:F#5H_Gb5H.wav
128,192,229382,128,0,229682:0:0:0:30:A#4H_Bb4H.wav
384,192,229382,128,0,229682:0:0:0:40:B4H.wav
42,192,229682,128,0,230132:0:0:0:50:G#5H_Ab5H.wav
298,192,229682,128,0,230132:0:0:0:40:A#4H_Bb4H.wav
213,192,230132,128,0,230582:0:0:0:60:E6H.wav
384,192,230132,128,0,230544:0:0:0:40:B4H.wav
298,192,230544,128,0,230882:0:0:0:70:blank.wav
42,192,230582,128,0,230882:0:0:0:30:A#4H_Bb4H.wav
213,192,230882,128,0,231182:0:0:0:60:D#6H_Eb6H.wav
469,192,230882,128,0,231332:0:0:0:60:F#5H_Gb5H.wav
42,192,231182,128,0,231482:0:0:0:30:A#4H_Bb4H.wav
384,192,231332,128,0,231782:0:0:0:40:B4H.wav
128,192,231482,128,0,231782:0:0:0:50:G#5H_Ab5H.wav
42,192,231782,128,0,232082:0:0:0:30:A#4H_Bb4H.wav
298,192,231782,128,0,231932:0:0:0:70:blank.wav
213,192,232082,128,0,232532:0:0:0:40:D#5H_Eb5H.wav
298,192,232082,128,0,232532:0:0:0:40:A#4H_Bb4H.wav
42,192,232532,128,0,232982:0:0:0:40:B5H.wav
384,192,232532,128,0,232944:0:0:0:40:B4H.wav
298,192,232944,128,0,233282:0:0:0:70:blank.wav
128,192,232982,128,0,233282:0:0:0:30:A#4H_Bb4H.wav
213,192,233282,128,0,233582:0:0:0:40:A#5H_Bb5H.wav
469,192,233282,128,0,233732:0:0:0:60:F#5H_Gb5H.wav
128,192,233582,128,0,233882:0:0:0:30:A#4H_Bb4H.wav
298,192,233732,128,0,234144:0:0:0:40:A#4H_Bb4H.wav
42,192,233882,128,0,234182:0:0:0:40:D#5H_Eb5H.wav
384,192,234144,128,0,234482:0:0:0:40:B4H.wav
128,192,234182,128,0,234482:0:0:0:30:A#4H_Bb4H.wav
42,192,234482,128,0,234932:0:0:0:40:E5H.wav
298,192,234482,128,0,234932:0:0:0:40:A#4H_Bb4H.wav
128,192,234932,128,0,235382:0:0:0:60:C#6H_Db6H.wav
384,192,234932,128,0,235344:0:0:0:40:B4H.wav
298,192,235344,128,0,235682:0:0:0:70:blank.wav
213,192,235382,128,0,235682:0:0:0:30:A#4H_Bb4H.wav
128,192,235682,128,0,235982:0:0:0:30:B5H.wav
469,192,235682,128,0,236132:0:0:0:60:F#5H_Gb5H.wav
213,192,235982,128,0,236282:0:0:0:30:A#4H_Bb4H.wav
384,192,236132,128,0,236544:0:0:0:40:B4H.wav
42,192,236282,128,0,236582:0:0:0:40:E5H.wav
298,192,236544,128,0,236732:0:0:0:70:blank.wav
213,192,236582,128,0,236882:0:0:0:30:A#4H_Bb4H.wav
42,192,236882,128,0,237332:0:0:0:50:F#5H_Gb5H.wav
298,192,236882,128,0,237332:0:0:0:40:A#4H_Bb4H.wav
213,192,237332,128,0,237782:0:0:0:60:D#6H_Eb6H.wav
384,192,237332,128,0,237744:0:0:0:40:B4H.wav
298,192,237744,128,0,238082:0:0:0:70:blank.wav
128,192,237782,128,0,238082:0:0:0:30:A#4H_Bb4H.wav
213,192,238082,128,0,238382:0:0:0:60:C#6H_Db6H.wav
469,192,238082,128,0,238532:0:0:0:60:F#5H_Gb5H.wav
128,192,238382,128,0,238682:0:0:0:30:A#4H_Bb4H.wav
298,192,238532,128,0,238944:0:0:0:40:A#4H_Bb4H.wav
42,192,238682,128,0,238982:0:0:0:50:F#5H_Gb5H.wav
384,192,238944,128,0,239282:0:0:0:40:B4H.wav
128,192,238982,128,0,239282:0:0:0:30:A#4H_Bb4H.wav
42,192,239282,128,0,239732:0:0:0:50:G#5H_Ab5H.wav
298,192,239282,128,0,239732:0:0:0:40:A#4H_Bb4H.wav
213,192,239732,128,0,240182:0:0:0:60:E6H.wav
384,192,239732,128,0,240182:0:0:0:40:B4H.wav
42,192,240182,128,0,240482:0:0:0:30:A#4H_Bb4H.wav
298,192,240182,128,0,240482:0:0:0:70:blank.wav
213,192,240482,128,0,240782:0:0:0:60:D#6H_Eb6H.wav
469,192,240482,128,0,240932:0:0:0:60:F#5H_Gb5H.wav
42,192,240782,128,0,241082:0:0:0:30:A#4H_Bb4H.wav
384,192,240932,128,0,241382:0:0:0:40:B4H.wav
128,192,241082,128,0,241382:0:0:0:50:G#5H_Ab5H.wav
42,192,241382,128,0,241682:0:0:0:30:A#4H_Bb4H.wav
298,192,241382,128,0,241532:0:0:0:70:blank.wav
128,192,241682,128,0,242132:0:0:0:50:F#5H_Gb5H.wav
298,192,241682,128,0,242132:0:0:0:40:A#4H_Bb4H.wav
213,192,242132,128,0,242582:0:0:0:60:F#6H_Gb6H.wav
384,192,242132,128,0,242582:0:0:0:40:B4H.wav
42,192,242582,128,0,242882:0:0:0:30:A#4H_Bb4H.wav
298,192,242582,128,0,242882:0:0:0:70:blank.wav
213,192,242882,128,0,243182:0:0:0:60:E6H.wav
469,192,242882,128,0,243332:0:0:0:60:F#5H_Gb5H.wav
42,192,243182,128,0,243482:0:0:0:30:A#4H_Bb4H.wav
298,192,243332,128,0,243782:0:0:0:40:A#4H_Bb4H.wav
128,192,243482,128,0,243782:0:0:0:60:D#6H_Eb6H.wav
42,192,243782,128,0,244082:0:0:0:30:A#4H_Bb4H.wav
384,192,243782,128,0,244082:0:0:0:40:B4H.wav
128,192,244082,1,0,0:0:0:60:Crush.wav
213,192,244082,1,0,0:0:0:70:Kick3.wav
469,192,244082,1,0,0:0:0:0:
384,192,244182,1,0,0:0:0:0:
128,192,244282,1,0,0:0:0:0:
298,192,244382,1,0,0:0:0:0:
213,192,244532,1,0,0:0:0:0:
384,192,244682,1,0,0:0:0:70:Kick3.wav
469,192,244682,1,0,0:0:0:0:
128,192,244832,1,0,0:0:0:0:
42,192,244982,1,0,0:0:0:0:
42,192,245282,1,0,0:0:0:70:Kick3.wav
128,192,245282,1,0,0:0:0:0:
469,192,245357,1,0,0:0:0:0:
384,192,245432,1,0,0:0:0:0:
298,192,245582,1,0,0:0:0:0:
128,192,245732,1,0,0:0:0:0:
298,192,245882,1,0,0:0:0:70:Kick3.wav
384,192,245882,1,0,0:0:0:0:
42,192,246032,1,0,0:0:0:0:
213,192,246182,1,0,0:0:0:0:
128,192,246482,1,0,0:0:0:70:Kick3.wav
213,192,246482,1,0,0:0:0:0:
384,192,246582,1,0,0:0:0:0:
298,192,246682,1,0,0:0:0:0:
42,192,246782,1,0,0:0:0:0:
128,192,246932,1,0,0:0:0:0:
384,192,247082,1,0,0:0:0:70:Kick3.wav
469,192,247082,1,0,0:0:0:0:
213,192,247232,1,0,0:0:0:0:
42,192,247382,1,0,0:0:0:0:
42,192,247682,1,0,0:0:0:70:Kick3.wav
128,192,247682,1,0,0:0:0:0:
469,192,247757,1,0,0:0:0:0:
298,192,247832,1,0,0:0:0:0:
213,192,247982,1,0,0:0:0:0:
128,192,248132,1,0,0:0:0:0:
298,192,248282,1,0,0:0:0:70:Kick3.wav
384,192,248282,1,0,0:0:0:0:
42,192,248432,1,0,0:0:0:0:
213,192,248582,1,0,0:0:0:0:
128,192,248882,1,0,0:0:0:70:Kick3.wav
213,192,248882,1,0,0:0:0:0:
384,192,248982,1,0,0:0:0:0:
128,192,249082,1,0,0:0:0:0:
298,192,249182,1,0,0:0:0:0:
213,192,249332,1,0,0:0:0:0:
384,192,249482,1,0,0:0:0:70:Kick3.wav
469,192,249482,1,0,0:0:0:0:
128,192,249632,1,0,0:0:0:0:
42,192,249782,1,0,0:0:0:0:
42,192,250082,1,0,0:0:0:70:Kick3.wav
128,192,250082,1,0,0:0:0:0:
469,192,250157,1,0,0:0:0:0:
384,192,250232,1,0,0:0:0:0:
298,192,250382,1,0,0:0:0:0:
128,192,250532,1,0,0:0:0:0:
298,192,250682,1,0,0:0:0:70:Kick3.wav
384,192,250682,1,0,0:0:0:0:
42,192,250882,1,0,0:0:0:0:
213,192,250982,1,0,0:0:0:0:
128,192,251282,1,0,0:0:0:70:Kick3.wav
213,192,251282,1,0,0:0:0:0:
384,192,251382,1,0,0:0:0:0:
128,192,251482,1,0,0:0:0:0:
298,192,251582,1,0,0:0:0:0:
213,192,251732,1,0,0:0:0:0:
384,192,251882,1,0,0:0:0:70:Kick3.wav
469,192,251882,1,0,0:0:0:0:
128,192,252032,1,0,0:0:0:0:
42,192,252182,1,0,0:0:0:0:
42,192,252482,1,0,0:0:0:70:Kick3.wav
128,192,252482,1,0,0:0:0:0:
298,192,252557,1,0,0:0:0:0:
42,192,252782,1,0,0:0:0:70:Kick3.wav
128,192,252782,1,0,0:0:0:0:
384,192,252932,1,0,0:0:0:0:
42,192,253082,1,0,0:0:0:70:Kick3.wav
128,192,253082,1,0,0:0:0:0:
42,192,253232,1,0,0:0:0:60:Clap.wav
128,192,253232,1,0,0:0:0:0:
384,192,253307,1,0,0:0:0:60:Clap.wav
469,192,253307,1,0,0:0:0:0:
213,192,253382,1,0,0:0:0:60:Clap.wav
298,192,253382,1,0,0:0:0:70:Kick3.wav
42,192,253457,1,0,0:0:0:60:Clap.wav
128,192,253457,1,0,0:0:0:0:
384,192,253532,1,0,0:0:0:60:Clap.wav
469,192,253532,1,0,0:0:0:0:
213,192,253607,1,0,0:0:0:60:Clap.wav
298,192,253607,1,0,0:0:0:0:
42,192,253682,128,0,253907:0:0:0:70:Crash.wav
128,192,253682,128,0,253907:0:0:0:70:Kick3.wav
469,192,253682,1,0,0:0:0:0:
42,192,253982,128,0,254057:0:0:0:70:Kick3.wav
469,192,253982,1,0,0:0:0:0:
42,192,254132,128,0,254207:0:0:0:0:
42,192,254282,128,0,254357:0:0:0:70:Kick3.wav
469,192,254282,1,0,0:0:0:0:
42,192,254432,128,0,254507:0:0:0:0:
42,192,254582,128,0,254657:0:0:0:70:Kick3.wav
469,192,254582,1,0,0:0:0:0:
42,192,254732,128,0,254807:0:0:0:70:Crash2.wav
298,192,254732,1,0,0:0:0:70:Calp.wav
384,192,254732,1,0,0:0:0:0:
42,192,254882,128,0,254957:0:0:0:70:Kick3.wav
469,192,254882,1,0,0:0:0:0:
42,192,255032,128,0,255107:0:0:0:0:
42,192,255182,128,0,255257:0:0:0:70:Kick3.wav
469,192,255182,1,0,0:0:0:0:
42,192,255332,128,0,255407:0:0:0:0:
42,192,255482,128,0,255557:0:0:0:70:Kick3.wav
469,192,255482,1,0,0:0:0:0:
42,192,255632,128,0,255707:0:0:0:0:
42,192,255782,128,0,255857:0:0:0:70:Kick3.wav
469,192,255782,1,0,0:0:0:0:
42,192,255932,128,0,256007:0:0:0:60:Clap.wav
469,192,255932,1,0,0:0:0:0:
384,192,256007,1,0,0:0:0:60:Clap.wav
128,192,256082,128,0,256307:0:0:0:70:Crash.wav
213,192,256082,128,0,256307:0:0:0:70:Kick3.wav
298,192,256082,1,0,0:0:0:0:
213,192,256382,128,0,256457:0:0:0:70:Kick3.wav
469,192,256382,1,0,0:0:0:0:
213,192,256532,128,0,256607:0:0:0:0:
213,192,256682,128,0,256757:0:0:0:70:Kick3.wav
469,192,256682,1,0,0:0:0:0:
213,192,256832,128,0,256907:0:0:0:0:
213,192,256982,128,0,257057:0:0:0:70:Kick3.wav
469,192,256982,1,0,0:0:0:0:
213,192,257132,128,0,257207:0:0:0:70:Crash3.wav
298,192,257132,1,0,0:0:0:70:Calp.wav
384,192,257132,1,0,0:0:0:0:
298,192,257282,128,0,257507:0:0:0:70:Kick3.wav
384,192,257282,128,0,257507:0:0:0:0:
42,192,257582,1,0,0:0:0:70:Kick3.wav
298,192,257582,128,0,257657:0:0:0:0:
213,192,257732,1,0,0:0:0:60:Clap.wav
298,192,257732,128,0,257807:0:0:0:0:
128,192,257807,1,0,0:0:0:60:Clap.wav
42,192,257882,1,0,0:0:0:70:Kick3.wav
298,192,257882,128,0,257957:0:0:0:0:
213,192,258032,1,0,0:0:0:0:
298,192,258032,128,0,258107:0:0:0:0:
42,192,258182,1,0,0:0:0:70:Kick3.wav
298,192,258182,128,0,258257:0:0:0:0:
128,192,258332,1,0,0:0:0:0:
298,192,258332,128,0,258407:0:0:0:0:
42,192,258482,1,0,0:0:0:70:Crash.wav
384,192,258482,128,0,258707:0:0:0:70:Kick3.wav
469,192,258482,128,0,258707:0:0:0:0:
42,192,258782,1,0,0:0:0:70:Kick3.wav
469,192,258782,128,0,258857:0:0:0:0:
469,192,258932,128,0,259007:0:0:0:0:
42,192,259082,1,0,0:0:0:70:Kick3.wav
469,192,259082,128,0,259157:0:0:0:0:
469,192,259232,128,0,259307:0:0:0:0:
128,192,259382,1,0,0:0:0:70:Crash2.wav
213,192,259382,1,0,0:0:0:70:Calp.wav
469,192,259382,128,0,259457:0:0:0:70:Kick3.wav
469,192,259532,128,0,259607:0:0:0:0:
42,192,259682,1,0,0:0:0:70:Kick3.wav
128,192,259682,1,0,0:0:0:0:
42,192,259832,1,0,0:0:0:70:Calp.wav
384,192,259832,1,0,0:0:0:0:
469,192,259832,1,0,0:0:0:0:
213,192,259982,1,0,0:0:0:70:Kick3.wav
298,192,259982,1,0,0:0:0:0:
213,192,260132,1,0,0:0:0:70:Kick3.wav
298,192,260132,1,0,0:0:0:0:
42,192,260282,1,0,0:0:0:70:Calp.wav
128,192,260282,1,0,0:0:0:0:
298,192,260282,1,0,0:0:0:0:
384,192,260432,1,0,0:0:0:70:Kick3.wav
469,192,260432,1,0,0:0:0:0:
42,192,260582,1,0,0:0:0:70:Calp.wav
128,192,260582,1,0,0:0:0:0:
469,192,260582,1,0,0:0:0:0:
42,192,260882,128,0,261032:0:0:0:70:Crash.wav
213,192,260882,128,0,261032:0:0:0:70:Kick3.wav
469,192,260882,1,0,0:0:0:0:
42,192,261182,128,0,261332:0:0:0:70:Kick3.wav
213,192,261182,128,0,261332:0:0:0:0:
42,192,261482,128,0,261632:0:0:0:70:Kick3.wav
213,192,261482,128,0,261632:0:0:0:0:
42,192,261782,128,0,261932:0:0:0:70:Kick3.wav
213,192,261782,128,0,261932:0:0:0:0:
42,192,262082,128,0,262269:0:0:0:70:Kick3.wav
213,192,262082,128,0,262269:0:0:0:0:
42,192,262382,128,0,262569:0:0:0:70:Kick3.wav
298,192,262382,128,0,262569:0:0:0:0:
42,192,262682,128,0,262869:0:0:0:70:Kick3.wav
384,192,262682,128,0,262869:0:0:0:0:
42,192,262982,128,0,263169:0:0:0:70:Kick3.wav
469,192,262982,128,0,263169:0:0:0:0:
42,192,263282,128,0,263507:0:0:0:70:Kick3.wav
128,192,263282,1,0,0:0:0:0:
469,192,263282,128,0,263507:0:0:0:0:
42,192,263582,128,0,263807:0:0:0:70:Kick3.wav
213,192,263582,1,0,0:0:0:0:
469,192,263582,128,0,263807:0:0:0:0:
42,192,263882,128,0,264107:0:0:0:70:Kick3.wav
298,192,263882,1,0,0:0:0:0:
469,192,263882,128,0,264107:0:0:0:0:
42,192,264182,128,0,264482:0:0:0:70:Kick3.wav
384,192,264182,1,0,0:0:0:0:
469,192,264182,128,0,264482:0:0:0:0:
384,192,266132,1,0,0:0:0:70:Kick3.wav
469,192,266132,1,0,0:0:0:0:
42,192,266207,1,0,0:0:0:70:Kick3.wav
128,192,266207,1,0,0:0:0:0:
298,192,266282,1,0,0:0:0:70:Calp.wav
384,192,266282,1,0,0:0:0:0:
469,192,266282,1,0,0:0:0:0:
213,192,266482,1,0,0:0:0:70:Kick3.wav
298,192,266482,1,0,0:0:0:0:
128,192,266682,1,0,0:0:0:70:Kick3.wav
213,192,266682,1,0,0:0:0:0:
42,192,266882,1,0,0:0:0:70:Crush.wav
213,192,266882,128,0,267932:0:0:0:70:Kick3.wav
384,192,266882,1,0,0:0:0:0:
469,192,266882,128,0,267932:0:0:0:0:
128,192,267932,128,0,268082:0:0:0:0:
384,192,267932,128,0,268082:0:0:0:0:
42,192,268082,128,0,269282:0:0:0:70:Crush.wav
213,192,268082,1,0,0:0:0:70:Kick3.wav
298,192,268082,128,0,269282:0:0:0:0:
469,192,268082,1,0,0:0:0:0:
213,192,268682,1,0,0:0:0:0:
128,192,269282,128,0,270332:0:0:0:70:Crush.wav
213,192,269282,1,0,0:0:0:70:Kick3.wav
384,192,269282,128,0,270332:0:0:0:0:
469,192,269282,1,0,0:0:0:0:
298,192,269882,1,0,0:0:0:0:
42,192,270332,128,0,270482:0:0:0:0:
298,192,270332,128,0,270482:0:0:0:0:
128,192,270482,1,0,0:0:0:70:Crush.wav
213,192,270482,128,0,271232:0:0:0:70:Kick3.wav
384,192,270482,1,0,0:0:0:0:
469,192,270482,128,0,271382:0:0:0:0:
298,192,271082,1,0,0:0:0:0:
128,192,271232,128,0,271682:0:0:0:0:
384,192,271382,128,0,271682:0:0:0:0:
42,192,271682,128,0,272132:0:0:0:70:Crash.wav
213,192,271682,1,0,0:0:0:70:Kick3.wav
298,192,271682,1,0,0:0:0:0:
469,192,271682,1,0,0:0:0:0:
298,192,271907,128,0,272282:0:0:0:0:
128,192,272132,128,0,272282:0:0:0:0:
42,192,272282,1,0,0:0:0:70:Crash2.wav
213,192,272282,128,0,272732:0:0:0:70:Kick3.wav
384,192,272282,1,0,0:0:0:0:
469,192,272282,1,0,0:0:0:0:
469,192,272507,128,0,272732:0:0:0:0:
298,192,272732,128,0,272882:0:0:0:0:
42,192,272882,1,0,0:0:0:70:Crash.wav
128,192,272882,128,0,273332:0:0:0:70:Kick3.wav
213,192,272882,1,0,0:0:0:0:
469,192,272882,1,0,0:0:0:0:
384,192,273032,128,0,273482:0:0:0:0:
213,192,273332,128,0,273482:0:0:0:0:
42,192,273482,1,0,0:0:0:70:Crash2.wav
128,192,273482,1,0,0:0:0:70:Kick3.wav
298,192,273482,1,0,0:0:0:0:
469,192,273482,128,0,273932:0:0:0:0:
298,192,273707,128,0,274082:0:0:0:0:
42,192,273932,128,0,274082:0:0:0:0:
128,192,274082,128,0,274382:0:0:0:70:Crash3.wav
213,192,274082,1,0,0:0:0:70:Kick3.wav
384,192,274082,128,0,274382:0:0:0:0:
469,192,274082,128,0,274382:0:0:0:0:
128,192,274682,128,0,274982:0:0:0:70:Crash3.wav
213,192,274682,1,0,0:0:0:70:Kick3.wav
384,192,274682,128,0,274982:0:0:0:0:
469,192,274682,128,0,274982:0:0:0:0:
298,192,275132,1,0,0:0:0:70:Kick3.wav
213,192,275207,1,0,0:0:0:70:Kick3.wav
42,192,275282,1,0,0:0:0:70:Calp.wav
128,192,275282,1,0,0:0:0:0:
384,192,275282,1,0,0:0:0:0:
469,192,275282,1,0,0:0:0:0:
42,192,275482,1,0,0:0:0:70:Calp.wav
128,192,275482,1,0,0:0:0:0:
298,192,275482,1,0,0:0:0:0:
384,192,275482,1,0,0:0:0:0:
42,192,275682,1,0,0:0:0:70:Calp.wav
128,192,275682,1,0,0:0:0:0:
213,192,275682,1,0,0:0:0:0:
298,192,275682,1,0,0:0:0:0:
42,192,275882,1,0,0:0:0:70:Crash2.wav
384,192,275882,1,0,0:0:0:70:Kick3.wav
469,192,275882,1,0,0:0:0:0:
128,192,276032,1,0,0:0:0:60:Clap.wav
213,192,276032,1,0,0:0:0:0:
298,192,276107,1,0,0:0:0:60:Clap.wav
384,192,276107,1,0,0:0:0:0:
42,192,276182,1,0,0:0:0:60:Clap.wav
128,192,276182,1,0,0:0:0:70:Kick3.wav
213,192,276257,1,0,0:0:0:60:Clap.wav
298,192,276257,1,0,0:0:0:0:
384,192,276332,1,0,0:0:0:60:Clap.wav
469,192,276332,1,0,0:0:0:0:
42,192,276407,1,0,0:0:0:60:Clap.wav
128,192,276407,1,0,0:0:0:0:
213,192,276482,1,0,0:0:0:70:Crush.wav
298,192,276482,128,0,277682:0:0:0:70:Kick3.wav
384,192,276482,128,0,276557:0:0:0:0:
469,192,276482,1,0,0:0:0:0:
128,192,276632,128,0,276707:0:0:0:0:
42,192,276782,1,0,0:0:0:70:Calp.wav
384,192,276782,128,0,277007:0:0:0:70:Kick3.wav
469,192,276782,1,0,0:0:0:0:
128,192,277082,1,0,0:0:0:70:Kick3.wav
213,192,277082,128,0,277307:0:0:0:0:
42,192,277382,1,0,0:0:0:70:Calp.wav
384,192,277382,128,0,277457:0:0:0:70:Kick3.wav
469,192,277382,1,0,0:0:0:0:
128,192,277532,128,0,277607:0:0:0:0:
213,192,277682,128,0,278882:0:0:0:70:Kick3.wav
469,192,277682,128,0,277982:0:0:0:0:
42,192,277982,1,0,0:0:0:70:Calp.wav
128,192,277982,1,0,0:0:0:70:Kick3.wav
384,192,277982,128,0,278132:0:0:0:0:
42,192,278132,128,0,278282:0:0:0:0:
298,192,278282,1,0,0:0:0:70:Kick3.wav
469,192,278282,1,0,0:0:0:0:
128,192,278432,128,0,278507:0:0:0:0:
128,192,278582,1,0,0:0:0:70:Calp.wav
384,192,278582,1,0,0:0:0:70:Kick3.wav
469,192,278582,128,0,278657:0:0:0:0:
298,192,278732,128,0,278807:0:0:0:0:
42,192,278882,128,0,280082:0:0:0:70:Kick3.wav
298,192,278882,128,0,279182:0:0:0:0:
213,192,279032,1,0,0:0:0:0:
128,192,279182,128,0,279482:0:0:0:70:Calp.wav
384,192,279182,1,0,0:0:0:70:Kick3.wav
469,192,279182,1,0,0:0:0:0:
213,192,279332,1,0,0:0:0:0:
298,192,279482,128,0,279782:0:0:0:70:Kick3.wav
469,192,279482,1,0,0:0:0:0:
128,192,279632,1,0,0:0:0:0:
213,192,279782,1,0,0:0:0:70:Calp.wav
384,192,279782,1,0,0:0:0:70:Kick3.wav
469,192,279782,128,0,280082:0:0:0:0:
298,192,279932,1,0,0:0:0:0:
213,192,280082,128,0,280682:0:0:0:70:Kick3.wav
384,192,280082,128,0,281132:0:0:0:0:
42,192,280382,1,0,0:0:0:70:Calp.wav
128,192,280382,1,0,0:0:0:70:Kick3.wav
469,192,280382,1,0,0:0:0:0:
128,192,280682,1,0,0:0:0:70:Kick3.wav
298,192,280682,1,0,0:0:0:0:
42,192,280832,128,0,280907:0:0:0:0:
128,192,280982,1,0,0:0:0:70:Calp.wav
213,192,280982,1,0,0:0:0:70:Kick3.wav
298,192,280982,128,0,281057:0:0:0:0:
42,192,281132,1,0,0:0:0:60:Clap.wav
128,192,281132,128,0,281207:0:0:0:0:
213,192,281207,1,0,0:0:0:60:Clap.wav
298,192,281282,128,0,281432:0:0:0:70:Crash.wav
384,192,281282,1,0,0:0:0:70:Kick3.wav
469,192,281282,128,0,282482:0:0:0:0:
128,192,281432,128,0,281582:0:0:0:0:
42,192,281582,128,0,281657:0:0:0:70:Calp.wav
298,192,281582,1,0,0:0:0:70:Kick3.wav
384,192,281582,1,0,0:0:0:0:
384,192,281732,128,0,281807:0:0:0:0:
42,192,281882,1,0,0:0:0:70:Kick3.wav
213,192,281882,128,0,282032:0:0:0:0:
128,192,282032,128,0,282182:0:0:0:0:
213,192,282182,1,0,0:0:0:70:Calp.wav
298,192,282182,128,0,282332:0:0:0:70:Kick3.wav
384,192,282182,1,0,0:0:0:0:
42,192,282332,128,0,282482:0:0:0:0:
128,192,282482,128,0,282557:0:0:0:70:Kick3.wav
298,192,282482,128,0,283682:0:0:0:0:
213,192,282632,128,0,282707:0:0:0:0:
213,192,282782,1,0,0:0:0:70:Calp.wav
384,192,282782,128,0,282932:0:0:0:70:Kick3.wav
469,192,282782,1,0,0:0:0:0:
42,192,283082,128,0,283232:0:0:0:70:Kick3.wav
384,192,283082,1,0,0:0:0:0:
213,192,283307,128,0,283457:0:0:0:0:
42,192,283382,1,0,0:0:0:70:Calp.wav
384,192,283382,1,0,0:0:0:70:Kick3.wav
469,192,283382,1,0,0:0:0:0:
469,192,283532,128,0,283682:0:0:0:0:
42,192,283682,128,0,284882:0:0:0:70:Kick3.wav
384,192,283682,128,0,283832:0:0:0:0:
128,192,283907,1,0,0:0:0:70:Calp.wav
213,192,283907,128,0,284057:0:0:0:0:
469,192,283907,1,0,0:0:0:0:
298,192,283982,1,0,0:0:0:70:Kick3.wav
384,192,283982,1,0,0:0:0:0:
128,192,284132,1,0,0:0:0:70:Calp.wav
213,192,284132,1,0,0:0:0:0:
469,192,284132,128,0,284282:0:0:0:0:
298,192,284282,1,0,0:0:0:70:Kick3.wav
384,192,284282,128,0,284432:0:0:0:0:
128,192,284507,1,0,0:0:0:70:Calp.wav
213,192,284507,1,0,0:0:0:0:
469,192,284507,1,0,0:0:0:0:
298,192,284582,128,0,284732:0:0:0:70:Kick3.wav
384,192,284582,1,0,0:0:0:0:
128,192,284732,128,0,284882:0:0:0:70:Calp.wav
384,192,284882,1,0,0:0:0:70:Kick3.wav
469,192,284882,1,0,0:0:0:0:
213,192,284957,1,0,0:0:0:50:Clap.wav
298,192,285032,1,0,0:0:0:50:Clap.wav
384,192,285032,1,0,0:0:0:0:
128,192,285107,1,0,0:0:0:50:Clap.wav
213,192,285107,1,0,0:0:0:0:
42,192,285182,1,0,0:0:0:50:Clap.wav
469,192,285182,1,0,0:0:0:70:Kick3.wav
298,192,285257,1,0,0:0:0:50:Clap.wav
384,192,285257,1,0,0:0:0:0:
128,192,285332,1,0,0:0:0:50:Clap.wav
213,192,285332,1,0,0:0:0:0:
298,192,285407,1,0,0:0:0:50:Clap.wav
384,192,285407,1,0,0:0:0:0:
42,192,285482,1,0,0:0:0:50:Clap.wav
469,192,285482,1,0,0:0:0:70:Kick3.wav
128,192,285557,1,0,0:0:0:50:Clap.wav
213,192,285557,1,0,0:0:0:0:
298,192,285632,1,0,0:0:0:50:Clap.wav
384,192,285632,1,0,0:0:0:0:
128,192,285707,1,0,0:0:0:50:Clap.wav
213,192,285707,1,0,0:0:0:0:
42,192,285782,1,0,0:0:0:50:Clap.wav
469,192,285782,1,0,0:0:0:70:Kick3.wav
298,192,285857,1,0,0:0:0:50:Clap.wav
384,192,285857,1,0,0:0:0:0:
128,192,285932,1,0,0:0:0:50:Clap.wav
213,192,285932,1,0,0:0:0:0:
298,192,286007,1,0,0:0:0:50:Clap.wav
384,192,286007,1,0,0:0:0:0:
42,192,286082,1,0,0:0:0:40:Kick3.wav
469,192,286082,1,0,0:0:0:0:
128,192,286157,1,0,0:0:0:40:Kick3.wav
213,192,286157,1,0,0:0:0:0:
384,192,286232,1,0,0:0:0:40:Kick3.wav
298,192,286307,1,0,0:0:0:40:Kick3.wav
42,192,286382,128,0,287282:0:0:0:70:Calp.wav
128,192,286382,1,0,0:0:0:70:Kick3.wav
213,192,286382,1,0,0:0:0:0:
469,192,286382,128,0,286457:0:0:0:0:
213,192,286532,128,0,286607:0:0:0:0:
298,192,286682,1,0,0:0:0:70:Kick3.wav
384,192,286682,128,0,286757:0:0:0:0:
298,192,286832,128,0,286907:0:0:0:0:
128,192,286982,1,0,0:0:0:70:Calp.wav
384,192,286982,1,0,0:0:0:70:Kick3.wav
469,192,286982,128,0,287057:0:0:0:0:
128,192,287132,128,0,287207:0:0:0:0:
298,192,287282,128,0,288482:0:0:0:70:Kick3.wav
469,192,287282,128,0,287582:0:0:0:0:
42,192,287582,1,0,0:0:0:70:Calp.wav
128,192,287582,1,0,0:0:0:70:Kick3.wav
213,192,287582,128,0,287657:0:0:0:0:
213,192,287732,128,0,287882:0:0:0:0:
128,192,287882,1,0,0:0:0:70:Kick3.wav
469,192,287882,1,0,0:0:0:0:
384,192,288032,128,0,288257:0:0:0:0:
42,192,288182,1,0,0:0:0:70:Calp.wav
128,192,288182,1,0,0:0:0:70:Kick3.wav
469,192,288182,1,0,0:0:0:0:
213,192,288257,128,0,288482:0:0:0:0:
384,192,288482,128,0,288557:0:0:0:70:Kick3.wav
469,192,288482,128,0,289682:0:0:0:0:
42,192,288632,128,0,288707:0:0:0:0:
42,192,288782,1,0,0:0:0:70:Calp.wav
128,192,288782,1,0,0:0:0:70:Kick3.wav
298,192,288782,128,0,288857:0:0:0:0:
213,192,288932,128,0,289007:0:0:0:0:
213,192,289082,1,0,0:0:0:70:Kick3.wav
384,192,289082,128,0,289157:0:0:0:0:
42,192,289232,128,0,289307:0:0:0:0:
42,192,289382,1,0,0:0:0:70:Calp.wav
213,192,289382,1,0,0:0:0:70:Kick3.wav
384,192,289382,128,0,289457:0:0:0:0:
128,192,289532,128,0,289682:0:0:0:0:
213,192,289682,128,0,290882:0:0:0:70:Kick3.wav
384,192,289682,128,0,289982:0:0:0:0:
42,192,289982,128,0,290132:0:0:0:70:Calp.wav
298,192,289982,1,0,0:0:0:70:Kick3.wav
469,192,289982,1,0,0:0:0:0:
128,192,290132,128,0,290282:0:0:0:0:
384,192,290282,1,0,0:0:0:70:Kick3.wav
469,192,290282,1,0,0:0:0:0:
298,192,290432,128,0,290732:0:0:0:0:
42,192,290582,1,0,0:0:0:70:Calp.wav
128,192,290582,1,0,0:0:0:70:Kick3.wav
384,192,290582,1,0,0:0:0:0:
42,192,290882,128,0,292082:0:0:0:70:Kick3.wav
469,192,290882,1,0,0:0:0:0:
298,192,291032,128,0,291107:0:0:0:0:
128,192,291182,128,0,291257:0:0:0:70:Calp.wav
298,192,291182,1,0,0:0:0:70:Kick3.wav
384,192,291182,1,0,0:0:0:0:
384,192,291332,128,0,291932:0:0:0:0:
213,192,291482,1,0,0:0:0:70:Kick3.wav
298,192,291482,1,0,0:0:0:0:
128,192,291632,128,0,291707:0:0:0:0:
128,192,291782,1,0,0:0:0:70:Calp.wav
213,192,291782,128,0,291857:0:0:0:70:Kick3.wav
469,192,291782,1,0,0:0:0:0:
469,192,291932,128,0,292082:0:0:0:0:
213,192,292082,128,0,292157:0:0:0:70:Kick3.wav
298,192,292082,128,0,293282:0:0:0:0:
42,192,292232,128,0,292307:0:0:0:0:
42,192,292382,1,0,0:0:0:70:Calp.wav
384,192,292382,1,0,0:0:0:70:Kick3.wav
469,192,292382,128,0,292457:0:0:0:0:
128,192,292532,128,0,292607:0:0:0:0:
128,192,292682,1,0,0:0:0:70:Kick3.wav
384,192,292682,128,0,292757:0:0:0:0:
42,192,292832,128,0,292907:0:0:0:0:
42,192,292982,1,0,0:0:0:70:Calp.wav
213,192,292982,128,0,293282:0:0:0:70:Kick3.wav
469,192,292982,1,0,0:0:0:0:
128,192,293282,1,0,0:0:0:70:Kick3.wav
469,192,293282,128,0,294482:0:0:0:0:
42,192,293432,128,0,293507:0:0:0:0:
128,192,293582,1,0,0:0:0:70:Calp.wav
213,192,293582,128,0,293657:0:0:0:70:Kick3.wav
384,192,293582,1,0,0:0:0:0:
384,192,293732,128,0,294032:0:0:0:0:
42,192,293882,1,0,0:0:0:70:Kick3.wav
298,192,293882,1,0,0:0:0:0:
42,192,294032,1,0,0:0:0:70:Kick3.wav
213,192,294032,128,0,294107:0:0:0:0:
42,192,294182,128,0,294257:0:0:0:70:Calp.wav
128,192,294182,1,0,0:0:0:0:
384,192,294182,1,0,0:0:0:0:
298,192,294332,128,0,294407:0:0:0:70:Kick3.wav
384,192,294332,1,0,0:0:0:0:
42,192,294482,1,0,0:0:0:70:Calp.wav
128,192,294482,128,0,294557:0:0:0:0:
213,192,294482,1,0,0:0:0:0:
128,192,294632,128,0,294707:0:0:0:70:Kick3.wav
298,192,294632,1,0,0:0:0:0:
42,192,294782,1,0,0:0:0:70:Calp.wav
384,192,294782,128,0,294857:0:0:0:0:
469,192,294782,1,0,0:0:0:0:
213,192,294932,128,0,295007:0:0:0:0:
42,192,295082,1,0,0:0:0:70:Calp.wav
128,192,295082,1,0,0:0:0:0:
469,192,295082,128,0,295232:0:0:0:0:
42,192,295182,1,0,0:0:0:70:Kick3.wav
128,192,295182,1,0,0:0:0:0:
298,192,295282,1,0,0:0:0:70:Kick3.wav
384,192,295282,1,0,0:0:0:0:
213,192,295382,128,0,295682:0:0:0:60:Kick3.wav
298,192,295482,1,0,0:0:0:60:Kick3.wav
298,192,295582,1,0,0:0:0:50:Kick3.wav
42,192,295682,128,0,295757:0:0:0:70:Crash.wav
128,192,295682,128,0,295757:0:0:0:70:Kick3.wav
469,192,295682,1,0,0:0:0:0:
42,192,295832,128,0,295907:0:0:0:70:Kick3.wav
128,192,295832,128,0,295907:0:0:0:0:
42,192,295982,128,0,296057:0:0:0:70:Kick3.wav
128,192,295982,128,0,296057:0:0:0:0:
298,192,296132,128,0,296282:0:0:0:70:Kick3.wav
384,192,296132,1,0,0:0:0:0:
42,192,296282,1,0,0:0:0:70:Calp.wav
128,192,296282,1,0,0:0:0:0:
469,192,296282,128,0,296432:0:0:0:0:
42,192,296432,1,0,0:0:0:70:Crash2.wav
213,192,296432,1,0,0:0:0:70:Kick3.wav
298,192,296432,128,0,296582:0:0:0:0:
469,192,296582,128,0,296732:0:0:0:0:
42,192,296732,1,0,0:0:0:70:Calp.wav
128,192,296732,1,0,0:0:0:0:
298,192,296732,128,0,296882:0:0:0:0:
42,192,296882,128,0,296957:0:0:0:70:Crash.wav
213,192,296882,128,0,296957:0:0:0:70:Kick3.wav
384,192,296882,1,0,0:0:0:0:
42,192,297032,128,0,297107:0:0:0:70:Calp.wav
213,192,297032,128,0,297107:0:0:0:0:
469,192,297032,1,0,0:0:0:0:
42,192,297182,128,0,297257:0:0:0:70:Kick3.wav
213,192,297182,128,0,297257:0:0:0:0:
298,192,297332,128,0,297482:0:0:0:70:Kick3.wav
469,192,297332,1,0,0:0:0:0:
42,192,297482,1,0,0:0:0:70:Calp.wav
213,192,297482,1,0,0:0:0:0:
384,192,297482,128,0,297632:0:0:0:0:
128,192,297632,1,0,0:0:0:70:Crash2.wav
213,192,297632,1,0,0:0:0:70:Kick3.wav
469,192,297632,128,0,297782:0:0:0:0:
298,192,297782,128,0,297932:0:0:0:0:
384,192,297932,128,0,298082:0:0:0:0:
128,192,298082,128,0,298157:0:0:0:70:Crash.wav
213,192,298082,128,0,298157:0:0:0:70:Kick3.wav
469,192,298082,1,0,0:0:0:0:
128,192,298232,128,0,298307:0:0:0:70:Kick3.wav
213,192,298232,128,0,298307:0:0:0:0:
128,192,298382,128,0,298457:0:0:0:70:Kick3.wav
213,192,298382,128,0,298457:0:0:0:0:
298,192,298532,1,0,0:0:0:70:Kick3.wav
384,192,298532,128,0,298682:0:0:0:0:
42,192,298682,1,0,0:0:0:70:Calp.wav
213,192,298682,1,0,0:0:0:0:
469,192,298682,128,0,298832:0:0:0:0:
42,192,298832,1,0,0:0:0:70:Crash2.wav
128,192,298832,1,0,0:0:0:70:Kick3.wav
384,192,298832,128,0,298982:0:0:0:0:
298,192,298982,128,0,299132:0:0:0:0:
469,192,299132,128,0,299282:0:0:0:0:
42,192,299282,128,0,299357:0:0:0:70:Crash.wav
128,192,299282,128,0,299357:0:0:0:70:Kick3.wav
384,192,299282,1,0,0:0:0:0:
42,192,299432,128,0,299507:0:0:0:70:Calp.wav
128,192,299432,128,0,299507:0:0:0:0:
298,192,299432,1,0,0:0:0:0:
42,192,299582,128,0,299657:0:0:0:70:Kick3.wav
128,192,299582,128,0,299657:0:0:0:0:
42,192,299732,128,0,299807:0:0:0:70:Kick3.wav
128,192,299732,128,0,299807:0:0:0:0:
213,192,299882,1,0,0:0:0:70:Calp.wav
469,192,299882,1,0,0:0:0:0:
384,192,299957,1,0,0:0:0:50:Kick3.wav
42,192,300032,1,0,0:0:0:50:Kick3.wav
298,192,300107,1,0,0:0:0:50:Kick3.wav
128,192,300182,1,0,0:0:0:70:Crash3.wav
213,192,300182,1,0,0:0:0:70:Calp.wav
469,192,300182,1,0,0:0:0:0:
128,192,300332,128,0,300407:0:0:0:0:
213,192,300482,128,0,300557:0:0:0:70:Kick3.wav
298,192,300482,1,0,0:0:0:0:
298,192,300632,128,0,300707:0:0:0:70:Kick3.wav
128,192,300782,1,0,0:0:0:70:Calp.wav
213,192,300782,1,0,0:0:0:0:
384,192,300782,128,0,300857:0:0:0:0:
213,192,300932,1,0,0:0:0:70:Kick3.wav
469,192,300932,128,0,301082:0:0:0:0:
42,192,301082,1,0,0:0:0:70:Calp.wav
128,192,301082,1,0,0:0:0:0:
384,192,301082,1,0,0:0:0:0:
42,192,301232,1,0,0:0:0:40:Clap.wav
128,192,301232,1,0,0:0:0:0:
213,192,301307,1,0,0:0:0:40:Clap.wav
298,192,301307,1,0,0:0:0:0:
384,192,301382,1,0,0:0:0:40:Clap.wav
469,192,301382,1,0,0:0:0:70:Kick3.wav
42,192,301457,1,0,0:0:0:40:Clap.wav
128,192,301457,1,0,0:0:0:0:
213,192,301532,1,0,0:0:0:40:Clap.wav
298,192,301532,1,0,0:0:0:0:
384,192,301607,1,0,0:0:0:40:Clap.wav
469,192,301607,1,0,0:0:0:0:
213,192,301682,128,0,301832:0:0:0:70:Crash3.wav
298,192,301682,128,0,301832:0:0:0:70:Kick3.wav
42,192,301832,128,0,301907:0:0:0:0:
213,192,301982,128,0,302132:0:0:0:0:
298,192,301982,128,0,302132:0:0:0:0:
469,192,302132,128,0,302207:0:0:0:0:
42,192,302282,1,0,0:0:0:70:Kick3.wav
128,192,302282,1,0,0:0:0:0:
384,192,302282,128,0,302432:0:0:0:0:
213,192,302432,1,0,0:0:0:40:Clap.wav
298,192,302432,1,0,0:0:0:0:
42,192,302507,1,0,0:0:0:40:Clap.wav
469,192,302507,1,0,0:0:0:0:
213,192,302582,1,0,0:0:0:40:Clap.wav
298,192,302582,1,0,0:0:0:70:Kick3.wav
42,192,302657,1,0,0:0:0:40:Clap.wav
469,192,302657,1,0,0:0:0:0:
213,192,302732,1,0,0:0:0:40:Clap.wav
298,192,302732,1,0,0:0:0:0:
42,192,302807,1,0,0:0:0:40:Clap.wav
469,192,302807,1,0,0:0:0:0:
128,192,302882,1,0,0:0:0:70:Crush.wav
213,192,302882,1,0,0:0:0:70:Kick3.wav
298,192,302882,1,0,0:0:0:0:
384,192,302882,128,0,302957:0:0:0:0:
384,192,303032,128,0,303107:0:0:0:0:
42,192,303182,1,0,0:0:0:70:Calp.wav
298,192,303182,1,0,0:0:0:70:Kick3.wav
384,192,303182,128,0,303257:0:0:0:0:
213,192,303332,128,0,303407:0:0:0:0:
213,192,303482,128,0,303557:0:0:0:70:Kick3.wav
469,192,303482,1,0,0:0:0:0:
213,192,303632,128,0,303707:0:0:0:0:
42,192,303782,128,0,303857:0:0:0:70:Calp.wav
128,192,303782,1,0,0:0:0:70:Kick3.wav
384,192,303782,1,0,0:0:0:0:
42,192,303932,128,0,304007:0:0:0:0:
213,192,304082,1,0,0:0:0:70:Kick3.wav
469,192,304082,128,0,304157:0:0:0:0:
469,192,304232,128,0,304307:0:0:0:0:
128,192,304382,1,0,0:0:0:70:Calp.wav
384,192,304382,1,0,0:0:0:70:Kick3.wav
469,192,304382,128,0,304457:0:0:0:0:
298,192,304532,128,0,304607:0:0:0:0:
42,192,304682,1,0,0:0:0:70:Kick3.wav
298,192,304682,128,0,304757:0:0:0:0:
298,192,304832,128,0,304907:0:0:0:0:
128,192,304982,128,0,305057:0:0:0:70:Calp.wav
213,192,304982,1,0,0:0:0:70:Kick3.wav
469,192,304982,1,0,0:0:0:0:
128,192,305132,128,0,305207:0:0:0:0:
128,192,305282,1,0,0:0:0:70:Kick3.wav
384,192,305282,128,0,305357:0:0:0:0:
384,192,305432,128,0,305507:0:0:0:0:
42,192,305582,1,0,0:0:0:70:Calp.wav
298,192,305582,1,0,0:0:0:70:Kick3.wav
384,192,305582,128,0,305657:0:0:0:0:
213,192,305732,128,0,305807:0:0:0:0:
213,192,305882,128,0,305957:0:0:0:70:Kick3.wav
469,192,305882,1,0,0:0:0:0:
213,192,306032,128,0,306107:0:0:0:0:
42,192,306182,128,0,306257:0:0:0:70:Calp.wav
128,192,306182,1,0,0:0:0:70:Kick3.wav
384,192,306182,1,0,0:0:0:0:
42,192,306332,128,0,306407:0:0:0:0:
213,192,306482,1,0,0:0:0:70:Kick3.wav
469,192,306482,128,0,306557:0:0:0:0:
469,192,306632,128,0,306707:0:0:0:0:
128,192,306782,1,0,0:0:0:70:Calp.wav
384,192,306782,1,0,0:0:0:70:Kick3.wav
469,192,306782,128,0,306857:0:0:0:0:
298,192,306932,128,0,307007:0:0:0:0:
42,192,307082,1,0,0:0:0:70:Kick3.wav
298,192,307082,128,0,307157:0:0:0:0:
42,192,307232,1,0,0:0:0:70:Kick3.wav
298,192,307232,128,0,307307:0:0:0:0:
128,192,307382,128,0,307457:0:0:0:70:Calp.wav
213,192,307382,1,0,0:0:0:0:
469,192,307382,1,0,0:0:0:0:
128,192,307532,128,0,307607:0:0:0:70:Kick3.wav
298,192,307607,1,0,0:0:0:70:Kick3.wav
42,192,307682,1,0,0:0:0:70:Crash.wav
213,192,307682,128,0,307757:0:0:0:70:Calp.wav
384,192,307682,1,0,0:0:0:0:
384,192,307832,1,0,0:0:0:70:Kick3.wav
469,192,307832,128,0,307907:0:0:0:0:
42,192,307982,1,0,0:0:0:70:Calp.wav
128,192,307982,128,0,308057:0:0:0:0:
213,192,307982,1,0,0:0:0:0:
213,192,308132,1,0,0:0:0:70:Kick3.wav
384,192,308132,128,0,308207:0:0:0:0:
42,192,308282,128,0,308357:0:0:0:70:Calp.wav
298,192,308282,1,0,0:0:0:0:
469,192,308282,1,0,0:0:0:0:
213,192,308432,1,0,0:0:0:70:Kick3.wav
298,192,308432,128,0,308732:0:0:0:0:
42,192,308582,1,0,0:0:0:70:Calp.wav
128,192,308582,1,0,0:0:0:0:
213,192,308582,1,0,0:0:0:0:
42,192,308732,1,0,0:0:0:70:Crash2.wav
384,192,308732,128,0,308957:0:0:0:70:Kick3.wav
469,192,308732,128,0,308957:0:0:0:0:
42,192,309032,1,0,0:0:0:80:Clap.wav
128,192,309032,1,0,0:0:0:0:
298,192,309032,1,0,0:0:0:0:
42,192,309182,1,0,0:0:0:80:Clap.wav
213,192,309182,1,0,0:0:0:0:
384,192,309182,1,0,0:0:0:0:
42,192,309332,1,0,0:0:0:80:Clap.wav
298,192,309332,1,0,0:0:0:0:
469,192,309332,1,0,0:0:0:0:
213,192,309482,1,0,0:0:0:70:Kick3.wav
298,192,309482,1,0,0:0:0:0:
213,192,309632,1,0,0:0:0:70:Calp.wav
384,192,309632,1,0,0:0:0:0:
469,192,309632,1,0,0:0:0:0:
128,192,309782,1,0,0:0:0:70:Calp.wav
298,192,309782,1,0,0:0:0:0:
469,192,309782,1,0,0:0:0:0:
42,192,309932,128,0,310082:0:0:0:70:Calp.wav
213,192,309932,128,0,310082:0:0:0:0:
469,192,309932,128,0,310082:0:0:0:0:
