osu file format v14

[General]
AudioFilename: audio.mp3
AudioLeadIn: 0
PreviewTime: 266132
Countdown: 0
SampleSet: Soft
StackLeniency: 0.7
Mode: 3
LetterboxInBreaks: 0
SpecialStyle: 0
WidescreenStoryboard: 0

[Editor]
DistanceSpacing: 0.7
BeatDivisor: 4
GridSize: 32
TimelineZoom: 2

[Metadata]
Title:1,000,000 TIMES
TitleUnicode:1,000,000 TIMES
Artist:MY FIRST STORY feat. chelly (EGOIST)
ArtistUnicode:MY FIRST STORY feat. chelly (EGOIST)
Creator:Lita-
Version:Everlasting Collab
Source:DUEL MASTERS PLAY’S
Tags:デュエル・マスターズ プレイス one million 1000000 collab collaboration full version MFS Myfirststory opening video game mobile japanese rock j-rock jrock Single plays play's Stelar Yuiazu- Onii_ue Kanon Matsubara
BeatmapID:3014108
BeatmapSetID:1467805

[Difficulty]
HPDrainRate:8.5
CircleSize:4
OverallDifficulty:8.5
ApproachRate:10
SliderMultiplier:1.4
SliderTickRate:1

[Events]
//Background and Video events
0,0,"Chan Hina.jpg",0,0
//Break Periods
2,142316,147816
//Storyboard Layer 0 (Background)
//Storyboard Layer 1 (Fail)
//Storyboard Layer 2 (Pass)
//Storyboard Layer 3 (Foreground)
//Storyboard Layer 4 (Overlay)
//Storyboard Sound Samples
Sample,42816,0,"Tom2.wav",50

[TimingPoints]
666,300,4,2,1,50,1,0
10266,-100,4,2,1,60,0,0
27066,-100,4,2,1,65,0,0
43866,-100,4,2,1,55,0,0
72666,-100,4,2,1,40,0,0
75066,-100,4,2,1,50,0,0
77466,-100,4,2,1,70,0,1
113466,-100,4,2,1,65,0,0
123066,-100,4,2,1,45,0,0
132066,-100,4,2,1,55,0,0
142266,-100,4,2,1,40,0,0
148266,-100,4,2,1,50,0,0
154266,-100,4,2,1,70,0,1
190266,-100,4,2,1,60,0,0
203541,-100,4,2,1,45,0,0
204666,317.460317460317,4,2,1,45,1,0
204666,-94.3396226415094,4,2,1,45,0,0
205142,389.61038961039,4,2,1,45,1,8
205142,-76.9230769230769,4,2,1,45,0,0
205434,350.877192982456,4,2,1,45,1,8
205434,-85.4700854700855,4,2,1,45,0,0
205609,338.983050847458,4,2,1,45,1,8
205609,-88.495575221239,4,2,1,45,0,0
205863,317.460317460317,4,2,1,45,1,8
205863,-94.3396226415094,4,2,1,45,0,0
206101,368.098159509202,4,2,1,45,1,8
206101,-81.3008130081301,4,2,1,45,0,0
206377,287.081339712919,4,2,1,45,1,8
206377,-104.166666666667,4,2,1,45,0,0
206592,400,4,2,1,45,1,8
206592,-75.187969924812,4,2,1,45,0,0
206892,458.015267175573,4,2,1,45,1,8
206892,-65.359477124183,4,2,1,45,0,0
207235,303.030303030303,4,2,1,45,1,0
207235,-99.009900990099,4,2,1,45,0,0
207462,297.029702970297,4,2,1,45,1,8
207462,-101.010101010101,4,2,1,45,0,0
207684,389.61038961039,4,2,1,45,1,8
207684,-76.9230769230769,4,2,1,45,0,0
207976,260.869565217391,4,2,1,45,1,8
207976,-114.942528735632,4,2,1,45,0,0
208171,317.460317460317,4,2,1,45,1,8
208171,-94.3396226415094,4,2,1,45,0,0
208409,338.983050847458,4,2,1,45,1,8
208409,-88.495575221239,4,2,1,45,0,0
208663,303.030303030303,4,2,1,45,1,8
208663,-99.009900990099,4,2,1,45,0,0
208890,272.727272727273,4,2,1,45,1,8
208890,-109.89010989011,4,2,1,45,0,0
209094,303.030303030303,4,2,1,45,1,8
209094,-99.009900990099,4,2,1,45,0,0
209397,324.324324324324,4,2,1,45,1,8
209397,-92.5925925925926,4,2,1,45,0,0
209723,315.789473684211,4,2,1,45,1,0
209723,-95.2380952380952,4,2,1,45,0,0
219828,-95.2380952380952,4,2,1,50,0,0
224882,300,4,2,1,45,1,0
244082,-100,4,2,1,50,0,0
253682,-100,4,2,1,55,0,0
266132,-100,4,2,1,60,0,0
276482,-100,4,2,1,70,0,1
302882,-100,4,2,1,65,0,0

[HitObjects]
64,192,666,5,0,0:0:0:0:
192,192,816,1,0,0:0:0:0:
320,192,966,1,0,0:0:0:0:
448,192,966,1,0,0:0:0:0:
64,192,1116,1,0,0:0:0:0:
192,192,1266,1,0,0:0:0:0:
320,192,1416,1,0,0:0:0:0:
448,192,1416,1,0,0:0:0:0:
192,192,1566,1,0,0:0:0:0:
64,192,1716,1,0,0:0:0:0:
448,192,1866,1,0,0:0:0:0:
320,192,2016,1,0,0:0:0:0:
64,192,2166,1,0,0:0:0:0:
192,192,2166,1,0,0:0:0:0:
448,192,2316,1,0,0:0:0:0:
320,192,2466,1,0,0:0:0:0:
64,192,2616,1,0,0:0:0:0:
192,192,2616,1,0,0:0:0:0:
320,192,2766,1,0,0:0:0:0:
448,192,2916,1,0,0:0:0:0:
64,192,3066,1,0,0:0:0:0:
320,192,3216,1,0,0:0:0:0:
64,192,3366,1,0,0:0:0:0:
192,192,3366,1,0,0:0:0:0:
448,192,3516,1,0,0:0:0:0:
192,192,3666,1,0,0:0:0:0:
320,192,3816,1,0,0:0:0:0:
448,192,3816,1,0,0:0:0:0:
64,192,3966,1,0,0:0:0:0:
448,192,4116,1,0,0:0:0:0:
192,192,4266,1,0,0:0:0:0:
320,192,4416,1,0,0:0:0:0:
64,192,4566,1,0,0:0:0:0:
448,192,4566,1,0,0:0:0:0:
320,192,4716,1,0,0:0:0:0:
192,192,4866,1,0,0:0:0:0:
64,192,5016,1,0,0:0:0:0:
448,192,5016,1,0,0:0:0:0:
320,192,5166,1,0,0:0:0:0:
192,192,5316,1,0,0:0:0:0:
448,192,5466,1,0,0:0:0:0:
320,192,5616,1,0,0:0:0:0:
64,192,5766,1,0,0:0:0:0:
192,192,5766,1,0,0:0:0:0:
448,192,5916,1,0,0:0:0:0:
320,192,6066,1,0,0:0:0:0:
64,192,6216,1,0,0:0:0:0:
192,192,6216,1,0,0:0:0:0:
320,192,6366,1,0,0:0:0:0:
448,192,6516,1,0,0:0:0:0:
64,192,6666,1,0,0:0:0:0:
320,192,6816,1,0,0:0:0:0:
64,192,6966,1,0,0:0:0:0:
192,192,6966,1,0,0:0:0:0:
448,192,7116,1,0,0:0:0:0:
192,192,7266,1,0,0:0:0:0:
320,192,7416,1,0,0:0:0:0:
448,192,7416,1,0,0:0:0:0:
64,192,7566,1,0,0:0:0:0:
448,192,7716,1,0,0:0:0:0:
192,192,7866,1,0,0:0:0:0:
320,192,8016,1,0,0:0:0:0:
64,192,8166,1,0,0:0:0:0:
448,192,8166,1,0,0:0:0:0:
320,192,8316,1,0,0:0:0:0:
192,192,8466,1,0,0:0:0:0:
64,192,8616,1,0,0:0:0:0:
448,192,8616,1,0,0:0:0:0:
192,192,8766,1,0,0:0:0:0:
320,192,8916,1,0,0:0:0:0:
64,192,9066,1,0,0:0:0:0:
192,192,9216,1,0,0:0:0:0:
320,192,9366,1,0,0:0:0:0:
448,192,9366,1,0,0:0:0:0:
64,192,9516,1,0,0:0:0:0:
448,192,9666,1,0,0:0:0:50:Ride.wav
320,192,9741,1,0,0:0:0:50:Ride.wav
192,192,9816,1,0,0:0:0:50:Ride.wav
64,192,9891,1,0,0:0:0:50:Ride.wav
320,192,9966,1,0,0:0:0:50:Ride 2.wav
448,192,9966,128,0,10266:0:0:0:0:
64,192,10266,128,2,11466:0:0:0:0:
192,192,10266,1,4,0:0:0:0:
320,192,10266,1,0,0:0:0:0:
448,192,10416,1,0,0:0:0:0:
192,192,10566,1,0,0:0:0:0:
448,192,10716,1,0,0:0:0:60:Hat open.wav
320,192,10866,1,0,0:0:0:0:
192,192,11016,1,0,0:0:0:0:
320,192,11166,1,0,0:0:0:60:Hat open.wav
448,192,11316,1,0,0:0:0:0:
320,192,11466,128,0,12666:0:0:0:0:
64,192,11616,1,0,0:0:0:0:
448,192,11766,1,0,0:0:0:0:
64,192,11916,1,0,0:0:0:0:
192,192,12066,1,0,0:0:0:60:Hat open.wav
448,192,12216,1,0,0:0:0:0:
192,192,12366,1,0,0:0:0:0:
64,192,12516,1,0,0:0:0:0:
192,192,12666,128,0,13866:0:0:0:50:Ride.wav
448,192,12816,1,0,0:0:0:0:
64,192,12966,1,0,0:0:0:0:
448,192,13116,1,0,0:0:0:60:Hat open.wav
320,192,13266,1,0,0:0:0:0:
64,192,13416,1,0,0:0:0:0:
448,192,13566,1,0,0:0:0:60:Hat open.wav
320,192,13716,1,0,0:0:0:0:
448,192,13866,128,0,15066:0:0:0:0:
64,192,14016,1,0,0:0:0:60:Hat open.wav
320,192,14166,1,0,0:0:0:0:
64,192,14316,1,0,0:0:0:0:
192,192,14466,1,0,0:0:0:60:Hat open.wav
320,192,14616,1,0,0:0:0:0:
64,192,14766,1,0,0:0:0:0:
192,192,14916,1,0,0:0:0:0:
64,192,15066,128,0,16266:0:0:0:50:Ride.wav
320,192,15216,1,0,0:0:0:40:Hat open.wav
448,192,15366,1,0,0:0:0:0:
192,192,15516,1,0,0:0:0:40:Hat open.wav
320,192,15666,1,0,0:0:0:0:
448,192,15816,1,0,0:0:0:0:
320,192,15966,1,0,0:0:0:45:Ride.wav
192,192,16116,1,0,0:0:0:0:
192,192,16266,1,4,0:0:0:0:
320,192,16266,1,8,0:0:0:0:
448,192,16266,1,0,0:0:0:0:
64,192,16416,1,0,0:0:0:50:Tom1.wav
192,192,16416,1,0,0:0:0:0:
320,192,16491,1,0,0:0:0:60:Tom2.wav
64,192,16566,1,0,0:0:0:60:Tom3.wav
448,192,16566,1,0,0:0:0:0:
192,192,16641,1,2,0:0:0:0:
64,192,16716,1,8,0:0:0:0:
320,192,16716,1,0,0:0:0:45:Crash 2.wav
448,192,16716,1,0,0:0:0:0:
64,192,17016,1,8,0:0:0:0:
192,192,17016,1,0,0:0:0:0:
448,192,17016,1,0,0:0:0:0:
64,192,17166,1,8,0:0:0:0:
320,192,17166,1,0,0:0:0:0:
448,192,17166,1,0,0:0:0:0:
64,192,17316,1,8,0:0:0:0:
192,192,17316,1,0,0:0:0:0:
320,192,17316,1,0,0:0:0:0:
192,192,17466,1,4,0:0:0:0:
320,192,17466,128,2,17616:0:0:0:0:
448,192,17466,128,0,18066:0:0:0:0:
64,192,17616,128,0,17766:0:0:0:0:
320,192,17766,128,0,17916:0:0:0:0:
64,192,17916,128,0,18066:0:0:0:0:
192,192,18066,128,0,18366:0:0:0:0:
320,192,18216,128,0,18366:0:0:0:0:
64,192,18366,128,0,18666:0:0:0:0:
192,192,18516,128,0,18666:0:0:0:0:
448,192,18666,128,0,18966:0:0:0:0:
320,192,18816,128,0,18966:0:0:0:0:
64,192,18966,128,0,19266:0:0:0:0:
192,192,19116,128,0,19266:0:0:0:0:
448,192,19266,1,0,0:0:0:0:
320,192,19341,1,0,0:0:0:0:
64,192,19416,1,8,0:0:0:0:
192,192,19416,1,0,0:0:0:60:Tom3.wav
448,192,19416,1,0,0:0:0:0:
192,192,19566,1,8,0:0:0:0:
320,192,19566,1,0,0:0:0:60:Tom3.wav
448,192,19566,1,0,0:0:0:0:
64,192,19716,1,2,0:0:0:0:
192,192,19716,1,0,0:0:0:0:
320,192,19716,1,0,0:0:0:0:
64,192,19866,128,2,20166:0:0:0:0:
320,192,19866,1,4,0:0:0:0:
448,192,19866,1,0,0:0:0:0:
192,192,20016,128,0,20166:0:0:0:0:
448,192,20166,128,0,20466:0:0:0:0:
320,192,20316,128,0,20466:0:0:0:0:
64,192,20466,128,0,20766:0:0:0:0:
448,192,20616,128,0,20766:0:0:0:0:
320,192,20766,128,0,21066:0:0:0:0:
192,192,20916,128,0,21066:0:0:0:0:
64,192,21066,128,0,21366:0:0:0:0:
192,192,21216,128,0,21366:0:0:0:0:
448,192,21366,128,0,21666:0:0:0:0:
320,192,21516,128,0,21666:0:0:0:0:
64,192,21666,1,0,0:0:0:30:Ride.wav
192,192,21741,1,0,0:0:0:35:Ride.wav
448,192,21816,128,0,22191:0:0:0:40:Ride.wav
320,192,21891,128,0,22191:0:0:0:45:Ride.wav
64,192,21966,128,0,22191:0:0:0:60:Ride.wav
192,192,21966,128,0,22191:0:0:0:0:
64,192,22266,1,2,0:0:0:0:
192,192,22266,1,4,0:0:0:0:
448,192,22266,1,0,0:0:0:0:
320,192,22416,1,8,0:0:0:0:
448,192,22416,1,0,0:0:0:0:
192,192,22491,1,8,0:0:0:0:
64,192,22566,1,8,0:0:0:0:
448,192,22566,1,2,0:0:0:0:
320,192,22641,1,8,0:0:0:0:
64,192,22716,1,8,0:0:0:0:
192,192,22716,1,0,0:0:0:0:
320,192,22791,1,8,0:0:0:0:
64,192,22866,1,8,0:0:0:0:
448,192,22866,1,2,0:0:0:0:
192,192,22941,1,8,0:0:0:0:
320,192,23016,1,8,0:0:0:0:
448,192,23016,1,0,0:0:0:0:
192,192,23091,1,8,0:0:0:0:
64,192,23166,1,8,0:0:0:0:
448,192,23166,1,2,0:0:0:0:
320,192,23241,1,8,0:0:0:0:
64,192,23316,1,8,0:0:0:0:
192,192,23316,1,0,0:0:0:0:
320,192,23391,1,8,0:0:0:0:
64,192,23466,1,8,0:0:0:0:
448,192,23466,1,2,0:0:0:0:
192,192,23541,1,8,0:0:0:0:
320,192,23616,1,8,0:0:0:0:
448,192,23616,1,0,0:0:0:0:
64,192,23691,1,8,0:0:0:0:
192,192,23766,1,8,0:0:0:0:
320,192,23766,1,2,0:0:0:0:
448,192,23841,1,8,0:0:0:0:
64,192,23916,1,8,0:0:0:0:
192,192,23916,1,0,0:0:0:0:
320,192,23991,1,8,0:0:0:0:
64,192,24066,1,8,0:0:0:0:
448,192,24066,1,2,0:0:0:0:
192,192,24141,1,8,0:0:0:0:
320,192,24216,1,8,0:0:0:0:
448,192,24216,1,0,0:0:0:0:
192,192,24291,1,8,0:0:0:0:
64,192,24366,1,8,0:0:0:0:
448,192,24366,1,2,0:0:0:0:
320,192,24441,1,8,0:0:0:0:
64,192,24516,1,8,0:0:0:0:
192,192,24516,1,0,0:0:0:0:
448,192,24591,1,8,0:0:0:0:
192,192,24666,1,2,0:0:0:0:
320,192,24666,1,4,0:0:0:0:
64,192,24741,1,8,0:0:0:0:
320,192,24816,1,8,0:0:0:0:
448,192,24816,1,0,0:0:0:0:
192,192,24891,1,8,0:0:0:0:
64,192,24966,1,8,0:0:0:0:
448,192,24966,1,0,0:0:0:0:
320,192,25041,1,8,0:0:0:0:
64,192,25116,1,2,0:0:0:0:
192,192,25116,1,0,0:0:0:0:
320,192,25191,1,2,0:0:0:0:
448,192,25266,1,0,0:0:0:50:Tom1.wav
192,192,25341,1,0,0:0:0:60:Tom2.wav
320,192,25416,1,2,0:0:0:0:
64,192,25491,1,2,0:0:0:0:
192,192,25566,1,0,0:0:0:60:Tom2.wav
448,192,25641,1,0,0:0:0:60:Tom3.wav
320,192,25716,1,2,0:0:0:0:
192,192,25791,1,2,0:0:0:0:
64,192,25866,128,8,26016:0:0:0:0:
320,192,25866,1,0,0:0:0:60:Crash 2.wav
448,192,25866,1,0,0:0:0:0:
448,192,26016,128,0,26166:0:0:0:0:
192,192,26166,128,0,26316:0:0:0:0:
320,192,26316,128,0,26466:0:0:0:0:
64,192,26466,128,0,26766:0:0:0:0:
192,192,26766,1,8,0:0:0:0:
320,192,26766,1,0,0:0:0:0:
448,192,26766,1,0,0:0:0:0:
64,192,27066,1,4,0:0:0:0:
192,192,27066,1,2,0:0:0:0:
448,192,27066,128,0,27141:0:0:0:0:
448,192,27216,128,0,27291:0:0:0:0:
64,192,27366,1,8,0:0:0:0:
320,192,27366,1,2,0:0:0:0:
448,192,27366,128,0,27441:0:0:0:45:Crash 2.wav
192,192,27516,128,0,27591:0:0:0:0:
448,192,27666,1,2,0:0:0:0:
192,192,27666,128,0,27741:0:0:0:45:Crash 2.wav
192,192,27816,128,0,27891:0:0:0:0:
64,192,27966,128,8,28041:0:0:0:0:
320,192,27966,1,2,0:0:0:0:
448,192,27966,1,0,0:0:0:45:Crash 2.wav
64,192,28116,128,0,28191:0:0:0:0:
320,192,28266,1,2,0:0:0:0:
448,192,28266,128,0,28341:0:0:0:45:Crash 2.wav
448,192,28416,128,0,28491:0:0:0:0:
64,192,28566,1,8,0:0:0:0:
192,192,28566,1,2,0:0:0:0:
448,192,28566,128,0,28641:0:0:0:45:Crash 2.wav
320,192,28716,128,0,28791:0:0:0:0:
320,192,28866,128,2,28941:0:0:0:0:
64,192,28866,1,0,0:0:0:45:Crash 2.wav
320,192,29016,128,0,29091:0:0:0:0:
64,192,29166,1,8,0:0:0:0:
192,192,29166,128,2,29241:0:0:0:0:
448,192,29166,1,0,0:0:0:45:Crash 2.wav
192,192,29316,128,0,29391:0:0:0:0:
320,192,29466,1,2,0:0:0:0:
448,192,29466,128,0,29541:0:0:0:45:Crash 2.wav
448,192,29616,128,0,29691:0:0:0:0:
64,192,29766,1,2,0:0:0:0:
320,192,29766,1,8,0:0:0:0:
448,192,29766,128,0,29841:0:0:0:45:Crash 2.wav
192,192,29916,128,0,29991:0:0:0:0:
192,192,30066,128,2,30141:0:0:0:0:
448,192,30066,1,0,0:0:0:45:Crash 2.wav
192,192,30216,128,0,30291:0:0:0:0:
64,192,30366,1,2,0:0:0:0:
320,192,30366,128,8,30441:0:0:0:0:
448,192,30366,1,0,0:0:0:45:Crash 2.wav
320,192,30516,128,0,30591:0:0:0:0:
192,192,30666,1,2,0:0:0:0:
448,192,30666,128,0,30741:0:0:0:45:Crash 2.wav
448,192,30816,128,0,30891:0:0:0:0:
64,192,30966,1,8,0:0:0:0:
192,192,30966,1,2,0:0:0:0:
448,192,30966,128,0,31041:0:0:0:45:Crash 2.wav
320,192,31116,128,0,31191:0:0:0:0:
320,192,31266,128,2,31341:0:0:0:0:
448,192,31266,1,0,0:0:0:45:Crash 2.wav
320,192,31416,128,0,31491:0:0:0:0:
64,192,31566,1,8,0:0:0:0:
192,192,31566,128,2,31641:0:0:0:0:
448,192,31566,1,0,0:0:0:45:Crash 2.wav
192,192,31716,128,0,31791:0:0:0:0:
64,192,31866,1,2,0:0:0:0:
320,192,31866,1,4,0:0:0:0:
448,192,31866,128,0,31941:0:0:0:0:
448,192,32016,128,0,32091:0:0:0:0:
64,192,32166,1,2,0:0:0:0:
320,192,32166,1,8,0:0:0:0:
448,192,32166,128,0,32241:0:0:0:45:Crash 2.wav
192,192,32316,128,0,32391:0:0:0:0:
64,192,32466,1,2,0:0:0:0:
192,192,32466,128,0,32541:0:0:0:45:Crash 2.wav
192,192,32616,128,0,32691:0:0:0:0:
64,192,32766,128,2,32841:0:0:0:0:
320,192,32766,1,8,0:0:0:0:
448,192,32766,1,0,0:0:0:45:Crash 2.wav
64,192,32916,128,0,32991:0:0:0:0:
320,192,33066,1,2,0:0:0:0:
448,192,33066,128,0,33141:0:0:0:45:Crash 2.wav
448,192,33216,128,0,33291:0:0:0:0:
64,192,33366,1,8,0:0:0:0:
192,192,33366,1,2,0:0:0:0:
448,192,33366,128,0,33441:0:0:0:45:Crash 2.wav
320,192,33516,128,0,33591:0:0:0:0:
320,192,33666,128,2,33741:0:0:0:0:
448,192,33666,1,0,0:0:0:45:Crash 2.wav
320,192,33816,128,0,33891:0:0:0:0:
64,192,33966,1,8,0:0:0:0:
192,192,33966,128,2,34041:0:0:0:0:
448,192,33966,1,0,0:0:0:45:Crash 2.wav
192,192,34116,128,0,34191:0:0:0:0:
320,192,34266,1,2,0:0:0:0:
448,192,34266,128,0,34341:0:0:0:45:Crash 2.wav
448,192,34416,128,0,34491:0:0:0:0:
64,192,34566,1,2,0:0:0:0:
320,192,34566,1,8,0:0:0:0:
448,192,34566,128,0,34641:0:0:0:45:Crash 2.wav
192,192,34716,128,0,34791:0:0:0:0:
192,192,34866,128,2,34941:0:0:0:0:
448,192,34866,1,0,0:0:0:45:Crash 2.wav
192,192,35016,128,0,35091:0:0:0:0:
64,192,35166,1,2,0:0:0:0:
320,192,35166,128,8,35241:0:0:0:0:
448,192,35166,1,0,0:0:0:45:Crash 2.wav
320,192,35316,128,0,35391:0:0:0:0:
64,192,35466,1,2,0:0:0:0:
448,192,35466,1,0,0:0:0:60:Crash 2.wav
64,192,35616,1,2,0:0:0:0:
192,192,35616,1,0,0:0:0:0:
320,192,35616,1,0,0:0:0:0:
64,192,35766,1,8,0:0:0:0:
320,192,35766,1,0,0:0:0:0:
448,192,35766,1,0,0:0:0:0:
192,192,35916,1,2,0:0:0:0:
320,192,35916,128,4,36216:0:0:0:0:
448,192,35916,128,0,36216:0:0:0:0:
64,192,36216,1,8,0:0:0:0:
192,192,36216,1,0,0:0:0:0:
320,192,36291,1,8,0:0:0:0:
448,192,36291,1,0,0:0:0:0:
64,192,36366,1,8,0:0:0:0:
192,192,36366,1,0,0:0:0:0:
320,192,36441,1,8,0:0:0:0:
448,192,36441,1,0,0:0:0:0:
64,192,36516,1,8,0:0:0:0:
192,192,36516,1,0,0:0:0:0:
320,192,36591,1,8,0:0:0:0:
64,192,36666,1,2,0:0:0:0:
192,192,36666,1,4,0:0:0:0:
448,192,36666,128,0,36741:0:0:0:0:
448,192,36816,128,0,36891:0:0:0:0:
64,192,36966,1,8,0:0:0:0:
320,192,36966,1,2,0:0:0:0:
448,192,36966,128,0,37041:0:0:0:60:Crash 2.wav
192,192,37116,128,0,37191:0:0:0:0:
64,192,37266,1,2,0:0:0:0:
192,192,37266,128,0,37341:0:0:0:45:Crash 2.wav
192,192,37416,128,0,37491:0:0:0:0:
64,192,37566,128,8,37641:0:0:0:0:
320,192,37566,1,2,0:0:0:0:
448,192,37566,1,0,0:0:0:45:Crash 2.wav
64,192,37716,128,0,37791:0:0:0:0:
320,192,37866,1,2,0:0:0:0:
448,192,37866,128,0,37941:0:0:0:45:Crash 2.wav
448,192,38016,128,0,38091:0:0:0:0:
64,192,38166,1,8,0:0:0:0:
192,192,38166,1,2,0:0:0:0:
448,192,38166,128,0,38241:0:0:0:45:Crash 2.wav
320,192,38316,128,0,38391:0:0:0:0:
320,192,38466,128,2,38541:0:0:0:0:
448,192,38466,1,0,0:0:0:45:Crash 2.wav
320,192,38616,128,0,38691:0:0:0:0:
64,192,38766,1,8,0:0:0:0:
192,192,38766,128,2,38841:0:0:0:0:
448,192,38766,1,0,0:0:0:45:Crash 2.wav
192,192,38916,128,0,38991:0:0:0:0:
320,192,39066,1,2,0:0:0:0:
448,192,39066,128,0,39141:0:0:0:45:Crash 2.wav
448,192,39216,128,0,39291:0:0:0:0:
64,192,39366,1,2,0:0:0:0:
320,192,39366,1,8,0:0:0:0:
448,192,39366,128,0,39441:0:0:0:45:Crash 2.wav
192,192,39516,128,0,39591:0:0:0:0:
192,192,39666,128,2,39741:0:0:0:0:
448,192,39666,1,0,0:0:0:45:Crash 2.wav
192,192,39816,128,0,39891:0:0:0:0:
64,192,39966,1,2,0:0:0:0:
320,192,39966,128,8,40041:0:0:0:0:
448,192,39966,1,0,0:0:0:45:Crash 2.wav
320,192,40116,128,0,40191:0:0:0:0:
192,192,40266,1,2,0:0:0:0:
448,192,40266,128,0,40341:0:0:0:45:Crash 2.wav
448,192,40416,128,0,40491:0:0:0:0:
64,192,40566,1,8,0:0:0:0:
320,192,40566,1,2,0:0:0:0:
448,192,40566,128,0,40641:0:0:0:45:Crash 2.wav
192,192,40716,128,0,40791:0:0:0:0:
64,192,40866,1,2,0:0:0:0:
192,192,40866,128,0,40941:0:0:0:45:Crash 2.wav
320,192,41016,1,2,0:0:0:0:
448,192,41016,1,0,0:0:0:0:
64,192,41166,1,8,0:0:0:0:
192,192,41166,1,0,0:0:0:0:
320,192,41241,1,8,0:0:0:0:
64,192,41316,1,2,0:0:0:0:
448,192,41316,1,0,0:0:0:0:
192,192,41391,1,2,0:0:0:0:
64,192,41466,1,4,0:0:0:0:
320,192,41466,1,8,0:0:0:0:
448,192,41466,1,0,0:0:0:0:
192,192,41616,1,2,0:0:0:0:
320,192,41616,1,0,0:0:0:0:
64,192,41766,1,8,0:0:0:0:
192,192,41766,1,0,0:0:0:40:Hat open.wav
448,192,41766,1,0,0:0:0:0:
320,192,41916,1,2,0:0:0:0:
448,192,41916,1,0,0:0:0:0:
64,192,42066,1,8,0:0:0:0:
192,192,42066,1,0,0:0:0:40:Hat open.wav
320,192,42066,1,0,0:0:0:0:
64,192,42216,1,2,0:0:0:0:
448,192,42216,1,0,0:0:0:0:
192,192,42366,1,8,0:0:0:0:
320,192,42366,1,0,0:0:0:40:Hat open.wav
448,192,42366,1,0,0:0:0:0:
64,192,42516,1,2,0:0:0:0:
192,192,42516,1,0,0:0:0:0:
64,192,42666,1,8,0:0:0:0:
320,192,42666,1,0,0:0:0:0:
448,192,42666,1,0,0:0:0:0:
192,192,42741,1,0,0:0:0:50:Tom1.wav
320,192,42816,1,2,0:0:0:0:
448,192,42891,1,2,0:0:0:0:
64,192,42966,1,8,0:0:0:0:
192,192,42966,1,0,0:0:0:0:
320,192,42966,1,0,0:0:0:0:
64,192,43116,1,2,0:0:0:0:
192,192,43116,1,4,0:0:0:0:
320,192,43116,1,0,0:0:0:0:
448,192,43116,1,0,0:0:0:0:
64,192,43416,1,8,0:0:0:0:
320,192,43416,1,0,0:0:0:0:
448,192,43416,1,0,0:0:0:0:
64,192,43566,1,8,0:0:0:0:
320,192,43566,1,0,0:0:0:0:
448,192,43566,1,0,0:0:0:0:
64,192,43716,1,8,0:0:0:0:
320,192,43716,1,0,0:0:0:0:
448,192,43716,1,0,0:0:0:0:
64,192,43866,1,2,0:0:0:0:
192,192,43866,128,0,44166:0:0:0:60:Crash 2.wav
448,192,43866,1,0,0:0:0:0:
64,192,44166,1,8,0:0:0:0:
320,192,44166,1,2,0:0:0:0:
448,192,44166,1,0,0:0:0:0:
192,192,44316,1,0,0:0:0:0:
64,192,44466,1,2,0:0:0:0:
448,192,44466,1,0,0:0:0:0:
192,192,44616,1,8,0:0:0:0:
320,192,44616,128,0,44766:0:0:0:0:
448,192,44616,1,0,0:0:0:0:
64,192,44766,1,2,0:0:0:0:
192,192,44766,1,0,0:0:0:0:
448,192,44916,128,0,45066:0:0:0:0:
64,192,45066,1,2,0:0:0:0:
320,192,45066,1,0,0:0:0:0:
192,192,45216,1,0,0:0:0:0:
64,192,45366,1,8,0:0:0:0:
192,192,45366,1,2,0:0:0:0:
448,192,45366,1,0,0:0:0:0:
320,192,45516,1,0,0:0:0:0:
64,192,45666,1,2,0:0:0:0:
320,192,45666,1,0,0:0:0:0:
64,192,45816,1,8,0:0:0:0:
192,192,45816,1,0,0:0:0:0:
448,192,45816,1,0,0:0:0:0:
192,192,45966,1,2,0:0:0:0:
320,192,45966,1,0,0:0:0:0:
448,192,46116,1,0,0:0:0:0:
64,192,46266,1,2,0:0:0:0:
320,192,46266,1,0,0:0:0:0:
448,192,46266,128,0,46566:0:0:0:0:
64,192,46566,1,8,0:0:0:0:
192,192,46566,1,2,0:0:0:0:
320,192,46566,1,0,0:0:0:0:
448,192,46716,1,0,0:0:0:0:
192,192,46866,1,2,0:0:0:0:
320,192,46866,1,0,0:0:0:0:
64,192,47016,128,8,47166:0:0:0:0:
192,192,47016,1,0,0:0:0:0:
448,192,47016,1,0,0:0:0:0:
320,192,47166,1,2,0:0:0:0:
448,192,47166,1,0,0:0:0:0:
192,192,47316,128,0,47466:0:0:0:0:
64,192,47466,1,2,0:0:0:0:
448,192,47466,1,0,0:0:0:0:
320,192,47616,1,0,0:0:0:0:
64,192,47766,1,8,0:0:0:0:
320,192,47766,1,2,0:0:0:0:
448,192,47766,1,0,0:0:0:0:
192,192,47916,1,0,0:0:0:0:
192,192,48066,1,2,0:0:0:0:
448,192,48066,1,0,0:0:0:0:
64,192,48216,1,8,0:0:0:0:
320,192,48216,1,0,0:0:0:0:
448,192,48216,1,0,0:0:0:0:
64,192,48366,1,2,0:0:0:0:
192,192,48366,1,0,0:0:0:0:
320,192,48516,1,8,0:0:0:0:
448,192,48516,1,0,0:0:0:0:
64,192,48591,1,8,0:0:0:0:
192,192,48591,1,0,0:0:0:0:
320,192,48666,128,2,48966:0:0:0:0:
448,192,48666,1,0,0:0:0:0:
64,192,48966,1,8,0:0:0:0:
192,192,48966,1,2,0:0:0:0:
448,192,48966,1,0,0:0:0:0:
320,192,49116,1,0,0:0:0:0:
64,192,49266,1,2,0:0:0:0:
192,192,49266,1,0,0:0:0:0:
64,192,49416,1,8,0:0:0:0:
320,192,49416,1,0,0:0:0:0:
448,192,49416,128,0,49566:0:0:0:0:
192,192,49566,1,2,0:0:0:0:
320,192,49566,1,0,0:0:0:0:
64,192,49716,128,0,49866:0:0:0:0:
320,192,49866,1,2,0:0:0:0:
448,192,49866,1,0,0:0:0:0:
192,192,50016,1,0,0:0:0:0:
64,192,50166,1,8,0:0:0:0:
192,192,50166,1,2,0:0:0:0:
448,192,50166,1,0,0:0:0:0:
320,192,50316,1,0,0:0:0:0:
64,192,50466,1,2,0:0:0:0:
320,192,50466,1,0,0:0:0:0:
64,192,50616,1,8,0:0:0:0:
192,192,50616,1,0,0:0:0:0:
448,192,50616,1,0,0:0:0:0:
192,192,50766,1,2,0:0:0:0:
320,192,50766,1,0,0:0:0:0:
448,192,50916,1,0,0:0:0:0:
64,192,51066,128,2,51366:0:0:0:0:
320,192,51066,1,0,0:0:0:0:
448,192,51066,1,0,0:0:0:0:
192,192,51366,1,8,0:0:0:0:
320,192,51366,1,2,0:0:0:0:
448,192,51366,1,0,0:0:0:0:
64,192,51516,1,0,0:0:0:0:
320,192,51666,1,2,0:0:0:0:
448,192,51666,1,0,0:0:0:0:
64,192,51816,128,8,51966:0:0:0:0:
192,192,51816,1,0,0:0:0:0:
448,192,51816,1,0,0:0:0:0:
192,192,51966,1,2,0:0:0:0:
320,192,51966,1,0,0:0:0:0:
448,192,52116,128,0,52266:0:0:0:0:
64,192,52266,1,2,0:0:0:0:
192,192,52266,1,0,0:0:0:0:
64,192,52416,1,8,0:0:0:0:
320,192,52416,128,4,52491:0:0:0:0:
448,192,52416,128,0,52491:0:0:0:0:
320,192,52566,1,2,0:0:0:0:
448,192,52566,1,0,0:0:0:0:
64,192,52716,128,8,52791:0:0:0:0:
192,192,52716,128,0,52791:0:0:0:60:Crash 2.wav
448,192,52716,1,0,0:0:0:0:
64,192,52866,1,2,0:0:0:0:
192,192,52866,1,0,0:0:0:0:
320,192,53016,1,8,0:0:0:0:
448,192,53016,1,0,0:0:0:0:
64,192,53091,1,8,0:0:0:0:
192,192,53091,1,0,0:0:0:0:
320,192,53166,1,8,0:0:0:0:
448,192,53166,1,2,0:0:0:0:
64,192,53241,1,8,0:0:0:0:
192,192,53241,1,0,0:0:0:0:
320,192,53316,1,8,0:0:0:0:
448,192,53316,1,0,0:0:0:0:
192,192,53391,1,8,0:0:0:0:
64,192,53466,1,2,0:0:0:0:
320,192,53466,1,4,0:0:0:0:
448,192,53466,128,0,53766:0:0:0:0:
64,192,53766,1,8,0:0:0:0:
192,192,53766,1,0,0:0:0:60:Crash 2.wav
320,192,53766,1,0,0:0:0:0:
448,192,53916,1,0,0:0:0:0:
64,192,54066,1,2,0:0:0:0:
192,192,54066,1,0,0:0:0:0:
64,192,54216,1,8,0:0:0:0:
320,192,54216,1,0,0:0:0:0:
448,192,54216,128,0,54366:0:0:0:0:
192,192,54366,1,2,0:0:0:0:
320,192,54366,1,0,0:0:0:0:
64,192,54516,128,8,54666:0:0:0:0:
192,192,54516,1,0,0:0:0:0:
448,192,54516,1,0,0:0:0:0:
320,192,54666,1,2,0:0:0:0:
448,192,54666,1,0,0:0:0:0:
192,192,54816,1,0,0:0:0:0:
64,192,54966,1,8,0:0:0:0:
192,192,54966,1,2,0:0:0:0:
448,192,54966,1,0,0:0:0:0:
320,192,55116,1,0,0:0:0:0:
192,192,55266,1,2,0:0:0:0:
320,192,55266,1,0,0:0:0:0:
448,192,55416,1,0,0:0:0:0:
64,192,55566,1,8,0:0:0:0:
320,192,55566,1,2,0:0:0:0:
448,192,55566,1,0,0:0:0:0:
64,192,55716,1,8,0:0:0:0:
192,192,55716,1,0,0:0:0:0:
320,192,55791,1,8,0:0:0:0:
192,192,55866,128,2,56166:0:0:0:0:
448,192,55866,1,0,0:0:0:0:
64,192,56166,1,8,0:0:0:0:
320,192,56166,1,2,0:0:0:0:
448,192,56166,1,0,0:0:0:0:
192,192,56316,1,0,0:0:0:0:
320,192,56466,1,2,0:0:0:0:
448,192,56466,1,0,0:0:0:0:
64,192,56616,1,8,0:0:0:0:
192,192,56616,1,0,0:0:0:0:
448,192,56616,128,0,56766:0:0:0:0:
64,192,56766,1,2,0:0:0:0:
320,192,56766,1,0,0:0:0:0:
192,192,56916,128,8,57066:0:0:0:0:
320,192,56916,1,0,0:0:0:0:
448,192,56916,1,0,0:0:0:0:
64,192,57066,1,2,0:0:0:0:
448,192,57066,1,0,0:0:0:0:
192,192,57216,1,0,0:0:0:0:
64,192,57366,1,8,0:0:0:0:
192,192,57366,1,2,0:0:0:0:
320,192,57366,1,0,0:0:0:0:
448,192,57516,1,0,0:0:0:0:
320,192,57666,1,2,0:0:0:0:
448,192,57666,1,0,0:0:0:0:
64,192,57816,1,8,0:0:0:0:
192,192,57816,1,0,0:0:0:0:
320,192,57891,1,8,0:0:0:0:
448,192,57891,1,0,0:0:0:0:
64,192,57966,1,8,0:0:0:0:
192,192,57966,1,2,0:0:0:0:
320,192,58041,1,8,0:0:0:0:
448,192,58041,1,0,0:0:0:0:
64,192,58116,1,8,0:0:0:0:
192,192,58116,1,0,0:0:0:0:
320,192,58191,1,8,0:0:0:0:
64,192,58266,128,2,58566:0:0:0:0:
192,192,58266,1,0,0:0:0:0:
448,192,58266,1,0,0:0:0:0:
192,192,58566,1,8,0:0:0:0:
320,192,58566,1,2,0:0:0:0:
448,192,58566,1,0,0:0:0:0:
64,192,58716,1,0,0:0:0:0:
192,192,58866,1,2,0:0:0:0:
320,192,58866,1,0,0:0:0:0:
64,192,59016,1,8,0:0:0:0:
320,192,59016,128,0,59166:0:0:0:0:
448,192,59016,1,0,0:0:0:0:
64,192,59166,1,2,0:0:0:0:
192,192,59166,1,0,0:0:0:0:
192,192,59316,128,8,59466:0:0:0:0:
320,192,59316,1,0,0:0:0:0:
448,192,59316,1,0,0:0:0:0:
64,192,59466,1,2,0:0:0:0:
448,192,59466,1,0,0:0:0:0:
320,192,59616,1,0,0:0:0:0:
64,192,59766,1,8,0:0:0:0:
192,192,59766,1,2,0:0:0:0:
320,192,59766,1,0,0:0:0:0:
448,192,59916,1,0,0:0:0:0:
192,192,60066,1,2,0:0:0:0:
448,192,60066,1,0,0:0:0:0:
64,192,60216,128,0,60366:0:0:0:0:
192,192,60366,1,8,0:0:0:0:
320,192,60366,1,2,0:0:0:0:
448,192,60366,1,0,0:0:0:0:
64,192,60516,1,8,0:0:0:0:
192,192,60516,1,0,0:0:0:0:
320,192,60591,1,8,0:0:0:0:
448,192,60591,1,0,0:0:0:0:
64,192,60666,1,2,0:0:0:0:
192,192,60666,128,0,60966:0:0:0:0:
64,192,60966,1,8,0:0:0:0:
320,192,60966,1,2,0:0:0:0:
448,192,60966,1,0,0:0:0:0:
192,192,61116,1,0,0:0:0:0:
192,192,61266,1,2,0:0:0:0:
448,192,61266,1,0,0:0:0:0:
64,192,61416,1,8,0:0:0:0:
320,192,61416,128,0,61491:0:0:0:0:
448,192,61416,128,0,61491:0:0:0:0:
320,192,61566,1,2,0:0:0:0:
448,192,61566,1,0,0:0:0:0:
64,192,61716,128,8,61791:0:0:0:0:
192,192,61716,128,0,61791:0:0:0:60:Crash 2.wav
320,192,61716,1,0,0:0:0:0:
64,192,61866,1,2,0:0:0:0:
192,192,61866,1,0,0:0:0:0:
64,192,62016,128,8,62091:0:0:0:0:
320,192,62016,1,4,0:0:0:0:
448,192,62016,128,0,62091:0:0:0:0:
64,192,62166,1,2,0:0:0:0:
448,192,62166,1,0,0:0:0:0:
192,192,62316,128,8,62391:0:0:0:0:
320,192,62316,128,0,62391:0:0:0:60:Crash 2.wav
448,192,62316,1,0,0:0:0:0:
192,192,62466,1,2,0:0:0:0:
320,192,62466,1,0,0:0:0:0:
64,192,62616,1,8,0:0:0:0:
320,192,62616,1,0,0:0:0:60:Tom3.wav
448,192,62616,1,0,0:0:0:0:
64,192,62766,1,8,0:0:0:0:
192,192,62766,1,0,0:0:0:60:Tom3.wav
320,192,62766,1,0,0:0:0:0:
64,192,62916,1,8,0:0:0:0:
192,192,62916,1,0,0:0:0:60:Tom3.wav
448,192,62916,1,0,0:0:0:0:
320,192,63066,128,2,63141:0:0:0:0:
448,192,63066,1,0,0:0:0:0:
320,192,63216,128,2,63291:0:0:0:0:
448,192,63216,1,0,0:0:0:0:
64,192,63366,1,2,0:0:0:0:
192,192,63366,128,0,63441:0:0:0:0:
64,192,63516,1,2,0:0:0:0:
192,192,63516,128,0,63591:0:0:0:0:
192,192,63666,1,8,0:0:0:0:
320,192,63666,1,4,0:0:0:0:
448,192,63666,1,0,0:0:0:0:
64,192,63816,1,2,0:0:0:0:
448,192,63816,128,0,63966:0:0:0:0:
192,192,63966,1,2,0:0:0:0:
320,192,63966,1,0,0:0:0:0:
64,192,64116,128,8,64266:0:0:0:0:
192,192,64116,1,0,0:0:0:0:
448,192,64116,1,0,0:0:0:0:
320,192,64266,1,0,0:0:0:0:
64,192,64416,1,8,0:0:0:0:
192,192,64416,1,0,0:0:0:60:Crash 2.wav
448,192,64416,1,0,0:0:0:0:
64,192,64566,1,8,0:0:0:0:
192,192,64566,1,0,0:0:0:60:Crash 2.wav
448,192,64566,1,0,0:0:0:0:
320,192,64716,1,0,0:0:0:0:
192,192,64791,1,8,0:0:0:0:
64,192,64866,1,2,0:0:0:0:
320,192,64866,1,0,0:0:0:0:
448,192,64866,1,0,0:0:0:0:
192,192,65016,1,8,0:0:0:0:
320,192,65016,1,0,0:0:0:0:
448,192,65016,1,0,0:0:0:0:
64,192,65166,1,8,0:0:0:0:
192,192,65166,1,0,0:0:0:0:
448,192,65166,1,0,0:0:0:0:
64,192,65316,1,8,0:0:0:0:
192,192,65316,1,0,0:0:0:0:
320,192,65316,1,0,0:0:0:0:
64,192,65466,1,2,0:0:0:0:
320,192,65466,1,4,0:0:0:0:
448,192,65466,128,0,65541:0:0:0:0:
320,192,65616,1,2,0:0:0:0:
448,192,65616,128,0,65691:0:0:0:0:
64,192,65766,128,2,65841:0:0:0:0:
192,192,65766,1,0,0:0:0:0:
64,192,65916,128,2,65991:0:0:0:0:
192,192,65916,1,0,0:0:0:0:
64,192,66066,1,8,0:0:0:0:
320,192,66066,1,0,0:0:0:60:Crash 2.wav
448,192,66066,1,0,0:0:0:0:
192,192,66216,128,2,66366:0:0:0:0:
448,192,66216,1,0,0:0:0:0:
64,192,66366,1,2,0:0:0:0:
320,192,66366,1,0,0:0:0:0:
64,192,66516,1,8,0:0:0:0:
320,192,66516,128,0,66666:0:0:0:60:Hat open.wav
448,192,66516,1,0,0:0:0:0:
192,192,66666,1,0,0:0:0:0:
64,192,66816,1,8,0:0:0:0:
320,192,66816,1,0,0:0:0:60:Crash 2.wav
448,192,66816,1,0,0:0:0:0:
64,192,66966,1,8,0:0:0:0:
320,192,66966,1,0,0:0:0:60:Crash 2.wav
448,192,66966,1,0,0:0:0:0:
192,192,67116,1,0,0:0:0:0:
320,192,67191,1,8,0:0:0:0:
448,192,67191,1,0,0:0:0:0:
64,192,67266,1,8,0:0:0:0:
192,192,67266,1,0,0:0:0:0:
320,192,67366,1,8,0:0:0:0:
448,192,67366,1,0,0:0:0:0:
64,192,67466,1,0,0:0:0:50:Tom1.wav
192,192,67466,1,0,0:0:0:0:
64,192,67566,1,0,0:0:0:60:Tom2.wav
192,192,67566,1,0,0:0:0:0:
320,192,67666,1,0,0:0:0:60:Tom3.wav
448,192,67666,1,0,0:0:0:0:
320,192,67766,1,0,0:0:0:60:Tom3.wav
448,192,67766,1,0,0:0:0:0:
64,192,67866,1,2,0:0:0:0:
192,192,67866,128,4,67941:0:0:0:0:
64,192,68016,1,2,0:0:0:0:
192,192,68016,128,0,68091:0:0:0:0:
320,192,68166,128,2,68241:0:0:0:0:
448,192,68166,1,0,0:0:0:0:
320,192,68316,128,0,68391:0:0:0:0:
448,192,68316,1,0,0:0:0:0:
192,192,68466,1,0,0:0:0:0:
64,192,68616,128,8,68766:0:0:0:0:
320,192,68616,1,0,0:0:0:60:Crash 2.wav
448,192,68616,1,0,0:0:0:0:
192,192,68766,1,8,0:0:0:0:
320,192,68766,1,0,0:0:0:0:
448,192,68766,1,0,0:0:0:0:
64,192,68916,1,2,0:0:0:0:
192,192,68916,1,4,0:0:0:0:
448,192,68916,128,0,69066:0:0:0:0:
192,192,69066,1,0,0:0:0:0:
64,192,69216,1,8,0:0:0:0:
320,192,69216,1,0,0:0:0:0:
448,192,69216,1,0,0:0:0:0:
64,192,69366,1,8,0:0:0:0:
192,192,69366,1,0,0:0:0:0:
448,192,69366,1,0,0:0:0:0:
320,192,69441,1,0,0:0:0:50:Tom1.wav
64,192,69516,1,0,0:0:0:60:Tom2.wav
448,192,69516,1,0,0:0:0:0:
192,192,69591,1,0,0:0:0:60:Tom3.wav
64,192,69666,1,8,0:0:0:0:
320,192,69666,1,0,0:0:0:0:
448,192,69666,1,0,0:0:0:0:
192,192,69816,1,2,0:0:0:0:
320,192,69816,128,0,69966:0:0:0:45:Hat open.wav
64,192,69966,1,0,0:0:0:0:
192,192,70116,128,2,70416:0:0:0:0:
320,192,70116,1,4,0:0:0:0:
448,192,70116,1,0,0:0:0:0:
64,192,70416,1,2,0:0:0:0:
320,192,70416,1,0,0:0:0:0:
64,192,70566,1,8,0:0:0:0:
192,192,70566,1,0,0:0:0:0:
448,192,70566,1,0,0:0:0:0:
320,192,70716,1,0,0:0:0:0:
64,192,70791,1,0,0:0:0:60:Tom2.wav
192,192,70791,1,0,0:0:0:0:
320,192,70866,1,2,0:0:0:0:
448,192,70866,1,0,0:0:0:60:Tom3.wav
192,192,71016,1,0,0:0:0:60:Tom3.wav
448,192,71016,1,0,0:0:0:0:
64,192,71166,1,8,0:0:0:0:
192,192,71166,1,0,0:0:0:0:
320,192,71166,1,0,0:0:0:0:
448,192,71316,1,0,0:0:0:0:
64,192,71466,1,2,0:0:0:0:
192,192,71466,1,0,0:0:0:60:Tom3.wav
192,192,71616,1,2,0:0:0:0:
448,192,71616,1,0,0:0:0:0:
64,192,71766,1,8,0:0:0:0:
320,192,71766,1,0,0:0:0:60:Crash 2.wav
448,192,71766,1,0,0:0:0:0:
192,192,71916,1,2,0:0:0:0:
320,192,71916,1,0,0:0:0:0:
64,192,72066,1,8,0:0:0:0:
448,192,72066,1,0,0:0:0:0:
192,192,72141,1,0,0:0:0:60:Tom2.wav
320,192,72216,1,0,0:0:0:60:Tom2.wav
448,192,72291,1,0,0:0:0:60:Tom3.wav
64,192,72366,1,8,0:0:0:0:
192,192,72366,1,0,0:0:0:0:
320,192,72441,1,8,0:0:0:0:
448,192,72441,1,0,0:0:0:0:
64,192,72516,1,8,0:0:0:0:
192,192,72516,1,0,0:0:0:0:
320,192,72591,1,8,0:0:0:0:
448,192,72591,1,0,0:0:0:0:
64,192,72666,128,0,73566:0:0:0:0:
192,192,72666,1,0,0:0:0:0:
320,192,72741,1,0,0:0:0:0:
448,192,73566,128,0,73866:0:0:0:0:
192,192,73866,128,0,74166:0:0:0:0:
320,192,74166,128,0,74316:0:0:0:0:
64,192,74316,128,0,74616:0:0:0:0:
448,192,74616,128,0,74766:0:0:0:0:
192,192,74766,128,0,74916:0:0:0:0:
320,192,74916,128,0,75066:0:0:0:0:
64,192,75066,1,8,0:0:0:0:
192,192,75066,1,4,0:0:0:0:
448,192,75066,1,0,0:0:0:0:
320,192,75216,1,0,0:0:0:50:Tom1.wav
448,192,75216,1,0,0:0:0:0:
192,192,75291,1,0,0:0:0:60:Tom2.wav
64,192,75366,1,2,0:0:0:0:
448,192,75366,1,0,0:0:0:0:
320,192,75441,1,2,0:0:0:0:
64,192,75516,1,8,0:0:0:0:
192,192,75516,1,0,0:0:0:60:Crash 2.wav
448,192,75516,1,0,0:0:0:0:
192,192,75666,1,0,0:0:0:50:Tom1.wav
320,192,75666,1,0,0:0:0:0:
64,192,75741,1,0,0:0:0:60:Tom2.wav
320,192,75816,1,2,0:0:0:0:
448,192,75816,1,0,0:0:0:0:
192,192,75891,1,2,0:0:0:0:
64,192,75966,1,8,0:0:0:0:
320,192,75966,1,0,0:0:0:0:
448,192,75966,1,0,0:0:0:0:
64,192,76116,1,2,0:0:0:0:
192,192,76116,1,0,0:0:0:45:Hat open.wav
448,192,76116,1,0,0:0:0:0:
64,192,76866,128,0,77016:0:0:0:0:
192,192,76941,128,0,77091:0:0:0:0:
320,192,77016,128,0,77166:0:0:0:0:
448,192,77091,128,0,77241:0:0:0:0:
64,192,77166,128,0,77316:0:0:0:0:
192,192,77241,128,0,77391:0:0:0:0:
320,192,77316,128,0,77466:0:0:0:0:
448,192,77391,128,0,77466:0:0:0:0:
64,192,77466,1,2,0:0:0:0:
192,192,77466,1,4,0:0:0:0:
320,192,77616,1,0,0:0:0:0:
64,192,77766,1,8,0:0:0:0:
192,192,77766,1,2,0:0:0:0:
448,192,77766,1,0,0:0:0:40:Crash 2.wav
64,192,77916,1,0,0:0:0:0:
320,192,78066,1,2,0:0:0:0:
448,192,78066,1,0,0:0:0:40:Crash 2.wav
192,192,78216,1,0,0:0:0:0:
64,192,78366,1,8,0:0:0:0:
320,192,78366,1,2,0:0:0:0:
448,192,78366,1,0,0:0:0:40:Crash 2.wav
320,192,78516,1,0,0:0:0:0:
64,192,78666,1,2,0:0:0:0:
192,192,78666,1,0,0:0:0:40:Crash 2.wav
448,192,78816,1,0,0:0:0:0:
64,192,78966,1,8,0:0:0:0:
192,192,78966,1,2,0:0:0:0:
320,192,78966,1,0,0:0:0:40:Crash 2.wav
192,192,79116,1,0,0:0:0:0:
64,192,79266,1,2,0:0:0:0:
448,192,79266,1,0,0:0:0:40:Crash 2.wav
320,192,79416,128,0,79566:0:0:0:0:
64,192,79566,1,8,0:0:0:0:
192,192,79566,128,2,79716:0:0:0:0:
448,192,79566,1,0,0:0:0:40:Crash 2.wav
448,192,79716,128,0,79866:0:0:0:0:
64,192,79866,128,2,80016:0:0:0:0:
192,192,79866,1,0,0:0:0:40:Crash 2.wav
448,192,80016,1,0,0:0:0:0:
64,192,80166,1,8,0:0:0:0:
192,192,80166,1,2,0:0:0:0:
320,192,80166,128,0,80316:0:0:0:40:Crash 2.wav
448,192,80316,1,0,0:0:0:0:
64,192,80466,1,2,0:0:0:0:
192,192,80466,128,0,80616:0:0:0:40:Crash 2.wav
320,192,80616,1,0,0:0:0:0:
64,192,80766,1,8,0:0:0:0:
192,192,80766,1,2,0:0:0:0:
448,192,80766,128,0,80916:0:0:0:40:Crash 2.wav
320,192,80916,1,0,0:0:0:0:
64,192,81066,128,2,81216:0:0:0:0:
192,192,81066,1,0,0:0:0:40:Crash 2.wav
448,192,81216,1,0,0:0:0:0:
64,192,81366,1,8,0:0:0:0:
192,192,81366,1,2,0:0:0:0:
320,192,81366,1,0,0:0:0:40:Crash 2.wav
192,192,81516,1,0,0:0:0:0:
64,192,81666,1,2,0:0:0:0:
448,192,81666,1,0,0:0:0:40:Crash 2.wav
320,192,81816,1,0,0:0:0:0:
64,192,81966,1,8,0:0:0:0:
192,192,81966,1,2,0:0:0:0:
448,192,81966,1,0,0:0:0:40:Crash 2.wav
320,192,82116,1,0,0:0:0:0:
64,192,82266,1,4,0:0:0:0:
448,192,82266,128,2,82416:0:0:0:0:
192,192,82266,1,0,0:0:0:0:
192,192,82416,128,0,82566:0:0:0:0:
64,192,82566,1,8,0:0:0:0:
320,192,82566,128,2,82716:0:0:0:0:
448,192,82566,1,0,0:0:0:40:Crash 2.wav
64,192,82716,128,0,82866:0:0:0:0:
320,192,82866,1,2,0:0:0:0:
448,192,82866,128,0,83016:0:0:0:40:Crash 2.wav
192,192,83016,1,0,0:0:0:0:
64,192,83166,128,8,83316:0:0:0:0:
320,192,83166,1,2,0:0:0:0:
448,192,83166,1,0,0:0:0:40:Crash 2.wav
320,192,83316,128,0,83466:0:0:0:0:
64,192,83466,1,2,0:0:0:0:
192,192,83466,128,0,83616:0:0:0:40:Crash 2.wav
448,192,83616,128,0,83766:0:0:0:0:
64,192,83766,128,8,83916:0:0:0:0:
192,192,83766,1,2,0:0:0:0:
320,192,83766,1,0,0:0:0:40:Crash 2.wav
448,192,83916,1,0,0:0:0:0:
192,192,84066,1,2,0:0:0:0:
320,192,84066,1,0,0:0:0:40:Crash 2.wav
64,192,84216,1,0,0:0:0:0:
192,192,84366,1,8,0:0:0:0:
320,192,84366,1,2,0:0:0:0:
448,192,84366,1,0,0:0:0:40:Crash 2.wav
192,192,84516,1,0,0:0:0:0:
320,192,84666,1,2,0:0:0:0:
448,192,84666,128,0,84816:0:0:0:40:Crash 2.wav
64,192,84816,1,0,0:0:0:0:
192,192,84966,1,8,0:0:0:0:
320,192,84966,128,2,85116:0:0:0:0:
448,192,84966,1,0,0:0:0:40:Crash 2.wav
64,192,85116,128,0,85266:0:0:0:0:
320,192,85266,1,2,0:0:0:0:
448,192,85266,128,0,85416:0:0:0:40:Crash 2.wav
64,192,85416,1,2,0:0:0:0:
192,192,85416,1,0,0:0:0:0:
64,192,85566,1,8,0:0:0:0:
320,192,85566,1,0,0:0:0:40:Crash 2.wav
448,192,85566,1,0,0:0:0:0:
192,192,85716,1,2,0:0:0:0:
448,192,85716,1,0,0:0:0:0:
320,192,85791,1,2,0:0:0:0:
64,192,85866,1,8,0:0:0:0:
192,192,85866,1,0,0:0:0:60:Crash 2.wav
448,192,85866,1,0,0:0:0:0:
64,192,86166,1,8,0:0:0:0:
192,192,86166,1,0,0:0:0:60:Crash 2.wav
448,192,86166,1,0,0:0:0:0:
320,192,86466,1,2,0:0:0:0:
448,192,86466,1,0,0:0:0:45:Hat open.wav
64,192,86541,1,8,0:0:0:0:
192,192,86541,1,0,0:0:0:0:
320,192,86616,1,8,0:0:0:0:
448,192,86616,1,0,0:0:0:0:
64,192,86691,1,8,0:0:0:0:
192,192,86691,1,0,0:0:0:0:
320,192,86766,1,8,0:0:0:0:
448,192,86766,1,2,0:0:0:0:
64,192,86841,1,8,0:0:0:0:
192,192,86841,1,0,0:0:0:0:
320,192,86916,1,8,0:0:0:0:
448,192,86916,1,0,0:0:0:0:
192,192,86991,1,8,0:0:0:0:
64,192,87066,128,2,87216:0:0:0:0:
320,192,87066,1,4,0:0:0:0:
448,192,87066,1,0,0:0:0:0:
320,192,87216,128,0,87366:0:0:0:0:
64,192,87366,1,8,0:0:0:0:
192,192,87366,128,2,87516:0:0:0:0:
448,192,87366,1,0,0:0:0:40:Crash 2.wav
320,192,87516,1,0,0:0:0:0:
64,192,87666,128,2,87816:0:0:0:0:
448,192,87666,1,0,0:0:0:40:Crash 2.wav
192,192,87816,1,0,0:0:0:0:
64,192,87966,1,8,0:0:0:0:
320,192,87966,1,2,0:0:0:0:
448,192,87966,128,0,88116:0:0:0:40:Crash 2.wav
192,192,88116,128,0,88266:0:0:0:0:
64,192,88266,1,2,0:0:0:0:
320,192,88266,128,0,88416:0:0:0:40:Crash 2.wav
448,192,88416,1,0,0:0:0:0:
64,192,88566,128,8,88716:0:0:0:0:
192,192,88566,1,2,0:0:0:0:
320,192,88566,1,0,0:0:0:40:Crash 2.wav
448,192,88716,128,0,88866:0:0:0:0:
192,192,88866,1,2,0:0:0:0:
320,192,88866,1,0,0:0:0:40:Crash 2.wav
64,192,89016,128,0,89166:0:0:0:0:
192,192,89166,1,8,0:0:0:0:
320,192,89166,128,2,89316:0:0:0:0:
448,192,89166,1,0,0:0:0:40:Crash 2.wav
192,192,89316,128,0,89466:0:0:0:0:
320,192,89466,1,2,0:0:0:0:
448,192,89466,128,0,89616:0:0:0:40:Crash 2.wav
64,192,89616,1,0,0:0:0:0:
192,192,89766,128,8,89916:0:0:0:0:
320,192,89766,1,2,0:0:0:0:
448,192,89766,1,0,0:0:0:40:Crash 2.wav
64,192,89916,1,0,0:0:0:0:
320,192,90066,128,2,90216:0:0:0:0:
448,192,90066,1,0,0:0:0:40:Crash 2.wav
192,192,90216,1,0,0:0:0:0:
64,192,90366,128,8,90516:0:0:0:0:
320,192,90366,1,2,0:0:0:0:
448,192,90366,1,0,0:0:0:40:Crash 2.wav
192,192,90516,1,0,0:0:0:0:
320,192,90666,1,2,0:0:0:0:
448,192,90666,128,0,90816:0:0:0:40:Crash 2.wav
64,192,90816,1,0,0:0:0:0:
192,192,90966,1,8,0:0:0:0:
320,192,90966,1,2,0:0:0:0:
448,192,90966,1,0,0:0:0:40:Crash 2.wav
320,192,91116,1,0,0:0:0:0:
64,192,91266,1,2,0:0:0:0:
192,192,91266,1,0,0:0:0:40:Crash 2.wav
448,192,91416,1,0,0:0:0:0:
64,192,91566,1,8,0:0:0:0:
192,192,91566,1,2,0:0:0:0:
320,192,91566,1,0,0:0:0:40:Crash 2.wav
192,192,91716,1,8,0:0:0:0:
448,192,91716,1,0,0:0:0:0:
320,192,91791,1,8,0:0:0:0:
64,192,91866,128,4,92016:0:0:0:0:
192,192,91866,1,2,0:0:0:0:
448,192,91866,1,0,0:0:0:0:
320,192,92016,128,0,92166:0:0:0:0:
64,192,92166,1,8,0:0:0:0:
192,192,92166,128,2,92316:0:0:0:0:
448,192,92166,1,0,0:0:0:40:Crash 2.wav
448,192,92316,128,0,92466:0:0:0:0:
64,192,92466,128,2,92616:0:0:0:0:
192,192,92466,1,0,0:0:0:40:Crash 2.wav
320,192,92616,1,0,0:0:0:0:
64,192,92766,1,8,0:0:0:0:
192,192,92766,1,2,0:0:0:0:
448,192,92766,128,0,92916:0:0:0:40:Crash 2.wav
192,192,92916,128,0,93066:0:0:0:0:
320,192,93066,128,2,93216:0:0:0:0:
448,192,93066,1,0,0:0:0:40:Crash 2.wav
64,192,93216,128,0,93366:0:0:0:0:
192,192,93366,1,8,0:0:0:0:
320,192,93366,1,2,0:0:0:0:
448,192,93366,128,0,93516:0:0:0:40:Crash 2.wav
64,192,93516,1,0,0:0:0:0:
192,192,93666,1,2,0:0:0:0:
320,192,93666,1,0,0:0:0:40:Crash 2.wav
448,192,93816,1,0,0:0:0:0:
64,192,93966,1,8,0:0:0:0:
192,192,93966,1,2,0:0:0:0:
320,192,93966,1,0,0:0:0:40:Crash 2.wav
320,192,94116,1,0,0:0:0:0:
64,192,94266,1,2,0:0:0:0:
192,192,94266,1,0,0:0:0:40:Crash 2.wav
320,192,94491,1,8,0:0:0:0:
448,192,94491,1,0,0:0:0:0:
64,192,94566,1,2,0:0:0:0:
192,192,94566,1,0,0:0:0:40:Crash 2.wav
192,192,94716,1,8,0:0:0:0:
320,192,94716,1,0,0:0:0:0:
448,192,94716,1,0,0:0:0:0:
64,192,94866,1,2,0:0:0:0:
448,192,94866,1,0,0:0:0:40:Crash 2.wav
64,192,95091,1,8,0:0:0:0:
192,192,95091,1,0,0:0:0:0:
320,192,95166,1,2,0:0:0:0:
448,192,95166,1,0,0:0:0:40:Crash 2.wav
64,192,95316,1,8,0:0:0:0:
192,192,95316,1,0,0:0:0:0:
320,192,95316,1,0,0:0:0:0:
64,192,95466,1,2,0:0:0:0:
448,192,95466,1,0,0:0:0:40:Crash 2.wav
192,192,95616,1,2,0:0:0:0:
320,192,95616,1,0,0:0:0:0:
64,192,95766,1,8,0:0:0:0:
320,192,95766,1,4,0:0:0:0:
448,192,95766,1,0,0:0:0:0:
192,192,95916,1,0,0:0:0:0:
320,192,96066,1,2,0:0:0:0:
448,192,96066,1,0,0:0:0:60:Hat open.wav
64,192,96141,1,8,0:0:0:0:
192,192,96141,1,0,0:0:0:0:
320,192,96216,1,8,0:0:0:0:
448,192,96216,1,0,0:0:0:0:
64,192,96291,1,8,0:0:0:0:
192,192,96291,1,0,0:0:0:0:
320,192,96366,1,8,0:0:0:0:
448,192,96366,1,2,0:0:0:0:
64,192,96441,1,8,0:0:0:0:
192,192,96441,1,0,0:0:0:0:
320,192,96516,1,8,0:0:0:0:
448,192,96516,1,0,0:0:0:0:
192,192,96591,1,8,0:0:0:0:
64,192,96666,1,2,0:0:0:0:
320,192,96666,1,4,0:0:0:0:
448,192,96666,1,0,0:0:0:0:
320,192,96816,1,0,0:0:0:0:
64,192,96966,1,8,0:0:0:0:
192,192,96966,1,2,0:0:0:0:
448,192,96966,1,0,0:0:0:60:Crash 2.wav
64,192,97116,1,0,0:0:0:0:
320,192,97266,1,2,0:0:0:0:
448,192,97266,1,0,0:0:0:40:Crash 2.wav
192,192,97416,1,0,0:0:0:0:
64,192,97566,1,8,0:0:0:0:
320,192,97566,1,2,0:0:0:0:
448,192,97566,1,0,0:0:0:40:Crash 2.wav
448,192,97716,1,0,0:0:0:0:
64,192,97866,1,2,0:0:0:0:
192,192,97866,1,0,0:0:0:40:Crash 2.wav
320,192,98016,1,0,0:0:0:0:
64,192,98166,1,8,0:0:0:0:
192,192,98166,1,2,0:0:0:0:
448,192,98166,1,0,0:0:0:40:Crash 2.wav
192,192,98316,1,0,0:0:0:0:
64,192,98466,1,2,0:0:0:0:
448,192,98466,1,0,0:0:0:40:Crash 2.wav
320,192,98616,1,0,0:0:0:0:
64,192,98766,1,8,0:0:0:0:
192,192,98766,1,2,0:0:0:0:
448,192,98766,1,0,0:0:0:40:Crash 2.wav
64,192,98916,1,0,0:0:0:0:
192,192,99066,1,2,0:0:0:0:
320,192,99066,1,0,0:0:0:40:Crash 2.wav
448,192,99216,1,0,0:0:0:0:
64,192,99366,1,8,0:0:0:0:
192,192,99366,1,2,0:0:0:0:
320,192,99366,1,0,0:0:0:40:Crash 2.wav
320,192,99516,1,0,0:0:0:0:
64,192,99666,1,2,0:0:0:0:
448,192,99666,1,0,0:0:0:40:Crash 2.wav
192,192,99816,1,0,0:0:0:0:
64,192,99966,1,8,0:0:0:0:
320,192,99966,1,2,0:0:0:0:
448,192,99966,1,0,0:0:0:40:Crash 2.wav
64,192,100116,1,0,0:0:0:0:
192,192,100266,1,2,0:0:0:0:
448,192,100266,1,0,0:0:0:40:Crash 2.wav
320,192,100416,1,0,0:0:0:0:
64,192,100566,1,8,0:0:0:0:
192,192,100566,1,2,0:0:0:0:
448,192,100566,1,0,0:0:0:40:Crash 2.wav
192,192,100716,1,0,0:0:0:0:
64,192,100866,1,2,0:0:0:0:
320,192,100866,1,0,0:0:0:40:Crash 2.wav
448,192,101016,1,0,0:0:0:0:
64,192,101166,1,8,0:0:0:0:
192,192,101166,1,2,0:0:0:0:
320,192,101166,1,0,0:0:0:40:Crash 2.wav
192,192,101316,1,0,0:0:0:0:
320,192,101466,1,2,0:0:0:0:
448,192,101466,1,0,0:0:0:40:Crash 2.wav
64,192,101616,128,0,101766:0:0:0:0:
192,192,101766,1,8,0:0:0:0:
320,192,101766,128,2,101916:0:0:0:0:
448,192,101766,1,0,0:0:0:40:Crash 2.wav
192,192,101916,128,0,102066:0:0:0:0:
64,192,102066,1,2,0:0:0:0:
448,192,102066,1,0,0:0:0:40:Crash 2.wav
320,192,102216,128,0,102366:0:0:0:0:
64,192,102366,1,8,0:0:0:0:
192,192,102366,128,2,102516:0:0:0:0:
448,192,102366,1,0,0:0:0:40:Crash 2.wav
448,192,102516,128,0,102666:0:0:0:0:
64,192,102666,128,2,102816:0:0:0:0:
192,192,102666,1,0,0:0:0:40:Crash 2.wav
320,192,102816,128,0,102966:0:0:0:0:
64,192,102966,1,8,0:0:0:0:
192,192,102966,128,2,103116:0:0:0:0:
448,192,102966,1,0,0:0:0:40:Crash 2.wav
448,192,103116,128,0,103266:0:0:0:0:
64,192,103266,128,2,103416:0:0:0:0:
192,192,103266,1,0,0:0:0:40:Crash 2.wav
320,192,103416,128,0,103566:0:0:0:0:
64,192,103566,1,8,0:0:0:0:
192,192,103566,128,2,103716:0:0:0:0:
448,192,103566,1,0,0:0:0:40:Crash 2.wav
320,192,103716,1,0,0:0:0:0:
64,192,103866,1,2,0:0:0:0:
192,192,103866,1,0,0:0:0:40:Crash 2.wav
448,192,104016,128,0,104166:0:0:0:0:
64,192,104166,1,8,0:0:0:0:
192,192,104166,128,2,104316:0:0:0:0:
320,192,104166,1,0,0:0:0:40:Crash 2.wav
320,192,104316,128,0,104466:0:0:0:0:
64,192,104466,1,2,0:0:0:0:
448,192,104466,1,0,0:0:0:40:Crash 2.wav
192,192,104616,128,0,104766:0:0:0:0:
64,192,104766,1,8,0:0:0:0:
320,192,104766,128,2,104916:0:0:0:0:
448,192,104766,1,0,0:0:0:40:Crash 2.wav
64,192,104916,128,0,105066:0:0:0:0:
320,192,105066,1,2,0:0:0:0:
448,192,105066,1,0,0:0:0:40:Crash 2.wav
64,192,105216,1,2,0:0:0:0:
192,192,105216,1,0,0:0:0:0:
64,192,105366,1,8,0:0:0:0:
320,192,105366,1,0,0:0:0:0:
448,192,105366,1,0,0:0:0:0:
192,192,105516,1,8,0:0:0:0:
448,192,105516,1,0,0:0:0:0:
320,192,105591,1,8,0:0:0:0:
64,192,105666,1,8,0:0:0:0:
192,192,105666,1,0,0:0:0:0:
320,192,105816,1,0,0:0:0:50:Tom1.wav
448,192,105816,1,0,0:0:0:0:
192,192,105966,1,0,0:0:0:60:Tom3.wav
320,192,105966,1,0,0:0:0:0:
64,192,106116,1,0,0:0:0:60:Tom3.wav
192,192,106116,1,0,0:0:0:0:
64,192,106266,1,2,0:0:0:0:
320,192,106266,1,4,0:0:0:0:
448,192,106266,1,0,0:0:0:0:
192,192,106416,1,2,0:0:0:0:
320,192,106416,1,0,0:0:0:0:
64,192,106566,1,2,0:0:0:0:
448,192,106566,1,0,0:0:0:0:
192,192,106716,128,2,106866:0:0:0:0:
320,192,106716,1,0,0:0:0:0:
64,192,106866,1,8,0:0:0:0:
320,192,106866,128,0,107016:0:0:0:0:
448,192,106866,1,0,0:0:0:0:
64,192,107016,1,2,0:0:0:0:
192,192,107016,128,4,107316:0:0:0:0:
448,192,107016,1,0,0:0:0:0:
64,192,107316,1,8,0:0:0:0:
320,192,107316,1,0,0:0:0:0:
448,192,107316,1,0,0:0:0:0:
64,192,107466,1,2,0:0:0:0:
192,192,107466,1,0,0:0:0:60:Crash 2.wav
192,192,107616,1,8,0:0:0:0:
320,192,107616,1,0,0:0:0:0:
448,192,107616,1,0,0:0:0:0:
64,192,107766,1,2,0:0:0:0:
448,192,107766,1,0,0:0:0:0:
192,192,107916,1,2,0:0:0:0:
320,192,107916,128,0,108066:0:0:0:0:
64,192,108066,1,8,0:0:0:0:
192,192,108066,128,0,108216:0:0:0:0:
448,192,108066,1,0,0:0:0:0:
64,192,108216,1,2,0:0:0:0:
320,192,108216,128,4,108516:0:0:0:0:
448,192,108216,1,0,0:0:0:0:
64,192,108516,1,8,0:0:0:0:
192,192,108516,1,0,0:0:0:0:
448,192,108516,1,0,0:0:0:0:
320,192,108666,1,2,0:0:0:0:
448,192,108666,1,0,0:0:0:60:Crash 2.wav
64,192,108816,1,2,0:0:0:0:
192,192,108816,1,0,0:0:0:0:
64,192,108966,1,2,0:0:0:0:
448,192,108966,1,0,0:0:0:0:
192,192,109116,128,2,109266:0:0:0:0:
320,192,109116,1,0,0:0:0:0:
64,192,109266,1,8,0:0:0:0:
320,192,109266,128,0,109416:0:0:0:0:
448,192,109266,1,0,0:0:0:0:
64,192,109416,1,2,0:0:0:0:
192,192,109416,128,4,109716:0:0:0:0:
448,192,109416,1,0,0:0:0:0:
64,192,109716,1,8,0:0:0:0:
320,192,109716,1,0,0:0:0:0:
448,192,109716,1,0,0:0:0:0:
64,192,109866,1,2,0:0:0:0:
192,192,109866,1,0,0:0:0:60:Crash 2.wav
192,192,110016,1,8,0:0:0:0:
320,192,110016,1,0,0:0:0:0:
448,192,110016,1,0,0:0:0:0:
64,192,110166,1,2,0:0:0:0:
448,192,110166,1,0,0:0:0:0:
192,192,110316,1,2,0:0:0:0:
320,192,110316,1,0,0:0:0:0:
64,192,110466,1,8,0:0:0:0:
192,192,110466,1,0,0:0:0:0:
448,192,110466,1,0,0:0:0:0:
320,192,110541,1,0,0:0:0:50:Tom1.wav
64,192,110616,1,2,0:0:0:0:
448,192,110616,1,0,0:0:0:60:Tom2.wav
192,192,110691,1,2,0:0:0:0:
64,192,110766,1,8,0:0:0:0:
320,192,110766,1,0,0:0:0:60:Crash 2.wav
448,192,110766,1,0,0:0:0:0:
64,192,111066,128,2,111291:0:0:0:0:
192,192,111066,128,4,111291:0:0:0:0:
448,192,111066,128,0,111291:0:0:0:0:
64,192,111366,1,8,0:0:0:0:
192,192,111366,1,2,0:0:0:0:
448,192,111366,1,0,0:0:0:50:Hat open.wav
320,192,111516,1,0,0:0:0:0:
64,192,111666,1,2,0:0:0:0:
448,192,111666,1,0,0:0:0:50:Hat open.wav
64,192,111816,1,8,0:0:0:0:
192,192,111816,1,0,0:0:0:0:
320,192,111891,1,8,0:0:0:0:
448,192,111891,1,0,0:0:0:0:
64,192,111966,1,8,0:0:0:0:
192,192,111966,1,2,0:0:0:0:
320,192,112041,1,8,0:0:0:0:
448,192,112041,1,0,0:0:0:0:
64,192,112116,1,8,0:0:0:0:
192,192,112116,1,0,0:0:0:0:
320,192,112191,1,8,0:0:0:0:
64,192,112266,128,2,112341:0:0:0:0:
192,192,112266,128,0,112341:0:0:0:70:Crash short.wav
448,192,112266,1,0,0:0:0:0:
64,192,112566,128,0,112641:0:0:0:0:
192,192,112566,128,0,112641:0:0:0:0:
64,192,112866,128,2,112941:0:0:0:0:
192,192,112866,128,0,112941:0:0:0:45:Hat open.wav
320,192,112866,1,0,0:0:0:0:
320,192,113016,1,8,0:0:0:0:
448,192,113016,1,0,0:0:0:0:
64,192,113091,1,8,0:0:0:0:
192,192,113091,1,0,0:0:0:0:
320,192,113166,1,8,0:0:0:0:
448,192,113166,1,2,0:0:0:0:
64,192,113241,1,8,0:0:0:0:
192,192,113241,1,0,0:0:0:0:
320,192,113316,1,8,0:0:0:0:
448,192,113316,1,0,0:0:0:0:
192,192,113391,1,8,0:0:0:0:
64,192,113466,128,4,113541:0:0:0:0:
320,192,113466,1,2,0:0:0:0:
448,192,113466,1,0,0:0:0:0:
64,192,113616,128,0,113691:0:0:0:0:
64,192,113766,128,8,113841:0:0:0:0:
192,192,113766,1,2,0:0:0:0:
448,192,113766,1,0,0:0:0:45:Crash 2.wav
320,192,113916,128,0,113991:0:0:0:0:
320,192,114066,128,2,114141:0:0:0:0:
448,192,114066,1,0,0:0:0:45:Crash 2.wav
320,192,114216,128,0,114291:0:0:0:0:
64,192,114366,1,8,0:0:0:0:
192,192,114366,128,2,114441:0:0:0:0:
448,192,114366,1,0,0:0:0:45:Crash 2.wav
192,192,114516,128,0,114591:0:0:0:0:
64,192,114666,1,2,0:0:0:0:
448,192,114666,128,0,114741:0:0:0:45:Crash 2.wav
448,192,114816,128,0,114891:0:0:0:0:
192,192,114966,1,8,0:0:0:0:
320,192,114966,1,2,0:0:0:0:
448,192,114966,128,0,115041:0:0:0:45:Crash 2.wav
64,192,115116,128,0,115191:0:0:0:0:
64,192,115266,128,2,115341:0:0:0:0:
320,192,115266,1,0,0:0:0:45:Crash 2.wav
64,192,115416,128,0,115491:0:0:0:0:
192,192,115566,1,8,0:0:0:0:
320,192,115566,1,2,0:0:0:0:
448,192,115566,128,0,115641:0:0:0:45:Crash 2.wav
448,192,115716,128,0,115791:0:0:0:0:
64,192,115866,1,2,0:0:0:0:
192,192,115866,128,0,115941:0:0:0:45:Crash 2.wav
192,192,116016,128,0,116091:0:0:0:0:
64,192,116166,1,2,0:0:0:0:
192,192,116166,128,8,116241:0:0:0:0:
448,192,116166,1,0,0:0:0:45:Crash 2.wav
320,192,116316,128,0,116391:0:0:0:0:
192,192,116466,1,2,0:0:0:0:
320,192,116466,128,0,116541:0:0:0:45:Crash 2.wav
320,192,116616,128,0,116691:0:0:0:0:
64,192,116766,128,2,116841:0:0:0:0:
192,192,116766,1,8,0:0:0:0:
448,192,116766,1,0,0:0:0:45:Crash 2.wav
64,192,116916,128,0,116991:0:0:0:0:
320,192,117066,1,2,0:0:0:0:
448,192,117066,128,0,117141:0:0:0:45:Crash 2.wav
448,192,117216,128,0,117291:0:0:0:0:
64,192,117366,1,8,0:0:0:0:
320,192,117366,1,2,0:0:0:0:
448,192,117366,128,0,117441:0:0:0:45:Crash 2.wav
192,192,117516,128,0,117591:0:0:0:0:
192,192,117666,128,2,117741:0:0:0:0:
320,192,117666,1,0,0:0:0:45:Crash 2.wav
192,192,117816,128,0,117891:0:0:0:0:
64,192,117966,1,8,0:0:0:0:
320,192,117966,1,2,0:0:0:0:
448,192,117966,1,0,0:0:0:45:Crash 2.wav
192,192,118116,1,8,0:0:0:0:
448,192,118116,1,0,0:0:0:0:
320,192,118191,1,8,0:0:0:0:
64,192,118266,128,2,118416:0:0:0:0:
192,192,118266,1,0,0:0:0:45:Crash 2.wav
448,192,118266,1,0,0:0:0:0:
320,192,118416,128,0,118566:0:0:0:0:
64,192,118566,1,2,0:0:0:0:
192,192,118566,128,8,118716:0:0:0:0:
448,192,118566,1,0,0:0:0:45:Crash 2.wav
448,192,118716,128,0,118866:0:0:0:0:
64,192,118866,128,2,119016:0:0:0:0:
192,192,118866,1,0,0:0:0:45:Crash 2.wav
320,192,119016,1,2,0:0:0:0:
448,192,119016,128,0,119466:0:0:0:0:
64,192,119166,1,8,0:0:0:0:
192,192,119166,1,0,0:0:0:0:
64,192,119316,128,2,119466:0:0:0:0:
192,192,119316,128,4,119466:0:0:0:0:
320,192,119316,128,0,119466:0:0:0:0:
64,192,119616,1,8,0:0:0:0:
320,192,119616,1,0,0:0:0:60:Tom3.wav
448,192,119616,1,0,0:0:0:0:
64,192,119766,1,8,0:0:0:0:
320,192,119766,1,0,0:0:0:60:Tom3.wav
448,192,119766,1,0,0:0:0:0:
64,192,119916,1,8,0:0:0:0:
192,192,119916,1,0,0:0:0:60:Tom3.wav
448,192,119916,1,0,0:0:0:0:
192,192,120066,1,2,0:0:0:0:
320,192,120066,1,0,0:0:0:0:
64,192,120216,1,8,0:0:0:0:
320,192,120216,1,0,0:0:0:60:Tom3.wav
448,192,120216,1,0,0:0:0:0:
64,192,120366,1,8,0:0:0:0:
192,192,120366,1,0,0:0:0:60:Tom3.wav
320,192,120366,1,0,0:0:0:0:
192,192,120516,1,8,0:0:0:0:
320,192,120516,1,0,0:0:0:60:Tom3.wav
448,192,120516,1,0,0:0:0:0:
64,192,120666,1,2,0:0:0:0:
192,192,120666,1,4,0:0:0:0:
448,192,120666,1,0,0:0:0:0:
320,192,120816,1,8,0:0:0:0:
448,192,120816,1,0,0:0:0:0:
64,192,120891,1,8,0:0:0:0:
192,192,120891,1,0,0:0:0:0:
320,192,120966,1,8,0:0:0:0:
448,192,120966,1,0,0:0:0:0:
64,192,121041,1,8,0:0:0:0:
192,192,121041,1,0,0:0:0:0:
320,192,121116,1,2,0:0:0:0:
448,192,121116,1,0,0:0:0:0:
192,192,121191,1,2,0:0:0:0:
64,192,121266,1,8,0:0:0:0:
320,192,121266,1,0,0:0:0:0:
448,192,121266,1,0,0:0:0:0:
64,192,121491,1,2,0:0:0:0:
192,192,121491,1,4,0:0:0:0:
448,192,121491,1,0,0:0:0:0:
64,192,121716,1,2,0:0:0:0:
320,192,121716,1,0,0:0:0:60:Crash 2.wav
448,192,121716,128,0,122016:0:0:0:0:
64,192,122016,1,2,0:0:0:0:
192,192,122016,1,0,0:0:0:0:
320,192,122091,1,2,0:0:0:0:
64,192,122166,1,8,0:0:0:0:
192,192,122166,1,0,0:0:0:70:Crash 2.wav
448,192,122166,1,0,0:0:0:0:
320,192,122466,128,0,122541:0:0:0:0:
64,192,123066,128,2,123141:0:0:0:0:
320,192,123066,1,0,0:0:0:80:Splash.wav
448,192,123066,1,0,0:0:0:0:
192,192,123216,128,0,123291:0:0:0:0:
320,192,123366,128,0,123441:0:0:0:0:
448,192,123516,128,0,123591:0:0:0:0:
64,192,123966,1,0,0:0:0:45:Ride.wav
64,192,124866,1,0,0:0:0:45:Ride.wav
192,192,125066,1,0,0:0:0:0:
448,192,125266,1,0,0:0:0:0:
320,192,125466,128,0,125541:0:0:0:0:
64,192,125666,128,0,125741:0:0:0:0:
320,192,125866,128,0,125941:0:0:0:0:
320,192,126066,128,0,126141:0:0:0:0:
192,192,126266,128,0,126341:0:0:0:0:
192,192,126466,128,0,126541:0:0:0:0:
192,192,126666,128,0,126741:0:0:0:0:
64,192,126866,128,0,126941:0:0:0:0:
64,192,127066,128,0,127141:0:0:0:0:
64,192,127266,128,0,127341:0:0:0:0:
64,192,127466,128,0,127541:0:0:0:0:
320,192,127666,128,0,127741:0:0:0:0:
64,192,127866,1,0,0:0:0:30:Ride.wav
64,192,128466,1,0,0:0:0:35:Ride.wav
448,192,128916,128,0,128991:0:0:0:50:Splash.wav
64,192,129366,1,0,0:0:0:35:Ride.wav
320,192,129666,128,0,129741:0:0:0:40:Crash 2.wav
192,192,129916,128,0,129991:0:0:0:0:
448,192,130116,128,0,130191:0:0:0:0:
64,192,130266,128,0,131466:0:0:0:0:
192,192,131166,1,0,0:0:0:0:
320,192,131316,1,0,0:0:0:0:
448,192,131466,1,0,0:0:0:0:
64,192,132066,1,8,0:0:0:0:
192,192,132066,1,0,0:0:0:0:
448,192,132066,1,0,0:0:0:0:
320,192,132141,1,8,0:0:0:0:
64,192,132216,1,2,0:0:0:0:
448,192,132216,1,0,0:0:0:0:
192,192,132291,1,2,0:0:0:0:
320,192,132366,1,0,0:0:0:50:Tom1.wav
448,192,132366,1,0,0:0:0:0:
64,192,132441,1,0,0:0:0:60:Tom2.wav
192,192,132516,1,2,0:0:0:0:
320,192,132516,1,0,0:0:0:0:
448,192,132591,1,2,0:0:0:0:
64,192,132666,1,8,0:0:0:0:
192,192,132666,1,0,0:0:0:0:
320,192,132666,1,0,0:0:0:0:
448,192,132741,1,2,0:0:0:0:
64,192,132816,1,2,0:0:0:0:
192,192,132816,1,0,0:0:0:0:
320,192,132891,1,2,0:0:0:0:
64,192,132966,1,8,0:0:0:0:
192,192,132966,1,4,0:0:0:0:
448,192,132966,1,0,0:0:0:0:
320,192,133116,1,0,0:0:0:0:
64,192,133266,1,2,0:0:0:0:
448,192,133266,1,0,0:0:0:0:
64,192,133416,1,8,0:0:0:0:
192,192,133416,1,0,0:0:0:0:
320,192,133416,1,0,0:0:0:0:
320,192,133566,1,2,0:0:0:0:
448,192,133566,1,0,0:0:0:0:
192,192,133716,1,0,0:0:0:0:
64,192,133866,1,8,0:0:0:0:
320,192,133866,1,0,0:0:0:0:
448,192,133866,1,0,0:0:0:0:
192,192,134016,1,0,0:0:0:0:
64,192,134166,1,2,0:0:0:0:
448,192,134166,1,0,0:0:0:0:
192,192,134316,1,8,0:0:0:0:
320,192,134316,1,0,0:0:0:0:
448,192,134316,1,0,0:0:0:0:
64,192,134466,1,2,0:0:0:0:
192,192,134466,1,0,0:0:0:0:
320,192,134616,1,2,0:0:0:0:
448,192,134616,1,0,0:0:0:0:
64,192,134766,1,8,0:0:0:0:
192,192,134766,1,0,0:0:0:0:
448,192,134766,1,0,0:0:0:0:
64,192,134916,1,8,0:0:0:0:
320,192,134916,1,0,0:0:0:0:
192,192,134991,1,8,0:0:0:0:
64,192,135066,1,2,0:0:0:0:
320,192,135066,1,4,0:0:0:0:
448,192,135066,1,0,0:0:0:0:
192,192,135216,1,2,0:0:0:0:
448,192,135216,1,0,0:0:0:0:
64,192,135366,1,8,0:0:0:0:
192,192,135366,1,0,0:0:0:0:
320,192,135366,1,0,0:0:0:0:
320,192,135516,1,2,0:0:0:0:
448,192,135516,1,0,0:0:0:0:
64,192,135666,1,8,0:0:0:0:
192,192,135666,1,0,0:0:0:0:
448,192,135666,1,0,0:0:0:0:
320,192,135816,1,0,0:0:0:0:
64,192,135966,1,2,0:0:0:0:
192,192,135966,1,0,0:0:0:0:
64,192,136116,1,8,0:0:0:0:
320,192,136116,1,0,0:0:0:0:
448,192,136116,1,0,0:0:0:0:
192,192,136266,1,0,0:0:0:0:
320,192,136416,1,2,0:0:0:0:
448,192,136416,1,0,0:0:0:0:
64,192,136566,1,8,0:0:0:0:
192,192,136566,1,0,0:0:0:60:Crash 2.wav
448,192,136566,1,0,0:0:0:0:
320,192,136716,1,0,0:0:0:0:
64,192,136866,1,2,0:0:0:0:
192,192,136866,1,0,0:0:0:0:
320,192,136941,1,8,0:0:0:0:
448,192,136941,1,0,0:0:0:0:
64,192,137016,1,8,0:0:0:0:
192,192,137016,1,0,0:0:0:0:
320,192,137091,1,8,0:0:0:0:
448,192,137091,1,0,0:0:0:0:
64,192,137166,1,8,0:0:0:0:
192,192,137166,1,2,0:0:0:0:
320,192,137241,1,8,0:0:0:0:
448,192,137241,1,0,0:0:0:0:
64,192,137316,1,8,0:0:0:0:
192,192,137316,1,0,0:0:0:0:
320,192,137391,1,8,0:0:0:0:
64,192,137466,1,2,0:0:0:0:
192,192,137466,1,4,0:0:0:0:
448,192,137466,1,0,0:0:0:0:
320,192,137616,1,2,0:0:0:0:
448,192,137616,1,0,0:0:0:0:
64,192,137766,1,8,0:0:0:0:
192,192,137766,1,0,0:0:0:0:
320,192,137766,1,0,0:0:0:0:
64,192,137916,1,0,0:0:0:0:
320,192,138066,1,2,0:0:0:0:
448,192,138066,1,0,0:0:0:0:
64,192,138216,1,2,0:0:0:0:
192,192,138216,1,0,0:0:0:0:
64,192,138366,1,8,0:0:0:0:
320,192,138366,1,0,0:0:0:0:
448,192,138366,1,0,0:0:0:0:
192,192,138516,1,0,0:0:0:0:
320,192,138666,1,2,0:0:0:0:
448,192,138666,1,0,0:0:0:0:
64,192,138816,1,2,0:0:0:0:
192,192,138816,1,0,0:0:0:0:
192,192,138966,1,8,0:0:0:0:
320,192,138966,1,0,0:0:0:0:
448,192,138966,1,0,0:0:0:0:
64,192,139116,1,0,0:0:0:0:
320,192,139266,1,2,0:0:0:0:
448,192,139266,1,0,0:0:0:0:
64,192,139416,1,2,0:0:0:0:
192,192,139416,1,0,0:0:0:0:
64,192,139566,1,8,0:0:0:0:
320,192,139566,1,0,0:0:0:0:
448,192,139566,1,0,0:0:0:0:
192,192,139716,1,2,0:0:0:0:
448,192,139716,1,0,0:0:0:0:
320,192,139791,1,2,0:0:0:0:
64,192,139866,1,4,0:0:0:0:
192,192,139866,1,8,0:0:0:0:
448,192,139866,1,0,0:0:0:0:
64,192,140016,1,2,0:0:0:0:
320,192,140016,1,0,0:0:0:0:
192,192,140166,1,8,0:0:0:0:
320,192,140166,1,0,0:0:0:0:
448,192,140166,1,0,0:0:0:0:
64,192,140316,1,2,0:0:0:0:
192,192,140316,1,0,0:0:0:0:
64,192,140466,1,8,0:0:0:0:
320,192,140466,1,0,0:0:0:0:
448,192,140466,1,0,0:0:0:0:
192,192,140616,1,2,0:0:0:0:
320,192,140616,1,0,0:0:0:0:
64,192,140766,1,8,0:0:0:0:
192,192,140766,1,0,0:0:0:0:
448,192,140766,1,0,0:0:0:0:
64,192,140916,1,2,0:0:0:0:
192,192,140916,1,0,0:0:0:60:Crash 2.wav
320,192,140916,1,0,0:0:0:0:
448,192,140916,1,0,0:0:0:0:
64,192,141216,128,8,141366:0:0:0:0:
320,192,141216,128,0,141366:0:0:0:0:
448,192,141216,128,0,141366:0:0:0:0:
64,192,141516,1,8,0:0:0:0:
320,192,141516,1,4,0:0:0:0:
448,192,141516,1,0,0:0:0:0:
64,192,141666,1,2,0:0:0:0:
192,192,141666,1,0,0:0:0:0:
192,192,141816,1,8,0:0:0:0:
320,192,141816,1,0,0:0:0:60:Tom3.wav
448,192,141816,1,0,0:0:0:0:
64,192,141966,1,8,0:0:0:0:
320,192,141966,1,0,0:0:0:60:Tom3.wav
448,192,141966,1,0,0:0:0:0:
64,192,142116,1,8,0:0:0:0:
192,192,142116,1,0,0:0:0:60:Tom3.wav
448,192,142116,1,0,0:0:0:0:
448,192,148266,5,0,0:0:0:50:Hat open.wav
448,192,148566,1,0,0:0:0:50:Hat open.wav
64,192,148866,1,8,0:0:0:0:
192,192,148866,1,0,0:0:0:0:
320,192,148941,1,0,0:0:0:50:Tom1.wav
448,192,148941,1,0,0:0:0:0:
64,192,149016,1,2,0:0:0:0:
192,192,149016,1,0,0:0:0:60:Tom2.wav
320,192,149091,1,2,0:0:0:0:
64,192,149166,1,4,0:0:0:0:
192,192,149166,1,8,0:0:0:0:
448,192,149166,1,0,0:0:0:0:
64,192,149466,1,2,0:0:0:0:
320,192,149466,1,0,0:0:0:60:Crash 2.wav
448,192,149466,1,0,0:0:0:0:
64,192,149616,1,8,0:0:0:0:
192,192,149616,1,0,0:0:0:0:
320,192,149691,1,8,0:0:0:0:
64,192,149766,1,8,0:0:0:0:
448,192,149766,1,0,0:0:0:0:
192,192,149841,1,8,0:0:0:0:
320,192,149916,1,8,0:0:0:0:
448,192,149916,1,2,0:0:0:0:
192,192,149991,1,8,0:0:0:0:
64,192,150066,1,8,0:0:0:0:
448,192,150066,1,0,0:0:0:0:
320,192,150141,1,8,0:0:0:0:
64,192,150216,1,8,0:0:0:0:
192,192,150216,1,0,0:0:0:0:
320,192,150291,1,8,0:0:0:0:
64,192,150366,1,8,0:0:0:0:
448,192,150366,1,2,0:0:0:0:
192,192,150441,1,8,0:0:0:0:
320,192,150516,1,8,0:0:0:0:
448,192,150516,1,0,0:0:0:0:
192,192,150591,1,8,0:0:0:0:
64,192,150666,1,8,0:0:0:0:
448,192,150666,1,0,0:0:0:0:
320,192,150741,1,8,0:0:0:0:
64,192,150816,1,8,0:0:0:0:
192,192,150816,1,2,0:0:0:0:
448,192,150891,1,8,0:0:0:0:
192,192,150966,1,8,0:0:0:0:
320,192,150966,1,0,0:0:0:0:
64,192,151041,1,8,0:0:0:0:
320,192,151116,1,8,0:0:0:0:
448,192,151116,1,0,0:0:0:0:
192,192,151191,1,8,0:0:0:0:
64,192,151266,1,8,0:0:0:0:
448,192,151266,1,2,0:0:0:0:
320,192,151341,1,8,0:0:0:0:
64,192,151416,1,8,0:0:0:0:
192,192,151416,1,0,0:0:0:0:
320,192,151491,1,8,0:0:0:0:
64,192,151566,1,8,0:0:0:0:
448,192,151566,1,0,0:0:0:0:
192,192,151641,1,8,0:0:0:0:
320,192,151716,1,8,0:0:0:0:
448,192,151716,1,0,0:0:0:0:
192,192,151791,1,8,0:0:0:0:
64,192,151866,1,2,0:0:0:0:
320,192,151866,1,4,0:0:0:0:
448,192,151866,1,0,0:0:0:0:
64,192,152166,1,2,0:0:0:0:
192,192,152166,1,0,0:0:0:60:Crash 2.wav
448,192,152166,1,0,0:0:0:0:
320,192,152466,1,8,0:0:0:0:
448,192,152466,1,0,0:0:0:0:
64,192,152541,1,0,0:0:0:50:Tom1.wav
192,192,152541,1,0,0:0:0:0:
320,192,152616,1,2,0:0:0:0:
448,192,152616,1,0,0:0:0:60:Tom2.wav
64,192,152691,1,2,0:0:0:0:
192,192,152691,1,0,0:0:0:0:
320,192,152766,1,8,0:0:0:0:
448,192,152766,1,0,0:0:0:0:
64,192,152916,1,2,0:0:0:0:
192,192,152916,1,4,0:0:0:0:
448,192,152916,1,0,0:0:0:0:
64,192,153216,1,8,0:0:0:0:
320,192,153216,1,0,0:0:0:0:
448,192,153216,1,0,0:0:0:0:
64,192,153366,1,8,0:0:0:0:
192,192,153366,1,0,0:0:0:0:
448,192,153366,1,0,0:0:0:0:
64,192,153516,1,8,0:0:0:0:
320,192,153516,128,0,153666:0:0:0:45:Hat open.wav
448,192,153516,1,0,0:0:0:0:
192,192,153666,128,0,153816:0:0:0:0:
448,192,153816,128,0,153966:0:0:0:0:
64,192,153966,128,0,154116:0:0:0:0:
320,192,154116,128,0,154266:0:0:0:0:
64,192,154266,1,4,0:0:0:0:
192,192,154266,128,2,154416:0:0:0:0:
448,192,154266,1,0,0:0:0:0:
320,192,154416,1,0,0:0:0:0:
64,192,154566,1,8,0:0:0:0:
192,192,154566,1,2,0:0:0:0:
448,192,154566,128,0,154716:0:0:0:40:Crash 2.wav
64,192,154716,128,0,154866:0:0:0:0:
320,192,154866,128,2,155016:0:0:0:0:
448,192,154866,1,0,0:0:0:40:Crash 2.wav
192,192,155016,1,0,0:0:0:0:
64,192,155166,128,8,155316:0:0:0:0:
320,192,155166,1,2,0:0:0:0:
448,192,155166,1,0,0:0:0:40:Crash 2.wav
448,192,155316,128,0,155466:0:0:0:0:
64,192,155466,1,2,0:0:0:0:
192,192,155466,128,0,155616:0:0:0:40:Crash 2.wav
320,192,155616,1,0,0:0:0:0:
64,192,155766,1,8,0:0:0:0:
192,192,155766,1,2,0:0:0:0:
448,192,155766,128,0,155916:0:0:0:40:Crash 2.wav
64,192,155916,128,0,156066:0:0:0:0:
320,192,156066,1,2,0:0:0:0:
448,192,156066,1,0,0:0:0:40:Crash 2.wav
192,192,156216,128,0,156366:0:0:0:0:
64,192,156366,1,8,0:0:0:0:
320,192,156366,128,2,156516:0:0:0:0:
448,192,156366,1,0,0:0:0:40:Crash 2.wav
64,192,156516,128,0,156666:0:0:0:0:
320,192,156666,1,2,0:0:0:0:
448,192,156666,128,0,156816:0:0:0:40:Crash 2.wav
192,192,156816,1,0,0:0:0:0:
64,192,156966,1,8,0:0:0:0:
320,192,156966,128,2,157116:0:0:0:0:
448,192,156966,1,0,0:0:0:40:Crash 2.wav
192,192,157116,1,0,0:0:0:0:
64,192,157266,128,2,157416:0:0:0:0:
448,192,157266,1,0,0:0:0:40:Crash 2.wav
320,192,157416,1,0,0:0:0:0:
64,192,157566,1,8,0:0:0:0:
192,192,157566,128,2,157716:0:0:0:0:
448,192,157566,1,0,0:0:0:40:Crash 2.wav
320,192,157716,1,0,0:0:0:0:
64,192,157866,1,2,0:0:0:0:
448,192,157866,128,0,158016:0:0:0:40:Crash 2.wav
192,192,158016,1,0,0:0:0:0:
64,192,158166,1,8,0:0:0:0:
192,192,158166,1,2,0:0:0:0:
320,192,158166,1,0,0:0:0:40:Crash 2.wav
448,192,158316,1,0,0:0:0:0:
192,192,158466,1,2,0:0:0:0:
320,192,158466,1,0,0:0:0:40:Crash 2.wav
64,192,158616,128,0,158766:0:0:0:0:
192,192,158766,1,8,0:0:0:0:
320,192,158766,128,2,158916:0:0:0:0:
448,192,158766,1,0,0:0:0:40:Crash 2.wav
192,192,158916,128,0,159066:0:0:0:0:
64,192,159066,1,2,0:0:0:0:
320,192,159066,1,0,0:0:0:40:Crash 2.wav
448,192,159066,128,0,159366:0:0:0:0:
320,192,159216,128,0,159366:0:0:0:0:
64,192,159366,128,10,159666:0:0:0:0:
192,192,159366,1,0,0:0:0:40:Crash 2.wav
192,192,159516,128,0,159666:0:0:0:0:
320,192,159666,1,2,0:0:0:0:
448,192,159666,128,0,159816:0:0:0:40:Crash 2.wav
192,192,159816,1,0,0:0:0:0:
64,192,159966,1,8,0:0:0:0:
320,192,159966,128,2,160266:0:0:0:0:
448,192,159966,1,0,0:0:0:40:Crash 2.wav
64,192,160116,128,0,160266:0:0:0:0:
192,192,160266,128,2,160566:0:0:0:0:
448,192,160266,1,0,0:0:0:40:Crash 2.wav
448,192,160416,128,0,160566:0:0:0:0:
64,192,160566,128,10,160716:0:0:0:0:
320,192,160566,1,0,0:0:0:40:Crash 2.wav
192,192,160716,1,0,0:0:0:0:
320,192,160866,1,2,0:0:0:0:
448,192,160866,1,0,0:0:0:40:Crash 2.wav
192,192,161016,128,0,161166:0:0:0:0:
64,192,161166,1,8,0:0:0:0:
320,192,161166,128,2,161316:0:0:0:0:
448,192,161166,1,0,0:0:0:40:Crash 2.wav
64,192,161316,128,0,161466:0:0:0:0:
320,192,161466,1,2,0:0:0:0:
448,192,161466,128,0,161616:0:0:0:40:Crash 2.wav
192,192,161616,1,0,0:0:0:0:
64,192,161766,1,8,0:0:0:0:
192,192,161766,1,2,0:0:0:0:
320,192,161766,1,0,0:0:0:40:Crash 2.wav
448,192,161916,1,0,0:0:0:0:
64,192,162066,128,2,162216:0:0:0:0:
320,192,162066,1,0,0:0:0:40:Crash 2.wav
192,192,162216,1,2,0:0:0:0:
448,192,162216,1,0,0:0:0:0:
320,192,162366,1,8,0:0:0:0:
448,192,162366,1,0,0:0:0:0:
64,192,162441,1,8,0:0:0:0:
192,192,162441,1,0,0:0:0:0:
320,192,162516,1,2,0:0:0:0:
448,192,162516,1,0,0:0:0:0:
192,192,162591,1,2,0:0:0:0:
64,192,162666,1,4,0:0:0:0:
320,192,162666,1,8,0:0:0:0:
448,192,162666,1,0,0:0:0:0:
64,192,162966,1,8,0:0:0:0:
192,192,162966,1,0,0:0:0:60:Crash 2.wav
448,192,162966,1,0,0:0:0:0:
320,192,163266,1,2,0:0:0:0:
448,192,163266,1,0,0:0:0:60:Hat open.wav
64,192,163416,1,8,0:0:0:0:
192,192,163416,1,0,0:0:0:0:
320,192,163491,1,8,0:0:0:0:
448,192,163491,1,0,0:0:0:0:
64,192,163566,1,8,0:0:0:0:
192,192,163566,1,2,0:0:0:0:
320,192,163641,1,8,0:0:0:0:
448,192,163641,1,0,0:0:0:0:
64,192,163716,1,8,0:0:0:0:
192,192,163716,1,0,0:0:0:0:
320,192,163791,1,8,0:0:0:0:
64,192,163866,1,4,0:0:0:0:
192,192,163866,128,2,164016:0:0:0:0:
448,192,163866,1,0,0:0:0:0:
320,192,164016,128,0,164166:0:0:0:0:
64,192,164166,128,8,164316:0:0:0:0:
192,192,164166,1,2,0:0:0:0:
448,192,164166,1,0,0:0:0:60:Crash 2.wav
448,192,164316,128,0,164466:0:0:0:0:
192,192,164466,128,2,164616:0:0:0:0:
320,192,164466,1,0,0:0:0:40:Crash 2.wav
448,192,164616,1,0,0:0:0:0:
64,192,164766,128,8,164916:0:0:0:0:
192,192,164766,1,2,0:0:0:0:
320,192,164766,1,0,0:0:0:40:Crash 2.wav
320,192,164916,128,0,165066:0:0:0:0:
192,192,165066,128,2,165216:0:0:0:0:
448,192,165066,1,0,0:0:0:40:Crash 2.wav
320,192,165216,1,0,0:0:0:0:
64,192,165366,1,8,0:0:0:0:
192,192,165366,1,2,0:0:0:0:
448,192,165366,128,0,165516:0:0:0:40:Crash 2.wav
64,192,165516,128,0,165666:0:0:0:0:
320,192,165666,1,2,0:0:0:0:
448,192,165666,1,0,0:0:0:40:Crash 2.wav
192,192,165816,128,0,165966:0:0:0:0:
64,192,165966,1,8,0:0:0:0:
320,192,165966,128,2,166116:0:0:0:0:
448,192,165966,1,0,0:0:0:40:Crash 2.wav
448,192,166116,128,0,166266:0:0:0:0:
64,192,166266,128,2,166416:0:0:0:0:
192,192,166266,1,0,0:0:0:40:Crash 2.wav
320,192,166416,1,0,0:0:0:0:
64,192,166566,1,8,0:0:0:0:
192,192,166566,128,2,166716:0:0:0:0:
448,192,166566,1,0,0:0:0:40:Crash 2.wav
320,192,166716,1,0,0:0:0:0:
64,192,166866,1,2,0:0:0:0:
448,192,166866,128,0,167016:0:0:0:40:Crash 2.wav
192,192,167016,1,0,0:0:0:0:
64,192,167166,1,8,0:0:0:0:
192,192,167166,1,2,0:0:0:0:
320,192,167166,128,0,167316:0:0:0:40:Crash 2.wav
448,192,167316,1,0,0:0:0:0:
64,192,167466,128,2,167616:0:0:0:0:
192,192,167466,1,0,0:0:0:40:Crash 2.wav
320,192,167616,1,0,0:0:0:0:
192,192,167766,1,8,0:0:0:0:
320,192,167766,1,2,0:0:0:0:
448,192,167766,1,0,0:0:0:40:Crash 2.wav
64,192,167916,1,0,0:0:0:0:
192,192,168066,1,2,0:0:0:0:
448,192,168066,1,0,0:0:0:40:Crash 2.wav
320,192,168216,128,0,168366:0:0:0:0:
64,192,168366,1,8,0:0:0:0:
192,192,168366,128,2,168516:0:0:0:0:
448,192,168366,1,0,0:0:0:40:Crash 2.wav
448,192,168516,128,0,168666:0:0:0:0:
64,192,168666,128,2,168966:0:0:0:0:
192,192,168666,1,0,0:0:0:40:Crash 2.wav
320,192,168666,1,0,0:0:0:0:
192,192,168816,128,0,168966:0:0:0:0:
320,192,168966,1,10,0:0:0:0:
448,192,168966,128,0,169266:0:0:0:40:Crash 2.wav
320,192,169116,128,0,169266:0:0:0:0:
64,192,169266,128,2,169416:0:0:0:0:
192,192,169266,1,0,0:0:0:40:Crash 2.wav
448,192,169416,1,0,0:0:0:0:
64,192,169566,1,8,0:0:0:0:
192,192,169566,128,2,169866:0:0:0:0:
320,192,169566,1,0,0:0:0:40:Crash 2.wav
320,192,169716,128,0,169866:0:0:0:0:
64,192,169866,1,2,0:0:0:0:
448,192,169866,128,0,170166:0:0:0:40:Crash 2.wav
64,192,170016,128,0,170166:0:0:0:0:
192,192,170166,128,10,170316:0:0:0:0:
320,192,170166,1,0,0:0:0:40:Crash 2.wav
448,192,170316,1,0,0:0:0:0:
64,192,170466,1,2,0:0:0:0:
320,192,170466,1,0,0:0:0:40:Crash 2.wav
192,192,170616,1,0,0:0:0:0:
64,192,170766,1,8,0:0:0:0:
192,192,170766,1,2,0:0:0:0:
448,192,170766,1,0,0:0:0:40:Crash 2.wav
320,192,170916,1,0,0:0:0:0:
64,192,171066,1,2,0:0:0:0:
320,192,171066,1,4,0:0:0:0:
448,192,171066,1,0,0:0:0:0:
192,192,171216,1,0,0:0:0:0:
320,192,171291,1,8,0:0:0:0:
448,192,171291,1,0,0:0:0:0:
64,192,171366,1,2,0:0:0:0:
192,192,171366,1,0,0:0:0:40:Crash 2.wav
64,192,171516,1,8,0:0:0:0:
320,192,171516,1,0,0:0:0:0:
448,192,171516,1,0,0:0:0:0:
192,192,171666,1,2,0:0:0:0:
448,192,171666,1,0,0:0:0:40:Crash 2.wav
320,192,171816,1,0,0:0:0:0:
64,192,171891,1,8,0:0:0:0:
192,192,171891,1,0,0:0:0:0:
320,192,171966,1,2,0:0:0:0:
448,192,171966,1,0,0:0:0:40:Crash 2.wav
64,192,172116,1,8,0:0:0:0:
192,192,172116,1,0,0:0:0:0:
448,192,172116,1,0,0:0:0:0:
64,192,172266,1,2,0:0:0:0:
320,192,172266,1,0,0:0:0:40:Crash 2.wav
448,192,172266,1,0,0:0:0:0:
192,192,172416,1,2,0:0:0:0:
320,192,172416,1,0,0:0:0:0:
64,192,172566,1,8,0:0:0:0:
192,192,172566,1,0,0:0:0:40:Crash 2.wav
448,192,172566,1,0,0:0:0:0:
320,192,172716,1,0,0:0:0:0:
64,192,172866,1,2,0:0:0:0:
192,192,172866,1,0,0:0:0:60:Hat open.wav
320,192,173016,1,8,0:0:0:0:
448,192,173016,1,0,0:0:0:0:
64,192,173091,1,8,0:0:0:0:
192,192,173091,1,0,0:0:0:0:
320,192,173166,1,8,0:0:0:0:
448,192,173166,1,2,0:0:0:0:
64,192,173241,1,8,0:0:0:0:
192,192,173241,1,0,0:0:0:0:
320,192,173316,1,8,0:0:0:0:
448,192,173316,1,0,0:0:0:0:
192,192,173391,1,8,0:0:0:0:
64,192,173466,1,4,0:0:0:0:
320,192,173466,128,2,173616:0:0:0:0:
448,192,173466,1,0,0:0:0:0:
192,192,173616,128,0,173766:0:0:0:0:
64,192,173766,1,8,0:0:0:0:
320,192,173766,1,2,0:0:0:0:
448,192,173766,128,0,173916:0:0:0:40:Crash 2.wav
64,192,173916,128,0,174066:0:0:0:0:
320,192,174066,128,2,174216:0:0:0:0:
448,192,174066,1,0,0:0:0:40:Crash 2.wav
192,192,174216,128,0,174366:0:0:0:0:
64,192,174366,1,8,0:0:0:0:
320,192,174366,1,2,0:0:0:0:
448,192,174366,128,0,174516:0:0:0:40:Crash 2.wav
64,192,174516,128,0,174666:0:0:0:0:
192,192,174666,128,2,174816:0:0:0:0:
448,192,174666,1,0,0:0:0:40:Crash 2.wav
320,192,174816,1,0,0:0:0:0:
64,192,174966,1,8,0:0:0:0:
320,192,174966,1,2,0:0:0:0:
448,192,174966,1,0,0:0:0:40:Crash 2.wav
192,192,175116,1,0,0:0:0:0:
192,192,175266,1,2,0:0:0:0:
448,192,175266,1,0,0:0:0:40:Crash 2.wav
320,192,175416,1,0,0:0:0:0:
64,192,175566,1,8,0:0:0:0:
192,192,175566,1,2,0:0:0:0:
448,192,175566,1,0,0:0:0:40:Crash 2.wav
320,192,175716,1,0,0:0:0:0:
64,192,175866,128,2,176016:0:0:0:0:
192,192,175866,1,0,0:0:0:40:Crash 2.wav
448,192,176016,128,0,176166:0:0:0:0:
64,192,176166,1,8,0:0:0:0:
192,192,176166,128,2,176316:0:0:0:0:
320,192,176166,1,0,0:0:0:40:Crash 2.wav
320,192,176316,128,0,176466:0:0:0:0:
64,192,176466,128,2,176616:0:0:0:0:
448,192,176466,1,0,0:0:0:40:Crash 2.wav
192,192,176616,128,0,176766:0:0:0:0:
64,192,176766,1,8,0:0:0:0:
320,192,176766,1,2,0:0:0:0:
448,192,176766,128,0,176916:0:0:0:40:Crash 2.wav
320,192,176916,128,0,177066:0:0:0:0:
64,192,177066,128,2,177216:0:0:0:0:
192,192,177066,1,0,0:0:0:40:Crash 2.wav
448,192,177216,1,0,0:0:0:0:
192,192,177366,1,8,0:0:0:0:
320,192,177366,1,2,0:0:0:0:
448,192,177366,1,0,0:0:0:40:Crash 2.wav
64,192,177516,1,0,0:0:0:0:
64,192,177666,1,2,0:0:0:0:
320,192,177666,1,0,0:0:0:40:Crash 2.wav
192,192,177816,1,0,0:0:0:0:
64,192,177966,1,8,0:0:0:0:
320,192,177966,1,2,0:0:0:0:
448,192,177966,1,0,0:0:0:40:Crash 2.wav
192,192,178116,1,0,0:0:0:0:
320,192,178266,1,2,0:0:0:0:
448,192,178266,1,0,0:0:0:40:Crash 2.wav
64,192,178416,128,0,178716:0:0:0:0:
192,192,178566,128,8,178716:0:0:0:0:
320,192,178566,1,2,0:0:0:0:
448,192,178566,1,0,0:0:0:40:Crash 2.wav
448,192,178716,128,0,178866:0:0:0:0:
64,192,178866,1,2,0:0:0:0:
192,192,178866,1,0,0:0:0:40:Crash 2.wav
448,192,179016,128,0,179316:0:0:0:0:
64,192,179166,1,8,0:0:0:0:
192,192,179166,1,2,0:0:0:0:
320,192,179166,128,0,179316:0:0:0:40:Crash 2.wav
64,192,179316,128,0,179466:0:0:0:0:
320,192,179466,1,2,0:0:0:0:
448,192,179466,1,0,0:0:0:40:Crash 2.wav
320,192,179616,1,0,0:0:0:0:
64,192,179766,1,8,0:0:0:0:
192,192,179766,1,2,0:0:0:0:
448,192,179766,1,0,0:0:0:40:Crash 2.wav
192,192,179916,1,0,0:0:0:0:
320,192,180066,128,2,180216:0:0:0:0:
448,192,180066,1,0,0:0:0:40:Crash 2.wav
64,192,180216,1,0,0:0:0:0:
192,192,180366,128,8,180516:0:0:0:0:
320,192,180366,1,2,0:0:0:0:
448,192,180366,1,0,0:0:0:40:Crash 2.wav
64,192,180516,1,0,0:0:0:0:
192,192,180666,1,2,0:0:0:0:
448,192,180666,1,0,0:0:0:40:Crash 2.wav
320,192,180816,128,0,181116:0:0:0:0:
64,192,180966,1,8,0:0:0:0:
192,192,180966,128,2,181116:0:0:0:0:
448,192,180966,1,0,0:0:0:40:Crash 2.wav
64,192,181116,128,0,181266:0:0:0:0:
320,192,181266,1,2,0:0:0:0:
448,192,181266,1,0,0:0:0:40:Crash 2.wav
192,192,181416,128,0,181716:0:0:0:0:
64,192,181566,1,8,0:0:0:0:
320,192,181566,128,2,181716:0:0:0:0:
448,192,181566,1,0,0:0:0:40:Crash 2.wav
448,192,181716,128,0,181866:0:0:0:0:
64,192,181866,1,2,0:0:0:0:
192,192,181866,1,0,0:0:0:40:Crash 2.wav
320,192,182016,1,2,0:0:0:0:
448,192,182016,1,0,0:0:0:0:
64,192,182166,1,8,0:0:0:0:
320,192,182166,1,0,0:0:0:40:Crash 2.wav
448,192,182166,128,0,182316:0:0:0:0:
192,192,182316,1,0,0:0:0:0:
320,192,182466,1,8,0:0:0:0:
448,192,182466,1,0,0:0:0:0:
320,192,182566,1,8,0:0:0:0:
448,192,182566,1,0,0:0:0:0:
64,192,182666,1,8,0:0:0:0:
192,192,182666,1,0,0:0:0:0:
64,192,182766,1,0,0:0:0:50:Tom1.wav
192,192,182766,1,0,0:0:0:0:
320,192,182866,1,0,0:0:0:60:Tom2.wav
448,192,182866,1,0,0:0:0:0:
320,192,182966,1,0,0:0:0:60:Tom3.wav
448,192,182966,1,0,0:0:0:0:
64,192,183066,1,4,0:0:0:0:
192,192,183066,1,2,0:0:0:0:
448,192,183066,1,0,0:0:0:0:
64,192,183216,1,2,0:0:0:0:
320,192,183216,1,0,0:0:0:0:
192,192,183366,1,2,0:0:0:0:
448,192,183366,1,0,0:0:0:60:Hat open.wav
64,192,183516,128,2,183666:0:0:0:0:
320,192,183516,1,0,0:0:0:0:
192,192,183666,1,8,0:0:0:0:
320,192,183666,128,0,183816:0:0:0:0:
448,192,183666,1,0,0:0:0:0:
64,192,183816,1,2,0:0:0:0:
192,192,183816,128,4,183966:0:0:0:0:
448,192,183816,1,0,0:0:0:0:
320,192,183966,128,0,184116:0:0:0:0:
64,192,184116,1,8,0:0:0:0:
192,192,184116,1,0,0:0:0:0:
448,192,184116,1,0,0:0:0:0:
192,192,184266,1,2,0:0:0:0:
320,192,184266,1,0,0:0:0:60:Crash 2.wav
448,192,184266,1,0,0:0:0:0:
64,192,184416,1,8,0:0:0:0:
192,192,184416,1,0,0:0:0:0:
320,192,184416,1,0,0:0:0:0:
64,192,184566,1,2,0:0:0:0:
448,192,184566,1,0,0:0:0:60:Hat open.wav
192,192,184716,1,2,0:0:0:0:
320,192,184716,128,0,184866:0:0:0:0:
64,192,184866,1,8,0:0:0:0:
192,192,184866,128,0,185016:0:0:0:0:
448,192,184866,1,0,0:0:0:0:
64,192,185016,1,4,0:0:0:0:
320,192,185016,1,2,0:0:0:0:
448,192,185016,128,0,185166:0:0:0:0:
192,192,185166,128,0,185316:0:0:0:0:
64,192,185316,1,8,0:0:0:0:
320,192,185316,1,0,0:0:0:0:
448,192,185316,1,0,0:0:0:0:
64,192,185466,1,2,0:0:0:0:
192,192,185466,1,0,0:0:0:60:Crash 2.wav
448,192,185466,1,0,0:0:0:0:
192,192,185616,1,2,0:0:0:0:
320,192,185616,1,0,0:0:0:0:
64,192,185766,1,2,0:0:0:0:
448,192,185766,1,0,0:0:0:60:Hat open.wav
192,192,185916,128,2,186066:0:0:0:0:
320,192,185916,1,0,0:0:0:0:
64,192,186066,1,8,0:0:0:0:
320,192,186066,128,0,186216:0:0:0:0:
448,192,186066,1,0,0:0:0:0:
64,192,186216,128,4,186366:0:0:0:0:
192,192,186216,1,2,0:0:0:0:
448,192,186216,1,0,0:0:0:0:
320,192,186366,128,0,186516:0:0:0:0:
64,192,186516,1,8,0:0:0:0:
192,192,186516,1,0,0:0:0:0:
448,192,186516,1,0,0:0:0:0:
64,192,186666,1,2,0:0:0:0:
192,192,186666,1,0,0:0:0:60:Crash 2.wav
320,192,186666,1,0,0:0:0:0:
192,192,186816,1,8,0:0:0:0:
320,192,186816,1,0,0:0:0:0:
448,192,186816,1,0,0:0:0:0:
64,192,186966,1,2,0:0:0:0:
448,192,186966,1,0,0:0:0:60:Hat open.wav
192,192,187116,1,2,0:0:0:0:
320,192,187116,1,0,0:0:0:0:
64,192,187266,1,8,0:0:0:0:
320,192,187266,1,0,0:0:0:0:
448,192,187266,1,0,0:0:0:0:
192,192,187341,1,0,0:0:0:50:Tom1.wav
64,192,187416,1,2,0:0:0:0:
448,192,187416,1,0,0:0:0:60:Tom2.wav
320,192,187491,1,2,0:0:0:0:
64,192,187566,1,8,0:0:0:0:
192,192,187566,1,4,0:0:0:0:
448,192,187566,1,0,0:0:0:0:
320,192,187716,1,0,0:0:0:0:
64,192,187866,1,2,0:0:0:0:
448,192,187866,1,0,0:0:0:0:
192,192,188016,1,2,0:0:0:0:
320,192,188016,1,0,0:0:0:0:
64,192,188166,1,8,0:0:0:0:
192,192,188166,1,0,0:0:0:60:Hat open.wav
448,192,188166,1,0,0:0:0:0:
320,192,188316,1,0,0:0:0:0:
64,192,188466,1,2,0:0:0:0:
192,192,188466,1,0,0:0:0:60:Hat open.wav
320,192,188616,1,8,0:0:0:0:
448,192,188616,1,0,0:0:0:0:
64,192,188691,1,8,0:0:0:0:
192,192,188691,1,0,0:0:0:0:
320,192,188766,1,8,0:0:0:0:
448,192,188766,1,2,0:0:0:0:
64,192,188841,1,8,0:0:0:0:
192,192,188841,1,0,0:0:0:0:
320,192,188916,1,8,0:0:0:0:
448,192,188916,1,0,0:0:0:0:
192,192,188991,1,8,0:0:0:0:
64,192,189066,1,4,0:0:0:0:
320,192,189066,1,2,0:0:0:0:
448,192,189066,1,0,0:0:0:0:
320,192,189216,1,0,0:0:0:0:
64,192,189366,1,2,0:0:0:0:
192,192,189366,1,0,0:0:0:0:
320,192,189516,1,8,0:0:0:0:
448,192,189516,1,0,0:0:0:0:
64,192,189591,1,8,0:0:0:0:
192,192,189591,1,0,0:0:0:0:
320,192,189666,1,8,0:0:0:0:
448,192,189666,1,0,0:0:0:0:
64,192,189816,1,0,0:0:0:50:Tom1.wav
192,192,189816,1,0,0:0:0:0:
192,192,189966,1,0,0:0:0:60:Tom2.wav
320,192,189966,1,0,0:0:0:0:
320,192,190116,1,0,0:0:0:60:Tom3.wav
448,192,190116,1,0,0:0:0:0:
64,192,190266,128,2,192666:0:0:0:0:
192,192,190266,1,4,0:0:0:0:
448,192,190266,1,0,0:0:0:0:
448,192,190866,1,0,0:0:0:50:Hat open.wav
448,192,192066,1,0,0:0:0:50:Hat open.wav
192,192,192666,1,2,0:0:0:0:
320,192,192666,1,4,0:0:0:0:
448,192,192666,128,0,193866:0:0:0:0:
64,192,193266,1,0,0:0:0:50:Hat open.wav
64,192,193866,128,2,194316:0:0:0:0:
192,192,193866,1,4,0:0:0:0:
320,192,193866,1,0,0:0:0:0:
320,192,194316,1,2,0:0:0:0:
448,192,194316,1,0,0:0:0:0:
192,192,194391,1,2,0:0:0:0:
64,192,194466,1,8,0:0:0:0:
320,192,194466,1,0,0:0:0:0:
448,192,194466,1,0,0:0:0:0:
64,192,194666,1,2,0:0:0:0:
192,192,194666,1,0,0:0:0:0:
320,192,194866,1,2,0:0:0:0:
448,192,194866,1,0,0:0:0:0:
64,192,195066,1,2,0:0:0:0:
192,192,195066,1,4,0:0:0:0:
448,192,195066,128,0,197466:0:0:0:0:
320,192,195666,1,0,0:0:0:50:Hat open.wav
64,192,195816,1,0,0:0:0:0:
192,192,195966,1,0,0:0:0:0:
320,192,196116,1,0,0:0:0:0:
320,192,196416,1,0,0:0:0:0:
320,192,196716,1,0,0:0:0:0:
64,192,196866,1,0,0:0:0:50:Hat open.wav
192,192,197016,1,0,0:0:0:0:
320,192,197166,128,0,197466:0:0:0:0:
64,192,197466,128,2,198666:0:0:0:0:
192,192,197466,1,4,0:0:0:0:
448,192,197616,1,0,0:0:0:0:
320,192,197766,1,0,0:0:0:0:
192,192,197916,1,0,0:0:0:0:
448,192,198066,1,0,0:0:0:50:Hat open.wav
192,192,198366,128,0,198666:0:0:0:0:
320,192,198666,1,2,0:0:0:0:
448,192,198666,128,4,199116:0:0:0:0:
320,192,198966,1,0,0:0:0:0:
64,192,199116,1,2,0:0:0:0:
192,192,199116,1,0,0:0:0:0:
320,192,199191,1,2,0:0:0:0:
64,192,199266,1,8,0:0:0:0:
192,192,199266,1,0,0:0:0:60:Crash 2.wav
448,192,199266,1,0,0:0:0:0:
64,192,199466,1,8,0:0:0:0:
320,192,199466,1,0,0:0:0:0:
448,192,199466,1,0,0:0:0:0:
64,192,199666,1,8,0:0:0:0:
192,192,199666,1,0,0:0:0:0:
448,192,199666,1,0,0:0:0:0:
64,192,199866,128,2,202266:0:0:0:0:
192,192,199866,1,4,0:0:0:0:
320,192,199866,1,0,0:0:0:0:
448,192,199866,1,0,0:0:0:0:
320,192,200166,1,2,0:0:0:0:
448,192,200166,1,0,0:0:0:30:Crash 2.wav
320,192,200466,1,2,0:0:0:0:
448,192,200466,1,0,0:0:0:30:Crash 2.wav
320,192,200766,1,2,0:0:0:0:
448,192,200766,1,0,0:0:0:35:Crash 2.wav
320,192,201066,1,2,0:0:0:0:
448,192,201066,1,0,0:0:0:35:Crash 2.wav
320,192,201366,1,2,0:0:0:0:
448,192,201366,1,0,0:0:0:40:Crash 2.wav
320,192,201666,1,2,0:0:0:0:
448,192,201666,1,0,0:0:0:40:Crash 2.wav
320,192,201966,1,2,0:0:0:0:
448,192,201966,1,0,0:0:0:45:Crash 2.wav
192,192,202266,1,2,0:0:0:0:
320,192,202266,1,0,0:0:0:45:Crash 2.wav
448,192,202266,128,0,203466:0:0:0:0:
64,192,202566,1,2,0:0:0:0:
192,192,202566,1,0,0:0:0:50:Crash 2.wav
64,192,202866,1,2,0:0:0:0:
192,192,202866,1,0,0:0:0:60:Crash 2.wav
64,192,203166,1,2,0:0:0:0:
192,192,203166,1,0,0:0:0:80:Crash short.wav
64,192,203466,128,0,204666:0:0:0:0:
448,192,203616,128,0,203691:0:0:0:0:
448,192,203766,128,0,203916:0:0:0:0:
192,192,203916,128,0,203991:0:0:0:0:
192,192,204066,128,0,204216:0:0:0:0:
320,192,204216,128,0,204291:0:0:0:0:
320,192,204366,128,0,204516:0:0:0:0:
448,192,204516,128,0,204591:0:0:0:0:
192,192,204666,1,2,0:0:0:0:
320,192,204666,1,4,0:0:0:0:
448,192,204666,128,0,204983:0:0:0:0:
64,192,204904,128,0,204983:0:0:0:0:
192,192,204904,128,0,204983:0:0:0:0:
64,192,205142,128,0,205521:0:0:0:0:
320,192,205434,128,0,205521:0:0:0:0:
448,192,205434,128,0,205521:0:0:0:0:
448,192,205609,128,0,205942:0:0:0:0:
192,192,205863,128,0,205942:0:0:0:0:
320,192,205863,128,0,205942:0:0:0:0:
320,192,206101,128,0,206448:0:0:0:0:
64,192,206377,128,0,206448:0:0:0:0:
192,192,206377,128,0,206448:0:0:0:0:
192,192,206592,128,0,206892:0:0:0:0:
320,192,206892,128,0,207235:0:0:0:0:
64,192,207235,128,0,207536:0:0:0:0:
320,192,207462,128,0,207536:0:0:0:0:
448,192,207462,128,0,207536:0:0:0:0:
320,192,207684,128,0,208041:0:0:0:0:
64,192,207976,128,0,208041:0:0:0:0:
192,192,207976,128,0,208041:0:0:0:0:
64,192,208171,128,0,208493:0:0:0:0:
192,192,208409,128,0,208493:0:0:0:0:
320,192,208409,128,0,208493:0:0:0:0:
448,192,208663,128,0,208958:0:0:0:0:
64,192,208890,128,0,208958:0:0:0:0:
192,192,208890,128,0,208958:0:0:0:0:
64,192,209094,128,0,209640:0:0:0:0:
192,192,209094,1,0,0:0:0:0:
448,192,209169,1,0,0:0:0:0:
320,192,209245,1,0,0:0:0:0:
192,192,209321,1,0,0:0:0:0:
448,192,209397,128,0,209640:0:0:0:60:Hat open.wav
64,192,209723,1,8,0:0:0:0:
320,192,209723,1,2,0:0:0:0:
448,192,209723,1,4,0:0:0:0:
64,192,209880,1,8,0:0:0:0:
192,192,209880,1,0,0:0:0:0:
320,192,209959,1,8,0:0:0:0:
64,192,210038,1,8,0:0:0:0:
448,192,210038,1,0,0:0:0:0:
192,192,210117,1,8,0:0:0:0:
320,192,210196,1,2,0:0:0:0:
448,192,210196,1,8,0:0:0:0:
64,192,210275,1,8,0:0:0:0:
192,192,210354,1,8,0:0:0:0:
448,192,210354,1,0,0:0:0:0:
320,192,210433,1,8,0:0:0:0:
64,192,210512,1,8,0:0:0:0:
192,192,210512,1,0,0:0:0:0:
320,192,210591,1,8,0:0:0:0:
64,192,210670,1,2,0:0:0:0:
448,192,210670,1,8,0:0:0:0:
192,192,210749,1,8,0:0:0:0:
320,192,210828,1,8,0:0:0:0:
448,192,210828,1,0,0:0:0:0:
192,192,210907,1,8,0:0:0:0:
64,192,210986,1,8,0:0:0:0:
448,192,210986,1,0,0:0:0:0:
320,192,211065,1,8,0:0:0:0:
64,192,211144,1,2,0:0:0:0:
192,192,211144,1,8,0:0:0:0:
448,192,211223,1,8,0:0:0:0:
64,192,211301,1,8,0:0:0:0:
320,192,211301,1,0,0:0:0:0:
192,192,211380,1,8,0:0:0:0:
320,192,211459,1,8,0:0:0:0:
448,192,211459,1,0,0:0:0:0:
192,192,211538,1,8,0:0:0:0:
64,192,211617,1,2,0:0:0:0:
448,192,211617,1,8,0:0:0:0:
320,192,211696,1,8,0:0:0:0:
64,192,211775,1,8,0:0:0:0:
192,192,211775,1,0,0:0:0:0:
320,192,211854,1,8,0:0:0:0:
192,192,211933,1,2,0:0:0:0:
448,192,211933,1,8,0:0:0:0:
64,192,212012,1,8,0:0:0:0:
320,192,212091,1,8,0:0:0:0:
448,192,212091,1,0,0:0:0:0:
192,192,212170,1,8,0:0:0:0:
64,192,212249,1,6,0:0:0:0:
320,192,212249,1,8,0:0:0:0:
448,192,212328,1,8,0:0:0:0:
64,192,212407,1,8,0:0:0:0:
192,192,212407,1,0,0:0:0:0:
320,192,212486,1,8,0:0:0:0:
64,192,212565,1,8,0:0:0:0:
448,192,212565,1,0,0:0:0:0:
192,192,212644,1,8,0:0:0:0:
320,192,212723,1,10,0:0:0:0:
448,192,212723,1,0,0:0:0:60:Crash 2.wav
64,192,212801,1,8,0:0:0:0:
192,192,212880,1,8,0:0:0:0:
448,192,212880,1,0,0:0:0:0:
320,192,212959,1,8,0:0:0:0:
64,192,213038,1,8,0:0:0:0:
192,192,213038,1,0,0:0:0:0:
448,192,213117,1,8,0:0:0:0:
64,192,213196,1,10,0:0:0:0:
320,192,213196,1,4,0:0:0:0:
192,192,213275,1,8,0:0:0:0:
320,192,213354,1,8,0:0:0:0:
448,192,213354,1,0,0:0:0:0:
64,192,213433,1,8,0:0:0:0:
192,192,213512,1,8,0:0:0:0:
448,192,213512,1,0,0:0:0:0:
320,192,213591,1,8,0:0:0:0:
64,192,213670,1,10,0:0:0:0:
192,192,213670,1,0,0:0:0:60:Crash 2.wav
320,192,213749,1,8,0:0:0:0:
64,192,213828,1,8,0:0:0:0:
448,192,213828,1,0,0:0:0:0:
192,192,213907,1,8,0:0:0:0:
320,192,213986,1,8,0:0:0:0:
448,192,213986,1,0,0:0:0:0:
192,192,214065,1,8,0:0:0:0:
64,192,214144,1,10,0:0:0:0:
448,192,214144,1,4,0:0:0:0:
320,192,214223,1,8,0:0:0:0:
64,192,214301,1,8,0:0:0:0:
192,192,214301,1,0,0:0:0:0:
448,192,214380,1,8,0:0:0:0:
64,192,214459,1,10,0:0:0:0:
320,192,214459,1,0,0:0:0:60:Crash 2.wav
192,192,214538,1,8,0:0:0:0:
320,192,214617,1,8,0:0:0:0:
448,192,214617,1,0,0:0:0:0:
192,192,214696,1,8,0:0:0:0:
64,192,214775,1,4,0:0:0:0:
320,192,214775,1,8,0:0:0:0:
448,192,214854,1,8,0:0:0:0:
64,192,214933,1,8,0:0:0:0:
192,192,214933,1,0,0:0:0:0:
320,192,215012,1,8,0:0:0:0:
192,192,215091,1,8,0:0:0:0:
448,192,215091,1,0,0:0:0:0:
64,192,215170,1,8,0:0:0:0:
320,192,215249,1,10,0:0:0:0:
448,192,215249,1,0,0:0:0:60:Crash 2.wav
192,192,215328,1,8,0:0:0:0:
64,192,215407,1,8,0:0:0:0:
448,192,215407,1,0,0:0:0:0:
320,192,215486,1,8,0:0:0:0:
64,192,215565,1,8,0:0:0:0:
192,192,215565,1,0,0:0:0:0:
448,192,215644,1,8,0:0:0:0:
64,192,215723,1,6,0:0:0:0:
320,192,215723,1,8,0:0:0:0:
192,192,215801,1,8,0:0:0:0:
320,192,215880,1,8,0:0:0:0:
448,192,215880,1,0,0:0:0:0:
64,192,215959,1,8,0:0:0:0:
192,192,216038,1,8,0:0:0:0:
448,192,216038,1,0,0:0:0:0:
320,192,216117,1,8,0:0:0:0:
64,192,216196,1,10,0:0:0:0:
192,192,216196,1,0,0:0:0:60:Crash 2.wav
448,192,216275,1,8,0:0:0:0:
64,192,216354,1,8,0:0:0:0:
320,192,216354,1,0,0:0:0:0:
192,192,216433,1,8,0:0:0:0:
320,192,216512,1,8,0:0:0:0:
448,192,216512,1,0,0:0:0:0:
192,192,216591,1,8,0:0:0:0:
64,192,216670,1,6,0:0:0:0:
448,192,216670,1,8,0:0:0:0:
320,192,216749,1,8,0:0:0:0:
64,192,216828,1,8,0:0:0:0:
192,192,216828,1,0,0:0:0:0:
320,192,216907,1,8,0:0:0:0:
64,192,216986,1,10,0:0:0:0:
448,192,216986,1,0,0:0:0:60:Crash 2.wav
192,192,217065,1,8,0:0:0:0:
320,192,217144,1,8,0:0:0:0:
448,192,217144,1,0,0:0:0:0:
64,192,217223,1,8,0:0:0:0:
192,192,217301,1,6,0:0:0:0:
448,192,217301,1,8,0:0:0:0:
320,192,217380,1,8,0:0:0:0:
64,192,217459,1,8,0:0:0:0:
192,192,217459,1,0,0:0:0:0:
448,192,217538,1,8,0:0:0:0:
64,192,217617,1,8,0:0:0:0:
320,192,217617,1,0,0:0:0:0:
192,192,217696,1,8,0:0:0:0:
320,192,217775,1,10,0:0:0:0:
448,192,217775,1,0,0:0:0:60:Crash 2.wav
192,192,217854,1,8,0:0:0:0:
64,192,217933,1,8,0:0:0:0:
448,192,217933,1,0,0:0:0:0:
320,192,218012,1,8,0:0:0:0:
64,192,218091,1,8,0:0:0:0:
192,192,218091,1,0,0:0:0:0:
320,192,218170,1,8,0:0:0:0:
64,192,218249,1,6,0:0:0:0:
448,192,218249,1,8,0:0:0:0:
192,192,218328,1,8,0:0:0:0:
320,192,218407,1,8,0:0:0:0:
448,192,218407,1,0,0:0:0:0:
64,192,218486,1,8,0:0:0:0:
192,192,218565,1,8,0:0:0:0:
448,192,218565,1,0,0:0:0:0:
320,192,218644,1,8,0:0:0:0:
64,192,218723,1,10,0:0:0:0:
192,192,218723,1,0,0:0:0:60:Crash 2.wav
448,192,218801,1,8,0:0:0:0:
64,192,218880,1,8,0:0:0:0:
320,192,218880,1,0,0:0:0:0:
192,192,218959,1,8,0:0:0:0:
320,192,219038,1,8,0:0:0:0:
448,192,219038,1,0,0:0:0:0:
192,192,219117,1,8,0:0:0:0:
64,192,219196,1,6,0:0:0:0:
448,192,219196,1,8,0:0:0:0:
320,192,219275,1,8,0:0:0:0:
64,192,219354,1,8,0:0:0:0:
192,192,219354,1,0,0:0:0:0:
320,192,219433,1,8,0:0:0:0:
64,192,219512,1,8,0:0:0:0:
448,192,219512,1,0,0:0:0:0:
192,192,219591,1,8,0:0:0:0:
320,192,219670,1,2,0:0:0:0:
448,192,219670,1,0,0:0:0:0:
192,192,219749,1,2,0:0:0:0:
64,192,219828,1,8,0:0:0:0:
320,192,219828,1,4,0:0:0:0:
448,192,219828,1,0,0:0:0:0:
192,192,219986,1,0,0:0:0:50:Tom1.wav
448,192,219986,1,0,0:0:0:0:
320,192,220065,1,0,0:0:0:60:Tom2.wav
64,192,220144,1,0,0:0:0:60:Tom3.wav
192,192,220144,1,0,0:0:0:0:
448,192,220223,1,2,0:0:0:0:
64,192,220301,1,8,0:0:0:0:
192,192,220301,1,0,0:0:0:60:Crash 2.wav
320,192,220301,1,0,0:0:0:0:
64,192,220459,1,8,0:0:0:0:
448,192,220459,1,0,0:0:0:0:
192,192,220538,1,8,0:0:0:0:
320,192,220617,1,0,0:0:0:50:Tom1.wav
448,192,220617,1,0,0:0:0:0:
192,192,220696,1,0,0:0:0:60:Tom2.wav
64,192,220775,1,8,0:0:0:0:
320,192,220775,1,4,0:0:0:0:
448,192,220775,1,0,0:0:0:0:
192,192,220933,1,8,0:0:0:0:
320,192,220933,1,0,0:0:0:0:
448,192,221012,1,0,0:0:0:60:Tom2.wav
64,192,221091,1,0,0:0:0:60:Tom3.wav
192,192,221091,1,0,0:0:0:0:
320,192,221170,1,2,0:0:0:0:
64,192,221249,1,8,0:0:0:0:
192,192,221249,1,0,0:0:0:60:Crash 2.wav
448,192,221249,1,0,0:0:0:0:
320,192,221407,1,8,0:0:0:0:
448,192,221407,1,0,0:0:0:0:
192,192,221486,1,8,0:0:0:0:
64,192,221565,1,2,0:0:0:0:
448,192,221565,1,0,0:0:0:0:
320,192,221644,1,2,0:0:0:0:
64,192,221723,1,4,0:0:0:0:
192,192,221723,1,8,0:0:0:0:
448,192,221723,1,0,0:0:0:0:
64,192,221880,1,2,0:0:0:0:
320,192,221880,1,0,0:0:0:0:
192,192,221959,1,2,0:0:0:0:
64,192,222038,1,8,0:0:0:0:
320,192,222038,1,0,0:0:0:60:Crash 2.wav
448,192,222038,1,0,0:0:0:0:
192,192,222196,1,2,0:0:0:0:
448,192,222196,1,0,0:0:0:0:
320,192,222275,1,2,0:0:0:0:
64,192,222354,1,8,0:0:0:0:
192,192,222354,1,0,0:0:0:0:
448,192,222433,1,0,0:0:0:50:Tom1.wav
64,192,222512,1,0,0:0:0:60:Tom2.wav
320,192,222512,1,0,0:0:0:0:
192,192,222591,1,0,0:0:0:60:Tom3.wav
320,192,222670,1,2,0:0:0:0:
448,192,222670,1,0,0:0:0:0:
192,192,222749,1,2,0:0:0:0:
64,192,222828,1,8,0:0:0:0:
320,192,222828,1,0,0:0:0:0:
448,192,222907,1,0,0:0:0:50:Tom1.wav
64,192,222986,1,0,0:0:0:60:Tom2.wav
192,192,222986,1,0,0:0:0:0:
448,192,223065,1,0,0:0:0:60:Tom3.wav
64,192,223144,1,2,0:0:0:0:
320,192,223144,1,0,0:0:0:0:
192,192,223223,1,2,0:0:0:0:
320,192,223301,1,8,0:0:0:0:
448,192,223301,1,0,0:0:0:0:
192,192,223380,1,0,0:0:0:50:Tom1.wav
448,192,223459,1,0,0:0:0:0:
64,192,223459,1,0,0:0:0:60:Tom2.wav
320,192,223538,1,0,0:0:0:60:Tom3.wav
64,192,223617,1,2,0:0:0:0:
192,192,223696,1,2,0:0:0:0:
320,192,223775,1,8,0:0:0:0:
448,192,223775,1,0,0:0:0:0:
192,192,223854,1,8,0:0:0:0:
64,192,223854,1,0,0:0:0:0:
448,192,223933,1,8,0:0:0:0:
320,192,223933,1,0,0:0:0:0:
192,192,224012,1,8,0:0:0:0:
64,192,224012,1,0,0:0:0:0:
448,192,224091,1,8,0:0:0:0:
320,192,224091,1,0,0:0:0:0:
192,192,224170,1,8,0:0:0:0:
64,192,224170,1,0,0:0:0:0:
448,192,224249,1,2,0:0:0:0:
320,192,224249,1,4,0:0:0:0:
192,192,224328,1,2,0:0:0:0:
448,192,224407,1,2,0:0:0:0:
64,192,224407,1,0,0:0:0:60:Crash 2.wav
320,192,224486,1,2,0:0:0:0:
192,192,224565,1,2,0:0:0:0:
64,192,224565,1,4,0:0:0:0:
320,192,224644,1,2,0:0:0:0:
448,192,224723,1,2,0:0:0:0:
64,192,224723,1,0,0:0:0:60:Crash 2.wav
192,192,224801,1,2,0:0:0:0:
320,192,224880,1,0,0:0:0:0:
64,192,224882,128,4,225332:0:0:0:0:
448,192,224882,1,0,0:0:0:0:
320,192,225332,128,0,225782:0:0:0:0:
192,192,225782,128,0,226082:0:0:0:0:
448,192,226082,128,0,226382:0:0:0:0:
64,192,226382,128,0,226532:0:0:0:0:
320,192,226532,128,0,226682:0:0:0:0:
192,192,226682,128,0,226982:0:0:0:0:
320,192,226982,128,0,227282:0:0:0:0:
64,192,227282,128,0,227732:0:0:0:0:
448,192,227732,128,0,228182:0:0:0:0:
192,192,228182,128,0,228482:0:0:0:0:
320,192,228482,128,0,228782:0:0:0:0:
64,192,228782,128,0,228932:0:0:0:0:
448,192,228932,128,0,229082:0:0:0:0:
192,192,229082,128,0,229382:0:0:0:0:
320,192,229382,128,0,229682:0:0:0:0:
64,192,229682,128,0,230132:0:0:0:0:
448,192,230132,128,0,230582:0:0:0:0:
192,192,230582,128,0,230882:0:0:0:0:
320,192,230882,128,0,231182:0:0:0:0:
64,192,231182,128,0,231332:0:0:0:0:
192,192,231332,128,0,231482:0:0:0:0:
448,192,231482,128,0,231782:0:0:0:0:
320,192,231782,128,0,232082:0:0:0:0:
64,192,232082,128,0,232532:0:0:0:0:
448,192,232532,128,0,232982:0:0:0:0:
192,192,232982,128,0,233282:0:0:0:0:
320,192,233282,128,0,233582:0:0:0:0:
64,192,233582,128,0,233732:0:0:0:0:
448,192,233732,128,0,233882:0:0:0:0:
192,192,233882,128,0,234182:0:0:0:0:
320,192,234182,128,0,234482:0:0:0:0:
448,192,234482,128,0,234932:0:0:0:0:
64,192,234932,128,0,235382:0:0:0:0:
320,192,235382,128,0,235682:0:0:0:0:
192,192,235682,128,0,235982:0:0:0:0:
448,192,235982,128,0,236132:0:0:0:0:
64,192,236132,128,0,236282:0:0:0:0:
320,192,236282,128,0,236582:0:0:0:0:
448,192,236582,128,0,236882:0:0:0:0:
64,192,236882,128,0,237332:0:0:0:0:
320,192,237332,128,0,237782:0:0:0:0:
192,192,237782,128,0,238082:0:0:0:0:
64,192,238082,128,0,238382:0:0:0:0:
448,192,238382,128,0,238532:0:0:0:0:
192,192,238532,128,0,238682:0:0:0:0:
320,192,238682,128,0,238982:0:0:0:0:
64,192,238982,128,0,239282:0:0:0:0:
448,192,239282,128,0,239732:0:0:0:0:
320,192,239732,128,0,240182:0:0:0:0:
192,192,240182,128,0,240482:0:0:0:0:
64,192,240482,128,0,240782:0:0:0:0:
320,192,240782,128,0,240932:0:0:0:0:
192,192,240932,128,0,241082:0:0:0:0:
448,192,241082,128,0,241382:0:0:0:0:
64,192,241382,128,0,241682:0:0:0:0:
320,192,241682,128,0,242132:0:0:0:0:
192,192,242132,128,0,242582:0:0:0:0:
448,192,242582,128,0,242882:0:0:0:0:
64,192,242882,128,0,243182:0:0:0:0:
320,192,243182,128,0,243332:0:0:0:0:
448,192,243332,128,0,243482:0:0:0:0:
192,192,243482,128,0,243782:0:0:0:45:Ride.wav
320,192,243782,128,0,244082:0:0:0:60:Hat open.wav
64,192,244082,128,2,246182:0:0:0:0:
192,192,244082,128,4,244232:0:0:0:0:
448,192,244082,1,0,0:0:0:0:
320,192,244232,128,0,244382:0:0:0:0:
448,192,244382,128,0,244532:0:0:0:0:
192,192,244532,128,0,244682:0:0:0:0:
320,192,244682,128,2,244832:0:0:0:0:
448,192,244682,1,0,0:0:0:0:
192,192,244832,128,0,244982:0:0:0:0:
448,192,244982,128,0,245132:0:0:0:0:
320,192,245132,128,0,245282:0:0:0:0:
192,192,245282,128,2,245432:0:0:0:0:
448,192,245282,1,0,0:0:0:0:
320,192,245432,128,0,245582:0:0:0:0:
448,192,245582,128,0,245732:0:0:0:0:
192,192,245732,128,0,245882:0:0:0:0:
320,192,245882,1,2,0:0:0:0:
448,192,245882,128,0,246032:0:0:0:0:
192,192,246032,128,0,246182:0:0:0:0:
320,192,246182,128,0,246482:0:0:0:0:
448,192,246182,1,0,0:0:0:0:
64,192,246482,128,2,246632:0:0:0:0:
192,192,246482,1,0,0:0:0:0:
448,192,246482,128,0,248582:0:0:0:0:
320,192,246632,128,0,246782:0:0:0:0:
192,192,246782,128,0,246932:0:0:0:0:
320,192,246932,128,0,247082:0:0:0:0:
64,192,247082,128,2,247232:0:0:0:0:
192,192,247082,1,0,0:0:0:0:
320,192,247232,128,0,247382:0:0:0:0:
192,192,247382,128,0,247532:0:0:0:0:
64,192,247532,128,0,247682:0:0:0:0:
192,192,247682,1,2,0:0:0:0:
320,192,247682,128,0,247832:0:0:0:0:
64,192,247832,128,0,247982:0:0:0:0:
320,192,247982,128,0,248132:0:0:0:0:
192,192,248132,128,0,248282:0:0:0:0:
64,192,248282,128,2,248432:0:0:0:0:
320,192,248282,1,0,0:0:0:0:
192,192,248432,128,0,248582:0:0:0:0:
64,192,248582,128,0,248882:0:0:0:0:
320,192,248582,1,0,0:0:0:0:
192,192,248882,1,2,0:0:0:0:
320,192,248882,128,0,250982:0:0:0:0:
448,192,248882,128,0,249032:0:0:0:0:
64,192,249032,128,0,249182:0:0:0:0:
192,192,249182,128,0,249332:0:0:0:0:
448,192,249332,128,0,249482:0:0:0:0:
64,192,249482,1,2,0:0:0:0:
192,192,249482,128,0,249632:0:0:0:0:
448,192,249632,128,0,249782:0:0:0:0:
64,192,249782,128,0,249932:0:0:0:0:
192,192,249932,128,0,250082:0:0:0:0:
64,192,250082,1,2,0:0:0:0:
448,192,250082,128,0,250232:0:0:0:0:
192,192,250232,128,0,250382:0:0:0:0:
64,192,250382,128,0,250532:0:0:0:0:
448,192,250532,128,0,250682:0:0:0:0:
64,192,250682,1,2,0:0:0:0:
192,192,250682,128,0,250832:0:0:0:0:
448,192,250832,128,0,250982:0:0:0:0:
64,192,250982,128,0,251282:0:0:0:0:
192,192,250982,1,0,0:0:0:0:
192,192,251282,128,2,253082:0:0:0:0:
320,192,251282,128,0,251432:0:0:0:0:
448,192,251282,1,0,0:0:0:0:
64,192,251432,128,0,251582:0:0:0:0:
448,192,251582,128,0,251732:0:0:0:0:
320,192,251732,128,0,251882:0:0:0:0:
64,192,251882,128,2,252032:0:0:0:0:
448,192,251882,1,0,0:0:0:0:
320,192,252032,128,0,252182:0:0:0:0:
448,192,252182,128,0,252332:0:0:0:0:
64,192,252332,128,0,252482:0:0:0:0:
320,192,252482,128,2,252632:0:0:0:0:
448,192,252482,1,0,0:0:0:0:
64,192,252632,128,0,252782:0:0:0:0:
320,192,252782,1,2,0:0:0:0:
448,192,252782,128,0,252932:0:0:0:0:
64,192,252932,128,0,253082:0:0:0:0:
320,192,253082,1,2,0:0:0:0:
448,192,253082,1,0,0:0:0:0:
64,192,253232,1,8,0:0:0:0:
192,192,253232,1,0,0:0:0:0:
320,192,253307,1,8,0:0:0:0:
448,192,253307,1,0,0:0:0:0:
64,192,253382,1,2,0:0:0:0:
192,192,253382,1,8,0:0:0:0:
320,192,253457,1,8,0:0:0:0:
448,192,253457,1,0,0:0:0:0:
64,192,253532,1,8,0:0:0:0:
192,192,253532,1,0,0:0:0:0:
320,192,253607,1,8,0:0:0:0:
64,192,253682,1,2,0:0:0:0:
192,192,253682,1,4,0:0:0:0:
448,192,253682,1,0,0:0:0:0:
320,192,253982,128,2,254057:0:0:0:0:
448,192,253982,1,0,0:0:0:50:Hat open.wav
320,192,254132,128,0,254207:0:0:0:0:
64,192,254282,1,2,0:0:0:0:
192,192,254282,128,0,254357:0:0:0:50:Hat open.wav
192,192,254432,128,0,254507:0:0:0:0:
64,192,254582,1,2,0:0:0:0:
448,192,254582,128,0,254657:0:0:0:0:
192,192,254732,1,8,0:0:0:0:
320,192,254732,1,0,0:0:0:60:Crash 2.wav
448,192,254732,128,0,254807:0:0:0:0:
64,192,254882,128,2,254957:0:0:0:0:
320,192,254882,1,0,0:0:0:0:
64,192,255032,128,0,255107:0:0:0:0:
192,192,255182,1,2,0:0:0:0:
320,192,255182,128,0,255257:0:0:0:50:Hat open.wav
320,192,255332,128,0,255407:0:0:0:0:
192,192,255482,128,2,255557:0:0:0:0:
448,192,255482,1,0,0:0:0:50:Hat open.wav
192,192,255632,128,0,255707:0:0:0:0:
64,192,255782,1,2,0:0:0:0:
448,192,255782,128,0,255857:0:0:0:50:Hat open.wav
320,192,255932,1,8,0:0:0:0:
448,192,255932,128,0,256007:0:0:0:0:
192,192,256007,1,8,0:0:0:0:
64,192,256082,1,2,0:0:0:0:
320,192,256082,1,4,0:0:0:0:
448,192,256082,1,0,0:0:0:0:
64,192,256382,128,2,256457:0:0:0:0:
192,192,256382,1,0,0:0:0:50:Hat open.wav
64,192,256532,128,0,256607:0:0:0:0:
320,192,256682,128,2,256757:0:0:0:0:
448,192,256682,1,0,0:0:0:50:Hat open.wav
320,192,256832,128,0,256907:0:0:0:0:
192,192,256982,128,2,257057:0:0:0:0:
448,192,256982,1,0,0:0:0:0:
64,192,257132,1,8,0:0:0:0:
192,192,257132,128,0,257207:0:0:0:60:Crash 2.wav
320,192,257132,1,0,0:0:0:0:
64,192,257282,1,2,0:0:0:0:
448,192,257282,128,0,257357:0:0:0:0:
448,192,257432,128,0,257507:0:0:0:0:
64,192,257582,128,2,257657:0:0:0:0:
320,192,257582,1,0,0:0:0:50:Hat open.wav
64,192,257732,128,8,257807:0:0:0:0:
448,192,257732,1,0,0:0:0:0:
320,192,257807,1,8,0:0:0:0:
64,192,257882,1,2,0:0:0:0:
192,192,257882,1,0,0:0:0:0:
448,192,257882,1,0,0:0:0:0:
192,192,258032,1,0,0:0:0:60:Tom2.wav
320,192,258032,1,0,0:0:0:0:
320,192,258182,1,0,0:0:0:60:Tom3.wav
448,192,258182,1,0,0:0:0:0:
64,192,258332,1,0,0:0:0:60:Tom3.wav
192,192,258332,1,0,0:0:0:0:
64,192,258482,1,2,0:0:0:0:
320,192,258482,1,4,0:0:0:0:
448,192,258482,1,0,0:0:0:0:
192,192,258782,128,2,258857:0:0:0:0:
320,192,258782,1,0,0:0:0:0:
192,192,258932,128,0,259007:0:0:0:0:
64,192,259082,1,2,0:0:0:0:
448,192,259082,128,0,259157:0:0:0:50:Hat open.wav
448,192,259232,128,0,259307:0:0:0:0:
64,192,259382,128,2,259457:0:0:0:0:
192,192,259382,1,8,0:0:0:0:
320,192,259382,1,4,0:0:0:0:
64,192,259532,128,0,259607:0:0:0:0:
320,192,259682,1,2,0:0:0:0:
448,192,259682,128,0,259832:0:0:0:0:
64,192,259832,1,8,0:0:0:0:
192,192,259832,128,0,259982:0:0:0:0:
320,192,259832,1,0,0:0:0:0:
64,192,259982,1,2,0:0:0:0:
448,192,259982,128,0,260132:0:0:0:50:Hat open.wav
192,192,260132,128,2,260282:0:0:0:0:
320,192,260132,1,0,0:0:0:0:
64,192,260282,1,8,0:0:0:0:
320,192,260282,128,0,260432:0:0:0:50:Hat open.wav
448,192,260282,1,0,0:0:0:0:
64,192,260432,128,2,260582:0:0:0:0:
192,192,260432,1,0,0:0:0:0:
192,192,260582,1,8,0:0:0:0:
320,192,260582,1,0,0:0:0:60:Crash 2.wav
448,192,260582,128,0,260882:0:0:0:0:
64,192,260882,128,2,261407:0:0:0:0:
192,192,260882,1,4,0:0:0:0:
320,192,260882,1,0,0:0:0:0:
320,192,261182,1,2,0:0:0:0:
448,192,261182,128,0,261707:0:0:0:30:Crash 2.wav
64,192,261482,1,2,0:0:0:0:
192,192,261482,128,0,262007:0:0:0:30:Crash 2.wav
320,192,261782,128,2,262607:0:0:0:0:
448,192,261782,1,0,0:0:0:35:Crash 2.wav
64,192,262082,128,2,262607:0:0:0:0:
192,192,262082,1,0,0:0:0:35:Crash 2.wav
192,192,262382,128,2,262907:0:0:0:0:
448,192,262382,128,0,262907:0:0:0:40:Crash 2.wav
64,192,262682,128,2,263207:0:0:0:0:
320,192,262682,128,0,263207:0:0:0:40:Crash 2.wav
192,192,262982,128,2,263807:0:0:0:0:
448,192,262982,128,0,263507:0:0:0:45:Crash 2.wav
64,192,263282,128,2,263807:0:0:0:0:
320,192,263282,128,0,263507:0:0:0:45:Crash 2.wav
320,192,263582,128,2,264107:0:0:0:0:
448,192,263582,128,0,264107:0:0:0:50:Crash 2.wav
64,192,263882,128,2,264482:0:0:0:0:
192,192,263882,128,0,264482:0:0:0:60:Crash 2.wav
320,192,264182,128,2,264482:0:0:0:0:
448,192,264182,128,0,264482:0:0:0:80:Crash short.wav
64,192,266132,1,2,0:0:0:0:
448,192,266132,1,0,0:0:0:0:
192,192,266207,1,2,0:0:0:0:
64,192,266282,1,8,0:0:0:0:
320,192,266282,1,2,0:0:0:0:
448,192,266282,1,0,0:0:0:0:
192,192,266482,1,2,0:0:0:0:
320,192,266482,1,0,0:0:0:0:
64,192,266682,1,2,0:0:0:0:
192,192,266682,1,0,0:0:0:0:
64,192,266882,128,2,268082:0:0:0:0:
320,192,266882,1,4,0:0:0:0:
448,192,266882,1,0,0:0:0:0:
192,192,267482,1,0,0:0:0:60:Hat open.wav
192,192,268082,1,2,0:0:0:0:
320,192,268082,128,0,269282:0:0:0:60:Crash 2.wav
448,192,268082,1,0,0:0:0:0:
64,192,268682,1,0,0:0:0:50:Hat open.wav
64,192,269282,1,2,0:0:0:0:
192,192,269282,128,4,270482:0:0:0:0:
448,192,269282,1,0,0:0:0:0:
320,192,269882,1,0,0:0:0:50:Hat open.wav
64,192,270482,1,2,0:0:0:0:
320,192,270482,1,0,0:0:0:60:Crash 2.wav
448,192,270482,128,0,271682:0:0:0:0:
192,192,271082,1,0,0:0:0:50:Hat open.wav
64,192,271682,128,2,272132:0:0:0:0:
192,192,271682,1,4,0:0:0:0:
320,192,271682,1,0,0:0:0:0:
448,192,271832,128,0,272132:0:0:0:0:
320,192,271982,128,0,272132:0:0:0:60:Hat open.wav
192,192,272132,128,0,272282:0:0:0:0:
64,192,272282,1,2,0:0:0:0:
320,192,272282,1,0,0:0:0:60:Crash 2.wav
448,192,272282,128,0,272732:0:0:0:0:
192,192,272432,128,0,272732:0:0:0:0:
64,192,272582,128,0,272732:0:0:0:60:Hat open.wav
320,192,272732,128,0,272882:0:0:0:0:
64,192,272882,1,2,0:0:0:0:
192,192,272882,128,4,273332:0:0:0:0:
448,192,272882,1,0,0:0:0:0:
320,192,273032,128,0,273332:0:0:0:0:
448,192,273182,128,0,273332:0:0:0:50:Hat open.wav
64,192,273332,128,0,273482:0:0:0:0:
192,192,273482,1,2,0:0:0:0:
320,192,273482,128,0,273932:0:0:0:60:Crash 2.wav
448,192,273482,1,0,0:0:0:0:
64,192,273632,128,0,273932:0:0:0:0:
192,192,273782,128,0,273932:0:0:0:50:Hat open.wav
448,192,273932,128,0,274082:0:0:0:0:
64,192,274082,1,2,0:0:0:0:
192,192,274082,1,0,0:0:0:90:Crash short.wav
320,192,274082,1,0,0:0:0:0:
64,192,274682,1,2,0:0:0:0:
192,192,274682,1,0,0:0:0:90:Crash short.wav
448,192,274682,1,0,0:0:0:0:
64,192,275132,1,2,0:0:0:0:
320,192,275132,1,0,0:0:0:0:
192,192,275207,1,2,0:0:0:0:
64,192,275282,1,8,0:0:0:0:
320,192,275282,1,0,0:0:0:60:Crash 2.wav
448,192,275282,1,0,0:0:0:0:
64,192,275482,1,8,0:0:0:0:
192,192,275482,1,0,0:0:0:60:Crash 2.wav
320,192,275482,1,0,0:0:0:0:
192,192,275682,1,8,0:0:0:0:
320,192,275682,1,0,0:0:0:60:Crash 2.wav
448,192,275682,1,0,0:0:0:0:
64,192,275882,1,2,0:0:0:0:
192,192,275882,1,4,0:0:0:0:
448,192,275882,1,0,0:0:0:0:
320,192,276032,1,8,0:0:0:0:
448,192,276032,1,0,0:0:0:0:
64,192,276107,1,8,0:0:0:0:
192,192,276107,1,0,0:0:0:0:
320,192,276182,1,8,0:0:0:0:
448,192,276182,1,2,0:0:0:0:
64,192,276257,1,8,0:0:0:0:
192,192,276257,1,0,0:0:0:0:
320,192,276332,1,8,0:0:0:0:
448,192,276332,1,0,0:0:0:0:
192,192,276407,1,8,0:0:0:0:
64,192,276482,1,2,0:0:0:0:
320,192,276482,1,4,0:0:0:0:
448,192,276482,128,0,276632:0:0:0:0:
192,192,276632,128,0,276782:0:0:0:0:
64,192,276782,1,8,0:0:0:0:
320,192,276782,128,2,276932:0:0:0:0:
448,192,276782,1,0,0:0:0:40:Crash 2.wav
192,192,276932,1,0,0:0:0:0:
64,192,277082,1,2,0:0:0:0:
448,192,277082,128,0,277232:0:0:0:40:Crash 2.wav
320,192,277232,1,0,0:0:0:0:
64,192,277382,128,8,277532:0:0:0:0:
192,192,277382,1,2,0:0:0:0:
448,192,277382,1,0,0:0:0:40:Crash 2.wav
320,192,277532,128,0,277682:0:0:0:0:
64,192,277682,1,2,0:0:0:0:
192,192,277682,128,0,277832:0:0:0:40:Crash 2.wav
448,192,277832,1,0,0:0:0:0:
64,192,277982,128,2,278132:0:0:0:0:
192,192,277982,1,8,0:0:0:0:
320,192,277982,1,0,0:0:0:40:Crash 2.wav
448,192,278132,128,0,278282:0:0:0:0:
192,192,278282,1,2,0:0:0:0:
320,192,278282,1,0,0:0:0:40:Crash 2.wav
64,192,278432,128,0,278582:0:0:0:0:
192,192,278582,1,8,0:0:0:0:
320,192,278582,128,2,278732:0:0:0:0:
448,192,278582,1,0,0:0:0:40:Crash 2.wav
192,192,278732,128,0,278882:0:0:0:0:
320,192,278882,1,2,0:0:0:0:
448,192,278882,128,0,279032:0:0:0:40:Crash 2.wav
64,192,279032,1,0,0:0:0:0:
192,192,279182,128,8,279332:0:0:0:0:
320,192,279182,1,2,0:0:0:0:
448,192,279182,1,0,0:0:0:40:Crash 2.wav
64,192,279332,1,0,0:0:0:0:
320,192,279482,128,2,279632:0:0:0:0:
448,192,279482,1,0,0:0:0:40:Crash 2.wav
192,192,279632,1,0,0:0:0:0:
64,192,279782,128,2,279932:0:0:0:0:
320,192,279782,1,8,0:0:0:0:
448,192,279782,1,0,0:0:0:40:Crash 2.wav
192,192,279932,1,0,0:0:0:0:
320,192,280082,1,2,0:0:0:0:
448,192,280082,128,0,280232:0:0:0:40:Crash 2.wav
64,192,280232,1,0,0:0:0:0:
192,192,280382,1,2,0:0:0:0:
320,192,280382,1,8,0:0:0:0:
448,192,280382,1,0,0:0:0:40:Crash 2.wav
64,192,280532,1,0,0:0:0:0:
192,192,280682,1,2,0:0:0:0:
320,192,280682,1,0,0:0:0:40:Crash 2.wav
448,192,280832,1,0,0:0:0:0:
64,192,280982,1,8,0:0:0:0:
192,192,280982,1,2,0:0:0:0:
320,192,280982,1,0,0:0:0:40:Crash 2.wav
192,192,281132,1,8,0:0:0:0:
448,192,281132,1,0,0:0:0:0:
320,192,281207,1,8,0:0:0:0:
64,192,281282,128,2,281432:0:0:0:0:
192,192,281282,1,4,0:0:0:0:
448,192,281282,1,0,0:0:0:0:
320,192,281432,128,0,281582:0:0:0:0:
64,192,281582,1,8,0:0:0:0:
192,192,281582,128,2,281732:0:0:0:0:
448,192,281582,1,0,0:0:0:40:Crash 2.wav
448,192,281732,128,0,281882:0:0:0:0:
64,192,281882,128,2,282032:0:0:0:0:
192,192,281882,1,0,0:0:0:40:Crash 2.wav
320,192,282032,1,0,0:0:0:0:
64,192,282182,1,2,0:0:0:0:
192,192,282182,1,8,0:0:0:0:
448,192,282182,128,0,282332:0:0:0:40:Crash 2.wav
192,192,282332,128,0,282482:0:0:0:0:
320,192,282482,128,2,282632:0:0:0:0:
448,192,282482,1,0,0:0:0:40:Crash 2.wav
64,192,282632,128,0,282782:0:0:0:0:
192,192,282782,1,2,0:0:0:0:
320,192,282782,1,8,0:0:0:0:
448,192,282782,128,0,282932:0:0:0:40:Crash 2.wav
64,192,282932,1,0,0:0:0:0:
192,192,283082,1,2,0:0:0:0:
320,192,283082,1,0,0:0:0:40:Crash 2.wav
448,192,283232,1,0,0:0:0:0:
64,192,283382,1,8,0:0:0:0:
192,192,283382,1,2,0:0:0:0:
320,192,283382,1,0,0:0:0:40:Crash 2.wav
448,192,283532,1,0,0:0:0:0:
64,192,283682,1,2,0:0:0:0:
192,192,283682,1,0,0:0:0:40:Crash 2.wav
320,192,283907,1,8,0:0:0:0:
448,192,283907,1,0,0:0:0:0:
64,192,283982,1,2,0:0:0:0:
192,192,283982,1,0,0:0:0:40:Crash 2.wav
64,192,284132,1,8,0:0:0:0:
320,192,284132,1,0,0:0:0:0:
448,192,284132,1,0,0:0:0:0:
192,192,284282,1,2,0:0:0:0:
320,192,284282,1,0,0:0:0:40:Crash 2.wav
64,192,284507,1,8,0:0:0:0:
448,192,284507,1,0,0:0:0:0:
192,192,284582,1,2,0:0:0:0:
320,192,284582,1,0,0:0:0:40:Crash 2.wav
64,192,284732,1,8,0:0:0:0:
192,192,284732,1,0,0:0:0:0:
448,192,284732,1,0,0:0:0:0:
320,192,284882,1,2,0:0:0:0:
448,192,284882,1,0,0:0:0:40:Crash 2.wav
64,192,284957,1,8,0:0:0:0:
192,192,284957,1,0,0:0:0:0:
320,192,285032,1,8,0:0:0:0:
448,192,285032,1,0,0:0:0:0:
192,192,285107,1,8,0:0:0:0:
64,192,285182,1,8,0:0:0:0:
448,192,285182,1,2,0:0:0:0:
192,192,285257,1,8,0:0:0:0:
320,192,285257,1,0,0:0:0:0:
64,192,285332,1,8,0:0:0:0:
448,192,285332,1,0,0:0:0:0:
320,192,285407,1,8,0:0:0:0:
64,192,285482,1,2,0:0:0:0:
192,192,285482,1,0,0:0:0:60:Crash 2.wav
320,192,285557,1,8,0:0:0:0:
448,192,285557,1,0,0:0:0:0:
64,192,285632,1,8,0:0:0:0:
192,192,285632,1,0,0:0:0:0:
320,192,285707,1,8,0:0:0:0:
64,192,285782,1,8,0:0:0:0:
448,192,285782,1,2,0:0:0:0:
192,192,285857,1,8,0:0:0:0:
320,192,285857,1,0,0:0:0:0:
64,192,285932,1,8,0:0:0:0:
448,192,285932,1,0,0:0:0:0:
192,192,286007,1,8,0:0:0:0:
320,192,286082,1,0,0:0:0:60:Tom2.wav
448,192,286082,1,0,0:0:0:0:
192,192,286157,1,0,0:0:0:60:Tom3.wav
64,192,286232,1,2,0:0:0:0:
448,192,286232,1,0,0:0:0:0:
320,192,286307,1,2,0:0:0:0:
64,192,286382,1,8,0:0:0:0:
192,192,286382,1,4,0:0:0:0:
448,192,286382,1,0,0:0:0:0:
320,192,286532,1,0,0:0:0:0:
64,192,286682,1,2,0:0:0:0:
448,192,286682,1,0,0:0:0:40:Crash 2.wav
192,192,286832,1,0,0:0:0:0:
64,192,286982,1,8,0:0:0:0:
320,192,286982,1,2,0:0:0:0:
448,192,286982,1,0,0:0:0:40:Crash 2.wav
448,192,287132,1,0,0:0:0:0:
192,192,287282,1,2,0:0:0:0:
320,192,287282,1,0,0:0:0:40:Crash 2.wav
64,192,287432,1,0,0:0:0:0:
192,192,287582,1,2,0:0:0:0:
320,192,287582,1,8,0:0:0:0:
448,192,287582,1,0,0:0:0:40:Crash 2.wav
192,192,287732,1,0,0:0:0:0:
64,192,287882,1,2,0:0:0:0:
448,192,287882,1,0,0:0:0:40:Crash 2.wav
320,192,288032,1,0,0:0:0:0:
64,192,288182,1,8,0:0:0:0:
192,192,288182,1,2,0:0:0:0:
448,192,288182,1,0,0:0:0:40:Crash 2.wav
448,192,288332,1,0,0:0:0:0:
192,192,288482,1,2,0:0:0:0:
320,192,288482,1,0,0:0:0:40:Crash 2.wav
64,192,288632,1,0,0:0:0:0:
192,192,288782,1,8,0:0:0:0:
320,192,288782,1,2,0:0:0:0:
448,192,288782,1,0,0:0:0:40:Crash 2.wav
448,192,288932,1,0,0:0:0:0:
64,192,289082,1,2,0:0:0:0:
192,192,289082,1,0,0:0:0:40:Crash 2.wav
320,192,289232,1,0,0:0:0:0:
64,192,289382,1,2,0:0:0:0:
192,192,289382,1,8,0:0:0:0:
448,192,289382,1,0,0:0:0:40:Crash 2.wav
64,192,289532,1,0,0:0:0:0:
192,192,289682,1,2,0:0:0:0:
320,192,289682,1,0,0:0:0:40:Crash 2.wav
448,192,289832,1,0,0:0:0:0:
64,192,289982,1,2,0:0:0:0:
192,192,289982,1,8,0:0:0:0:
320,192,289982,1,0,0:0:0:40:Crash 2.wav
192,192,290132,1,0,0:0:0:0:
64,192,290282,1,2,0:0:0:0:
448,192,290282,1,0,0:0:0:40:Crash 2.wav
320,192,290432,1,0,0:0:0:0:
64,192,290582,1,8,0:0:0:0:
192,192,290582,1,2,0:0:0:0:
448,192,290582,1,0,0:0:0:40:Crash 2.wav
192,192,290732,1,0,0:0:0:0:
320,192,290882,1,2,0:0:0:0:
448,192,290882,1,0,0:0:0:40:Crash 2.wav
64,192,291032,128,0,291182:0:0:0:0:
192,192,291182,1,8,0:0:0:0:
320,192,291182,128,2,291332:0:0:0:0:
448,192,291182,1,0,0:0:0:40:Crash 2.wav
192,192,291332,128,0,291482:0:0:0:0:
320,192,291482,1,2,0:0:0:0:
448,192,291482,1,0,0:0:0:40:Crash 2.wav
64,192,291632,128,0,291782:0:0:0:0:
192,192,291782,1,2,0:0:0:0:
320,192,291782,128,8,291932:0:0:0:0:
448,192,291782,1,0,0:0:0:40:Crash 2.wav
192,192,291932,128,0,292082:0:0:0:0:
320,192,292082,1,2,0:0:0:0:
448,192,292082,128,0,292232:0:0:0:40:Crash 2.wav
192,192,292232,128,0,292382:0:0:0:0:
64,192,292382,1,2,0:0:0:0:
320,192,292382,128,8,292532:0:0:0:0:
448,192,292382,1,0,0:0:0:40:Crash 2.wav
64,192,292532,128,0,292682:0:0:0:0:
320,192,292682,1,2,0:0:0:0:
448,192,292682,128,0,292832:0:0:0:40:Crash 2.wav
192,192,292832,128,0,292982:0:0:0:0:
64,192,292982,1,8,0:0:0:0:
320,192,292982,128,2,293132:0:0:0:0:
448,192,292982,1,0,0:0:0:40:Crash 2.wav
192,192,293132,1,0,0:0:0:0:
320,192,293282,1,2,0:0:0:0:
448,192,293282,1,0,0:0:0:40:Crash 2.wav
64,192,293432,128,0,293582:0:0:0:0:
192,192,293582,1,8,0:0:0:0:
320,192,293582,128,2,293732:0:0:0:0:
448,192,293582,1,0,0:0:0:40:Crash 2.wav
192,192,293732,128,0,293882:0:0:0:0:
64,192,293882,1,2,0:0:0:0:
448,192,293882,1,0,0:0:0:40:Crash 2.wav
192,192,294032,1,2,0:0:0:0:
320,192,294032,1,0,0:0:0:0:
64,192,294182,1,8,0:0:0:0:
320,192,294182,1,0,0:0:0:40:Crash 2.wav
448,192,294182,1,0,0:0:0:0:
64,192,294332,1,2,0:0:0:0:
192,192,294332,1,0,0:0:0:0:
192,192,294482,1,8,0:0:0:0:
320,192,294482,1,0,0:0:0:40:Crash 2.wav
448,192,294482,1,0,0:0:0:0:
64,192,294632,1,2,0:0:0:0:
448,192,294632,1,0,0:0:0:0:
64,192,294782,1,8,0:0:0:0:
192,192,294782,1,0,0:0:0:40:Crash 2.wav
320,192,294782,1,0,0:0:0:0:
448,192,294932,1,0,0:0:0:0:
64,192,295082,1,8,0:0:0:0:
192,192,295082,1,0,0:0:0:0:
64,192,295182,1,8,0:0:0:0:
192,192,295182,1,0,0:0:0:0:
320,192,295282,1,8,0:0:0:0:
448,192,295282,1,0,0:0:0:0:
320,192,295382,1,0,0:0:0:50:Tom1.wav
448,192,295382,1,0,0:0:0:0:
64,192,295482,1,0,0:0:0:60:Tom2.wav
192,192,295482,1,0,0:0:0:0:
64,192,295582,1,0,0:0:0:60:Tom3.wav
192,192,295582,1,0,0:0:0:0:
64,192,295682,1,2,0:0:0:0:
320,192,295682,1,4,0:0:0:0:
448,192,295682,1,0,0:0:0:0:
192,192,295832,1,2,0:0:0:0:
320,192,295832,1,0,0:0:0:0:
64,192,295982,1,2,0:0:0:0:
448,192,295982,1,0,0:0:0:60:Hat open.wav
192,192,296132,1,2,0:0:0:0:
320,192,296132,128,0,296282:0:0:0:0:
64,192,296282,1,8,0:0:0:0:
192,192,296282,128,0,296432:0:0:0:0:
448,192,296282,1,0,0:0:0:0:
64,192,296432,1,2,0:0:0:0:
320,192,296432,128,0,296732:0:0:0:60:Crash 2.wav
448,192,296432,1,0,0:0:0:0:
64,192,296732,1,8,0:0:0:0:
192,192,296732,1,0,0:0:0:0:
448,192,296732,1,0,0:0:0:0:
320,192,296882,1,2,0:0:0:0:
448,192,296882,1,0,0:0:0:0:
64,192,297032,1,8,0:0:0:0:
192,192,297032,1,0,0:0:0:0:
320,192,297032,1,0,0:0:0:0:
64,192,297182,1,2,0:0:0:0:
448,192,297182,1,0,0:0:0:60:Hat open.wav
192,192,297332,128,2,297482:0:0:0:0:
320,192,297332,1,0,0:0:0:0:
64,192,297482,1,8,0:0:0:0:
320,192,297482,128,0,297632:0:0:0:0:
448,192,297482,1,0,0:0:0:0:
64,192,297632,1,2,0:0:0:0:
192,192,297632,128,0,298082:0:0:0:60:Crash 2.wav
448,192,297632,1,0,0:0:0:0:
64,192,298082,1,2,0:0:0:0:
320,192,298082,1,4,0:0:0:0:
448,192,298082,1,0,0:0:0:0:
192,192,298232,1,2,0:0:0:0:
320,192,298232,1,0,0:0:0:0:
64,192,298382,1,2,0:0:0:0:
448,192,298382,1,0,0:0:0:60:Hat open.wav
192,192,298532,1,2,0:0:0:0:
320,192,298532,128,0,298682:0:0:0:0:
64,192,298682,1,8,0:0:0:0:
192,192,298682,128,0,298832:0:0:0:0:
448,192,298682,1,0,0:0:0:0:
64,192,298832,1,2,0:0:0:0:
320,192,298832,128,0,299282:0:0:0:60:Crash 2.wav
448,192,298832,1,0,0:0:0:0:
64,192,299282,1,2,0:0:0:0:
192,192,299282,1,0,0:0:0:0:
192,192,299432,1,8,0:0:0:0:
320,192,299432,1,0,0:0:0:0:
448,192,299432,1,0,0:0:0:0:
64,192,299582,1,2,0:0:0:0:
448,192,299582,1,0,0:0:0:60:Hat open.wav
192,192,299732,1,2,0:0:0:0:
320,192,299732,1,0,0:0:0:0:
64,192,299882,1,8,0:0:0:0:
448,192,299882,1,0,0:0:0:0:
192,192,299957,1,0,0:0:0:50:Tom1.wav
320,192,299957,1,0,0:0:0:0:
64,192,300032,1,0,0:0:0:60:Tom2.wav
448,192,300032,1,0,0:0:0:0:
192,192,300107,1,0,0:0:0:60:Tom3.wav
64,192,300182,128,8,300407:0:0:0:0:
320,192,300182,1,0,0:0:0:60:Crash 2.wav
448,192,300182,128,0,300407:0:0:0:0:
64,192,300482,1,2,0:0:0:0:
192,192,300482,1,4,0:0:0:0:
448,192,300482,1,0,0:0:0:0:
320,192,300632,1,2,0:0:0:0:
448,192,300632,1,0,0:0:0:0:
64,192,300782,1,8,0:0:0:0:
192,192,300782,1,0,0:0:0:50:Hat open.wav
320,192,300782,1,0,0:0:0:0:
64,192,300932,1,2,0:0:0:0:
448,192,300932,1,0,0:0:0:0:
192,192,301082,1,8,0:0:0:0:
320,192,301082,1,0,0:0:0:50:Hat open.wav
448,192,301082,1,0,0:0:0:0:
64,192,301232,1,8,0:0:0:0:
192,192,301232,1,0,0:0:0:0:
320,192,301307,1,8,0:0:0:0:
448,192,301307,1,0,0:0:0:0:
64,192,301382,1,2,0:0:0:0:
192,192,301382,1,8,0:0:0:0:
320,192,301457,1,8,0:0:0:0:
448,192,301457,1,0,0:0:0:0:
64,192,301532,1,8,0:0:0:0:
192,192,301532,1,0,0:0:0:0:
320,192,301607,1,8,0:0:0:0:
64,192,301682,128,2,301757:0:0:0:0:
192,192,301682,128,0,301757:0:0:0:70:Crash short.wav
448,192,301682,1,0,0:0:0:0:
64,192,301982,128,0,302057:0:0:0:0:
192,192,301982,128,0,302057:0:0:0:0:
64,192,302282,128,2,302357:0:0:0:0:
192,192,302282,128,0,302357:0:0:0:50:Hat open.wav
320,192,302432,1,8,0:0:0:0:
448,192,302432,1,0,0:0:0:0:
64,192,302507,1,8,0:0:0:0:
192,192,302507,1,0,0:0:0:0:
320,192,302582,1,2,0:0:0:0:
448,192,302582,1,8,0:0:0:0:
64,192,302657,1,8,0:0:0:0:
192,192,302657,1,0,0:0:0:0:
320,192,302732,1,8,0:0:0:0:
448,192,302732,1,0,0:0:0:0:
192,192,302807,1,8,0:0:0:0:
64,192,302882,128,2,302957:0:0:0:0:
320,192,302882,1,4,0:0:0:0:
448,192,302882,1,0,0:0:0:0:
64,192,303032,128,0,303107:0:0:0:0:
64,192,303182,128,8,303257:0:0:0:0:
192,192,303182,1,2,0:0:0:0:
448,192,303182,1,0,0:0:0:45:Crash 2.wav
320,192,303332,128,0,303407:0:0:0:0:
320,192,303482,128,2,303557:0:0:0:0:
448,192,303482,1,0,0:0:0:45:Crash 2.wav
320,192,303632,128,0,303707:0:0:0:0:
64,192,303782,1,8,0:0:0:0:
192,192,303782,128,2,303857:0:0:0:0:
448,192,303782,1,0,0:0:0:45:Crash 2.wav
192,192,303932,128,0,304007:0:0:0:0:
64,192,304082,1,2,0:0:0:0:
448,192,304082,128,0,304157:0:0:0:45:Crash 2.wav
448,192,304232,128,0,304307:0:0:0:0:
192,192,304382,1,8,0:0:0:0:
320,192,304382,1,2,0:0:0:0:
448,192,304382,128,0,304457:0:0:0:45:Crash 2.wav
64,192,304532,128,0,304607:0:0:0:0:
64,192,304682,128,2,304757:0:0:0:0:
192,192,304682,1,0,0:0:0:45:Crash 2.wav
64,192,304832,128,0,304907:0:0:0:0:
192,192,304982,1,2,0:0:0:0:
320,192,304982,128,8,305057:0:0:0:0:
448,192,304982,1,0,0:0:0:45:Crash 2.wav
320,192,305132,128,0,305207:0:0:0:0:
64,192,305282,1,2,0:0:0:0:
192,192,305282,128,0,305357:0:0:0:45:Crash 2.wav
192,192,305432,128,0,305507:0:0:0:0:
64,192,305582,1,2,0:0:0:0:
192,192,305582,128,8,305657:0:0:0:0:
320,192,305582,1,0,0:0:0:45:Crash 2.wav
448,192,305732,128,0,305807:0:0:0:0:
192,192,305882,1,2,0:0:0:0:
448,192,305882,128,0,305957:0:0:0:45:Crash 2.wav
448,192,306032,128,0,306107:0:0:0:0:
64,192,306182,128,8,306257:0:0:0:0:
192,192,306182,1,2,0:0:0:0:
320,192,306182,1,0,0:0:0:45:Crash 2.wav
64,192,306332,128,0,306407:0:0:0:0:
320,192,306482,128,2,306557:0:0:0:0:
448,192,306482,1,0,0:0:0:45:Crash 2.wav
320,192,306632,128,0,306707:0:0:0:0:
64,192,306782,1,8,0:0:0:0:
320,192,306782,128,2,306857:0:0:0:0:
448,192,306782,1,0,0:0:0:45:Crash 2.wav
192,192,306932,128,0,307007:0:0:0:0:
192,192,307082,128,2,307157:0:0:0:0:
448,192,307082,1,0,0:0:0:45:Crash 2.wav
192,192,307232,128,2,307307:0:0:0:0:
320,192,307232,1,0,0:0:0:0:
64,192,307382,1,8,0:0:0:0:
320,192,307382,1,0,0:0:0:45:Crash 2.wav
448,192,307382,1,0,0:0:0:0:
64,192,307532,1,2,0:0:0:0:
192,192,307532,1,0,0:0:0:0:
320,192,307607,1,2,0:0:0:0:
64,192,307682,1,8,0:0:0:0:
192,192,307682,1,4,0:0:0:0:
448,192,307682,1,0,0:0:0:0:
320,192,307832,1,2,0:0:0:0:
448,192,307832,1,0,0:0:0:0:
64,192,307982,1,8,0:0:0:0:
192,192,307982,1,0,0:0:0:0:
320,192,307982,1,0,0:0:0:0:
192,192,308132,1,2,0:0:0:0:
448,192,308132,1,0,0:0:0:0:
64,192,308282,1,8,0:0:0:0:
320,192,308282,1,0,0:0:0:0:
448,192,308282,1,0,0:0:0:0:
192,192,308432,1,2,0:0:0:0:
320,192,308432,1,0,0:0:0:0:
64,192,308582,1,8,0:0:0:0:
192,192,308582,1,0,0:0:0:0:
448,192,308582,1,0,0:0:0:0:
64,192,308732,128,2,308957:0:0:0:0:
192,192,308732,128,4,308957:0:0:0:0:
320,192,308732,128,0,308957:0:0:0:0:
448,192,308732,128,0,308957:0:0:0:0:
64,192,309032,1,8,0:0:0:0:
320,192,309032,1,0,0:0:0:60:Tom3.wav
448,192,309032,1,0,0:0:0:0:
64,192,309182,1,8,0:0:0:0:
320,192,309182,1,0,0:0:0:60:Tom3.wav
448,192,309182,1,0,0:0:0:0:
64,192,309332,1,8,0:0:0:0:
192,192,309332,1,0,0:0:0:60:Tom3.wav
448,192,309332,1,0,0:0:0:0:
192,192,309482,1,2,0:0:0:0:
320,192,309482,1,0,0:0:0:0:
64,192,309632,1,8,0:0:0:0:
192,192,309632,1,0,0:0:0:60:Tom3.wav
448,192,309632,1,0,0:0:0:0:
64,192,309782,1,8,0:0:0:0:
192,192,309782,1,0,0:0:0:60:Tom3.wav
448,192,309782,1,0,0:0:0:0:
64,192,309932,128,8,310082:0:0:0:0:
320,192,309932,128,0,310082:0:0:0:50:Hat open.wav
448,192,309932,128,0,310082:0:0:0:0:
