osu file format v14

[General]
AudioFilename: audio.mp3
AudioLeadIn: 0
PreviewTime: 266057
Countdown: 0
SampleSet: Soft
StackLeniency: 0.7
Mode: 0
LetterboxInBreaks: 0
WidescreenStoryboard: 0

[Editor]
Bookmarks: 27066,53466,76716,96666,120666,149466,173466,199866,224882,224957,225032,225107,225182,225257,225332,225407,225482,225557,225632,225707,225782,225857,225932,226007,226082,226157,226232,226307,226382,226457,226532,226607,226682,226757,226832,226907,226982,227057,227132,227207,227282,227357,227432,227507,227582,227657,227732,227807,227882,227957,228032,228107,228182,228257,228332,228407,228482,228557,228632,228707,228782,228857,228932,229007,229082,229157,229232,229307,229382,229457,229532,229607,229682,229757,229832,229907,229982,230057,230132,230207,230282,230357,230432,230507,230582,230657,230732,230807,230882,230957,231032,231107,231182,231257,231332,231407,231482,231557,231632,231707,231782,231857,231932,232007,232082,232157,232232,232307,232382,232457,232532,232607,232682,232757,232832,232907,232982,233057,233132,233207,233282,233357,233432,233507,233582,233657,233732,233807,233882,233957,234032,234107,234182,234257,234332,234407,234482,234557,234632,234707,234782,234857,234932,235007,235082,235157,235232,235307,235382,235457,235532,235607,235682,235757,235832,235907,235982,236057,236132,236207,236282,236357,236432,236507,236582,236657,236732,236807,236882,236957,237032,237107,237182,237257,237332,237407,237482,237557,237632,237707,237782,237857,237932,238007,238082,238157,238232,238307,238382,238457,238532,238607,238682,238757,238832,238907,238982,239057,239132,239207,239282,239357,239432,239507,239582,239657,239732,239807,239882,239957,240032,240107,240182,240257,240332,240407,240482,240557,240632,240707,240782,240857,240932,241007,241082,241157,241232,241307,241382,241457,241532,241607,241682,241757,241832,241907,241982,242057,242132,242207,242282,242357,242432,242507,242582,242657,242732,242807,242882,242957,243032,243107,243182,243257,243332,243407,243482,243557,243632,243707,243782,243857,243932,244007,244082,266132,285932,302882
DistanceSpacing: 1.3
BeatDivisor: 3
GridSize: 32
TimelineZoom: 3.099999

[Metadata]
Title:1,000,000 TIMES
TitleUnicode:1,000,000 TIMES
Artist:MY FIRST STORY feat. chelly (EGOIST)
ArtistUnicode:MY FIRST STORY feat. chelly (EGOIST)
Creator:Kudosu
Version:The Story of Me and You
Source:DUEL MASTERS PLAY’S
Tags:デュエル・マスターズ プレイス one million 1000000 collab collaboration full version MFS Myfirststory opening video game mobile japanese rock j-rock jrock silky fuyuyu- kanau soop so0p silkosu silkosu's
BeatmapID:2757259
BeatmapSetID:1330842

[Difficulty]
HPDrainRate:5.7
CircleSize:4
OverallDifficulty:8.8
ApproachRate:9.4
SliderMultiplier:1.8
SliderTickRate:1

[Events]
//Background and Video events
0,0,"bg.jpg",0,0
//Break Periods
//Storyboard Layer 0 (Background)
//Storyboard Layer 1 (Fail)
//Storyboard Layer 2 (Pass)
//Storyboard Layer 3 (Foreground)
//Storyboard Layer 4 (Overlay)
//Storyboard Sound Samples

[TimingPoints]
666,300,4,2,1,55,1,0
666,-153.846153846154,4,2,1,55,0,0
16266,-125,4,2,1,65,0,0
17016,-95.2380952380952,4,2,1,65,0,0
21666,-100,4,2,1,55,0,0
22266,-111.111111111111,4,2,1,70,0,0
27066,-95.2380952380952,4,2,1,75,0,0
35916,-200,4,2,1,75,0,0
36216,-95.2380952380952,4,2,1,75,0,0
36666,-66.6666666666667,4,2,1,75,0,0
36966,-71.4285714285714,4,2,1,75,0,0
37266,-95.2380952380952,4,2,1,75,0,0
43116,-200,4,2,1,75,0,0
43866,-133.333333333333,4,2,1,60,0,0
50766,-200,4,2,1,60,0,0
51066,-133.333333333333,4,2,1,60,0,0
52266,-100,4,2,1,60,0,0
52716,-133.333333333333,4,2,1,60,0,0
53016,-100,4,2,1,60,0,0
53466,-71.4285714285714,4,2,1,65,0,0
53766,-111.111111111111,4,2,1,65,0,0
63066,-125,4,2,1,60,0,0
70116,-111.111111111111,4,2,1,65,0,0
75066,-99.9999999999999,4,2,1,70,0,0
75966,-66.6666666666667,4,2,1,70,0,0
76716,-133.333333333333,4,2,1,60,0,0
77166,-100,4,2,1,65,0,0
77466,-95.2380952380952,4,2,1,80,0,0
85866,-76.9230769230769,4,2,1,80,0,0
86166,-66.6666666666667,4,2,1,80,0,0
86466,-95.2380952380952,4,2,1,80,0,0
95766,-66.6666666666667,4,2,1,80,0,0
96066,-95.2380952380952,4,2,1,80,0,0
96666,-74.0740740740741,4,2,1,80,0,0
96966,-95.2380952380952,4,2,1,80,0,0
107016,-74.0740740740741,4,2,1,80,0,0
107316,-95.2380952380952,4,2,1,80,0,0
108366,-74.0740740740741,4,2,1,80,0,0
108666,-95.2380952380952,4,2,1,75,0,0
119316,-68.9655172413793,4,2,1,75,0,0
119766,-60.6060606060606,4,2,1,75,0,0
119916,-68.9655172413793,4,2,1,75,0,0
120216,-60.6060606060606,4,2,1,75,0,0
120366,-57.1428571428571,4,2,1,75,0,0
120666,-57.1428571428571,4,2,1,65,0,0
121266,-133.333333333333,4,2,1,65,0,0
121491,-80,4,2,1,65,0,0
121716,-100,4,2,1,60,0,0
122616,-133.333333333333,4,2,1,60,0,0
130866,-100,4,2,1,60,0,0
131316,-133.333333333333,4,2,1,60,0,0
132066,-100,4,2,1,65,0,0
132966,-58.8235294117647,4,2,1,65,0,0
133416,-100,4,2,1,65,0,0
141516,-80,4,2,1,65,0,0
142266,-200,4,2,1,50,0,0
148266,-133.333333333333,4,2,1,60,0,0
148866,-95.2380952380951,4,2,1,70,0,0
149466,-95.2380952380951,4,2,1,75,0,0
154266,-95.2380952380951,4,2,1,80,0,0
162666,-76.9230769230769,4,2,1,80,0,0
162966,-66.6666666666667,4,2,1,80,0,0
163266,-76.9230769230769,4,2,1,80,0,0
163866,-95.2380952380952,4,2,1,80,0,0
172566,-66.6666666666667,4,2,1,80,0,0
173466,-111.111111111111,4,2,1,80,0,0
173766,-76.9230769230769,4,2,1,80,0,0
174066,-95.2380952380952,4,2,1,80,0,0
182166,-66.6666666666667,4,2,1,80,0,0
182466,-95.2380952380952,4,2,1,80,0,0
183816,-76.9230769230769,4,2,1,80,0,0
184116,-95.2380952380952,4,2,1,80,0,0
185016,-76.9230769230769,4,2,1,80,0,0
185316,-95.2380952380952,4,2,1,80,0,0
186216,-76.9230769230769,4,2,1,80,0,0
186516,-95.2380952380952,4,2,1,80,0,0
189066,-133.333333333333,4,2,1,80,0,0
189516,-95.2380952380952,4,2,1,80,0,0
190266,-200,4,2,1,60,0,0
193866,-133.333333333333,4,2,1,60,0,0
194666,-100,4,2,1,60,0,0
195066,-200,4,2,1,60,0,0
197466,-133.333333333333,4,2,1,60,0,0
199266,-105.263157894737,4,2,1,60,0,0
199866,-125,4,2,1,60,0,0
202266,-100,4,2,1,60,0,0
202866,-95.2380952380952,4,2,1,60,0,0
203166,-90.9090909090909,4,2,1,60,0,0
204666,317.460317460317,4,2,1,60,1,0
204666,-181.818181818181,4,2,1,70,0,0
205142,389.61038961039,4,2,1,70,1,0
205142,-181.818181818181,4,2,1,70,0,0
205434,350.877192982456,4,2,1,70,1,0
205434,-97.5609756097561,4,2,1,70,0,0
205609,338.983050847458,4,2,1,70,1,0
205609,-133.333333333333,4,2,1,70,0,0
205863,317.460317460317,4,2,1,70,1,0
205863,-133.333333333333,4,2,1,70,0,0
206101,368.098159509202,4,2,1,70,1,0
206101,-133.333333333333,4,2,1,70,0,0
206377,287.081339712919,4,2,1,70,1,0
206377,-133.333333333333,4,2,1,70,0,0
206592,400,4,2,1,70,1,0
206592,-74.0740740740741,4,2,1,70,0,0
206892,458.015267175573,4,2,1,70,1,0
207235,303.030303030303,4,2,1,70,1,0
207235,-153.846153846153,4,2,1,70,0,0
207462,297.029702970297,4,2,1,70,1,0
207462,-153.846153846153,4,2,1,70,0,0
207684,389.61038961039,4,2,1,70,1,0
207684,-153.846153846153,4,2,1,70,0,0
207976,260.869565217391,4,2,1,70,1,0
207976,-153.846153846153,4,2,1,70,0,0
208171,317.460317460317,4,2,1,70,1,0
208171,-117.647058823529,4,2,1,70,0,0
208409,338.983050847458,4,2,1,70,1,0
208409,-117.647058823529,4,2,1,70,0,0
208663,303.030303030303,4,2,1,70,1,0
208663,-117.647058823529,4,2,1,70,0,0
208890,272.727272727273,4,2,1,70,1,0
209094,303.030303030303,4,2,1,55,1,0
209397,324.324324324324,4,2,1,70,1,0
209559,-133.333333333333,4,2,1,70,0,0
209723,315.789473684211,4,2,1,80,1,0
211617,-74.0740740740741,4,2,1,80,0,0
214459,-133.333333333333,4,2,1,80,0,0
214775,-74.0740740740741,4,2,1,80,0,0
219670,-133.333333333333,4,2,1,80,0,0
219828,-66.6666666666667,4,2,1,80,0,0
224882,300,4,2,1,80,1,0
224957,-100,4,2,1,55,0,0
244082,-133.333333333333,4,2,1,60,0,0
253232,-95.2380952380952,4,2,1,65,0,0
253682,-111.111111111111,4,2,1,65,0,0
264482,-200,4,2,1,50,0,0
266132,-100,4,2,1,65,0,0
266382,-100,4,2,1,5,0,0
266482,-100,4,2,1,65,0,0
266582,-100,4,2,1,5,0,0
266682,-100,4,2,1,65,0,0
266782,-100,4,2,1,5,0,0
266882,-200,4,2,1,65,0,0
271682,-200,4,2,1,65,0,0
272207,-200,4,2,1,5,0,0
272282,-166.666666666667,4,2,1,65,0,0
272807,-166.666666666667,4,2,1,5,0,0
272882,-166.666666666667,4,2,1,65,0,0
273407,-166.666666666667,4,2,1,5,0,0
273482,-166.666666666667,4,2,1,65,0,0
274007,-166.666666666667,4,2,1,5,0,0
274082,-666.666666666667,4,2,1,65,0,0
274607,-666.666666666667,4,2,1,5,0,0
274682,-125,4,2,1,65,0,0
275057,-125,4,2,1,5,0,0
275132,-125,4,2,1,65,0,0
275282,-60.6060606060606,4,2,1,75,0,0
275432,-60.6060606060606,4,2,1,5,0,0
275482,-54.054054054054,4,2,1,75,0,0
275632,-54.054054054054,4,2,1,5,0,0
275682,-50,4,2,1,75,0,0
275832,-50,4,2,1,5,0,0
275882,-50,4,2,1,75,0,0
276482,-90.9090909090909,4,2,1,80,0,0
278882,-71.4285714285714,4,2,1,80,0,0
279182,-90.9090909090909,4,2,1,80,0,0
286082,-76.9230769230769,4,2,1,80,0,0
286382,-58.8235294117647,4,2,1,80,0,0
286682,-90.9090909090909,4,2,1,80,0,0
296432,-71.4285714285714,4,2,1,80,0,0
296732,-90.9090909090909,4,2,1,80,0,0
297632,-71.4285714285714,4,2,1,80,0,0
298082,-90.9090909090909,4,2,1,80,0,0
298832,-71.4285714285714,4,2,1,80,0,0
299132,-90.9090909090909,4,2,1,80,0,0
302882,-95.2380952380952,4,2,1,75,0,0
308732,-68.9655172413793,4,2,1,75,0,0
309032,-60.6060606060606,4,2,1,75,0,0
309332,-68.9655172413793,4,2,1,75,0,0
309632,-60.6060606060606,4,2,1,75,0,0

[Colours]
Combo1 : 98,188,198
Combo2 : 224,224,224
Combo3 : 112,112,112
Combo4 : 230,38,44

[HitObjects]
330,62,666,6,0,P|379:30|445:42,1,116.999994644165,2|2,0:0|0:3,0:0:0:0:
512,142,1116,2,0,P|456:128|394:117,1,116.999994644165,2|2,0:2|0:1,0:3:0:0:
313,176,1566,2,0,P|319:204|325:234,1,58.4999973220826,2|2,0:0|0:1,0:0:0:0:
375,334,1866,6,0,B|335:327|335:327|296:341|296:341|245:333,1,116.999994644165,2|2,0:0|0:3,0:0:0:0:
154,270,2316,2,0,P|166:327|178:384,1,116.999994644165,2|2,0:0|0:1,0:0:0:0:
59,276,2766,2,0,P|65:248|71:218,1,58.4999973220826,2|2,0:0|0:1,0:0:0:0:
25,142,3066,6,0,B|51:104|106:114|106:114|127:153|185:161,2,175.499991966248,2|2|2,0:0|2:2|0:0,0:0:0:0:
199,9,4266,2,0,L|183:83,1,58.4999973220826,2|2,0:0|0:3,0:0:0:0:
266,155,4566,1,2,0:1:0:0:
266,155,4716,2,0,P|348:126|385:148,1,116.999994644165,2|2,0:0|0:1,0:0:0:0:
394,229,5166,2,0,P|362:221|319:213,1,58.4999973220826,2|2,0:0|0:1,0:0:0:0:
183,371,5466,6,0,B|165:303|154:265|154:265|186:233|220:242,2,175.499991966248,2|2|2,0:0|0:0|0:0,0:0:0:0:
317,193,6666,2,0,B|414:168|396:250|490:224,2,175.499991966248,2|2|2,0:0|0:0|0:0,0:0:0:0:
263,18,7866,6,0,P|250:72|233:158,1,116.999994644165,2|2,0:0|0:3,0:0:0:0:
153,172,8316,2,0,P|116:139|38:149,1,116.999994644165,2|2,0:0|0:1,0:0:0:0:
18,237,8766,2,0,P|47:231|76:225,1,58.4999973220826,2|2,0:0|0:1,0:0:0:0:
203,302,9066,6,0,P|175:295|147:289,1,58.4999973220826,2|0,0:0|0:0,0:0:0:0:
277,239,9366,2,0,P|303:233|333:226,1,58.4999973220826,2|0,0:3|0:0,0:0:0:0:
422,254,9666,2,0,L|412:300,3,29.2499986610413,2|2|2|2,0:3|0:3|0:3|0:3,0:3:0:0:
413,300,9966,1,6,0:3:0:0:
302,121,10266,6,0,B|205:96|223:178|129:152,2,175.499991966248,6|2|2,1:2|0:3|2:3,0:0:0:0:
441,175,11466,2,0,L|454:117,1,58.4999973220826,2|0,0:3|0:0,0:0:0:0:
316,344,11916,1,0,0:0:0:0:
316,344,12066,2,0,B|298:275|287:238|287:238|313:209|353:215,1,175.499991966248,2|0,0:3|0:0,0:0:0:0:
199,309,12666,6,0,B|167:261|112:269|112:269|90:305|38:298,2,175.499991966248,2|2|2,0:3|2:3|0:3,0:0:0:0:
48,133,13866,2,0,P|41:162|35:191,1,58.4999973220826,2|0,0:3|0:0,0:0:0:0:
150,79,14316,1,0,0:0:0:0:
150,79,14466,2,0,B|212:65|212:65|253:85|253:85|324:70,1,175.499991966248,2|0,0:3|0:0,0:0:0:0:
418,87,15066,6,0,P|412:58|405:29,1,58.4999973220826,2|0,0:3|0:0,0:0:0:0:
458,169,15366,1,2,0:3:0:0:
457,168,15516,2,0,P|414:132|358:141,1,116.999994644165,0|0,0:3|0:0,0:0:0:0:
357,141,15966,1,2,0:3:0:0:
338,252,16266,6,0,L|373:244,1,36,14|0,0:0|0:0,0:0:0:0:
508,331,16416,1,8,0:3:0:0:
508,331,16491,1,8,0:3:0:0:
508,331,16566,2,0,L|472:323,1,36,8|8,0:3|0:3,0:0:0:0:
374,384,16716,1,8,0:0:0:0:
241,195,17016,6,0,L|255:124,1,47.2499985580445,10|0,0:0|0:0,0:0:0:0:
78,319,17166,6,0,L|31:309,1,47.2499985580445,10|0,0:0|0:0,0:0:0:0:
319,384,17316,6,0,L|365:374,1,47.2499985580445,10|0,0:0|0:0,0:0:0:0:
213,299,17466,5,14,0:0:0:0:
320,22,19416,6,0,L|377:9,1,47.2499985580445,10|0,0:0|0:0,0:0:0:0:
281,240,19566,6,0,L|241:196,1,47.2499985580445,10|0,0:0|0:0,0:0:0:0:
490,165,19716,6,0,L|471:221,1,47.2499985580445,10|0,0:0|0:0,0:0:0:0:
364,143,19866,5,12,0:0:0:0:
103,57,21666,5,2,0:3:0:0:
103,57,21741,1,2,0:3:0:0:
103,57,21816,2,0,L|91:111,1,45,2|0,0:3|0:0,0:0:0:0:
187,147,21966,2,0,P|244:112|318:138,1,135,2|0,0:0|0:0,0:0:0:0:
388,197,22266,6,0,P|378:236|370:276,1,80.9999975280763,6|0,1:2|1:0,0:0:0:0:
438,340,22491,1,0,1:0:0:0:
438,340,22566,2,0,L|488:329,1,40.4999987640381,8|0,0:3|1:0,0:0:0:0:
285,258,22716,2,0,L|245:249,1,40.4999987640381,0|0,1:0|1:0,0:0:0:0:
75,287,22866,6,0,P|114:277|154:269,1,80.9999975280763,2|0,1:2|1:0,0:0:0:0:
217,337,23091,1,0,1:0:0:0:
217,337,23166,2,0,L|206:387,1,40.4999987640381,8|0,0:3|1:0,0:0:0:0:
136,184,23316,2,0,L|127:144,1,40.4999987640381,0|0,1:0|1:0,0:0:0:0:
87,50,23466,5,2,1:2:0:0:
116,40,23541,1,0,1:2:0:0:
146,41,23616,1,0,1:2:0:0:
174,54,23691,1,0,1:2:0:0:
196,75,23766,1,8,2:3:0:0:
218,96,23841,1,0,1:2:0:0:
246,109,23916,1,0,1:2:0:0:
276,111,23991,1,0,1:2:0:0:
306,106,24066,6,0,L|314:66,1,40.4999987640381,2|0,1:2|1:0,0:0:0:0:
144,223,24216,1,0,1:0:0:0:
144,223,24291,1,0,1:0:0:0:
144,223,24366,2,0,L|134:176,1,40.4999987640381,2|0,1:2|1:0,0:0:0:0:
300,299,24516,2,0,L|292:339,1,40.4999987640381,2|0,1:2|1:0,0:0:0:0:
11,290,24666,5,6,1:2:0:0:
50,300,24741,1,0,1:0:0:0:
87,285,24816,1,8,0:0:0:0:
108,251,24891,1,8,0:0:0:0:
144,223,24966,1,10,0:0:0:0:
172,194,25041,1,8,0:0:0:0:
212,187,25116,1,8,0:0:0:0:
249,203,25191,1,8,0:0:0:0:
226,237,25266,5,8,0:3:0:0:
198,207,25341,1,8,0:0:0:0:
193,171,25416,1,8,0:3:0:0:
204,142,25491,1,0,1:0:0:0:
224,125,25566,1,8,0:3:0:0:
244,118,25641,1,8,2:3:0:0:
262,117,25716,1,8,0:3:0:0:
275,120,25791,1,8,0:3:0:0:
288,126,25866,6,0,P|296:82|304:44,1,80.9999975280763,14|2,2:2|2:2,0:0:0:0:
380,216,26166,1,2,0:3:0:0:
459,114,26316,1,2,0:1:0:0:
226,237,26466,2,0,P|235:276|243:316,1,80.9999975280763,2|2,2:2|2:2,0:0:0:0:
55,201,26766,2,0,L|75:197,1,20.2499993820191,8|8,0:0|0:0,0:0:0:0:
311,384,27066,6,0,P|248:328|149:350,1,188.999994232178,6|8,1:2|0:0,0:0:0:0:
15,204,27516,2,0,P|63:214|108:227,1,94.499997116089,2|8,0:1|0:3,0:0:0:0:
267,46,27816,1,2,0:1:0:0:
76,124,27966,1,10,0:0:0:0:
226,237,28116,1,2,0:1:0:0:
183,2,28266,6,0,B|155:40|155:40|171:95,1,94.499997116089,2|0,1:2|0:0,0:0:0:0:
364,133,28566,1,10,0:0:0:0:
283,17,28716,1,2,0:3:0:0:
329,234,28866,2,0,P|373:224|438:211,1,94.499997116089,4|0,0:3|0:0,0:0:0:0:
511,69,29166,2,0,P|464:59|418:49,1,94.499997116089,10|0,0:0|0:0,0:0:0:0:
275,154,29466,6,0,B|243:260|325:237|295:334,1,188.999994232178,2|8,1:2|0:0,0:0:0:0:
165,257,29916,2,0,P|124:288|79:281,1,94.499997116089,2|8,0:1|0:3,0:0:0:0:
166,79,30216,1,2,0:1:0:0:
0,153,30366,2,0,P|46:161|105:177,1,94.499997116089,10|2,0:0|0:1,0:0:0:0:
277,75,30666,5,2,1:2:0:0:
103,203,30816,1,2,0:0:0:0:
298,275,30966,1,10,0:0:0:0:
208,159,31116,1,2,0:3:0:0:
382,52,31266,2,0,P|372:94|361:151,1,94.499997116089,4|0,0:3|0:0,0:0:0:0:
511,261,31566,2,0,P|502:212|494:165,1,94.499997116089,10|0,0:0|0:0,0:0:0:0:
379,346,31866,6,0,B|335:322|296:355|296:355|292:361|292:361|263:397|201:382,1,188.999994232178,6|8,1:2|0:0,0:0:0:0:
124,200,32316,2,0,P|113:247|105:292,1,94.499997116089,2|8,0:1|2:3,0:0:0:0:
226,143,32616,1,2,0:1:0:0:
26,226,32766,1,10,0:0:0:0:
189,357,32916,1,2,0:1:0:0:
120,164,33066,6,0,P|75:174|20:188,1,94.499997116089,2|0,1:2|0:0,0:0:0:0:
173,64,33366,1,10,0:0:0:0:
225,240,33516,1,2,0:3:0:0:
59,92,33666,2,0,B|44:46|44:46|80:-3,1,94.499997116089,4|0,0:3|0:0,0:0:0:0:
274,148,33966,1,10,0:0:0:0:
274,148,34266,6,0,P|324:138|381:125,1,94.499997116089,2|0,1:2|0:0,0:0:0:0:
512,276,34566,2,0,P|465:265|419:256,1,94.499997116089,10|0,0:0|0:0,0:0:0:0:
361,100,34866,1,8,0:3:0:0:
276,283,35016,1,2,0:0:0:0:
483,160,35166,1,10,0:0:0:0:
273,41,35316,1,2,0:0:0:0:
386,248,35466,5,6,1:2:0:0:
212,116,35616,1,10,0:0:0:0:
416,12,35766,1,10,0:0:0:0:
220,225,35916,6,0,B|253:234|253:234|259:233|259:233|285:243,1,67.5,6|0,1:2|0:0,0:0:0:0:
296,213,36216,5,8,0:0:0:0:
254,193,36291,1,8,0:0:0:0:
209,205,36366,1,8,0:0:0:0:
183,244,36441,1,8,0:0:0:0:
157,283,36516,1,8,0:0:0:0:
112,295,36591,1,8,0:0:0:0:
70,275,36666,6,0,B|48:224|36:176|36:176|66:158|98:147|98:147|78:183,1,202.500007724762,6|0,1:2|0:0,0:0:0:0:
0,341,36966,2,0,B|52:356|52:356|66:372|66:372|117:385,1,125.999996154785,12|2,0:0|0:0,0:0:0:0:
289,314,37266,5,8,0:3:0:0:
212,116,37416,1,2,0:0:0:0:
388,191,37566,2,0,L|295:212,1,94.499997116089,10|0,0:0|0:0,0:0:0:0:
461,376,37866,6,0,P|412:318|308:337,1,188.999994232178,2|8,1:2|0:0,0:0:0:0:
457,134,38316,2,0,P|484:181|461:238,1,94.499997116089,2|4,0:0|0:3,0:0:0:0:
341,84,38616,1,2,0:0:0:0:
493,9,38766,1,10,0:0:0:0:
371,251,38916,1,2,0:0:0:0:
223,94,39066,6,0,P|271:103|318:112,1,94.499997116089,2|0,1:2|0:0,0:0:0:0:
104,211,39366,2,0,B|57:219|11:228,1,94.499997116089,10|0,0:0|0:0,0:0:0:0:
71,95,39666,1,8,0:3:0:0:
244,219,39816,1,2,0:2:0:0:
201,13,39966,2,0,P|192:58|181:118,1,94.499997116089,10|0,0:0|0:0,0:0:0:0:
371,251,40266,6,0,P|362:204|353:158,1,94.499997116089,2|0,1:2|0:0,0:0:0:0:
197,338,40566,2,0,B|233:366|233:366|286:359,1,94.499997116089,10|0,0:0|0:0,0:0:0:0:
460,166,40866,1,2,1:2:0:0:
261,239,41016,1,4,0:3:0:0:
457,357,41166,5,8,0:0:0:0:
455,340,41241,1,8,0:0:0:0:
457,324,41316,1,8,0:0:0:0:
463,310,41391,1,8,0:0:0:0:
422,316,41466,6,0,P|412:261|403:213,1,94.499997116089,14|0,2:2|1:0,0:0:0:0:
168,313,41766,5,10,0:2:0:0:
332,373,41916,1,2,1:2:0:0:
450,146,42066,5,10,0:2:0:0:
270,209,42216,1,2,1:2:0:0:
348,0,42366,6,0,B|378:42|378:42|366:98,1,94.499997116089,10|0,0:0|1:0,0:0:0:0:
270,209,42666,1,8,0:0:0:0:
228,230,42741,1,8,0:0:0:0:
182,228,42816,1,8,0:0:0:0:
143,202,42891,1,8,0:0:0:0:
122,160,42966,1,8,0:0:0:0:
356,330,43116,6,0,P|388:321|428:314,1,67.5,6|0,1:2|0:0,0:0:0:0:
449,334,43416,5,10,0:2:0:0:
270,209,43566,1,8,0:0:0:0:
467,73,43716,1,10,0:2:0:0:
329,352,43866,6,0,P|294:344|251:335,1,67.5000025749208,6|0,1:2|0:0,0:0:0:0:
52,364,44166,2,0,P|86:338|143:346,1,101.250003862381,10|0,0:0|0:0,0:0:0:0:
163,366,44466,1,2,1:2:0:0:
15,203,44616,1,10,0:0:0:0:
122,160,44766,2,0,P|115:188|102:252,1,67.5000025749208,2|0,1:2|0:0,0:0:0:0:
23,29,45066,6,0,P|31:61|38:94,1,67.5000025749208,0|0,1:0|0:0,0:0:0:0:
212,220,45366,2,0,P|266:208|341:194,1,101.250003862381,8|0,0:0|0:0,0:0:0:0:
342,217,45666,1,0,1:2:0:0:
276,23,45816,1,8,0:0:0:0:
423,117,45966,2,0,P|385:108|345:99,1,67.5000025749208,2|0,1:2|0:0,0:0:0:0:
477,208,46266,6,0,B|495:239|495:239|483:283,1,67.5000025749208,2|0,1:2|0:0,0:0:0:0:
404,354,46566,2,0,P|351:342|284:330,1,101.250003862381,10|0,0:0|0:0,0:0:0:0:
278,348,46866,1,2,1:2:0:0:
195,174,47016,1,10,0:0:0:0:
279,235,47166,2,0,P|286:190|295:147,1,67.5000025749208,2|0,1:2|0:0,0:0:0:0:
170,342,47466,6,0,P|162:297|154:254,1,67.5000025749208,0|0,1:0|0:0,0:0:0:0:
56,126,47766,2,0,P|32:147|39:218,1,101.250003862381,8|0,0:0|0:0,0:0:0:0:
55,235,48066,1,2,1:2:0:0:
195,174,48216,1,8,0:0:0:0:
57,26,48366,2,0,P|88:33|131:46,1,67.5000025749208,0|8,1:3|0:0,0:0:0:0:
145,69,48591,5,8,0:0:0:0:
145,69,48666,2,0,P|195:30|264:52,1,135.000005149842,2|8,1:2|0:0,0:0:0:0:
381,13,49116,2,0,P|376:40|366:94,1,67.5000025749208,2|0,0:0|1:3,0:0:0:0:
412,219,49416,1,8,0:0:0:0:
286,129,49566,1,2,1:2:0:0:
470,57,49716,1,0,0:0:0:0:
304,227,49866,6,0,P|268:219|227:211,1,67.5000025749208,0|0,1:0|0:0,0:0:0:0:
66,323,50166,2,0,P|114:311|171:301,1,101.250003862381,8|0,0:0|0:0,0:0:0:0:
190,313,50466,1,0,1:3:0:0:
119,196,50616,1,8,0:0:0:0:
271,361,50766,6,0,P|300:370|348:381,1,67.5,2|0,1:2|0:0,0:0:0:0:
369,364,51066,6,0,P|386:304|335:249,1,135.000005149842,2|8,1:2|0:0,0:0:0:0:
451,125,51516,1,2,0:0:0:0:
512,237,51666,2,0,P|484:229|441:219,1,67.5000025749208,2|8,1:2|0:0,0:0:0:0:
465,21,51966,2,0,P|437:28|394:39,1,67.5000025749208,2|2,1:2|0:0,0:0:0:0:
229,120,52266,5,0,1:2:0:0:
316,245,52416,6,0,P|322:203|334:149,1,90,8|2,2:2|1:2,0:0:0:0:
145,0,52716,6,0,P|138:30|129:78,1,67.5000025749208,10|0,0:0|0:0,0:0:0:0:
62,199,53016,6,0,L|52:152,1,45,10|8,0:0|0:0,0:0:0:0:
183,265,53166,1,10,0:0:0:0:
183,265,53241,1,8,0:0:0:0:
183,265,53316,2,0,L|173:309,1,45,8|8,0:0|0:0,0:0:0:0:
82,373,53466,6,0,B|109:332|167:336|167:336|190:385|259:386,1,188.999994232178,6|0,1:2|0:0,0:0:0:0:
361,257,53766,2,0,L|281:273,1,80.9999975280763,12|2,0:0|0:0,0:0:0:0:
96,132,54066,1,2,1:2:0:0:
188,253,54216,1,8,0:0:0:0:
253,111,54366,2,0,L|236:31,1,80.9999975280763,2|10,1:2|0:0,0:0:0:0:
402,156,54666,6,0,P|387:221|372:296,1,121.499996292114,2|0,1:2|0:0,0:0:0:0:
392,295,54966,2,0,P|425:287|471:278,1,80.9999975280763,10|2,0:0|0:0,0:0:0:0:
287,262,55266,1,2,1:2:0:0:
451,363,55416,1,2,0:0:0:0:
404,146,55566,1,8,0:0:0:0:
303,334,55716,2,0,L|294:294,1,40.4999987640381,8|8,0:0|0:0,0:0:0:0:
199,224,55866,6,0,P|120:216|65:271,1,161.999995056153,0|8,1:2|0:0,0:0:0:0:
14,172,56316,1,2,0:0:0:0:
152,300,56466,2,0,L|132:393,1,80.9999975280763,2|8,1:2|0:0,0:0:0:0:
239,139,56766,1,2,0:0:0:0:
57,293,56916,1,8,0:0:0:0:
163,81,57066,6,0,P|218:35|298:59,1,161.999995056153,2|8,1:2|0:0,0:0:0:0:
454,68,57516,2,0,P|442:111|434:161,1,80.9999975280763,2|0,0:0|1:3,0:0:0:0:
317,39,57816,2,0,L|328:-12,1,40.4999987640381,8|8,0:0|0:0,0:0:0:0:
455,170,57966,1,8,0:0:0:0:
455,170,58041,1,8,0:0:0:0:
455,170,58116,2,8,L|494:161,1,40.4999987640381
315,308,58266,6,0,P|328:248|341:182,1,121.499996292114,4|0,1:2|2:2,2:2:0:0:
322,179,58566,2,0,P|277:187|242:195,1,80.9999975280763,8|2,0:0|0:0,0:0:0:0:
71,103,58866,1,2,1:2:0:0:
168,255,59016,1,8,0:0:0:0:
322,87,59166,2,0,P|281:80|242:70,1,80.9999975280763,2|10,0:0|0:0,0:0:0:0:
375,250,59466,6,0,P|423:205|528:235,1,161.999995056153,2|10,1:2|0:0,0:0:0:0:
251,347,59916,2,0,P|269:264|291:159,1,161.999995056153,2|2,0:0|0:0,0:0:0:0:
111,116,60366,1,8,0:0:0:0:
187,265,60516,2,0,L|249:251,1,40.4999987640381,8|8,0:0|0:0,0:0:0:0:
318,45,60666,6,0,P|409:46|433:128,1,161.999995056153,0|8,1:0|0:0,0:0:0:0:
277,154,61116,2,0,P|237:143|183:134,1,80.9999975280763,2|2,0:0|1:2,0:0:0:0:
43,41,61416,1,8,0:0:0:0:
87,228,61566,2,0,P|96:181|106:134,1,80.9999975280763,2|10,0:0|0:0,0:0:0:0:
238,324,61866,5,2,1:2:0:0:
8,158,62016,1,12,0:0:0:0:
125,329,62166,1,2,1:2:0:0:
125,329,62241,1,0,1:2:0:0:
125,329,62316,1,12,0:0:0:0:
285,141,62466,1,2,1:2:0:0:
103,222,62616,1,8,0:0:0:0:
340,361,62766,1,8,0:0:0:0:
167,118,62916,1,10,0:0:0:0:
416,27,63066,6,0,P|407:65|396:120,1,72,6|2,1:2|0:0,0:0:0:0:
252,24,63366,2,0,P|289:12|343:-5,1,72,2|2,1:2|0:0,0:0:0:0:
208,198,63666,1,14,0:0:0:0:
328,80,63816,1,2,0:0:0:0:
454,171,63966,2,0,P|445:209|434:264,1,72,2|10,1:2|0:0,0:0:0:0:
510,100,64266,5,0,0:0:0:0:
349,193,64416,1,8,0:0:0:0:
496,322,64566,2,0,P|460:329|425:337,1,72,14|0,2:2|0:0,0:0:0:0:
425,337,64791,1,8,0:0:0:0:
425,337,64866,1,8,0:0:0:0:
233,200,65016,2,0,P|240:164|248:129,1,72,8|8,2:2|0:0,0:0:0:0:
315,296,65316,1,10,0:0:0:0:
67,173,65466,6,0,P|103:164|137:158,1,72,6|2,1:2|0:0,0:0:0:0:
329,115,65766,2,0,P|291:106|258:100,1,72,2|2,1:2|0:0,0:0:0:0:
245,219,66066,1,12,0:0:0:0:
168,53,66216,1,0,1:2:0:0:
347,205,66366,2,0,P|340:239|332:275,1,72,2|8,1:2|0:0,0:0:0:0:
399,342,66666,5,2,0:0:0:0:
260,226,66816,1,8,0:0:0:0:
424,104,66966,2,0,P|433:143|443:197,1,72,14|0,0:2|0:0,0:0:0:0:
277,343,67266,5,8,0:0:0:0:
265,334,67366,6,0,P|242:337|218:343,1,48,8|8,0:0|0:3,0:0:0:0:
111,384,67566,6,0,P|87:378|64:374,2,48,8|8|0,0:3|0:3|0:0,0:0:0:0:
133,208,67866,6,0,P|140:241|147:278,1,72,6|2,1:2|2:2,0:0:0:0:
316,165,68166,2,0,P|283:154|248:142,1,72,2|2,1:2|2:2,0:0:0:0:
396,333,68466,1,2,0:0:0:0:
260,245,68616,1,14,0:0:0:0:
453,131,68766,2,0,P|446:164|439:201,1,72,10|6,2:2|1:2,0:0:0:0:
355,59,69066,5,2,0:0:0:0:
511,261,69216,1,8,0:0:0:0:
447,42,69366,1,10,0:0:0:0:
447,42,69441,1,8,0:3:0:0:
447,42,69516,2,0,L|460:-21,1,36,0|0,1:0|1:0,0:0:0:0:
263,98,69666,2,0,P|230:91|193:84,1,72,10|0,2:2|2:2,0:0:0:0:
103,102,69966,2,0,L|95:66,1,36,2|0,0:0|0:0,0:0:0:0:
73,294,70116,6,0,P|140:244|212:264,1,161.999995056153,6|0,1:2|1:2,0:0:0:0:
382,172,70566,1,10,0:0:0:0:
336,305,70716,1,8,0:3:0:0:
336,305,70791,1,8,0:3:0:0:
336,305,70866,2,0,P|345:347|355:398,1,80.9999975280763,8|0,0:3|0:0,0:0:0:0:
512,151,71166,2,0,P|502:193|492:244,1,80.9999975280763,10|0,2:2|0:0,0:0:0:0:
295,98,71466,6,0,P|357:77|431:53,1,121.499996292114,2|0,1:2|0:0,0:0:0:0:
433,55,71766,1,14,0:0:0:0:
388,180,71916,1,2,1:2:0:0:
218,42,72066,1,8,0:3:0:0:
218,42,72141,1,8,0:3:0:0:
218,42,72216,2,0,L|231:-20,1,40.4999987640381,8|8,0:3|0:3,0:0:0:0:
138,103,72366,1,10,0:0:0:0:
144,132,72441,1,8,0:0:0:0:
150,162,72516,1,8,0:0:0:0:
156,192,72591,1,8,0:0:0:0:
163,221,72666,5,6,0:0:0:0:
150,162,75066,5,12,0:0:0:0:
276,136,75216,2,0,L|338:149,1,45,0|0,1:3|1:3,0:3:0:0:
75,56,75366,2,8,L|30:65,1,45,8|8,0:3|0:3,0:3:0:0:
390,275,75516,5,12,0:0:0:0:
264,249,75666,2,0,L|201:262,1,45,0|0,1:3|1:3,0:3:0:0:
465,169,75816,2,8,L|509:178,1,45,8|8,0:3|0:3,0:3:0:0:
91,244,75966,6,0,L|105:310,1,67.5000025749208,12|0,0:0|0:0,0:0:0:0:
394,31,76117,6,0,L|379:97,1,67.5000025749208,12|0,0:0|0:0,0:0:0:0:
399,121,76716,5,2,0:0:0:0:
399,121,76791,1,2,0:0:0:0:
399,121,76866,1,2,0:0:0:0:
295,60,77016,1,2,0:3:0:0:
439,0,77166,1,2,0:1:0:0:
379,96,77316,1,2,0:0:0:0:
510,241,77466,6,0,B|476:203|423:215|423:215|397:268|340:272,1,188.999994232178,6|8,1:2|0:0,0:0:0:0:
195,175,77916,1,2,0:3:0:0:
237,366,78066,2,0,P|246:313|260:258,1,94.499997116089,8|0,0:3|0:0,0:0:0:0:
114,94,78366,2,0,P|104:146|91:202,1,94.499997116089,10|0,0:0|0:0,0:0:0:0:
9,335,78666,6,0,P|52:294|142:310,1,141.749995674133,2|0,1:2|0:0,0:0:0:0:
153,318,78966,1,10,0:0:0:0:
287,194,79116,2,0,P|240:185|195:175,1,94.499997116089,2|4,0:1|2:3,0:0:0:0:
88,21,79416,1,2,0:0:0:0:
273,99,79566,1,10,0:0:0:0:
78,209,79716,1,2,0:3:0:0:
169,0,79866,6,0,P|176:31|192:99,1,94.499997116089,2|0,1:2|0:0,0:0:0:0:
428,49,80166,2,0,P|396:20|336:27,1,94.499997116089,10|0,0:0|0:0,0:0:0:0:
270,225,80466,2,0,P|334:211|416:198,1,141.749995674133,8|0,0:3|0:0,0:0:0:0:
490,225,80766,2,0,B|502:180|502:180|475:138,1,94.499997116089,10|0,0:0|0:0,0:0:0:0:
380,384,81066,6,0,P|320:320|222:360,1,188.999994232178,2|8,1:2|0:0,0:0:0:0:
58,236,81516,1,8,0:3:0:0:
58,236,81591,1,8,0:3:0:0:
58,236,81666,1,4,0:3:0:0:
174,153,81816,1,2,0:3:0:0:
107,375,81966,2,0,P|58:363|11:353,1,94.499997116089,10|2,0:0|0:2,0:0:0:0:
256,222,82266,5,6,1:2:0:0:
55,125,82416,1,2,0:1:0:0:
151,284,82566,1,8,0:0:0:0:
192,56,82716,1,2,0:3:0:0:
9,203,82866,2,0,B|36:215|36:215|106:197,1,94.499997116089,8|0,0:3|0:0,0:0:0:0:
300,98,83166,5,10,0:0:0:0:
91,10,83316,1,2,0:2:0:0:
190,205,83466,1,2,1:2:0:0:
171,73,83616,5,2,0:0:0:0:
69,310,83766,2,0,B|107:292|107:292|153:302|153:302|172:364|241:370,1,188.999994232178,10|4,0:0|0:3,0:0:0:0:
401,196,84216,5,2,0:0:0:0:
243,275,84366,1,10,0:0:0:0:
453,356,84516,1,4,0:3:0:0:
280,144,84666,5,2,1:2:0:0:
344,307,84816,2,0,L|354:252,2,47.2499985580445,2|2|8,0:3|0:3|0:2,0:0:0:0:
490,250,85116,1,2,0:0:0:0:
221,367,85266,6,0,P|172:370|128:324,1,94.499997116089,8|8,0:3|0:3,0:0:0:0:
141,257,85491,1,8,0:0:0:0:
141,257,85566,2,0,L|76:273,1,47.2499985580445,8|0,0:0|0:0,0:0:0:0:
30,324,85716,1,8,0:3:0:0:
114,73,85866,6,0,B|162:70|190:31|190:31|192:78|226:113,1,175.499991966248,14|0,0:0|0:0,0:0:0:0:
237,147,86166,6,0,B|119:113|160:211|38:174,1,202.500007724762,14|0,0:0|0:0,0:0:0:0:
15,93,86466,6,0,P|22:62|29:27,1,47.2499985580445,2|0,1:0|0:0,0:0:0:0:
202,226,86616,1,8,0:0:0:0:
243,246,86691,1,8,0:0:0:0:
286,232,86766,1,8,0:0:0:0:
307,191,86841,1,8,0:0:0:0:
328,150,86916,1,8,0:0:0:0:
371,135,86991,1,8,0:0:0:0:
412,156,87066,6,0,P|402:198|391:259,1,94.499997116089,6|0,1:2|0:0,0:0:0:0:
362,349,87291,1,2,0:3:0:0:
362,349,87366,2,0,P|405:336|464:329,1,94.499997116089,10|0,0:0|0:0,0:0:0:0:
243,246,87666,2,0,P|169:212|88:279,1,188.999994232178,8|8,0:3|0:0,0:0:0:0:
216,124,88116,1,2,0:3:0:0:
13,287,88266,6,0,B|65:303|65:303|91:334|91:334|151:349,1,141.749995674133,2|0,1:2|0:0,0:0:0:0:
167,355,88566,1,10,0:0:0:0:
37,179,88716,2,0,P|29:134|72:87,1,94.499997116089,2|4,0:1|0:3,0:1:0:0:
280,77,89016,1,2,0:0:0:0:
130,161,89166,1,10,0:0:0:0:
55,0,89316,1,2,0:3:0:0:
228,191,89466,6,0,P|272:181|333:169,1,94.499997116089,2|0,1:2|0:0,0:0:0:0:
471,327,89766,2,0,P|422:332|376:277,1,94.499997116089,10|0,0:0|0:0,0:0:0:0:
467,49,90066,2,0,B|520:105|520:105|491:167,1,141.749995674133,8|0,0:3|0:0,0:0:0:0:
417,222,90366,2,0,B|407:182|407:182|411:172|411:172|395:114,1,94.499997116089,10|0,0:0|0:0,0:0:0:0:
281,337,90666,6,0,B|171:306|171:306|125:326|149:373,1,188.999994232178,2|8,1:2|0:0,0:0:0:0:
281,211,91116,1,8,0:3:0:0:
281,211,91191,1,8,0:3:0:0:
281,211,91266,1,4,0:3:0:0:
147,102,91416,2,0,P|152:130|166:208,1,94.499997116089,2|8,0:0|0:0,0:0:0:0:
313,21,91716,5,8,0:0:0:0:
313,21,91791,1,8,0:0:0:0:
313,21,91866,1,2,1:2:0:0:
479,120,92016,1,2,0:1:0:0:
281,211,92166,1,8,0:0:0:0:
382,100,92316,1,2,0:3:0:0:
303,309,92466,2,0,P|252:296|193:283,1,94.499997116089,8|0,0:3|0:0,0:0:0:0:
70,214,92766,5,10,0:0:0:0:
249,134,92916,1,2,0:3:0:0:
86,345,93066,1,2,1:2:0:0:
241,244,93216,5,2,0:0:0:0:
55,115,93366,2,0,B|25:154|25:154|37:197,1,94.499997116089,10|0,0:0|0:0,0:0:0:0:
186,60,93666,5,2,1:2:0:0:
328,342,93891,1,2,1:2:0:0:
328,342,93966,2,0,P|373:352|417:314,1,94.499997116089,10|0,0:0|0:0,0:0:0:0:
512,213,94266,6,0,P|471:203|419:192,1,94.499997116089,6|0,1:2|0:0,0:0:0:0:
346,145,94491,2,0,B|331:99|331:99|367:54,1,94.499997116089,10|0,0:0|0:0,0:0:0:0:
382,40,94716,1,10,0:0:0:0:
512,213,94866,5,10,0:0:0:0:
235,359,95091,1,0,3:0:0:0:
235,359,95166,1,10,0:0:0:0:
113,236,95316,1,8,0:2:0:0:
43,320,95466,6,0,B|69:339|69:339|138:324,1,94.499997116089,6|0,1:2|0:0,0:0:0:0:
160,32,95766,2,0,B|132:27|102:9|102:9|55:13|22:73|61:125,1,202.500007724762,14|0,0:0|0:0,0:0:0:0:
173,176,96066,5,10,0:0:0:0:
182,175,96141,1,8,0:0:0:0:
190,174,96216,2,8,L|252:160,1,47.2499985580445
461,0,96366,5,8,0:0:0:0:
456,23,96441,1,8,0:0:0:0:
451,46,96516,1,8,0:0:0:0:
446,69,96591,1,8,0:0:0:0:
475,149,96666,6,0,B|372:174|413:88|306:112,1,182.250000695229,6|0,1:2|0:0,0:0:0:0:
204,172,96966,2,0,B|217:149|217:149|186:81,1,94.499997116089,10|2,0:0|0:2,0:0:0:0:
306,284,97266,1,8,0:3:0:0:
359,142,97416,1,2,0:1:0:0:
142,292,97566,2,0,P|152:338|161:384,1,94.499997116089,10|2,0:0|0:1,0:0:0:0:
418,202,97866,6,0,P|404:132|388:63,1,141.749995674133,2|0,1:2|0:0,0:0:0:0:
411,49,98166,1,10,0:0:0:0:
323,269,98316,1,2,0:1:0:0:
504,118,98466,1,4,0:3:0:0:
274,9,98616,2,0,B|251:53|251:53|271:92,1,94.499997116089,2|8,0:1|0:0,0:0:0:0:
512,265,98916,1,2,0:3:0:0:
315,376,99066,6,0,L|334:283,1,94.499997116089,2|0,1:2|0:0,0:0:0:0:
156,178,99366,1,10,0:0:0:0:
267,80,99516,1,2,0:0:0:0:
212,367,99666,2,0,P|161:356|102:343,1,94.499997116089,8|2,0:3|0:0,0:0:0:0:
389,161,99966,1,8,0:2:0:0:
279,259,100116,1,2,0:3:0:0:
485,384,100266,6,0,B|516:274|516:274|496:228|449:252,1,188.999994232178,2|8,1:2|0:0,0:0:0:0:
256,156,100716,2,0,P|265:203|274:249,1,94.499997116089,2|4,0:1|0:3,0:0:0:0:
449,66,101016,1,2,0:3:0:0:
449,66,101091,1,2,0:3:0:0:
449,66,101166,2,0,B|484:40|484:40|530:66|535:133|502:166,1,188.999994232178,8|0,0:0|1:0,0:0:0:0:
245,369,101616,5,2,0:1:0:0:
438,259,101766,1,10,0:0:0:0:
255,181,101916,1,2,0:1:0:0:
419,383,102066,2,0,P|466:372|511:361,1,94.499997116089,8|2,2:3|0:1,0:0:0:0:
391,133,102366,2,0,P|437:143|482:154,1,94.499997116089,8|2,2:2|0:1,0:0:0:0:
250,275,102666,5,2,1:2:0:0:
470,54,102816,1,2,0:3:0:0:
413,246,102966,1,10,0:0:0:0:
281,39,103116,1,2,0:2:0:0:
499,167,103266,1,4,0:3:0:0:
349,351,103416,1,2,0:3:0:0:
349,351,103491,1,2,0:3:0:0:
349,351,103566,2,0,B|260:323|251:405|169:374,1,188.999994232178,8|0,0:0|1:0,0:0:0:0:
14,147,104016,5,2,0:0:0:0:
202,275,104166,1,8,0:0:0:0:
18,384,104316,2,0,P|27:337|37:291,1,94.499997116089,2|8,0:0|0:3,0:0:0:0:
280,129,104616,1,2,0:1:0:0:
124,208,104766,1,8,0:0:0:0:
286,329,104916,1,2,0:3:0:0:
76,99,105066,5,6,1:2:0:0:
317,233,105216,1,4,0:3:0:0:
185,384,105366,5,10,0:2:0:0:
426,250,105516,1,10,2:2:0:0:
426,250,105591,1,8,2:2:0:0:
426,250,105666,1,10,2:2:0:0:
283,122,105816,5,4,2:3:0:0:
183,74,105966,1,8,2:3:0:0:
275,12,106116,1,4,2:3:0:0:
191,184,106266,6,0,P|200:227|210:277,1,94.499997116089,4|4,1:2|0:3,0:0:0:0:
487,188,106566,2,0,P|455:159|395:166,1,94.499997116089,2|8,1:2|0:3,0:0:0:0:
387,358,106866,1,10,0:2:0:0:
212,291,107016,2,0,B|109:266|150:352|43:328,1,182.250000695229,6|0,1:2|0:0,0:0:0:0:
35,323,107316,1,8,0:0:0:0:
282,136,107466,6,0,B|310:176|310:176|288:218,1,94.499997116089,2|4,1:2|0:3,0:0:0:0:
155,59,107766,1,2,1:2:0:0:
342,0,107916,2,0,P|388:8|434:19,1,94.499997116089,8|8,0:3|0:0,0:0:0:0:
193,176,108216,1,6,1:2:0:0:
185,174,108291,1,2,0:0:0:0:
177,173,108366,2,0,B|93:155|93:155|86:159|86:159|0:141,1,182.250000695229,2|0,0:0|0:0,0:0:0:0:
132,254,108666,6,0,P|168:277|226:261,1,94.499997116089,4|4,1:2|0:3,0:0:0:0:
490,63,108966,1,2,1:2:0:0:
277,152,109116,1,8,0:3:0:0:
501,279,109266,1,10,0:2:0:0:
396,38,109416,2,0,P|387:73|369:151,1,94.499997116089,6|2,1:2|0:0,0:0:0:0:
508,291,109716,1,10,0:0:0:0:
209,34,109866,6,0,P|244:25|322:7,1,94.499997116089,2|4,1:2|0:3,0:0:0:0:
141,152,110166,2,0,P|94:141|48:130,1,94.499997116089,2|8,1:2|0:3,0:0:0:0:
262,306,110466,1,8,0:0:0:0:
259,296,110541,1,8,0:3:0:0:
256,286,110616,2,8,L|246:239,1,47.2499985580445,8|8,1:3|1:3,0:3:0:0:
68,333,110766,1,14,0:0:0:0:
436,186,111066,6,0,P|445:232|457:288,1,94.499997116089,6|0,1:2|0:0,0:0:0:0:
216,78,111366,2,0,B|243:66|243:66|313:84,1,94.499997116089,10|2,2:2|0:0,0:0:0:0:
262,306,111666,1,0,1:2:0:0:
225,308,111741,1,0,1:2:0:0:
191,301,111816,1,8,2:2:0:0:
162,278,111891,1,8,2:2:0:0:
143,249,111966,1,8,2:2:0:0:
123,220,112041,1,8,2:2:0:0:
94,199,112116,1,8,2:2:0:0:
60,190,112191,1,8,2:2:0:0:
25,188,112266,6,0,L|11:250,1,47.2499985580445,2|0,1:1|0:0,0:0:0:0:
196,91,112566,6,0,L|142:125,1,47.2499985580445,2|0,1:1|0:0,0:0:0:0:
339,140,112866,5,6,1:2:0:0:
339,140,112941,1,2,0:0:0:0:
339,140,113016,2,0,L|329:93,1,47.2499985580445,8|8,0:0|0:0,0:0:0:0:
461,168,113166,1,8,0:0:0:0:
459,175,113241,1,8,0:0:0:0:
458,181,113316,2,0,L|448:227,1,47.2499985580445,10|8,0:0|0:0,0:0:0:0:
493,375,113466,6,0,P|430:319|331:341,1,188.999994232178,6|8,1:2|0:0,0:0:0:0:
154,382,113916,2,0,P|162:335|173:289,1,94.499997116089,2|8,0:0|0:3,0:0:0:0:
118,129,114216,1,2,0:0:0:0:
273,254,114366,1,8,0:0:0:0:
66,322,114516,1,2,0:2:0:0:
206,69,114666,6,0,L|225:161,1,94.499997116089,2|2,1:2|0:2,0:0:0:0:
412,203,114966,1,10,0:0:0:0:
307,99,115116,1,2,0:3:0:0:
382,327,115266,2,0,P|426:317|491:304,1,94.499997116089,4|0,0:3|0:0,0:0:0:0:
510,119,115566,2,0,P|463:109|417:99,1,94.499997116089,10|0,0:0|0:0,0:0:0:0:
204,312,115866,6,0,B|173:202|173:202|193:156|240:180,1,188.999994232178,2|8,1:2|0:0,0:0:0:0:
291,0,116316,2,0,P|320:35|312:80,1,94.499997116089,2|8,0:0|0:3,0:0:0:0:
198,57,116616,1,2,0:0:0:0:
420,0,116766,2,0,P|469:12|529:23,1,94.499997116089,8|0,0:0|0:0,0:0:0:0:
340,311,117066,5,2,1:2:0:0:
502,201,117216,1,2,0:0:0:0:
343,107,117366,1,10,0:0:0:0:
395,221,117516,1,2,0:0:0:0:
458,92,117666,2,0,L|438:-1,1,94.499997116089,4|0,0:3|0:3,0:3:0:0:
228,122,117966,1,8,0:0:0:0:
354,324,118116,5,8,0:0:0:0:
362,323,118191,1,8,0:0:0:0:
370,321,118266,2,0,L|463:301,1,94.499997116089,2|2,1:2|0:0,0:0:0:0:
235,130,118566,1,8,0:0:0:0:
404,217,118716,1,2,0:0:0:0:
211,366,118866,2,0,L|230:272,1,94.499997116089,2|8,1:2|0:3,0:0:0:0:
82,47,119166,1,8,0:0:0:0:
32,160,119316,6,0,B|84:181|135:157|108:129|160:107|213:124,1,195.750005973816,6|0,1:2|0:0,0:0:0:0:
404,217,119616,6,0,P|421:207|404:223,1,65.250001991272,8|0,0:0|0:0,0:0:0:0:
342,88,119766,6,8,P|327:54|336:19,1,74.2500007081032,8|0,0:0|0:0,0:0:0:0:
178,246,119916,6,0,B|209:356|209:356|189:402|142:378,1,195.750005973816,6|0,1:2|0:0,0:0:0:0:
37,240,120216,6,8,B|18:206|18:206|29:172,1,74.2500007081032,8|0,0:0|0:0,0:0:0:0:
196,120,120366,6,0,B|192:101|192:101|203:85|203:85|207:104|207:104|195:120,1,78.7500007510185,8|0,0:0|0:0,0:0:0:0:
55,2,120516,5,8,0:0:0:0:
55,2,120591,1,0,0:0:0:0:
55,2,120666,1,4,1:2:0:0:
148,205,120816,1,10,0:0:0:0:
191,232,120891,1,8,0:0:0:0:
240,219,120966,1,10,0:0:0:0:
266,175,121041,1,8,0:0:0:0:
291,130,121116,1,2,1:0:0:0:
340,118,121191,1,0,1:0:0:0:
384,145,121266,6,0,B|397:178|397:178|367:221,1,67.5000025749208,8|0,0:0|0:0,0:0:0:0:
313,280,121491,6,0,B|357:292|357:292|368:308|368:308|432:327,1,112.5,6|0,2:2|0:0,0:0:0:0:
441,303,121716,6,0,B|393:285|362:324|362:324|360:334|360:334|334:385|262:366,1,180,6|0,1:2|1:0,0:0:0:0:
265,356,122091,1,0,1:0:0:0:
265,356,122166,1,8,0:0:0:0:
453,90,122616,6,0,P|463:44|472:9,1,67.5000025749208,2|0,0:0|0:0,0:0:0:0:
471,110,122916,1,2,0:3:0:0:
359,34,123066,6,0,P|291:21|249:76,1,135.000005149842,6|2,1:2|0:0,0:0:0:0:
79,146,123516,2,0,P|124:192|187:177,1,135.000005149842,2|2,0:0|0:3,0:0:0:0:
312,126,123966,6,0,B|252:112|225:44|225:44|243:132|178:185,1,270.000010299683,2|0,0:0|0:0,0:0:0:0:
35,338,124866,6,0,L|110:359,1,67.5000025749208,2|0,0:3|0:0,0:0:0:0:
271,276,125166,1,2,0:0:0:0:
171,226,125316,1,2,0:0:0:0:
117,325,125466,5,2,0:1:0:0:
245,283,125666,5,2,0:1:0:0:
58,118,125866,5,2,0:2:0:0:
189,197,126066,5,2,0:3:0:0:
296,19,126266,5,2,0:1:0:0:
175,87,126466,5,2,0:0:0:0:
229,175,126666,5,2,0:3:0:0:
358,224,126866,5,2,0:3:0:0:
492,111,127066,5,2,0:1:0:0:
416,31,127266,5,2,0:1:0:0:
311,133,127466,5,2,0:1:0:0:
485,280,127666,5,2,0:0:0:0:
479,173,127866,6,0,B|430:185|430:185|407:209|407:209|352:225,1,135.000005149842,2|0,0:0|0:0,0:0:0:0:
259,297,128316,2,0,B|308:309|308:309|331:333|331:333|386:349,1,135.000005149842,2|2,0:0|0:0,0:0:0:0:
339,205,128766,1,2,0:0:0:0:
176,349,128916,6,0,B|91:397|5:359|-8:259|70:226|104:258|110:281,1,270.000010299683,6|0,0:0|0:0,0:0:0:0:
157,129,129666,6,0,P|172:172|191:250,2,101.250003862381,2|2|2,0:1|0:0|0:1,0:0:0:0:
386,180,130266,6,0,P|354:136|277:141,1,135.000005149842,2|0,0:0|0:0,0:0:0:0:
415,51,130716,1,2,0:0:0:0:
279,139,130866,2,0,P|355:156|412:68,1,180,2|0,0:0|0:0,0:0:0:0:
179,96,131316,6,0,P|172:61|160:9,1,67.5000025749208,2|2,0:0|0:3,0:0:0:0:
30,317,132066,5,8,0:0:0:0:
67,340,132141,1,8,0:0:0:0:
111,333,132216,1,2,1:2:0:0:
140,300,132291,1,0,1:0:0:0:
137,278,132366,5,8,0:3:0:0:
166,245,132441,1,8,0:3:0:0:
209,238,132516,1,4,0:3:0:0:
247,261,132591,1,4,0:3:0:0:
293,327,132666,6,0,L|276:391,1,45,8|8,0:0|0:3,0:0:0:0:
261,384,132816,6,0,L|272:340,1,45,0|4,1:0|0:3,0:0:0:0:
350,210,132966,6,0,B|405:208|428:148|428:148|418:222|468:264,1,229.500004377365,12|0,0:0|0:0,0:0:0:0:
509,276,133266,2,0,P|469:285|413:306,1,76.5000014591217,2|0,1:2|0:0,0:0:0:0:
331,106,133416,5,10,0:0:0:0:
506,184,133566,1,2,1:2:0:0:
329,240,133716,1,2,1:2:0:0:
425,21,133866,1,8,0:0:0:0:
496,86,134166,5,2,1:2:0:0:
326,149,134316,2,0,B|289:105|242:125|242:125|221:173|155:174,1,180,10|2,0:0|1:2,0:0:0:0:
0,52,134766,2,0,P|41:62|110:81,1,90,8|8,0:0|0:0,0:0:0:0:
113,57,134991,5,8,0:0:0:0:
113,57,135066,1,12,0:0:0:0:
173,279,135216,1,0,1:2:0:0:
68,217,135366,1,8,0:0:0:0:
182,142,135516,1,2,1:2:0:0:
18,339,135666,1,10,0:2:0:0:
18,339,135816,2,0,P|63:351|124:368,1,90,2|0,1:2|1:0,0:0:0:0:
70,90,136116,5,10,0:0:0:0:
183,277,136266,1,2,1:2:0:0:
122,339,136566,5,10,0:0:0:0:
257,132,136716,2,0,P|286:155|280:215,1,90,2|0,0:0|1:0,0:0:0:0:
294,241,136941,5,8,0:3:0:0:
294,241,137016,2,0,P|271:234|234:225,1,45,10|8,0:0|0:0,0:0:0:0:
136,92,137166,1,8,0:3:0:0:
141,69,137241,1,8,0:3:0:0:
146,46,137316,1,4,0:3:0:0:
151,23,137391,1,4,0:3:0:0:
137,0,137466,5,6,1:2:0:0:
251,125,137616,1,0,1:3:0:0:
70,213,137766,1,8,0:0:0:0:
19,140,138066,5,2,1:2:0:0:
194,232,138216,1,0,1:3:0:0:
318,49,138366,2,0,P|273:39|215:23,1,90,10|0,0:0|0:0,0:0:0:0:
441,8,138666,5,2,1:2:0:0:
251,125,138816,1,0,1:2:0:0:
397,229,138966,1,8,0:0:0:0:
476,112,139116,6,0,P|432:123|388:133,1,90,2|0,0:0|1:0,0:0:0:0:
280,263,139416,1,2,1:2:0:0:
459,339,139566,1,10,0:0:0:0:
362,120,139716,5,8,0:3:0:0:
362,120,139791,1,8,0:3:0:0:
362,120,139866,1,12,0:0:0:0:
487,248,140016,1,0,1:0:0:0:
243,351,140166,1,8,0:0:0:0:
355,210,140316,1,4,0:3:0:0:
177,275,140466,5,8,0:0:0:0:
351,365,140616,1,4,0:3:0:0:
447,162,140766,1,8,0:0:0:0:
376,261,140916,6,0,P|422:274|485:297,1,90,6|0,1:2|0:0,0:0:0:0:
267,38,141216,6,0,P|310:25|352:11,1,90,14|2,0:0|0:0,0:0:0:0:
165,188,141516,6,0,B|271:210|232:135|333:153,1,168.75,14|0,0:0|0:0,0:0:0:0:
346,169,141816,5,14,0:0:0:0:
123,62,141966,1,8,0:0:0:0:
226,302,142116,1,8,0:0:0:0:
33,164,142266,6,0,B|66:80|85:30|85:30|42:-16|-17:7|-13:85|46:84,1,315,2|2,0:0|0:0,0:3:0:0:
166,215,143466,6,0,B|68:187|103:287|-8:250,1,180,2|2,0:3|0:0,0:0:0:0:
312,341,144666,6,0,B|365:285|437:298|437:298|481:344|481:344|409:319,1,270,2|2,0:0|0:3,0:0:0:0:
416,321,145866,6,0,P|430:270|448:220,1,90,2|2,0:0|0:0,0:0:0:0:
347,9,146466,2,0,P|361:60|379:110,1,90,2|2,0:0|0:0,0:0:0:0:
463,140,146916,1,2,0:3:0:0:
323,180,147066,6,0,P|375:119|466:144,1,180,2|2,0:0|0:0,0:0:0:0:
479,169,147966,5,2,0:0:0:0:
343,210,148116,1,2,0:0:0:0:
237,88,148266,2,0,P|246:47|254:14,1,67.5000025749208,2|0,0:3|0:0,0:0:0:0:
151,66,148566,2,0,P|160:25|168:-8,1,67.5000025749208,2|0,0:3|0:0,0:0:0:0:
13,98,148791,5,2,0:1:0:0:
15,107,148866,2,0,L|28:170,1,47.2499985580445,8|8,0:0|0:3,0:0:0:0:
126,176,149016,2,0,L|116:222,1,47.2499985580445,0|4,1:0|0:3,0:0:0:0:
15,245,149166,2,0,L|53:425,1,141.749995674133,14|0,0:0|0:0,0:0:0:0:
44,383,149466,1,6,1:2:0:0:
267,254,149616,5,8,2:2:0:0:
306,264,149691,1,8,2:2:0:0:
343,249,149766,1,10,2:2:0:0:
364,215,149841,1,8,2:2:0:0:
400,187,149916,1,10,2:2:0:0:
428,158,149991,1,8,2:2:0:0:
468,151,150066,1,8,2:3:0:0:
505,167,150141,1,8,2:2:0:0:
510,174,150216,6,0,L|500:220,1,47.2499985580445,0|8,1:0|0:0,0:0:0:0:
433,318,150366,1,10,0:0:0:0:
436,328,150441,1,8,0:0:0:0:
438,338,150516,2,8,L|451:400,1,47.2499985580445
290,160,150666,5,8,1:3:0:0:
294,140,150741,1,8,0:0:0:0:
298,120,150816,1,8,0:0:0:0:
302,101,150891,1,8,0:0:0:0:
317,14,150966,5,8,2:2:0:0:
281,5,151041,1,8,2:2:0:0:
248,18,151116,1,10,2:2:0:0:
229,49,151191,1,8,2:2:0:0:
197,74,151266,1,10,2:2:0:0:
172,100,151341,1,8,2:2:0:0:
136,106,151416,1,8,2:2:0:0:
103,92,151491,1,8,2:2:0:0:
76,8,151566,5,8,2:2:0:0:
34,30,151641,1,8,0:0:0:0:
11,70,151716,1,8,0:0:0:0:
12,116,151791,1,8,0:0:0:0:
38,156,151866,5,6,1:2:0:0:
275,247,152166,1,4,1:2:0:0:
20,314,152466,1,10,2:2:0:0:
118,166,152616,1,2,1:2:0:0:
118,166,152691,1,8,0:3:0:0:
118,166,152766,1,10,0:0:0:0:
432,328,152916,1,6,1:2:0:0:
502,164,153216,5,8,0:0:0:0:
149,287,153366,1,8,0:0:0:0:
196,207,153516,5,10,0:0:0:0:
229,334,153666,1,2,0:0:0:0:
102,367,153816,1,2,0:0:0:0:
69,240,153966,1,2,0:0:0:0:
69,240,154041,1,2,0:0:0:0:
69,240,154116,1,2,0:1:0:0:
356,189,154266,6,0,B|325:79|325:79|345:33|392:57,1,188.999994232178,6|8,1:2|0:0,0:0:0:0:
211,207,154716,1,2,0:0:0:0:
446,332,154866,2,0,P|468:291|454:248,1,94.499997116089,8|0,0:3|0:0,0:0:0:0:
301,69,155166,1,8,0:0:0:0:
452,148,155316,1,2,0:3:0:0:
274,334,155466,6,0,B|208:320|208:320|197:327|197:327|137:314,1,141.749995674133,2|0,1:2|0:0,0:0:0:0:
131,300,155766,1,8,0:0:0:0:
21,384,155916,2,0,P|12:337|1:291,1,94.499997116089,2|4,0:1|0:3,0:0:0:0:
262,96,156216,1,2,2:0:0:0:
76,162,156366,1,10,0:0:0:0:
215,278,156516,1,2,0:0:0:0:
101,62,156666,6,0,P|55:56|15:80,1,94.499997116089,2|0,1:2|0:0,0:0:0:0:
240,191,156966,2,8,L|332:171,1,94.499997116089,10|0,0:0|0:0,0:0:0:0:
106,374,157266,2,0,L|133:228,1,141.749995674133,8|0,0:3|0:0,0:0:0:0:
60,165,157566,2,0,B|26:199|26:199|28:245,1,94.499997116089,10|0,0:0|0:0,0:0:0:0:
224,303,157866,6,0,B|321:272|304:350|406:323,1,188.999994232178,2|8,1:2|0:0,0:0:0:0:
512,190,158316,1,8,0:3:0:0:
512,190,158391,1,8,0:3:0:0:
512,190,158466,1,4,0:3:0:0:
379,105,158616,1,2,0:3:0:0:
493,379,158766,2,0,P|502:330|512:285,1,94.499997116089,10|2,0:0|0:0,0:0:0:0:
299,236,159066,5,6,1:2:0:0:
370,357,159216,1,2,0:1:0:0:
163,234,159366,1,10,0:0:0:0:
373,116,159516,1,2,0:3:0:0:
224,338,159666,2,0,B|197:350|197:350|127:332,1,94.499997116089,8|0,0:3|0:0,0:0:0:0:
21,116,159966,5,10,0:0:0:0:
223,130,160116,1,2,0:3:0:0:
43,235,160266,5,2,1:2:0:0:
201,11,160416,1,2,0:3:0:0:
0,122,160566,2,0,B|14:189|14:189|-10:228|-10:228|5:300,1,188.999994232178,8|4,0:2|0:3,0:0:0:0:
132,367,161016,5,2,0:0:0:0:
249,257,161166,1,8,0:0:0:0:
27,225,161316,1,2,0:0:0:0:
356,377,161466,5,2,1:2:0:0:
125,181,161616,1,2,0:3:0:0:
127,188,161691,2,0,L|136:234,1,47.2499985580445,2|8,0:3|0:0,0:0:0:0:
401,112,161916,1,2,0:1:0:0:
257,254,162066,5,8,0:3:0:0:
500,196,162216,1,2,0:3:0:0:
310,32,162366,1,8,0:0:0:0:
481,351,162516,1,0,1:0:0:0:
477,342,162591,1,0,1:0:0:0:
468,336,162666,6,0,B|435:299|382:311|382:311|359:352|316:351,1,175.499991966248,14|0,2:2|0:0,0:0:0:0:
257,254,162966,6,0,B|218:225|218:225|170:253|161:322|196:360,1,202.500007724762,14|0,0:0|2:0,0:0:0:0:
360,193,163266,6,0,P|371:166|362:139,1,58.4999973220826,2|0,1:3|0:0,0:0:0:0:
383,35,163416,1,8,0:0:0:0:
342,15,163491,1,8,0:0:0:0:
299,29,163566,1,8,0:0:0:0:
278,70,163641,1,8,0:0:0:0:
257,111,163716,1,8,0:0:0:0:
214,126,163791,1,8,0:0:0:0:
173,105,163866,6,0,L|199:-26,1,94.499997116089,6|2,1:2|0:0,0:0:0:0:
70,56,164091,1,2,0:0:0:0:
65,59,164166,2,0,P|42:98|57:142,1,94.499997116089,10|2,0:0|0:0,0:0:0:0:
257,255,164466,2,0,B|147:224|147:224|101:244|125:291,1,188.999994232178,8|8,2:3|0:0,0:0:0:0:
0,218,164916,1,2,0:3:0:0:
205,368,165066,6,0,B|272:353|272:353|277:356|277:356|346:342,1,141.749995674133,2|0,1:2|0:0,0:0:0:0:
354,350,165366,1,10,0:0:0:0:
483,291,165516,2,0,B|511:331|511:331|489:373,1,94.499997116089,2|4,2:2|0:3,0:0:0:0:
301,193,165816,1,2,0:0:0:0:
430,134,165966,2,0,L|529:156,1,94.499997116089,10|2,0:0|0:0,0:0:0:0:
313,51,166266,5,2,1:2:0:0:
309,44,166341,2,0,B|301:19|301:19|309:-1,1,47.2499985580445,2|2,0:0|0:0,0:0:0:0:
185,112,166491,1,2,0:0:0:0:
179,111,166566,2,0,B|113:97|113:97|102:104|102:104|42:91,1,141.749995674133,10|0,2:2|0:0,0:0:0:0:
0,4,166866,2,0,P|47:-12|96:16,1,94.499997116089,8|0,0:3|0:0,0:0:0:0:
19,279,167166,2,0,P|8:232|0:186,1,94.499997116089,10|0,0:0|0:0,0:0:0:0:
245,334,167466,6,0,B|342:303|325:381|427:354,1,188.999994232178,2|8,1:2|0:0,0:0:0:0:
281,199,167916,1,8,0:3:0:0:
281,199,167991,1,8,0:3:0:0:
281,199,168066,1,4,0:3:0:0:
508,116,168216,1,2,0:2:0:0:
391,266,168366,2,0,L|414:156,1,94.499997116089,10|2,0:0|0:0,0:0:0:0:
289,384,168666,5,6,1:2:0:0:
447,160,168816,1,2,0:1:0:0:
267,265,168966,1,10,2:2:0:0:
469,279,169116,5,2,0:3:0:0:
262,63,169266,2,0,B|232:102|232:102|244:145,1,94.499997116089,8|0,0:3|0:0,0:0:0:0:
184,352,169566,5,10,0:0:0:0:
6,216,169716,1,2,0:3:0:0:
239,112,169866,1,2,1:2:0:0:
154,232,170016,1,2,0:0:0:0:
192,5,170166,2,0,L|339:36,1,141.749995674133,10|0,0:0|0:0,0:0:0:0:
353,19,170466,5,2,1:2:0:0:
71,132,170691,1,2,1:2:0:0:
71,132,170766,2,0,P|54:89|84:39,1,94.499997116089,10|0,0:0|0:0,0:0:0:0:
288,216,171066,6,0,P|334:205|380:196,1,94.499997116089,6|0,1:2|0:0,0:0:0:0:
418,371,171291,6,0,P|386:335|354:300,1,94.499997116089,10|0,0:0|0:0,0:0:0:0:
491,186,171516,6,0,P|476:231|461:275,1,94.499997116089,10|2,0:0|1:2,0:0:0:0:
31,192,171891,5,8,0:0:0:0:
31,192,171966,1,2,1:2:0:0:
153,278,172116,1,8,2:2:0:0:
166,129,172266,6,0,B|156:85|156:85|151:83|151:83|142:39,1,94.499997116089,6|0,1:2|1:0,0:0:0:0:
18,341,172566,6,0,B|71:319|124:344|96:372|150:395|204:378,1,202.500007724762,14|0,2:2|0:0,0:0:0:0:
288,384,172866,6,0,P|281:348|271:305,1,67.5000025749208,0|4,1:0|0:3,0:0:0:0:
444,126,173016,1,8,0:0:0:0:
445,133,173091,1,8,0:0:0:0:
446,141,173166,2,8,P|452:174|459:207,1,67.5000025749208
477,319,173316,5,2,0:0:0:0:
477,319,173391,1,8,0:0:0:0:
477,319,173466,2,0,P|434:306|386:295,1,80.9999975280763,6|2,1:2|0:0,0:0:0:0:
68,79,173766,6,0,P|127:137|211:115,1,175.499991966248,10|0,0:0|0:0,0:0:0:0:
288,169,174066,6,0,P|297:121|313:50,1,94.499997116089,8|2,0:3|0:0,0:0:0:0:
218,0,174366,1,10,0:0:0:0:
426,78,174516,1,2,0:3:0:0:
181,146,174666,6,0,P|105:127|36:111,1,141.749995674133,2|0,1:2|0:0,0:0:0:0:
15,108,174966,1,8,0:0:0:0:
190,25,175116,1,2,0:1:0:0:
57,220,175266,1,4,0:3:0:0:
279,278,175416,2,0,P|290:239|231:184,1,94.499997116089,2|8,0:0|0:0,0:0:0:0:
129,311,175716,1,2,0:3:0:0:
323,380,175866,6,0,P|372:367|420:359,1,94.499997116089,2|2,1:2|0:2,0:0:0:0:
487,163,176166,1,10,0:0:0:0:
279,278,176316,1,2,0:1:0:0:
441,378,176466,1,8,0:3:0:0:
364,151,176616,1,2,0:3:0:0:
314,288,176766,1,10,0:0:0:0:
509,133,176916,1,2,0:0:0:0:
353,371,177066,6,0,P|304:386|235:326,1,141.749995674133,2|0,1:2|0:0,0:0:0:0:
229,305,177366,1,10,0:0:0:0:
165,85,177516,2,0,P|207:101|273:123,1,94.499997116089,2|4,0:0|0:3,0:0:0:0:
18,250,177816,1,2,0:0:0:0:
18,250,177891,1,2,0:0:0:0:
18,250,177966,2,0,B|136:276|79:184|217:213,1,188.999994232178,8|0,0:0|1:0,0:0:0:0:
367,10,178416,5,2,0:0:0:0:
165,85,178566,1,10,0:0:0:0:
289,244,178716,2,0,P|299:191|316:135,1,94.499997116089,2|8,0:0|2:3,0:0:0:0:
60,49,179016,2,0,P|72:94|81:140,1,94.499997116089,2|8,0:0|0:0,0:0:0:0:
229,0,179316,1,2,0:0:0:0:
24,225,179466,6,0,P|73:237|121:254,1,94.499997116089,2|2,1:2|0:0,0:0:0:0:
231,304,179766,1,10,0:0:0:0:
176,122,179916,1,2,0:0:0:0:
92,349,180066,2,0,P|161:368|224:295,1,141.749995674133,4|0,0:3|0:0,0:0:0:0:
434,302,180366,2,0,P|382:217|293:228,1,188.999994232178,10|0,0:0|1:0,0:0:0:0:
213,329,180816,5,2,0:0:0:0:
71,187,180966,1,10,0:0:0:0:
256,57,181116,2,0,P|247:94|234:168,1,94.499997116089,2|8,0:0|0:3,0:0:0:0:
169,237,181416,5,2,0:0:0:0:
363,126,181566,1,10,0:0:0:0:
144,28,181716,1,2,0:0:0:0:
302,221,181866,6,0,L|366:241,1,47.2499985580445,2|2,1:2|0:0,0:0:0:0:
438,295,182016,2,0,L|483:280,1,47.2499985580445,2|2,0:0|0:0,0:0:0:0:
507,255,182166,6,0,B|452:235|423:274|423:274|420:286|420:286|390:342|321:321,1,202.500007724762,14|0,0:0|0:0,0:0:0:0:
246,380,182466,5,8,0:0:0:0:
258,361,182566,2,0,P|251:327|241:282,1,62.9999980773926,8|8,0:0|0:0,0:0:0:0:
0,238,182766,5,2,1:2:0:0:
51,301,182866,5,8,0:3:0:0:
129,279,182966,5,4,0:3:0:0:
112,263,183066,6,0,P|66:275|7:297,1,94.499997116089,2|8,1:2|0:3,0:0:0:0:
232,41,183366,2,0,P|186:28|127:7,1,94.499997116089,4|2,0:3|1:2,0:0:0:0:
218,218,183666,5,8,0:0:0:0:
6,168,183816,2,0,P|79:98|146:128,1,175.499991966248,6|0,1:2|0:0,0:0:0:0:
157,142,184116,1,10,0:0:0:0:
234,336,184266,2,0,P|189:320|143:307,1,94.499997116089,2|8,1:2|0:0,0:0:0:0:
341,192,184566,5,0,1:0:0:0:
143,307,184716,1,8,0:3:0:0:
335,383,184866,2,0,P|340:353|349:320,1,47.2499985580445,8|0,0:0|0:0,0:0:0:0:
436,213,185016,2,0,B|335:191|376:279|258:246,1,175.499991966248,4|0,1:2|0:0,0:0:0:0:
246,238,185316,1,8,0:0:0:0:
364,19,185466,6,0,B|395:59|395:59|379:130,1,94.499997116089,0|8,1:0|0:3,0:0:0:0:
271,94,185766,1,0,1:0:0:0:
483,20,185916,1,4,0:3:0:0:
399,210,186066,1,10,0:0:0:0:
256,68,186216,6,0,B|154:38|154:38|112:54|128:96,1,175.499991966248,6|0,1:2|0:0,0:0:0:0:
141,113,186516,1,10,0:0:0:0:
1,257,186666,6,0,B|42:246|42:246|50:237|50:237|108:222,1,94.499997116089,6|8,1:2|0:0,0:0:0:0:
279,323,186966,1,8,0:3:0:0:
118,383,187116,1,4,0:3:0:0:
206,174,187266,1,8,0:0:0:0:
208,181,187341,1,8,0:3:0:0:
209,188,187416,2,0,P|213:206|224:256,1,47.2499985580445,0|4,1:0|0:3,0:0:0:0:
48,143,187566,1,12,0:0:0:0:
361,365,187866,6,0,P|403:352|465:340,1,94.499997116089,6|2,1:2|0:0,0:0:0:0:
502,102,188166,1,10,0:0:0:0:
305,190,188316,1,2,0:0:0:0:
435,256,188466,1,8,0:3:0:0:
317,60,188616,1,8,0:0:0:0:
276,40,188691,1,8,0:0:0:0:
233,54,188766,1,8,0:0:0:0:
212,95,188841,1,8,0:0:0:0:
191,136,188916,1,8,0:0:0:0:
148,151,188991,1,8,0:0:0:0:
107,130,189066,6,0,P|115:84|126:36,1,90,2|0,1:2|0:0,0:0:0:0:
115,29,189366,1,10,0:0:0:0:
12,215,189516,6,8,L|24:272,1,47.2499985580445,10|8,0:0|0:0,0:0:0:0:
9,289,189666,1,8,0:0:0:0:
166,379,189816,1,8,0:3:0:0:
284,161,189966,1,8,0:3:0:0:
126,260,190116,1,8,0:3:0:0:
286,330,190266,6,0,B|390:287|470:372|470:372|400:337|374:230|406:186|406:186|411:243|341:287,1,540,6|2,1:2|0:3,0:0:0:0:
56,107,192666,6,0,B|108:103|129:27|129:27|116:131|166:183|237:153,1,315,4|0,1:2|0:0,0:0:0:0:
225,157,193866,6,0,B|177:128|135:172|135:172|134:181|134:181|103:240|32:218,1,202.500007724762,4|0,1:2|1:0,0:0:0:0:
38,203,194391,5,8,0:3:0:0:
38,203,194466,1,8,0:0:0:0:
301,122,194666,2,0,B|319:97|319:97|313:68,1,60,0|0,1:0|0:0,0:0:0:0:
213,0,194866,2,0,B|195:25|195:25|201:54,1,60,0|0,1:0|0:0,0:0:0:0:
315,148,195066,5,4,1:2:0:0:
315,148,195666,2,0,B|421:133|380:208|485:194,2,180,2|0|2,0:3|0:0|0:3,0:0:0:0:
480,194,197016,5,2,0:0:0:0:
355,310,197166,2,0,P|349:272|339:228,1,67.5,2|0,0:1|0:0,0:0:0:0:
343,244,197466,6,0,B|291:222|252:264|252:264|244:323|177:329,1,202.500007724762,4|0,1:2|0:0,0:0:0:0:
70,384,198066,6,0,P|68:348|105:306,1,67.5000025749208,2|0,0:3|0:0,0:0:0:0:
82,82,198366,2,0,P|80:118|117:160,1,67.5000025749208,2|0,0:0|0:0,0:0:0:0:
14,254,198666,2,0,P|77:234|162:215,1,135.000005149842,4|0,1:2|0:0,0:0:0:0:
328,313,199116,5,0,1:0:0:0:
330,306,199191,1,0,1:0:0:0:
331,299,199266,2,0,L|350:205,1,56.9999984779358,12|0,0:0|0:0,0:0:0:0:
461,339,199466,2,0,L|369:368,1,56.9999984779358,8|0,0:0|0:0,0:0:0:0:
430,206,199666,2,0,L|501:270,1,56.9999984779358,8|0,0:0|0:0,0:0:0:0:
168,343,199866,5,6,1:2:0:0:
250,355,200016,2,0,L|181:333,1,72,2|0,0:0|1:0,0:0:0:0:
279,242,200316,5,2,2:2:0:0:
356,211,200466,2,0,L|285:226,1,72,2|0,1:2|2:0,0:0:0:0:
324,99,200766,5,2,1:2:0:0:
375,33,200916,2,0,L|321:81,1,72,2|0,2:2|1:0,0:0:0:0:
437,128,201216,5,2,0:0:0:0:
364,199,201366,5,2,1:2:0:0:
447,259,201516,5,2,0:0:0:0:
374,330,201666,5,2,1:2:0:0:
379,337,201816,1,2,0:0:0:0:
384,344,201966,1,2,1:2:0:0:
98,41,202266,6,0,P|87:84|79:128,1,90,2|0,1:3|0:0,0:0:0:0:
214,87,202566,2,0,P|233:47|219:6,1,90,2|0,1:3|0:0,0:0:0:0:
314,161,202866,2,0,P|365:120|440:137,1,141.749995674133,2|0,1:3|0:0,0:0:0:0:
488,242,203166,2,0,P|439:230|391:221,1,99.0000030212403,2|0,1:3|0:0,0:0:0:0:
0,352,203616,5,2,0:1:0:0:
49,286,203766,5,2,0:2:0:0:
137,265,203916,5,2,0:2:0:0:
227,310,204066,5,2,0:2:0:0:
426,314,204216,5,2,0:3:0:0:
118,369,204366,5,2,0:3:0:0:
273,384,204516,5,2,0:3:0:0:
256,262,204666,6,0,L|241:332,1,49.5000015106202,6|0,1:2|0:0,0:0:0:0:
343,279,204904,6,0,L|328:349,1,49.5000015106202,2|0,2:2|0:0,0:0:0:0:
126,216,205142,6,0,L|140:286,1,49.5000015106202,2|0,1:2|0:0,0:0:0:0:
39,233,205434,6,0,L|53:303,1,46.1250007038117,2|0,2:2|0:0,0:0:0:0:
225,116,205609,6,0,P|253:99|286:104,1,67.5000025749208,2|0,1:2|0:0,0:0:0:0:
371,15,205863,6,0,P|402:24|422:50,1,67.5000025749208,2|0,0:0|0:0,0:0:0:0:
232,225,206101,6,0,P|260:241|293:236,1,67.5000025749208,2|0,1:2|0:0,0:0:0:0:
378,326,206377,6,0,P|409:316|429:290,1,67.5000025749208,2|0,0:0|0:0,0:0:0:0:
150,177,206592,6,0,B|102:159|71:198|71:198|69:208|69:208|43:259|-29:240,1,182.250000695229,2|2,1:2|2:0,0:0:0:0:
512,135,207121,5,2,0:0:0:0:
510,140,207235,6,0,L|493:219,1,58.4999973220826,2|0,1:2|0:0,0:0:0:0:
442,284,207462,6,0,L|458:363,1,58.4999973220826,2|0,0:0|0:0,0:0:0:0:
324,201,207684,6,0,L|340:121,1,58.4999973220826,2|0,1:2|0:0,0:0:0:0:
392,57,207976,6,0,L|375:-22,1,58.4999973220826,2|0,0:0|0:0,0:0:0:0:
206,118,208171,6,0,B|212:150|212:150|209:158|209:158|216:193,1,76.5000014591217,2|0,1:2|0:0,0:0:0:0:
103,77,208409,6,0,B|127:54|127:54|136:53|136:53|162:29,1,76.5000014591217,2|0,2:2|0:0,0:0:0:0:
123,185,208663,6,0,B|91:174|91:174|86:167|86:167|52:156,1,76.5000014591217,2|0,1:2|0:0,0:0:0:0:
0,228,208890,1,2,0:0:0:0:
7,231,208958,2,0,L|51:244,1,45,2|2,0:0|0:0,0:0:0:0:
170,264,209094,5,2,0:3:0:0:
180,261,209169,1,2,0:3:0:0:
191,259,209245,1,2,0:3:0:0:
202,256,209321,1,2,0:3:0:0:
213,254,209397,1,4,0:2:0:0:
312,304,209559,6,0,L|305:336,1,33.7500012874604,2|0,0:1|0:0,0:0:0:0:
436,334,209723,5,14,1:2:0:0:
457,292,209801,1,2,1:2:0:0:
448,246,209880,1,8,0:0:0:0:
415,213,209959,1,8,0:0:0:0:
400,211,210038,5,8,0:0:0:0:
368,178,210117,1,8,0:0:0:0:
359,132,210196,1,8,0:0:0:0:
379,90,210275,1,8,0:3:0:0:
395,83,210354,2,0,L|443:93,1,45,8|8,0:2|0:2,0:0:0:0:
312,312,210512,5,4,0:3:0:0:
312,319,210591,1,4,0:3:0:0:
312,304,210670,5,10,1:2:0:0:
285,267,210748,1,8,0:0:0:0:
246,247,210827,1,8,0:3:0:0:
201,247,210907,1,8,0:0:0:0:
161,267,210986,2,8,L|173:327,1,45
0,384,211144,5,10,1:2:0:0:
3,374,211223,1,8,0:2:0:0:
5,363,211301,1,8,0:3:0:0:
8,352,211380,1,8,0:2:0:0:
10,341,211459,1,8,0:2:0:0:
12,330,211538,1,8,0:2:0:0:
66,268,211617,5,2,1:2:0:0:
63,261,211696,2,0,P|39:244|9:244,1,60.7500002317429,10|0,0:0|0:0,0:0:0:0:
167,170,211854,1,10,0:0:0:0:
164,164,211933,2,8,L|150:101,1,60.7500002317429,10|8,1:2|0:0,0:0:0:0:
0,59,212091,2,8,L|11:0,1,60.7500002317429,8|4,0:3|0:3,0:0:0:0:
194,299,212249,5,14,2:2:0:0:
247,304,212328,1,8,2:2:0:0:
293,276,212407,1,8,2:2:0:0:
313,227,212486,1,8,2:2:0:0:
355,182,212565,1,10,2:2:0:0:
386,138,212644,1,8,2:2:0:0:
437,121,212723,1,14,1:2:0:0:
489,134,212801,1,8,2:2:0:0:
498,145,212880,2,8,L|482:218,1,60.7500002317429,8|8,2:2|2:2,2:2:0:0:
396,325,213038,2,8,L|411:398,1,60.7500002317429,8|8,2:2|2:2,2:2:0:0:
216,201,213196,5,14,0:0:0:0:
190,161,213275,1,8,0:0:0:0:
189,115,213354,1,8,0:0:0:0:
212,75,213433,1,8,0:0:0:0:
254,53,213512,2,8,L|316:66,1,60.7500002317429
512,0,213670,6,8,L|492:93,1,60.7500002317429,14|8,0:0|0:0,0:0:0:0:
328,66,213828,2,8,L|347:159,1,60.7500002317429
512,229,213986,2,8,L|493:322,1,60.7500002317429
290,346,214144,5,6,1:2:0:0:
268,336,214223,1,8,2:2:0:0:
225,349,214301,1,8,2:3:0:0:
169,322,214380,1,4,2:3:0:0:
99,351,214459,2,8,L|112:413,1,33.7500012874604,6|8,1:2|0:0,0:0:0:0:
7,224,214617,1,8,0:0:0:0:
4,215,214696,1,8,0:0:0:0:
0,206,214775,5,12,1:2:0:0:
77,170,214854,1,2,1:1:0:0:
136,187,214933,1,8,2:2:0:0:
167,219,215012,1,8,2:2:0:0:
181,228,215091,1,8,2:2:0:0:
192,229,215170,1,8,2:2:0:0:
197,225,215249,5,6,1:2:0:0:
224,169,215327,1,2,1:2:0:0:
212,107,215406,1,8,0:0:0:0:
169,63,215485,1,8,0:0:0:0:
149,61,215565,2,0,L|86:74,1,60.7500002317429,8|8,0:0|0:0,0:0:0:0:
157,370,215723,5,14,2:2:0:0:
204,381,215801,1,8,2:2:0:0:
251,362,215880,1,8,2:2:0:0:
277,320,215959,1,8,2:2:0:0:
322,285,216038,1,8,2:2:0:0:
357,248,216117,1,8,2:2:0:0:
407,239,216196,1,12,2:2:0:0:
453,260,216275,1,8,2:2:0:0:
425,302,216354,5,8,2:2:0:0:
390,265,216433,1,8,2:2:0:0:
383,220,216512,1,8,2:2:0:0:
397,184,216591,1,8,2:2:0:0:
423,162,216670,1,14,2:2:0:0:
448,153,216749,1,8,2:2:0:0:
470,152,216828,1,8,2:2:0:0:
486,156,216907,1,8,2:2:0:0:
502,163,216986,2,10,P|512:107|522:60,1,60.7500002317429,14|10,2:2|2:2,2:2:0:0:
323,80,217144,2,10,P|328:109|333:139,1,60.7500002317429,8|8,2:2|2:2,2:2:0:0:
418,27,217301,5,12,1:2:0:0:
374,5,217379,1,8,0:0:0:0:
326,0,217458,1,8,0:0:0:0:
280,14,217537,1,8,0:0:0:0:
240,42,217616,1,8,0:0:0:0:
213,81,217695,1,8,0:0:0:0:
221,91,217775,5,6,1:2:0:0:
194,130,217854,1,8,0:0:0:0:
155,158,217933,1,8,0:0:0:0:
109,172,218012,1,8,0:0:0:0:
60,167,218091,1,8,0:0:0:0:
17,145,218169,1,8,0:0:0:0:
65,106,218249,5,6,1:2:0:0:
123,121,218327,1,8,0:0:0:0:
158,169,218406,1,8,0:0:0:0:
155,229,218485,1,8,0:0:0:0:
116,274,218565,2,8,L|52:263,1,60.7500002317429
323,359,218723,5,6,1:2:0:0:
350,303,218801,1,2,1:2:0:0:
338,242,218880,1,8,0:0:0:0:
295,198,218959,1,8,0:0:0:0:
275,196,219038,5,8,0:0:0:0:
232,152,219117,1,8,0:0:0:0:
221,91,219196,1,4,1:2:0:0:
247,35,219275,1,8,0:3:0:0:
268,27,219354,1,8,0:0:0:0:
282,30,219432,1,8,0:0:0:0:
297,33,219511,1,8,0:0:0:0:
312,36,219590,1,8,0:0:0:0:
327,39,219670,2,0,L|389:52,1,33.7500012874604,0|4,1:3|0:3,0:0:0:0:
247,295,219828,6,0,L|180:280,1,67.5000025749208,14|0,0:0|0:0,0:0:0:0:
72,89,219986,5,0,1:2:0:0:
83,114,220065,1,8,2:3:0:0:
68,163,220143,1,0,1:2:0:0:
99,227,220222,1,4,2:3:0:0:
66,307,220301,2,8,L|-4:292,1,67.5000025749208,12|0,0:0|0:0,0:0:0:0:
263,84,220459,5,8,2:2:0:0:
327,39,220538,1,8,2:2:0:0:
398,58,220617,1,0,1:2:0:0:
429,90,220696,1,4,2:3:0:0:
431,102,220775,2,8,L|413:184,1,67.5000025749208,14|0,0:0|0:0,0:0:0:0:
488,312,220933,5,8,2:2:0:0:
463,300,221012,1,8,2:2:0:0:
414,316,221090,1,0,1:2:0:0:
350,285,221169,1,4,2:3:0:0:
270,318,221249,2,8,L|284:388,1,67.5000025749208,14|0,0:0|0:0,0:0:0:0:
76,358,221407,5,8,2:2:0:0:
31,294,221486,1,8,2:2:0:0:
50,222,221565,1,0,1:2:0:0:
82,191,221644,1,4,2:3:0:0:
104,188,221723,5,12,0:0:0:0:
116,185,221802,5,8,2:2:0:0:
151,151,221881,5,0,1:2:0:0:
172,72,221960,5,4,2:3:0:0:
122,2,222038,6,8,L|28:21,1,67.5000025749208,14|2,0:0|0:0,0:0:0:0:
220,294,222196,5,0,1:0:0:0:
218,301,222275,1,0,1:0:0:0:
216,308,222354,1,8,2:2:0:0:
263,319,222433,1,0,1:2:0:0:
310,300,222511,1,8,2:3:0:0:
336,258,222590,1,4,2:3:0:0:
381,223,222669,1,8,2:3:0:0:
416,186,222748,1,0,1:2:0:0:
466,177,222827,1,8,2:2:0:0:
512,198,222906,5,0,1:2:0:0:
465,241,222986,1,8,0:3:0:0:
399,236,223065,1,4,0:3:0:0:
358,185,223143,1,0,1:0:0:0:
367,120,223222,1,0,1:0:0:0:
420,81,223301,5,8,0:0:0:0:
354,93,223380,1,0,1:0:0:0:
300,56,223459,1,8,0:3:0:0:
303,47,223538,1,4,0:3:0:0:
248,8,223617,1,4,0:3:0:0:
183,23,223696,1,0,1:0:0:0:
89,13,223775,5,8,0:0:0:0:
92,29,223853,1,8,0:0:0:0:
96,46,223932,1,8,0:0:0:0:
99,62,224011,1,8,0:0:0:0:
103,79,224091,1,8,0:0:0:0:
106,95,224170,1,8,0:0:0:0:
107,180,224249,5,6,1:2:0:0:
178,147,224327,1,2,1:2:0:0:
254,164,224406,1,6,1:2:0:0:
309,225,224485,1,2,1:2:0:0:
303,233,224564,5,6,1:2:0:0:
356,289,224643,1,2,1:2:0:0:
433,308,224722,1,6,1:2:0:0:
506,278,224801,1,6,1:2:0:0:
512,270,224882,1,6,1:2:0:0:
256,192,224957,12,0,243782,0:0:0:0:
13,297,244082,6,0,B|56:293|77:254|77:254|62:327|135:366,1,202.500007724762,4|2,1:2|0:0,0:0:0:0:
251,300,244682,2,0,P|217:290|186:281,1,67.5000025749208,0|0,1:2|0:0,0:0:0:0:
90,161,244982,2,0,P|95:183|108:245,1,67.5000025749208,2|0,0:0|0:0,0:0:0:0:
186,84,245282,6,0,L|195:46,2,33.7500012874604,2|2|2,1:3|0:3|2:3,0:0:0:0:
257,177,245582,2,0,P|299:178|331:145,1,67.5000025749208,2|0,0:1|0:0,0:0:0:0:
488,89,245882,2,0,P|451:41|375:44,1,135.000005149842,2|2,1:0|0:0,0:0:0:0:
381,40,246482,6,0,B|364:99|348:158|348:158|363:189|393:197|428:181,1,202.500007724762,2|2,1:2|0:0,0:0:0:0:
504,318,247082,2,0,P|477:300|435:293,1,67.5000025749208,0|0,1:0|0:0,0:0:0:0:
285,377,247382,2,0,P|318:369|355:362,1,67.5000025749208,2|0,0:0|0:0,0:0:0:0:
224,268,247682,6,0,P|226:255|233:227,2,33.7500012874604,2|2|2,1:3|0:3|0:3,0:0:0:0:
136,323,247982,2,0,B|118:292|118:292|126:251,1,67.5000025749208,2|0,0:1|0:0,0:0:0:0:
293,147,248282,2,0,B|340:196|340:196|322:264,1,135.000005149842,0|2,1:0|0:0,0:0:0:0:
323,261,248882,6,0,B|290:222|235:245|235:245|230:256|230:256|208:302|144:297,1,202.500007724762,2|2,1:2|0:0,0:0:0:0:
40,374,249482,2,0,B|33:340|33:340|50:310,1,67.5000025749208,0|0,1:0|0:0,0:0:0:0:
15,188,249782,2,0,P|46:196|92:209,1,67.5000025749208,2|0,0:0|0:0,0:0:0:0:
182,129,250082,6,0,L|175:87,2,33.7500012874604,2|2|2,1:3|0:3|0:3,0:0:0:0:
226,11,250382,1,2,0:1:0:0:
87,66,250532,1,2,0:3:0:0:
280,106,250682,2,0,B|333:117|333:117|348:143|348:143|408:157,1,135.000005149842,0|2,1:0|0:0,0:0:0:0:
397,154,251282,6,0,B|381:87|367:28|367:28|400:53|441:52,1,202.500007724762,2|2,1:2|0:0,0:0:0:0:
508,143,251882,2,0,P|501:170|488:224,1,67.5000025749208,0|0,1:0|0:0,0:0:0:0:
447,337,252182,2,0,P|483:328|528:318,1,67.5000025749208,2|0,0:3|0:0,0:0:0:0:
324,188,252482,6,0,P|356:195|389:203,1,67.5000025749208,2|0,1:3|0:0,0:0:0:0:
325,334,252782,2,0,P|270:352|210:308,1,135.000005149842,2|0,1:3|1:0,0:0:0:0:
11,146,253232,1,8,0:0:0:0:
50,123,253307,1,8,0:0:0:0:
90,143,253382,1,10,0:0:0:0:
101,187,253457,1,8,0:0:0:0:
140,209,253532,1,8,0:0:0:0:
180,189,253607,1,8,0:0:0:0:
192,174,253682,6,0,P|183:130|169:76,1,80.9999975280763,6|0,1:2|0:0,0:0:0:0:
305,0,253982,2,0,P|314:44|328:98,1,80.9999975280763,0|2,1:0|0:0,0:0:0:0:
372,215,254282,2,0,P|330:220|293:188,1,80.9999975280763,8|0,0:3|0:0,0:0:0:0:
469,109,254582,1,4,0:3:0:0:
299,199,254732,6,0,P|351:181|420:260,1,161.999995056153,12|0,0:0|0:0,0:0:0:0:
481,349,255182,2,0,P|442:356|399:369,1,80.9999975280763,0|0,1:0|0:0,0:0:0:0:
242,274,255482,2,0,P|281:281|324:294,1,80.9999975280763,8|0,0:3|0:0,0:0:0:0:
396,165,255782,1,4,0:3:0:0:
222,301,255932,5,8,0:0:0:0:
222,301,256007,1,8,0:0:0:0:
222,301,256082,2,0,B|182:274|141:298|141:298|124:345|61:348,1,161.999995056153,6|0,1:2|1:0,0:0:0:0:
70,135,256532,1,2,0:0:0:0:
0,213,256682,2,0,P|41:222|81:235,1,80.9999975280763,8|0,0:3|0:0,0:0:0:0:
122,4,256982,1,4,0:3:0:0:
11,60,257132,5,12,0:0:0:0:
220,160,257282,2,0,B|230:129|200:105|200:105|151:117|75:135,1,161.999995056153,2|0,1:2|1:0,0:0:0:0:
283,24,257732,2,0,L|346:42,1,40.4999987640381,8|8,0:0|0:0,0:0:0:0:
350,24,257882,5,8,0:0:0:0:
493,128,258032,1,8,0:3:0:0:
320,241,258182,1,0,1:0:0:0:
372,125,258332,1,4,0:3:0:0:
456,347,258482,6,0,B|482:311|482:311|427:324|352:343,1,161.999995056153,4|0,1:2|1:0,0:0:0:0:
446,212,258932,1,2,0:0:0:0:
275,346,259082,2,0,P|315:356|358:368,1,80.9999975280763,4|0,0:3|0:0,0:0:0:0:
164,208,259382,2,0,B|109:220|109:220|79:256|79:256|21:269,1,161.999995056153,12|0,0:0|1:0,0:0:0:0:
175,312,259832,5,8,0:0:0:0:
292,185,259982,1,2,1:3:0:0:
135,80,260132,1,2,0:1:0:0:
35,148,260282,5,10,0:0:0:0:
187,222,260432,1,2,1:0:0:0:
285,24,260582,1,12,0:0:0:0:
303,133,260882,6,0,P|260:119|188:102,1,80.9999975280763,2|0,1:3|0:0,0:0:0:0:
472,19,261182,2,0,P|433:31|394:42,1,80.9999975280763,2|0,1:3|0:0,0:0:0:0:
428,226,261482,6,0,P|418:188|406:138,1,80.9999975280763,2|0,1:3|0:0,0:0:0:0:
245,31,261782,2,0,P|235:70|225:109,1,80.9999975280763,2|0,1:3|0:0,0:0:0:0:
187,222,262082,5,4,1:2:0:0:
89,6,262382,5,4,1:2:0:0:
379,134,262682,5,4,1:2:0:0:
46,328,262982,5,4,1:2:0:0:
46,328,263282,5,4,1:2:0:0:
138,368,263432,1,2,0:1:0:0:
457,233,263582,5,4,1:2:0:0:
365,193,263732,1,2,0:0:0:0:
153,48,263882,5,4,1:2:0:0:
61,88,264032,1,2,0:3:0:0:
233,328,264182,5,4,1:2:0:0:
325,288,264332,1,2,0:1:0:0:
136,147,264482,6,0,L|148:208,1,45,2|0,0:3|0:0,0:0:0:0:
29,37,266132,5,0,1:0:0:0:
36,35,266207,1,0,1:0:0:0:
43,32,266282,2,0,P|94:19|147:9,1,60,6|0,1:2|0:0,0:0:0:0:
46,164,266482,6,0,P|16:131|-14:98,1,60,10|0,0:0|0:0,0:0:0:0:
164,97,266682,6,0,P|149:139|135:182,1,60,10|0,0:0|2:2,0:0:0:0:
268,362,266882,6,0,B|201:246|263:190|319:135|382:193|369:248,1,315,6|2,2:2|2:2,2:2:0:0:
166,160,268082,2,0,B|121:142|72:164|89:191|45:213|0:195,1,180,4|2,1:2|0:3,0:0:0:0:
365,240,269282,6,0,B|380:175|411:61|411:61|381:81|339:75|339:75|366:89|377:114,1,315,6|2,1:2|2:2,0:0:0:0:
512,337,270482,2,0,B|480:297|425:307|425:307|397:346|350:333,1,180,6|2,1:2|0:3,0:0:0:0:
155,12,271682,6,0,B|170:83|170:83|166:86|166:86|182:163,1,157.5,6|0,1:2|0:0,0:0:0:0:
13,218,272282,6,0,B|60:199|60:199|100:209|100:209|122:260|179:252,1,188.999994232178,6|0,1:2|0:3,0:0:0:0:
295,341,272882,6,0,B|326:231|326:231|306:185|259:209,1,188.999994232178,6|0,1:2|0:0,0:0:0:0:
201,346,273482,6,0,B|153:327|102:350|120:378|74:401|27:382,1,188.999994232178,4|0,1:2|0:3,0:0:0:0:
39,212,274082,6,0,L|48:165,1,47.2499985580445,2|0,1:3|0:0,0:0:0:0:
92,109,274682,6,0,B|73:195|73:195|78:198|78:198|58:291,1,180,2|2,1:3|0:0,0:0:0:0:
150,355,275132,6,0,L|185:347,1,36,0|0,1:0|1:0,0:0:0:0:
421,324,275282,6,0,B|384:310|360:340|360:340|358:347|358:347|338:386|283:372,1,148.500001416206,14|2,2:2|2:0,0:0:0:0:
265,263,275482,6,0,B|275:213|275:213|272:209|272:209|287:144|287:144|273:164|253:170,1,166.499999364853,8|0,2:0|0:0,0:0:0:0:
208,73,275682,6,0,B|156:77|134:30|134:30|96:20|96:20|50:38,1,180,8|0,2:2|0:3,0:0:0:0:
309,38,275882,6,0,B|349:46|349:46|351:53|351:53|392:61,1,90,2|0,1:0|0:0,0:0:0:0:
462,216,276032,1,10,0:0:0:0:
419,189,276107,1,8,0:0:0:0:
370,202,276182,1,10,0:0:0:0:
344,246,276257,1,8,0:0:0:0:
319,291,276332,1,2,1:2:0:0:
270,303,276407,1,0,1:0:0:0:
226,276,276482,6,0,B|235:230|235:230|242:228|242:228|252:182,1,99.0000030212403,6|2,1:2|0:0,0:0:0:0:
60,51,276782,1,10,0:0:0:0:
216,0,276932,1,2,0:3:0:0:
86,169,277082,2,0,P|38:175|0:146,1,99.0000030212403,8|0,0:3|0:0,0:0:0:0:
242,118,277382,1,10,2:2:0:0:
133,333,277532,1,2,0:3:0:0:
268,236,277682,6,0,B|339:220|339:220|345:226|345:226|411:213,1,148.50000453186,2|0,1:2|0:0,0:0:0:0:
422,205,277982,1,8,0:0:0:0:
276,5,278132,2,0,B|249:-7|249:-7|179:11,1,99.0000030212403,2|4,2:2|0:3,0:0:0:0:
80,178,278432,1,2,0:0:0:0:
242,109,278582,1,10,0:0:0:0:
0,9,278732,1,2,0:0:0:0:
216,249,278882,6,0,B|313:280|296:202|398:229,1,188.999994232178,2|0,1:2|0:0,0:0:0:0:
498,183,279182,2,0,B|519:226|519:226|501:272,1,99.0000030212403,10|0,0:0|0:0,0:0:0:0:
240,97,279482,1,8,0:3:0:0:
410,9,279632,1,2,0:3:0:0:
278,202,279782,2,0,P|230:191|182:182,1,99.0000030212403,10|0,0:0|0:0,0:0:0:0:
84,381,280082,5,2,1:2:0:0:
64,281,280232,1,2,0:1:0:0:
393,171,280382,5,8,2:2:0:0:
373,272,280532,1,2,0:3:0:0:
488,241,280682,5,6,0:3:0:0:
202,180,280832,1,2,0:2:0:0:
459,365,280982,1,10,0:0:0:0:
244,72,281132,5,8,0:0:0:0:
235,75,281207,1,8,0:0:0:0:
225,77,281282,2,0,L|128:97,1,99.0000030212403,6|0,1:2|0:0,0:0:0:0:
85,323,281582,1,10,0:0:0:0:
205,192,281732,1,2,0:0:0:0:
7,275,281882,2,0,P|-14:318|0:364,1,99.0000030212403,8|0,0:3|0:0,0:0:0:0:
345,296,282182,6,0,P|330:223|313:150,1,148.50000453186,10|0,2:2|0:0,0:0:0:0:
336,136,282482,1,0,1:2:0:0:
162,0,282632,1,2,0:0:0:0:
424,71,282782,2,0,B|476:123|476:123|448:191,1,148.50000453186,10|0,0:2|0:0,0:0:0:0:
444,205,283082,1,2,1:2:0:0:
229,384,283307,1,0,1:2:0:0:
228,376,283382,2,0,B|218:332|218:332|211:330|211:330|202:284,1,99.0000030212403,10|2,2:2|0:2,0:2:0:0:
51,62,283682,6,0,P|94:33|146:42,1,99.0000030212403,4|0,1:2|0:0,0:0:0:0:
90,218,283907,6,0,P|43:193|25:144,1,99.0000030212403,10|0,0:0|0:0,0:0:0:0:
206,105,284132,6,0,P|208:157|174:197,1,99.0000030212403,10|2,0:0|1:2,0:0:0:0:
325,6,284507,5,8,0:0:0:0:
325,6,284582,1,2,1:2:0:0:
116,128,284732,1,10,0:0:0:0:
266,268,284882,5,6,1:2:0:0:
309,290,284957,1,8,0:0:0:0:
356,279,285032,1,8,0:0:0:0:
386,241,285107,1,8,0:0:0:0:
378,210,285182,5,8,1:2:0:0:
408,172,285257,1,8,0:0:0:0:
455,161,285332,1,10,0:2:0:0:
498,183,285407,1,8,0:0:0:0:
507,208,285482,5,10,1:2:0:0:
439,250,285557,1,8,0:0:0:0:
361,229,285632,1,8,0:3:0:0:
324,158,285707,1,8,0:0:0:0:
335,131,285782,5,8,0:0:0:0:
298,60,285857,1,8,0:0:0:0:
220,39,285932,1,10,0:0:0:0:
152,81,286007,1,8,0:0:0:0:
133,159,286082,6,0,P|104:150|68:141,1,58.4999973220826,14|8,0:0|0:0,0:0:0:0:
66,120,286232,6,0,P|94:128|131:138,1,58.4999973220826,2|0,1:3|1:0,0:0:0:0:
248,234,286382,6,0,B|143:253|143:253|136:260|136:260|20:281,1,229.500004377365,14|0,0:0|0:0,0:0:0:0:
3,266,286682,5,8,0:3:0:0:
230,139,286832,1,2,0:0:0:0:
144,358,286982,1,8,0:0:0:0:
72,174,287132,1,2,0:3:0:0:
265,335,287282,6,0,B|355:319|323:372|411:361,1,148.50000453186,2|0,1:2|0:0,0:0:0:0:
437,353,287582,1,10,0:0:0:0:
338,143,287732,2,0,B|305:183|305:183|323:236,1,99.0000030212403,2|4,0:0|0:3,0:0:0:0:
467,137,288032,1,2,0:3:0:0:
295,16,288182,2,0,P|244:27|187:39,1,99.0000030212403,8|0,0:0|0:0,0:0:0:0:
31,169,288482,5,2,1:2:0:0:
166,253,288632,1,2,0:0:0:0:
270,113,288782,1,10,0:0:0:0:
75,75,288932,5,2,0:3:0:0:
261,215,289082,1,8,0:3:0:0:
191,12,289232,1,2,0:0:0:0:
4,162,289382,2,0,P|50:174|105:189,1,99.0000030212403,10|0,0:0|0:0,0:0:0:0:
283,310,289682,6,0,B|226:321|226:321|204:346|204:346|137:361,1,148.50000453186,2|0,1:2|0:0,0:0:0:0:
122,346,289982,1,10,0:0:0:0:
396,227,290132,2,0,B|435:239|435:239|446:252|446:252|496:267,1,99.0000030212403,2|4,0:0|0:3,0:0:0:0:
301,51,290432,2,0,L|288:117,1,49.5000015106202,2|2,0:0|0:0,0:0:0:0:
310,129,290582,2,0,B|350:89|350:89|195:120,1,198.000006042481,8|0,0:0|1:0,0:0:0:0:
16,155,291032,5,2,0:0:0:0:
178,250,291182,1,8,0:0:0:0:
138,24,291332,2,0,B|105:65|105:65|117:109,1,99.0000030212403,2|8,0:1|0:3,0:0:0:0:
289,214,291632,2,0,B|322:173|322:173|309:128,1,99.0000030212403,2|8,0:3|0:0,0:0:0:0:
138,24,291932,1,2,0:0:0:0:
252,327,292082,6,0,P|298:318|353:309,1,99.0000030212403,2|2,1:2|0:0,0:0:0:0:
470,115,292382,1,10,0:0:0:0:
289,214,292532,1,2,0:0:0:0:
512,344,292682,1,4,0:3:0:0:
389,203,292832,1,2,0:3:0:0:
242,356,292982,2,0,B|199:313|152:330|152:330|147:338|147:338|117:383|58:378,1,198.000006042481,10|0,0:0|1:0,0:0:0:0:
198,115,293432,5,2,0:0:0:0:
8,212,293582,1,10,0:0:0:0:
139,296,293732,2,0,P|124:237|113:192,1,99.0000030212403,2|8,0:0|0:3,0:0:0:0:
362,87,294032,5,4,0:3:0:0:
217,235,294182,1,8,0:0:0:0:
134,23,294332,1,2,0:0:0:0:
346,213,294482,5,14,0:0:0:0:
50,101,294632,1,2,1:2:0:0:
258,13,294782,1,10,0:0:0:0:
31,296,294932,1,4,0:3:0:0:
240,188,295082,5,10,0:0:0:0:
234,166,295182,2,0,P|225:132|211:77,1,66.0000020141602,8|8,0:0|0:0,0:0:0:0:
473,279,295382,5,0,1:0:0:0:
422,342,295482,5,8,0:3:0:0:
344,320,295582,5,4,0:3:0:0:
319,333,295682,6,0,P|328:283|340:222,1,99.0000030212403,4|0,1:2|1:0,0:0:0:0:
413,133,295982,1,4,0:3:0:0:
214,231,296132,1,8,0:3:0:0:
422,342,296282,1,10,0:0:0:0:
270,159,296432,6,0,B|224:143|194:185|194:185|189:203|189:203|161:246|107:233,1,188.999994232178,6|0,1:2|0:0,0:0:0:0:
90,219,296732,1,10,0:0:0:0:
19,66,296882,2,0,P|66:78|123:94,1,99.0000030212403,2|8,1:2|0:0,0:0:0:0:
320,23,297182,5,4,0:3:0:0:
114,91,297332,1,8,0:3:0:0:
263,233,297482,2,0,L|253:175,1,49.5000015106202,8|0,0:0|0:0,0:0:0:0:
237,96,297632,6,0,B|294:80|320:23|320:23|314:101|346:141|382:148,1,251.999992309571,6|0,1:2|0:0,0:0:0:0:
512,297,298082,5,4,1:2:0:0:
352,229,298232,1,0,1:0:0:0:
248,359,298382,2,0,L|303:374,1,49.5000015106202,4|0,0:3|0:0,0:0:0:0:
319,358,298532,2,0,L|271:344,1,49.5000015106202,8|0,0:3|0:0,0:0:0:0:
149,384,298682,5,10,0:0:0:0:
43,184,298832,2,0,B|22:162|22:162|64:151|102:142|102:142|172:162|167:234|128:278,1,251.999992309571,6|2,1:2|0:0,0:0:0:0:
291,128,299282,5,2,1:2:0:0:
145,252,299432,1,8,0:0:0:0:
38,57,299582,1,2,1:2:0:0:
166,140,299732,1,4,0:3:0:0:
43,291,299882,1,10,0:0:0:0:
41,280,299957,1,0,1:0:0:0:
39,270,300032,2,0,L|28:211,1,49.5000015106202,8|4,0:3|0:3,0:0:0:0:
248,359,300182,1,12,0:0:0:0:
470,88,300482,5,6,1:2:0:0:
236,210,300632,1,4,0:3:0:0:
362,29,300782,1,10,0:0:0:0:
461,286,300932,1,2,1:2:0:0:
249,100,301082,5,8,0:0:0:0:
23,339,301232,1,8,0:0:0:0:
64,359,301307,1,8,0:0:0:0:
107,345,301382,1,8,0:0:0:0:
128,304,301457,1,8,0:0:0:0:
149,263,301532,1,8,0:0:0:0:
192,248,301607,1,8,0:0:0:0:
233,269,301682,6,0,L|245:339,1,49.5000015106202,6|0,1:2|0:0,0:0:0:0:
245,248,301982,6,0,L|257:318,1,49.5000015106202,2|0,0:3|0:0,0:0:0:0:
466,192,302282,5,6,1:2:0:0:
423,214,302357,1,0,1:0:0:0:
376,203,302432,1,8,0:0:0:0:
346,165,302507,1,8,0:0:0:0:
354,134,302582,5,8,1:2:0:0:
324,96,302657,1,8,0:0:0:0:
277,85,302732,1,10,0:2:0:0:
234,107,302807,1,8,0:0:0:0:
133,152,302882,6,0,B|164:42|164:42|144:-4|97:20,1,188.999994232178,6|8,1:2|0:0,0:0:0:0:
23,198,303332,2,0,B|2:156|2:156|19:111,1,94.499997116089,2|8,0:0|0:3,0:0:0:0:
222,230,303632,1,2,0:0:0:0:
92,368,303782,2,0,P|44:355|-1:348,1,94.499997116089,10|0,0:0|0:0,0:0:0:0:
273,368,304082,5,2,1:2:0:0:
116,259,304232,1,2,0:0:0:0:
309,163,304382,1,8,0:0:0:0:
236,259,304532,1,2,0:3:0:0:
285,67,304682,2,0,P|332:77|377:86,1,94.499997116089,4|0,0:3|0:0,0:0:0:0:
147,163,304982,2,0,P|100:172|54:182,1,94.499997116089,10|0,2:2|0:0,0:0:0:0:
346,328,305282,6,0,B|380:290|433:302|433:302|456:356|510:351,1,188.999994232178,2|8,1:2|0:0,0:0:0:0:
301,170,305732,1,2,0:0:0:0:
467,87,305882,2,0,P|457:132|447:179,1,94.499997116089,8|0,0:3|0:0,0:0:0:0:
342,48,306182,2,0,B|315:36|315:36|245:54,1,94.499997116089,8|0,2:2|0:0,0:0:0:0:
143,379,306482,5,2,1:2:0:0:
301,155,306632,1,2,0:2:0:0:
121,260,306782,5,10,2:2:0:0:
323,274,306932,1,2,0:0:0:0:
99,141,307082,2,0,L|5:160,1,94.499997116089,2|4,1:2|2:3,0:0:0:0:
326,13,307382,1,10,0:0:0:0:
222,267,307532,1,0,1:0:0:0:
222,267,307607,1,0,1:0:0:0:
222,267,307682,5,14,0:0:0:0:
416,196,307832,1,2,1:3:0:0:
318,8,307982,5,8,2:2:0:0:
512,79,308132,1,4,0:3:0:0:
318,313,308282,5,10,2:2:0:0:
512,384,308432,1,0,1:2:0:0:
265,169,308582,1,8,0:0:0:0:
56,340,308732,6,0,B|99:312|140:346|140:346|145:356|145:356|183:390|232:374,1,195.750005973816,6|0,1:2|1:0,0:0:0:0:
412,267,309032,6,8,B|431:301|431:301|420:335,1,74.2500007081032,8|0,0:0|0:0,0:0:0:0:
262,221,309182,6,0,B|269:185|269:185|266:179|266:179|273:148,1,74.2500007081032,10|0,0:0|0:0,0:0:0:0:
453,91,309332,6,0,B|496:67|496:67|352:37,1,195.750005973816,4|0,1:2|1:0,0:0:0:0:
157,77,309632,6,0,P|141:43|151:8,1,74.2500007081032,10|0,0:0|0:0,0:0:0:0:
368,171,309782,6,0,P|390:164|366:168,1,74.2500007081032,8|0,0:0|0:0,0:0:0:0:
181,306,309932,6,0,P|170:340|186:374,1,74.2500007081032,10|2,0:0|0:3,0:0:0:0:
