osu file format v14

[General]
AudioFilename: audio.mp3
AudioLeadIn: 0
PreviewTime: 59225
Countdown: 0
SampleSet: Soft
StackLeniency: 0.7
Mode: 2
LetterboxInBreaks: 0
WidescreenStoryboard: 0

[Editor]
DistanceSpacing: 1.2
BeatDivisor: 4
GridSize: 32
TimelineZoom: 2.7

[Metadata]
Title:1,000,000 TIMES
TitleUnicode:1,000,000 TIMES
Artist:MY FIRST STORY feat. chelly (EGOIST)
ArtistUnicode:MY FIRST STORY feat. chelly (EGOIST)
Creator:Ascendance
Version:ULTIMATE
Source:DUEL MASTERS PLAY’S
Tags:デュエル・マスターズ プレイス 1000000 collab MFS Myfirststory opening video game mobile japanese rock j-rock jrock million rocma no492_shaymin _asriel secre chickenbible radar greaper kowari
BeatmapID:2520124
BeatmapSetID:1210535

[Difficulty]
HPDrainRate:7
CircleSize:4.2
OverallDifficulty:9.7
ApproachRate:9.7
SliderMultiplier:2
SliderTickRate:2

[Events]
//Background and Video events
0,0,"1.jpg",0,0
//Break Periods
2,7450,8705
2,9850,10941
//Storyboard Layer 0 (Background)
//Storyboard Layer 1 (Fail)
//Storyboard Layer 2 (Pass)
//Storyboard Layer 3 (Foreground)
//Storyboard Layer 4 (Overlay)
//Storyboard Sound Samples

[TimingPoints]
50,300,4,2,1,80,1,0
4850,-100,4,2,1,80,0,0
6050,-100,4,2,1,70,0,0
7980,292.682926829268,4,2,1,70,1,0
9004,393.44262295082,4,2,1,70,1,0
9200,300,4,2,1,70,1,0
10380,300,4,2,1,70,1,0
10700,285.714285714286,4,2,1,70,1,0
11450,300,4,2,1,70,1,0
11575,-100,4,2,1,65,0,0
12050,300,4,2,44,70,1,0
12050,-100,4,2,44,70,0,0
14450,-100,4,2,44,70,0,0
15050,-100,4,2,1,70,0,0
16250,-100,4,2,1,70,0,0
16850,-83.3333333333333,4,2,1,75,0,0
26450,-100,4,2,1,65,0,0
35000,-100,4,2,1,70,0,0
36050,-100,4,2,1,70,0,0
56150,-100,4,2,1,55,0,0
57650,-100,4,2,1,70,0,0
59300,-100,4,2,1,60,0,0
59450,-100,4,2,1,60,0,0
59750,-100,4,2,1,70,0,0
60050,-83.3333333333333,4,2,1,80,0,1
79250,-100,4,2,1,75,0,0
84050,-100,4,2,1,80,0,0
85250,-100,4,2,1,65,0,0
85850,-100,4,2,1,80,0,0
86450,-100,4,2,1,80,0,0
87650,-100,4,2,1,80,0,0
87725,-100,4,2,1,50,0,0

[Colours]
Combo1 : 255,128,192
Combo2 : 169,201,209
Combo3 : 211,93,114
Combo4 : 44,175,186

[HitObjects]
256,192,4850,12,0,5900,0:0:0:0:
136,242,6050,6,0,L|79:237,1,50,12|0,0:2|0:0,0:0:0:0:
288,182,6200,2,0,L|340:185,1,50,8|8,0:3|0:3,0:0:0:0:
288,182,6350,2,0,L|201:179,1,50,4|4,0:3|0:3,0:0:0:0:
424,306,6500,2,0,P|469:256|416:201,1,150,12|0,0:2|0:0,0:0:0:0:
212,158,6800,2,0,L|155:157,1,50,8|0,0:2|0:0,0:0:0:0:
356,133,6950,2,0,L|440:133,1,50,8|0,0:2|0:0,0:0:0:0:
193,167,7100,2,0,L|133:167,1,50,8|0,0:2|0:0,0:0:0:0:
413,204,7250,5,12,0:2:0:0:
180,262,9200,6,0,L|121:263,1,50,8|0,0:2|0:0,0:0:0:0:
352,218,9350,2,0,L|435:218,1,50,8|0,0:2|0:0,0:0:0:0:
172,268,9500,2,0,L|114:268,1,50,8|0,0:2|0:0,0:0:0:0:
381,241,9650,5,12,0:2:0:0:
260,246,11450,6,0,L|183:245,1,50
260,246,11600,2,0,L|320:245,1,50
85,333,11750,2,0,P|38:283|91:225,1,150,0|0,0:0|0:2,0:0:0:0:
291,208,12050,6,0,L|431:208,1,100,12|8,3:2|0:2,0:0:0:0:
334,187,12275,1,8,0:2:0:0:
122,260,12350,2,0,L|-18:260,1,100,8|8,3:2|0:2,0:0:0:0:
79,239,12575,1,8,0:2:0:0:
266,332,12650,1,8,3:2:0:0:
319,318,12725,1,0,0:0:0:0:
331,271,12800,1,8,0:2:0:0:
289,238,12875,1,8,0:2:0:0:
119,239,12950,1,8,3:2:0:0:
61,229,13025,1,8,0:2:0:0:
49,182,13100,1,8,0:2:0:0:
95,145,13175,1,8,0:2:0:0:
281,139,13250,6,0,L|282:81,1,50,8|8,3:2|0:2,0:0:0:0:
208,189,13400,2,0,L|206:131,1,50,8|8,0:2|0:2,0:0:0:0:
367,259,13550,2,0,L|368:201,1,50,8|8,3:2|0:2,0:0:0:0:
294,307,13700,2,0,L|292:249,1,50,8|8,0:2|0:2,0:0:0:0:
471,273,13850,6,0,L|387:255,1,50,8|8,3:2|0:2,0:0:0:0:
220,185,14000,2,0,L|156:172,1,50,8|8,0:2|0:2,0:0:0:0:
220,185,14150,2,0,L|295:175,1,50,8|8,3:2|0:2,0:0:0:0:
66,237,14300,2,0,L|7:226,1,50,8|8,0:2|0:2,0:0:0:0:
221,347,14450,5,12,3:2:0:0:
271,327,14525,1,8,0:2:0:0:
281,280,14600,1,8,0:2:0:0:
242,239,14675,1,8,0:2:0:0:
50,202,14750,2,0,L|109:193,1,50,8|8,3:2|0:2,0:0:0:0:
283,165,14900,2,0,L|346:157,1,50,8|8,0:2|0:2,0:0:0:0:
100,74,15050,6,0,L|41:74,1,50,8|8,3:3|0:3,0:0:0:0:
100,74,15200,2,0,L|164:73,1,50,8|8,0:3|0:3,0:0:0:0:
100,74,15350,2,0,L|42:75,1,50,4|4,3:3|0:3,0:0:0:0:
100,74,15500,2,0,L|165:72,1,50,4|4,0:3|0:3,0:0:0:0:
344,132,15650,6,0,L|488:113,1,100,4|2,0:2|0:2,0:0:0:0:
177,167,15950,1,2,0:2:0:0:
302,222,16100,1,2,0:2:0:0:
47,337,16250,2,0,L|222:313,1,150,2|0,0:2|0:2,0:0:0:0:
406,338,16550,2,0,L|515:329,1,100,8|0,0:2|0:0,0:0:0:0:
194,99,16850,5,6,3:2:0:0:
310,51,17000,2,0,L|309:178,1,119.999996337891,0|10,0:2|0:2,0:0:0:0:
51,217,17300,2,0,L|186:235,2,119.999996337891,2|0|0,0:2|3:2|0:2,0:0:0:0:
317,300,17750,1,10,0:2:0:0:
197,336,17900,1,2,0:2:0:0:
467,214,18050,6,0,L|328:188,2,119.999996337891,2|0|10,3:2|0:2|0:2,0:0:0:0:
179,217,18500,2,0,L|178:87,1,119.999996337891,2|0,0:2|3:2,0:0:0:0:
306,79,18800,1,0,0:2:0:0:
24,43,18950,2,0,L|146:43,1,119.999996337891,10|0,0:2|0:2,0:0:0:0:
435,41,19250,5,6,3:2:0:0:
291,39,19400,1,0,0:2:0:0:
144,43,19550,1,10,0:2:0:0:
467,145,19700,2,0,L|470:264,1,119.999996337891,2|0,0:2|3:2,0:0:0:0:
328,294,20000,1,0,0:2:0:0:
37,187,20150,2,0,L|37:321,1,119.999996337891,10|2,0:2|0:2,0:0:0:0:
311,131,20450,6,0,L|173:131,2,119.999996337891,2|0|10,3:2|0:2|0:2,0:0:0:0:
37,38,20900,2,0,L|175:38,2,119.999996337891,2|0|0,0:2|3:2|0:2,0:0:0:0:
291,104,21350,2,0,L|415:103,1,119.999996337891,10|0,0:2|0:2,0:0:0:0:
56,173,21650,6,0,L|56:306,1,119.999996337891,6|0,3:2|0:2,0:0:0:0:
199,299,21950,1,10,0:2:0:0:
485,306,22100,2,0,L|355:306,2,119.999996337891,2|0|0,0:2|3:2|0:2,0:0:0:0:
194,202,22550,2,0,L|193:333,1,119.999996337891,10|2,0:2|0:2,0:0:0:0:
478,84,22850,5,2,3:2:0:0:
334,89,23000,1,0,0:2:0:0:
478,84,23150,1,10,0:2:0:0:
145,204,23300,1,2,0:2:0:0:
288,217,23450,1,0,3:2:0:0:
430,234,23600,1,0,0:2:0:0:
128,224,23750,2,0,L|121:345,1,119.999996337891,10|0,0:2|0:2,0:0:0:0:
420,62,24050,5,6,3:2:0:0:
277,75,24200,1,2,0:2:0:0:
135,92,24350,1,10,0:2:0:0:
468,223,24500,2,0,L|305:195,2,119.999996337891,2|2|0,0:2|3:2|0:2,0:0:0:0:
188,339,24950,2,0,L|314:325,1,119.999996337891,10|0,0:2|0:2,0:0:0:0:
39,237,25250,6,0,L|123:226,1,59.9999981689454,8|8,0:3|0:3,0:0:0:0:
279,199,25400,2,0,L|344:191,1,59.9999981689454,4|4,0:3|0:3,0:0:0:0:
131,149,25550,2,0,L|59:155,1,59.9999981689454,8|0,0:2|0:0,0:0:0:0:
314,286,25700,2,0,P|371:231|311:160,1,179.999994506836,6|0,3:2|0:0,0:0:0:0:
81,150,26000,2,0,L|236:150,2,119.999996337891,8|8|8,0:2|0:2|0:2,0:0:0:0:
356,334,26450,6,0,P|419:280|351:200,1,200,6|10,3:2|0:2,0:0:0:0:
224,136,26900,2,0,L|217:248,1,100,2|0,0:2|3:2,0:0:0:0:
356,103,27200,1,10,0:2:0:0:
218,51,27350,1,2,3:2:0:0:
356,103,27500,6,0,L|114:120,1,200
306,277,27950,2,0,L|306:167,1,100,8|0,0:2|0:0,0:0:0:0:
164,322,28250,1,0,3:2:0:0:
77,282,28400,1,8,0:2:0:0:
70,187,28550,1,2,3:2:0:0:
150,135,28700,1,2,0:2:0:0:
391,250,28850,6,0,P|457:182|384:117,1,200,2|10,3:2|0:2,0:0:0:0:
256,44,29300,2,0,L|256:152,1,100,2|0,0:2|3:2,0:0:0:0:
114,128,29600,2,0,L|113:235,1,100,10|2,0:2|3:2,0:0:0:0:
266,317,29900,6,0,P|331:253|255:182,1,200
141,180,30350,1,8,0:2:0:0:
265,179,30500,1,0,0:0:0:0:
141,180,30650,1,0,3:2:0:0:
265,179,30800,1,8,0:2:0:0:
141,180,30950,1,0,3:2:0:0:
265,179,31100,2,0,L|326:179,1,50,10|8,0:2|0:2,0:0:0:0:
81,324,31250,6,0,P|12:265|70:186,1,200,2|10,3:2|0:2,0:0:0:0:
210,113,31700,2,0,L|212:227,1,100,2|0,0:2|3:2,0:0:0:0:
75,31,32000,2,0,L|75:142,1,100,10|2,0:2|3:2,0:0:0:0:
215,247,32300,6,0,P|280:177|201:113,1,200
86,98,32750,2,0,L|206:82,1,100,8|0,0:2|0:0,0:0:0:0:
300,225,33050,2,0,L|196:212,1,100,0|8,3:2|0:2,0:0:0:0:
49,347,33350,2,0,L|49:190,1,150,2|0,3:2|0:0,0:0:0:0:
240,351,33650,6,0,P|314:295|247:209,1,200,2|8,3:2|0:2,0:0:0:0:
147,206,34100,1,2,0:2:0:0:
282,100,34250,2,0,L|282:214,1,100,2|8,3:2|0:2,0:0:0:0:
160,77,34550,2,0,L|41:77,1,100,0|2,3:2|0:2,0:0:0:0:
176,62,34850,5,2,3:2:0:0:
460,42,35000,2,0,L|460:157,1,100,12|2,0:2|3:2,0:0:0:0:
151,190,35300,2,0,L|34:189,1,100,10|0,0:2|3:2,0:0:0:0:
316,303,35600,2,0,L|382:302,1,50,10|8,0:2|0:2,0:0:0:0:
150,222,35750,2,0,L|85:222,1,50,10|8,0:2|0:2,0:0:0:0:
329,291,35900,2,0,L|395:290,1,50,8|8,0:2|0:2,0:0:0:0:
86,355,36050,6,0,P|24:290|91:219,1,200,4|8,3:2|0:2,0:0:0:0:
345,209,36500,1,2,0:2:0:0:
226,140,36650,2,0,L|226:255,1,100,2|10,3:2|0:2,0:0:0:0:
364,119,36950,2,0,L|466:119,1,100,2|10,3:2|0:2,0:0:0:0:
135,25,37250,6,0,L|365:26,1,200,2|10,3:2|0:2,0:0:0:0:
196,208,37700,2,0,L|193:102,1,100,2|0,0:2|3:2,0:0:0:0:
344,208,38000,1,2,0:2:0:0:
201,227,38150,2,0,L|88:227,1,100,10|8,0:2|0:2,0:0:0:0:
46,226,38375,1,8,0:2:0:0:
287,309,38450,6,0,L|399:310,1,100,0|0,3:2|0:0,0:0:0:0:
236,189,38750,2,0,L|235:303,1,100,8|2,0:2|0:2,0:0:0:0:
361,167,39050,1,2,3:2:0:0:
71,119,39200,1,8,0:2:0:0:
196,89,39350,2,0,L|81:74,1,100,2|10,3:2|0:2,0:0:0:0:
370,271,39650,6,0,L|159:288,1,200,2|10,3:2|0:2,0:0:0:0:
283,143,40100,2,0,L|294:253,1,100,2|0,0:2|3:2,0:0:0:0:
58,118,40400,2,0,L|143:108,1,50,10|8,0:2|0:2,0:0:0:0:
289,125,40550,2,0,L|370:117,1,50,8|8,0:3|0:3,0:0:0:0:
143,173,40700,2,0,L|72:182,1,50,4|4,0:3|0:3,0:0:0:0:
399,321,40850,6,0,P|464:259|399:192,1,200,4|8,3:2|0:2,0:0:0:0:
277,189,41300,1,0,0:2:0:0:
397,190,41450,1,2,3:2:0:0:
145,95,41600,1,10,0:2:0:0:
254,95,41750,1,2,3:2:0:0:
363,93,41900,1,10,0:2:0:0:
76,323,42050,6,0,P|14:256|85:187,1,200,2|10,3:2|0:2,0:0:0:0:
212,187,42500,1,2,0:2:0:0:
87,187,42650,1,0,3:2:0:0:
345,238,42800,2,0,L|480:238,2,100,2|10|10,0:2|0:2|0:2,0:0:0:0:
290,237,43175,1,8,0:2:0:0:
29,336,43250,6,0,L|241:335,1,200,2|8,3:2|0:2,0:0:0:0:
338,336,43700,1,2,0:2:0:0:
447,339,43850,1,2,3:2:0:0:
156,170,44000,2,0,L|157:295,1,100,10|2,0:2|3:2,0:0:0:0:
406,138,44300,1,14,0:2:0:0:
135,139,44450,6,0,L|23:139,1,100,2|8,3:2|0:2,0:0:0:0:
342,238,44750,1,2,3:2:0:0:
95,235,44900,1,12,0:2:0:0:
359,237,45050,2,0,L|465:237,1,100,2|0,3:2|0:0,0:0:0:0:
194,133,45350,2,0,L|317:133,1,100,8|10,0:2|0:2,0:0:0:0:
14,88,45650,6,0,L|13:196,1,100,6|2,3:2|3:2,0:0:0:0:
256,60,45950,2,0,L|123:53,1,100,2|2,3:2|3:2,0:0:0:0:
374,166,46250,1,14,0:2:0:0:
102,158,46400,1,2,3:2:0:0:
353,170,46550,2,0,L|483:179,1,100,2|10,3:2|0:2,0:0:0:0:
335,197,46850,5,0,0:0:0:0:
51,201,47000,1,14,0:2:0:0:
348,206,47150,1,10,0:2:0:0:
227,206,47300,2,0,L|156:206,1,50,0|8,0:2|0:2,0:0:0:0:
438,321,47450,2,0,L|437:198,1,100,2|8,3:2|0:2,0:0:0:0:
185,206,47750,1,8,0:2:0:0:
456,207,47900,1,8,0:2:0:0:
167,210,48050,6,0,L|166:325,1,100,6|2,3:2|3:2,0:0:0:0:
291,128,48350,2,0,L|291:254,1,100,2|2,3:2|3:2,0:0:0:0:
35,98,48650,1,14,0:2:0:0:
157,97,48800,1,2,3:2:0:0:
35,98,48950,1,2,3:2:0:0:
331,98,49100,1,10,0:2:0:0:
213,92,49250,6,0,L|208:201,1,100,0|12,0:0|0:2,0:0:0:0:
481,15,49550,2,0,L|486:119,1,100,10|0,0:2|0:0,0:0:0:0:
432,128,49775,1,0,0:0:0:0:
173,295,49850,1,10,0:2:0:0:
95,281,49950,1,8,0:2:0:0:
74,215,50050,1,8,0:3:0:0:
242,180,50150,1,8,0:3:0:0:
252,113,50250,1,4,0:3:0:0:
192,67,50350,1,4,0:3:0:0:
407,29,50450,6,0,L|407:151,1,100,6|2,3:2|3:2,0:0:0:0:
149,93,50750,2,0,L|44:93,1,100,2|2,3:2|3:2,0:0:0:0:
176,93,51050,1,2,0:2:0:0:
438,92,51200,1,14,0:2:0:0:
165,93,51350,1,10,0:2:0:0:
445,92,51500,1,2,3:2:0:0:
439,203,51650,5,2,0:2:0:0:
135,224,51800,2,0,L|76:223,1,50,8|0,0:2|0:0,0:0:0:0:
135,224,51950,2,0,L|214:225,1,50,10|8,0:2|0:3,0:0:0:0:
135,224,52100,2,0,L|69:223,1,50,4|0,0:3|3:2,0:0:0:0:
292,324,52250,1,10,0:2:0:0:
337,299,52325,1,0,0:0:0:0:
341,251,52400,1,4,3:2:0:0:
301,219,52475,1,0,0:0:0:0:
102,198,52550,2,0,L|158:193,1,50
399,204,52700,6,0,P|470:147|404:57,1,200,6|0,3:2|3:2,0:0:0:0:
180,142,53150,2,0,L|180:245,1,100,10|2,0:2|0:2,0:0:0:0:
234,251,53375,1,0,3:2:0:0:
288,258,53450,1,0,3:2:0:0:
150,309,53600,1,0,0:2:0:0:
490,256,53750,2,0,L|488:359,1,100,10|0,0:2|0:2,0:0:0:0:
360,168,54050,6,0,L|356:276,1,100,2|0,3:2|0:0,0:0:0:0:
136,129,54350,1,14,0:2:0:0:
372,109,54500,1,2,3:2:0:0:
233,52,54650,2,0,L|178:44,1,50,8|8,0:2|0:2,0:0:0:0:
233,52,54800,2,0,L|305:61,1,50,8|8,0:3|0:3,0:0:0:0:
89,119,54950,2,0,L|31:123,1,50,10|8,0:2|0:2,0:0:0:0:
295,150,55100,2,0,L|351:144,1,50,8|8,0:2|0:2,0:0:0:0:
116,335,55250,6,0,P|21:269|138:149,1,300,2|0,0:2|0:0,0:0:0:0:
403,151,56150,2,0,L|199:122,1,200
349,264,56750,2,0,L|453:247,1,100
220,143,57200,1,0,0:0:0:0:
473,51,57350,2,0,L|478:161,1,100
145,57,57650,6,0,L|70:49,1,50,12|0,0:2|0:0,0:0:0:0:
299,242,57800,2,0,L|306:170,1,50,8|8,0:3|0:3,0:0:0:0:
220,290,57950,2,0,L|224:227,1,50,4|4,0:3|0:3,0:0:0:0:
415,306,58100,6,0,L|482:301,1,50,12|0,0:2|0:0,0:0:0:0:
234,229,58250,2,0,L|228:172,1,50,8|8,0:3|0:3,0:0:0:0:
314,281,58400,2,0,L|306:219,1,50,4|4,0:3|0:3,0:0:0:0:
121,298,58550,2,0,L|58:292,1,50,8|0,0:2|0:0,0:0:0:0:
380,214,58700,5,4,3:2:0:0:
111,208,59300,6,0,L|54:197,1,50,2|2,0:2|0:2,0:0:0:0:
377,329,59450,2,0,L|372:272,1,50,2|0,0:2|0:0,0:0:0:0:
283,238,59600,2,0,L|241:201,1,50,2|0,0:2|0:0,0:0:0:0:
158,180,59750,2,0,L|85:187,1,50,2|0,0:2|0:0,0:0:0:0:
320,102,59900,2,0,L|388:90,1,50,2|0,0:2|0:0,0:0:0:0:
106,346,60050,6,0,P|48:289|115:215,1,179.999994506836,6|0,3:2|0:0,0:0:0:0:
327,137,60350,2,0,L|327:259,1,119.999996337891,8|2,0:2|0:2,0:0:0:0:
56,54,60650,2,0,L|56:194,1,119.999996337891,2|2,3:2|0:2,0:0:0:0:
319,46,60950,1,10,0:2:0:0:
81,47,61100,1,2,0:2:0:0:
344,43,61250,6,0,L|474:43,2,119.999996337891,6|0|10,3:2|0:0|0:2,0:0:0:0:
83,183,61700,2,0,L|333:182,1,239.999992675781,2|0,0:2|0:2,0:0:0:0:
17,210,62150,2,0,L|17:336,1,119.999996337891,10|2,0:2|0:2,0:0:0:0:
291,293,62450,6,0,L|416:293,1,119.999996337891,6|0,3:2|0:2,0:0:0:0:
240,357,62750,2,0,L|235:229,1,119.999996337891,10|0,0:2|0:2,0:0:0:0:
402,302,63050,2,0,P|465:243|388:182,1,179.999994506836,2|0,3:2|0:0,0:0:0:0:
133,25,63350,2,0,L|-3:26,1,119.999996337891,10|0,0:2|0:0,0:0:0:0:
299,100,63650,6,0,L|423:100,1,119.999996337891,2|0,3:2|0:2,0:0:0:0:
95,246,63950,1,8,0:2:0:0:
226,167,64100,1,0,0:2:0:0:
226,226,64175,1,0,0:0:0:0:
226,286,64250,1,0,3:2:0:0:
95,246,64400,1,2,0:2:0:0:
482,217,64550,2,0,L|333:217,1,119.999996337891,10|2,0:2|0:2,0:0:0:0:
51,217,64850,5,6,3:2:0:0:
192,214,65000,1,0,0:0:0:0:
51,217,65150,1,10,0:2:0:0:
192,214,65300,1,2,0:2:0:0:
51,217,65450,2,0,L|51:348,1,119.999996337891,2|0,3:2|0:2,0:0:0:0:
461,217,65750,5,10,0:2:0:0:
192,214,65900,1,2,0:2:0:0:
333,217,66050,1,2,3:2:0:0:
192,214,66200,1,2,0:2:0:0:
333,217,66350,2,0,L|456:217,1,119.999996337891,10|0,0:2|0:2,0:0:0:0:
199,123,66650,6,0,L|69:109,1,119.999996337891,2|0,3:2|0:2,0:0:0:0:
232,261,66875,2,0,L|366:244,1,119.999996337891,2|0,0:2|0:0,0:0:0:0:
127,345,67100,2,0,L|57:338,1,59.9999981689454,2|0,0:2|0:0,0:0:0:0:
339,274,67250,6,0,L|484:294,1,119.999996337891,2|0,3:2|0:2,0:0:0:0:
294,135,67475,2,0,L|150:147,1,119.999996337891,10|0,0:2|0:0,0:0:0:0:
29,35,67700,2,0,L|132:47,1,59.9999981689454,10|0,0:2|0:0,0:0:0:0:
230,18,67850,6,0,L|357:32,1,119.999996337891,2|0,3:2|0:0,0:0:0:0:
278,46,68075,1,10,0:2:0:0:
93,122,68150,2,0,L|158:114,1,59.9999981689454,2|0,3:2|0:0,0:0:0:0:
352,156,68300,2,0,L|429:147,1,59.9999981689454,10|0,0:2|0:0,0:0:0:0:
211,263,68450,6,0,L|61:246,1,119.999996337891,6|0,3:2|0:2,0:0:0:0:
428,197,68750,2,0,L|429:339,1,119.999996337891,8|2,0:2|0:2,0:0:0:0:
164,152,69050,2,0,L|88:147,1,59.9999981689454,10|8,0:2|0:2,0:0:0:0:
358,121,69200,2,0,L|419:127,1,59.9999981689454,8|8,0:2|0:2,0:0:0:0:
139,165,69350,2,0,L|76:164,1,59.9999981689454,8|8,0:2|0:2,0:0:0:0:
389,98,69500,2,0,L|460:103,1,59.9999981689454,8|8,0:2|0:2,0:0:0:0:
99,183,69650,6,0,L|92:310,1,119.999996337891,6|2,3:2|0:2,0:0:0:0:
384,142,69950,1,10,0:2:0:0:
82,179,70100,1,2,0:2:0:0:
407,134,70250,2,0,L|412:2,1,119.999996337891,2|2,3:2|0:2,0:0:0:0:
59,187,70550,1,10,0:2:0:0:
437,128,70700,1,2,0:2:0:0:
118,177,70850,6,0,L|379:201,1,239.999992675781,6|10,3:2|0:2,0:0:0:0:
55,245,71300,2,0,L|58:367,1,119.999996337891,2|0,0:2|3:2,0:0:0:0:
322,263,71600,2,0,L|458:263,1,119.999996337891,2|8,0:2|0:2,0:0:0:0:
124,172,71900,1,2,0:2:0:0:
458,52,72050,6,0,L|456:184,1,119.999996337891,4|2,3:2|0:2,0:0:0:0:
124,172,72350,1,10,0:2:0:0:
443,168,72500,1,2,0:2:0:0:
100,169,72650,2,0,L|94:301,1,119.999996337891,2|2,3:2|0:2,0:0:0:0:
463,167,72950,1,10,0:2:0:0:
105,170,73100,1,2,0:2:0:0:
485,167,73250,6,0,L|205:147,1,239.999992675781,6|10,3:2|0:2,0:0:0:0:
455,252,73700,2,0,L|462:377,1,119.999996337891,2|0,0:2|3:2,0:0:0:0:
149,118,74000,2,0,L|142:243,1,119.999996337891,2|8,0:2|0:2,0:0:0:0:
296,112,74300,1,0,0:0:0:0:
151,73,74450,5,2,3:2:0:0:
445,38,74600,2,0,L|456:172,1,119.999996337891,2|10,0:2|0:2,0:0:0:0:
128,322,74900,2,0,L|399:335,1,239.999992675781,2|2,0:2|0:2,0:0:0:0:
53,145,75350,2,0,L|45:287,1,119.999996337891,10|2,0:2|0:2,0:0:0:0:
324,75,75650,5,2,3:2:0:0:
196,94,75800,1,2,0:2:0:0:
473,161,75950,2,0,L|476:315,1,119.999996337891,10|2,0:2|0:2,0:0:0:0:
196,94,76250,1,2,3:2:0:0:
324,75,76400,1,2,0:2:0:0:
66,39,76550,2,0,L|57:179,1,119.999996337891,10|0,0:2|0:0,0:0:0:0:
337,202,76850,6,0,L|346:334,1,119.999996337891,0|2,3:2|0:2,0:0:0:0:
200,187,77150,1,10,0:2:0:0:
479,139,77300,2,0,L|276:115,1,179.999994506836,2|0,0:2|0:0,0:0:0:0:
88,304,77600,2,0,L|222:291,1,119.999996337891,2|10,0:2|0:2,0:0:0:0:
350,273,77900,1,2,0:2:0:0:
40,116,78050,6,0,L|35:267,1,119.999996337891,2|2,3:2|3:2,0:0:0:0:
322,72,78350,1,10,0:2:0:0:
45,64,78500,2,0,L|120:52,1,59.9999981689454,10|8,0:2|0:2,0:0:0:0:
342,79,78650,2,0,L|478:65,1,119.999996337891,10|8,0:2|0:3,0:0:0:0:
241,252,78950,2,0,L|418:234,1,119.999996337891,4|0,0:3|3:2,0:0:0:0:
92,140,79250,5,4,3:2:0:0:
92,140,79400,1,0,3:2:0:0:
423,75,79550,6,0,L|424:196,1,100,2|2,3:2|3:2,0:0:0:0:
268,32,79850,2,0,L|269:143,1,100,10|6,0:2|3:2,0:0:0:0:
114,122,80150,2,0,L|116:246,1,100,2|10,0:2|0:2,0:0:0:0:
473,303,80450,6,0,L|330:303,2,100,2|8|2,3:2|0:2|3:2,0:0:0:0:
196,230,80900,2,0,P|147:165|195:122,1,150,2|0,3:2|0:0,0:0:0:0:
392,121,81200,2,0,L|517:120,2,100,6|0|8,3:2|0:2|0:2,0:0:0:0:
172,125,81650,6,0,L|311:124,1,100,4|0,3:2|3:2,0:0:0:0:
42,80,81950,2,0,L|41:201,1,100,2|2,3:2|3:2,0:0:0:0:
197,37,82250,2,0,L|196:148,1,100,10|6,0:2|3:2,0:0:0:0:
351,127,82550,2,0,L|349:251,1,100,2|10,0:2|0:2,0:0:0:0:
78,263,82850,6,0,L|209:263,2,100,6|8|2,3:2|0:2|3:2,0:0:0:0:
376,263,83300,1,2,3:2:0:0:
147,236,83450,2,0,L|76:235,1,50,8|8,0:2|0:3,0:0:0:0:
342,234,83600,2,0,L|422:234,1,50,4|0,0:3|3:2,0:0:0:0:
120,217,83750,2,0,L|1:217,1,100,10|0,0:2|0:0,0:0:0:0:
382,343,84050,6,0,P|449:291|380:202,1,200,6|10,3:2|0:2,0:0:0:0:
124,128,84500,2,0,L|328:108,1,200,2|8,0:2|0:2,0:0:0:0:
382,99,84875,1,8,0:2:0:0:
141,27,84950,2,0,L|61:12,1,50,8|8,0:2|0:2,0:0:0:0:
358,126,85100,2,0,L|425:118,1,50,8|8,0:2|0:2,0:0:0:0:
110,212,85250,6,0,L|106:326,1,100,0|0,3:2|0:0,0:0:0:0:
271,124,85550,2,0,L|267:253,1,100,2|0,0:2|0:0,0:0:0:0:
37,120,85850,6,0,L|30:66,1,50,2|0,3:2|0:0,0:0:0:0:
85,47,86000,1,8,0:2:0:0:
336,173,86075,2,0,L|269:159,1,50,10|8,0:2|0:2,0:0:0:0:
230,183,86225,1,8,0:2:0:0:
462,271,86300,2,0,L|471:189,1,50,10|8,0:2|0:2,0:0:0:0:
205,347,86450,6,0,P|101:332|152:129,1,350,6|0,3:2|0:0,0:0:0:0:
323,123,87050,2,0,L|460:123,1,100,0|8,3:2|0:2,0:0:0:0:
365,107,87275,1,8,0:2:0:0:
155,79,87350,2,0,L|77:79,1,50,8|8,0:2|0:2,0:0:0:0:
324,205,87500,2,0,L|385:205,1,50,8|8,0:2|0:2,0:0:0:0:
129,339,87650,6,0,P|32:258|128:155,1,300,4|0,3:2|0:0,0:0:0:0:
