osu file format v14

[General]
AudioFilename: audio.mp3
AudioLeadIn: 0
PreviewTime: 266057
Countdown: 0
SampleSet: Soft
StackLeniency: 0.7
Mode: 0
LetterboxInBreaks: 0
WidescreenStoryboard: 0

[Editor]
DistanceSpacing: 2.7
BeatDivisor: 4
GridSize: 16
TimelineZoom: 5.799997

[Metadata]
Title:1,000,000 TIMES
TitleUnicode:1,000,000 TIMES
Artist:MY FIRST STORY feat. chelly (EGOIST)
ArtistUnicode:MY FIRST STORY feat. chelly (EGOIST)
Creator:Yumerios
Version:EVOLUTION
Source:DUEL MASTERS PLAY’S
Tags:デュエル・マスターズ プレイス 1000000 one 1 million mfs collab opening video game mobile op anime rock j-rock jrock japanese female male vocalist full size version
BeatmapID:2509341
BeatmapSetID:1205078

[Difficulty]
HPDrainRate:5.7
CircleSize:3.8
OverallDifficulty:9
ApproachRate:9.4
SliderMultiplier:1.82
SliderTickRate:1

[Events]
//Background and Video events
0,0,"Konachan.png",0,0
//Break Periods
2,264382,265592
//Storyboard Layer 0 (Background)
//Storyboard Layer 1 (Fail)
//Storyboard Layer 2 (Pass)
//Storyboard Layer 3 (Foreground)
//Storyboard Layer 4 (Overlay)
//Storyboard Sound Samples

[TimingPoints]
666,300,4,2,22,42,1,0
666,-238.095238095238,4,2,22,32,0,0
10266,-161.290322580645,4,2,22,42,0,0
16266,-121.951219512195,4,2,22,62,0,0
22266,-108.695652173913,4,2,22,62,0,0
26466,-138.888888888889,4,2,22,62,0,0
26691,-138.888888888889,4,2,22,5,0,0
26766,-108.695652173913,4,2,22,62,0,0
26991,-108.695652173913,4,2,22,5,0,0
27066,-98.0392156862745,4,2,22,72,0,0
43866,-121.951219512195,4,2,22,52,0,0
53466,-108.695652173913,4,2,22,52,0,0
63066,-98.0392156862745,4,2,22,62,0,0
72666,-161.290322580645,4,2,22,52,0,0
75066,-108.695652173913,4,2,22,72,0,0
76716,-192.307692307692,4,2,22,52,0,0
77466,-89.2857142857143,4,2,22,82,0,1
106266,-98.0392156862745,4,2,22,72,0,0
122166,-121.951219512195,4,2,22,62,0,0
123066,-238.095238095238,4,2,22,42,0,0
132066,-121.951219512195,4,2,22,62,0,0
132966,-108.695652173913,4,2,22,62,0,0
142266,-238.095238095238,4,2,22,42,0,0
148866,-121.951219512195,4,2,22,62,0,0
149391,-121.951219512195,4,2,22,5,0,0
149466,-108.695652173913,4,2,22,72,0,0
152091,-108.695652173913,4,2,22,5,0,0
152166,-108.695652173913,4,2,22,72,0,0
153141,-108.695652173913,4,2,22,5,0,0
153216,-108.695652173913,4,2,22,72,0,0
153666,-192.307692307692,4,2,22,52,0,0
154266,-89.2857142857143,4,2,22,82,0,1
183066,-98.0392156862745,4,2,22,72,0,0
190266,-238.095238095238,4,2,22,42,0,0
199866,-192.307692307692,4,2,22,42,0,0
204666,317.460317460317,4,2,22,52,1,0
204666,-138.888888888889,4,2,22,52,0,0
205142,389.61038961039,4,2,22,52,1,0
205142,-138.888888888889,4,2,22,52,0,0
205434,350.877192982456,4,2,22,52,1,0
205609,338.983050847458,4,2,22,52,1,0
205609,-138.888888888889,4,2,22,52,0,0
205863,317.460317460317,4,2,22,52,1,0
206101,368.098159509202,4,2,22,52,1,0
206101,-138.888888888889,4,2,22,52,0,0
206377,287.081339712919,4,2,22,52,1,0
206592,400,4,2,22,52,1,0
206592,-138.888888888889,4,2,22,52,0,0
206892,458.015267175573,4,2,22,52,1,0
206892,-138.888888888889,4,2,22,52,0,0
207235,303.030303030303,4,2,22,52,1,0
207235,-138.888888888889,4,2,22,52,0,0
207462,297.029702970297,4,2,22,52,1,0
207684,389.61038961039,4,2,22,52,1,0
207684,-138.888888888889,4,2,22,52,0,0
207976,260.869565217391,4,2,22,52,1,0
208171,317.460317460317,4,2,22,52,1,0
208171,-138.888888888889,4,2,22,52,0,0
208409,338.983050847458,4,2,22,52,1,0
208663,303.030303030303,4,2,22,52,1,0
208663,-138.888888888889,4,2,22,62,0,0
208890,272.727272727273,4,2,22,72,1,0
208890,-138.888888888889,4,2,22,62,0,0
209094,303.030303030303,4,2,22,72,1,0
209094,-138.888888888889,4,2,22,62,0,0
209397,324.324324324324,4,2,22,72,1,0
209397,-138.888888888889,4,2,22,62,0,0
209723,315.789473684211,4,2,22,82,1,0
209723,-98.0392156862745,4,2,22,72,0,0
215249,-89.2857142857143,4,2,22,82,0,1
220459,-81.9672131147541,4,2,22,82,0,1
224249,-70.4225352112676,4,2,22,92,0,1
224882,300,4,2,22,82,1,0
224882,-238.095238095238,4,2,22,32,0,0
244082,-161.290322580645,4,2,22,42,0,0
253682,-138.888888888889,4,2,22,52,0,0
258482,-121.951219512195,4,2,22,52,0,0
266282,-192.307692307692,4,2,22,62,0,0
276482,-89.2857142857142,4,2,22,82,0,1
295682,-98.0392156862745,4,2,22,72,0,0
309932,-192.307692307692,4,2,22,42,0,0
310082,-192.307692307692,4,2,22,5,0,0

[Colours]
Combo1 : 255,174,94
Combo2 : 255,81,81
Combo3 : 255,128,128
Combo4 : 255,255,89

[HitObjects]
37,29,666,6,0,P|47:63|51:75,1,38.2199988336182,2|0,0:2|0:2,0:2:0:0:
143,121,966,2,0,P|153:87|157:75,2,38.2199988336182,0|0|0,0:2|0:2|0:2,0:2:0:0:
230,50,1416,2,0,P|269:40|309:43,1,76.4399976672364,0|0,0:2|0:2,0:2:0:0:
417,125,1866,6,0,L|424:173,1,38.2199988336182,0|0,0:2|0:2,0:2:0:0:
360,219,2166,2,0,P|318:216|308:216,2,38.2199988336182,0|0|0,0:2|0:2|0:2,0:2:0:0:
458,256,2616,2,0,P|444:307|437:338,1,76.4399976672364,0|0,0:2|0:2,0:2:0:0:
299,373,3066,6,0,P|287:337|283:324,1,38.2199988336182,2|0,0:2|0:2,0:2:0:0:
223,271,3366,2,0,P|224:241|227:219,2,38.2199988336182,0|0|0,0:2|0:2|0:2,0:2:0:0:
159,341,3816,2,0,P|126:352|75:336,1,76.4399976672364,0|0,0:2|0:2,0:2:0:0:
9,210,4266,6,0,P|45:197|61:193,1,38.2199988336182,0|0,0:2|0:2,0:2:0:0:
119,243,4566,2,0,P|120:278|120:295,2,38.2199988336182,0|0|0,0:2|0:2|0:2,0:2:0:0:
184,182,5016,2,0,P|188:122|190:92,1,76.4399976672364,0|0,0:2|0:2,0:2:0:0:
273,13,5466,6,0,P|284:59|286:67,1,38.2199988336182,2|0,0:2|0:2,0:2:0:0:
332,120,5766,2,0,P|376:126|386:128,2,38.2199988336182,0|0|0,0:2|0:2|0:2,0:2:0:0:
372,37,6216,2,0,P|410:44|443:82,1,76.4399976672364,0|0,0:2|0:2,0:2:0:0:
408,203,6666,6,0,P|363:198|356:198,1,38.2199988336182,2|0,0:2|0:2,0:2:0:0:
296,243,6966,2,0,P|292:278|290:299,2,38.2199988336182,0|0|0,0:2|0:2|0:2,0:2:0:0:
227,179,7416,2,0,P|198:174|144:167,1,76.4399976672364,0|0,0:2|0:2,0:2:0:0:
19,147,7866,6,0,P|15:115|15:102,1,38.2199988336182,0|0,0:2|0:2,0:2:0:0:
38,26,8166,2,0,P|10:17|-9:13,2,38.2199988336182,0|0|0,0:2|0:2|0:2,0:2:0:0:
125,58,8616,2,0,P|163:43|206:34,1,76.4399976672364,0|0,0:2|0:2,0:2:0:0:
296,138,9066,6,0,L|291:181,1,38.2199988336182,0|0,0:2|0:2,0:2:0:0:
393,127,9366,2,0,L|388:84,1,38.2199988336182,0|0,0:2|0:2,0:2:0:0:
275,34,9666,2,0,L|275:0,3,19.1099994168091,0|0|0|0,0:2|0:2|0:2|0:2,0:2:0:0:
275,67,9966,1,0,0:2:0:0:
76,239,10266,6,0,P|66:192|51:125,1,112.839995523316,6|0,1:2|0:2,0:2:0:0:
147,201,10716,2,0,P|201:184|268:173,1,112.839995523316,0|0,0:2|0:2,0:2:0:0:
352,114,11166,2,0,B|420:169|420:169|378:249|358:302,1,225.679991046631,0|0,0:2|0:2,0:2:0:0:
361,293,12066,2,0,B|314:262|269:295|281:311|241:347|186:315,1,169.259993284973,0|0,0:2|0:2,0:2:0:0:
121,251,12666,5,2,0:2:0:0:
121,251,12966,1,0,0:2:0:0:
164,173,13116,2,0,P|207:155|285:146,1,112.839995523316,0|0,0:2|0:2,0:2:0:0:
376,92,13566,2,0,P|363:157|354:210,1,112.839995523316,0|0,0:2|0:2,0:2:0:0:
279,289,14016,2,0,P|269:233|258:178,1,112.839995523316,0|0,0:2|0:2,0:2:0:0:
176,122,14466,2,0,B|127:106|89:132|101:154|63:183|20:170,1,169.259993284973,0|0,0:2|0:2,0:2:0:0:
83,247,15066,6,0,P|142:256|198:274,1,112.839995523316,2|0,0:2|0:2,0:2:0:0:
192,271,15516,1,0,0:2:0:0:
290,228,15666,2,0,P|296:189|307:112,1,112.839995523316,0|2,0:2|0:2,0:2:0:0:
411,359,16266,5,10,0:2:0:0:
191,171,16416,1,0,1:2:0:0:
191,171,16491,1,0,1:2:0:0:
191,171,16566,2,0,L|197:210,1,37.3100005693054,0|0,1:2|1:2,0:2:0:0:
470,73,16716,1,12,0:2:0:0:
470,73,17016,5,8,0:2:0:0:
323,335,17166,1,8,0:2:0:0:
202,43,17316,1,8,0:2:0:0:
361,264,17466,1,12,0:2:0:0:
361,264,19416,5,8,0:2:0:0:
72,172,19566,1,8,0:2:0:0:
359,36,19716,1,8,0:2:0:0:
150,211,19866,1,12,0:2:0:0:
97,231,21666,6,0,L|105:274,1,37.3100005693054,0|0,0:2|0:2,0:2:0:0:
24,329,21816,2,0,L|32:287,1,37.3100005693054,0|0,0:2|0:2,0:2:0:0:
102,356,21966,2,0,P|166:339|243:320,1,111.930001707916,0|0,0:2|0:2,0:2:0:0:
255,324,22266,2,0,P|264:252|270:205,1,83.7199971895753,6|2,1:2|0:2,0:2:0:0:
249,170,22491,1,0,0:2:0:0:
249,170,22566,2,0,L|199:156,1,41.8599985947876,2|0,1:2|0:2,0:2:0:0:
103,267,22716,1,0,0:2:0:0:
103,267,22791,1,0,0:2:0:0:
103,267,22866,2,0,L|153:253,1,41.8599985947876,2|0,1:2|0:2,0:2:0:0:
243,373,23016,1,2,0:2:0:0:
243,373,23091,1,0,0:2:0:0:
243,373,23166,2,0,L|193:359,1,41.8599985947876,0|0,1:2|0:2,0:2:0:0:
330,236,23316,1,2,0:2:0:0:
330,236,23391,1,0,0:2:0:0:
330,236,23466,6,0,P|344:282|346:296,3,41.8599985947876,2|0|0|0,1:2|0:2|0:2|0:2,0:2:0:0:
450,355,23766,2,0,P|455:334|462:315,3,41.8599985947876,2|0|0|0,1:2|0:2|0:2|0:2,0:2:0:0:
388,172,24066,1,2,1:2:0:0:
362,148,24141,1,0,0:2:0:0:
330,138,24216,1,2,0:2:0:0:
297,143,24291,1,0,0:2:0:0:
269,162,24366,1,2,1:2:0:0:
240,179,24441,1,0,0:2:0:0:
207,183,24516,1,0,0:2:0:0:
174,173,24591,1,0,0:2:0:0:
149,151,24666,6,0,P|143:102|142:94,3,41.8599985947876,6|0|2|0,1:2|0:2|0:2|0:2,0:2:0:0:
292,24,24966,2,0,P|289:44|286:65,3,41.8599985947876,2|0|0|0,1:2|0:2|0:2|0:2,0:2:0:0:
134,30,25266,1,2,1:2:0:0:
92,28,25341,1,0,0:2:0:0:
53,42,25416,1,2,0:2:0:0:
22,70,25491,1,0,0:2:0:0:
3,107,25566,1,2,1:2:0:0:
0,149,25641,1,0,0:2:0:0:
12,188,25716,1,0,0:2:0:0:
39,221,25791,1,0,0:2:0:0:
75,240,25866,5,14,0:2:0:0:
143,109,26016,1,2,0:2:0:0:
214,268,26166,1,2,0:2:0:0:
122,148,26316,1,2,0:2:0:0:
239,304,26466,6,0,P|286:287|362:273,1,98.2800023994141,2|0,0:2|0:2,0:2:0:0:
425,353,26766,6,0,P|377:383|300:346,1,125.579995784363,8|0,0:2|0:2,0:2:0:0:
239,304,27066,6,0,P|228:239|219:193,1,92.8200005665283,6|0,1:2|0:2,0:2:0:0:
156,31,27366,1,10,0:2:0:0:
362,133,27516,2,0,P|353:178|345:224,1,92.8200005665283,2|0,0:2|1:2,0:2:0:0:
229,58,27816,1,2,0:2:0:0:
431,0,27966,2,0,P|439:45|447:91,1,92.8200005665283,10|0,0:2|0:2,0:2:0:0:
319,268,28266,5,2,1:2:0:0:
346,48,28416,1,0,0:2:0:0:
490,192,28566,1,10,0:2:0:0:
259,145,28716,1,2,0:2:0:0:
360,348,28866,1,0,1:2:0:0:
407,116,29016,1,2,0:2:0:0:
203,248,29166,1,10,0:2:0:0:
442,275,29316,1,2,0:2:0:0:
259,145,29466,6,0,P|276:209|285:250,1,92.8200005665283,2|0,1:2|0:2,0:2:0:0:
352,51,29766,1,10,0:2:0:0:
142,22,29916,2,0,P|125:86|116:127,1,92.8200005665283,2|0,0:2|1:2,0:2:0:0:
174,279,30216,1,2,0:2:0:0:
18,123,30366,2,0,P|35:187|44:228,1,92.8200005665283,10|0,0:2|0:2,0:2:0:0:
232,78,30666,5,2,1:2:0:0:
15,14,30816,1,0,0:2:0:0:
128,193,30966,1,10,0:2:0:0:
281,22,31116,1,2,0:2:0:0:
63,105,31266,1,0,1:2:0:0:
274,258,31416,1,2,0:2:0:0:
142,77,31566,1,10,0:2:0:0:
63,295,31716,1,2,0:2:0:0:
225,164,31866,6,0,P|278:154|325:149,1,92.8200005665283,6|0,1:2|0:2,0:2:0:0:
492,239,32166,1,10,0:2:0:0:
323,57,32316,2,0,P|369:62|414:71,1,92.8200005665283,2|0,0:2|1:2,0:2:0:0:
261,243,32616,1,2,0:2:0:0:
157,36,32766,2,0,P|202:27|248:21,1,92.8200005665283,10|0,0:2|0:2,0:2:0:0:
110,201,33066,5,2,1:2:0:0:
9,3,33216,1,0,0:2:0:0:
200,120,33366,1,10,0:2:0:0:
9,279,33516,1,2,0:2:0:0:
96,88,33666,1,0,1:2:0:0:
199,295,33816,1,2,0:2:0:0:
32,167,33966,1,10,0:2:0:0:
128,349,34116,1,2,0:2:0:0:
244,153,34266,6,0,P|290:143|338:133,1,92.8200005665283,2|0,1:2|0:2,0:2:0:0:
439,299,34566,1,10,0:2:0:0:
512,94,34716,2,0,P|466:84|418:74,1,92.8200005665283,2|0,0:2|1:2,0:2:0:0:
255,235,35016,1,2,0:2:0:0:
182,30,35166,2,0,P|228:20|276:10,1,92.8200005665283,10|0,0:2|0:2,0:2:0:0:
141,205,35466,5,2,1:2:0:0:
17,7,35616,1,2,1:2:0:0:
199,142,35766,1,10,0:2:0:0:
53,312,35916,2,0,B|35:278|9:193|9:193|62:160,1,185.640001133057,6|8,0:2|0:2,0:2:0:0:
111,147,36291,1,8,0:2:0:0:
111,147,36366,2,0,L|99:203,1,46.4100002832642,10|8,0:2|0:2,0:2:0:0:
188,314,36516,2,0,L|176:258,1,46.4100002832642,10|8,0:2|0:2,0:2:0:0:
322,97,36666,5,2,1:2:0:0:
144,244,36816,1,2,0:2:0:0:
323,221,36966,1,10,0:2:0:0:
174,48,37116,2,0,P|192:119|205:174,1,92.8200005665283,2|0,0:2|1:2,0:2:0:0:
395,20,37416,1,2,0:2:0:0:
215,181,37566,2,0,P|161:168|117:161,1,92.8200005665283,10|0,0:2|0:2,0:2:0:0:
297,34,37866,5,2,1:2:0:0:
345,260,38016,1,0,0:2:0:0:
211,77,38166,1,10,0:2:0:0:
266,313,38316,1,2,0:2:0:0:
406,129,38466,1,0,1:2:0:0:
181,214,38616,1,2,0:2:0:0:
335,381,38766,2,0,P|399:368|456:361,1,92.8200005665283,10|2,0:2|0:2,0:2:0:0:
290,173,39066,5,2,1:2:0:0:
138,384,39216,1,2,0:2:0:0:
334,274,39366,1,10,0:2:0:0:
158,134,39516,2,0,P|103:126|39:118,1,92.8200005665283,2|0,0:2|1:2,0:2:0:0:
150,284,39816,1,2,0:2:0:0:
228,68,39966,2,0,P|241:130|248:165,1,92.8200005665283,10|0,0:2|0:2,0:2:0:0:
159,331,40266,5,2,1:2:0:0:
7,152,40416,1,0,0:2:0:0:
206,230,40566,1,10,0:2:0:0:
147,0,40716,1,2,0:2:0:0:
73,233,40866,1,0,0:2:0:0:
228,68,41016,1,2,0:2:0:0:
322,256,41166,1,10,1:2:0:0:
345,270,41241,1,0,1:2:0:0:
372,273,41316,1,2,1:2:0:0:
398,262,41391,1,0,1:2:0:0:
415,238,41466,6,0,P|425:176|433:125,1,92.8200005665283,14|0,0:2|1:2,0:2:0:0:
225,246,41766,2,0,P|235:308|243:359,1,92.8200005665283,10|2,0:2|1:2,0:2:0:0:
325,117,42066,5,8,0:2:0:0:
437,343,42216,1,0,1:2:0:0:
255,167,42366,5,8,0:2:0:0:
493,59,42516,1,0,1:2:0:0:
322,256,42666,6,0,P|259:246|239:244,1,46.4100002832642,0|0,1:2|1:2,0:2:0:0:
229,39,42816,2,0,P|292:29|312:27,1,46.4100002832642,0|0,1:2|1:2,0:2:0:0:
428,116,42966,1,8,0:2:0:0:
169,143,43116,6,0,P|132:228|124:285,1,139.230000849792,4|0,0:2|0:2,0:2:0:0:
139,312,43416,5,8,0:2:0:0:
0,90,43566,1,8,0:2:0:0:
69,352,43716,1,8,0:2:0:0:
204,124,43866,6,0,P|294:100|343:130,1,149.240002277222,6|10,1:2|0:2,0:2:0:0:
298,231,44316,2,0,L|193:210,1,74.6200011386109,2|0,0:2|0:2,0:2:0:0:
173,50,44616,1,10,0:2:0:0:
173,50,44766,2,0,L|278:29,1,74.6200011386109,2|0,1:2|0:2,0:2:0:0:
126,159,45066,2,0,P|49:138|50:52,2,149.240002277222,2|8|0,1:2|0:2|1:2,0:2:0:0:
228,273,45816,1,8,0:2:0:0:
83,347,45966,1,2,1:2:0:0:
142,235,46116,1,2,0:2:0:0:
249,384,46266,6,0,P|305:367|414:348,1,149.240002277222,2|10,1:2|0:2,0:2:0:0:
461,233,46716,2,0,P|405:216|373:208,1,74.6200011386109,2|0,0:2|0:2,0:2:0:0:
237,133,47016,1,10,0:2:0:0:
237,133,47166,2,0,P|293:116|325:108,1,74.6200011386109,2|0,1:2|0:2,0:2:0:0:
130,48,47466,2,0,P|115:126|105:204,2,149.240002277222,2|8|0,1:2|0:2|1:2,0:2:0:0:
21,184,48216,1,8,0:2:0:0:
163,97,48366,1,0,0:2:0:0:
71,305,48516,1,10,0:2:0:0:
71,305,48591,1,8,0:2:0:0:
71,305,48666,6,0,P|139:280|226:261,1,149.240002277222,2|10,1:2|0:2,0:2:0:0:
319,237,49116,2,0,P|331:185|333:143,1,74.6200011386109,2|0,0:2|0:2,0:2:0:0:
204,111,49416,1,10,0:2:0:0:
204,111,49566,2,0,P|157:104|113:96,1,74.6200011386109,2|0,1:2|0:2,0:2:0:0:
259,28,49866,2,0,B|305:23|333:53|323:64|350:94|399:83,2,149.240002277222,2|8|0,1:2|0:2|1:2,0:2:0:0:
118,139,50616,1,8,0:2:0:0:
245,233,50766,2,0,P|256:180|263:150,1,74.6200011386109,2|0,1:2|0:2,0:2:0:0:
125,307,51066,6,0,P|159:351|255:362,1,149.240002277222,2|8,1:2|0:2,0:2:0:0:
358,252,51516,1,2,0:2:0:0:
470,380,51666,2,0,P|481:297|493:209,1,149.240002277222,2|0,1:2|1:2,0:2:0:0:
393,120,52116,1,2,0:2:0:0:
321,242,52266,1,2,1:2:0:0:
497,80,52416,6,0,P|480:141|476:164,1,74.6200011386109,8|2,0:2|0:2,0:2:0:0:
301,307,52716,2,0,P|293:270|281:234,1,74.6200011386109,10|0,0:2|0:2,0:2:0:0:
173,84,53016,1,8,0:2:0:0:
173,84,53091,1,8,0:2:0:0:
173,84,53166,2,0,P|222:69|236:69,1,37.3100005693054,10|8,0:2|0:2,0:2:0:0:
106,240,53316,2,0,P|88:234|71:226,1,37.3100005693054,10|8,0:2|0:2,0:2:0:0:
283,117,53466,6,0,P|333:124|371:167,1,83.7199971895753,4|0,1:2|0:2,0:2:0:0:
164,293,53766,1,12,0:2:0:0:
136,96,53916,1,2,0:2:0:0:
281,234,54066,1,2,1:2:0:0:
104,132,54216,1,2,0:2:0:0:
85,331,54366,1,10,0:2:0:0:
172,197,54516,1,2,0:2:0:0:
300,361,54666,6,0,P|344:350|393:340,1,83.7199971895753,2|0,1:2|0:2,0:2:0:0:
512,232,54966,1,10,0:2:0:0:
459,150,55116,2,0,P|415:139|366:129,1,83.7199971895753,2|0,0:2|1:2,0:2:0:0:
254,29,55416,1,2,0:2:0:0:
423,4,55566,1,10,0:2:0:0:
279,143,55716,1,8,0:2:0:0:
279,143,55791,1,8,0:2:0:0:
279,143,55866,6,0,P|192:144|104:152,1,167.439994379151,0|8,1:2|0:2,0:2:0:0:
215,41,56316,1,2,0:2:0:0:
207,233,56466,2,0,P|192:299|186:328,1,83.7199971895753,2|8,1:2|0:2,0:2:0:0:
119,169,56766,1,2,1:2:0:0:
275,282,56916,1,10,0:2:0:0:
73,357,57066,6,0,P|67:308|62:258,1,83.7199971895753,2|0,1:2|0:2,0:2:0:0:
193,137,57366,1,10,0:2:0:0:
289,201,57516,2,0,P|283:250|278:300,1,83.7199971895753,2|0,0:2|1:2,0:2:0:0:
193,137,57816,1,10,0:2:0:0:
193,137,57891,1,8,0:2:0:0:
193,137,57966,2,0,P|144:125|123:123,1,41.8599985947876,10|8,0:2|0:2,0:2:0:0:
83,282,58116,2,0,P|132:270|153:268,1,41.8599985947876,8|8,0:2|0:2,0:2:0:0:
271,126,58266,6,0,P|327:116|464:111,1,167.439994379151,0|8,1:2|0:2,0:2:0:0:
288,26,58716,1,2,0:2:0:0:
304,205,58866,1,2,1:2:0:0:
442,138,59016,1,10,0:2:0:0:
350,277,59166,1,2,1:2:0:0:
332,97,59316,1,10,0:2:0:0:
500,267,59466,6,0,P|492:317|485:369,1,83.7199971895753,2|0,1:2|0:2,0:2:0:0:
331,383,59766,1,10,0:2:0:0:
251,320,59916,2,0,P|243:270|236:218,1,83.7199971895753,2|0,0:2|1:2,0:2:0:0:
332,97,60216,1,2,0:2:0:0:
372,256,60366,1,10,0:2:0:0:
232,108,60516,1,10,0:2:0:0:
232,108,60591,1,8,0:2:0:0:
232,108,60666,6,0,B|186:89|140:119|152:136|107:167|64:143,1,167.439994379151,0|8,1:2|0:2,0:2:0:0:
0,9,61116,1,2,0:2:0:0:
182,73,61266,1,2,1:2:0:0:
9,212,61416,1,10,0:2:0:0:
105,29,61566,1,2,1:2:0:0:
181,260,61716,1,10,0:2:0:0:
36,91,61866,6,0,P|21:154|9:210,1,83.7199971895753,2|12,1:2|0:2,0:2:0:0:
145,311,62166,2,0,P|130:248|118:192,1,83.7199971895753,10|4,0:2|1:2,0:2:0:0:
277,31,62466,1,10,0:2:0:0:
309,296,62616,1,8,0:2:0:0:
182,73,62766,1,8,0:2:0:0:
432,223,62916,1,10,0:2:0:0:
182,218,63066,6,0,L|287:198,1,92.8200005665283,6|2,1:2|1:2,0:2:0:0:
450,370,63366,2,0,L|345:350,1,92.8200005665283,2|2,1:2|1:2,0:2:0:0:
254,165,63666,1,10,0:2:0:0:
148,357,63816,1,2,1:2:0:0:
349,279,63966,1,2,1:2:0:0:
102,185,64116,1,10,0:2:0:0:
260,321,64266,1,2,0:2:0:0:
179,48,64416,5,8,0:2:0:0:
47,285,64566,2,0,P|32:231|22:188,1,92.8200005665283,10|0,0:2|0:2,0:2:0:0:
30,151,64791,1,8,0:2:0:0:
30,151,64866,1,10,0:2:0:0:
238,359,65016,1,8,0:2:0:0:
186,93,65166,1,8,0:2:0:0:
74,320,65316,1,10,0:2:0:0:
297,160,65466,6,0,P|363:148|401:141,1,92.8200005665283,6|2,1:2|1:2,0:2:0:0:
464,323,65766,2,0,P|398:311|360:304,1,92.8200005665283,2|2,1:2|1:2,0:2:0:0:
226,203,66066,1,10,0:2:0:0:
326,376,66216,1,2,1:2:0:0:
450,202,66366,1,2,1:2:0:0:
265,278,66516,1,10,0:2:0:0:
388,81,66666,1,2,0:2:0:0:
233,369,66816,5,12,0:2:0:0:
437,170,66966,2,0,L|459:276,1,92.8200005665283,14|0,0:2|0:2,0:2:0:0:
376,330,67191,1,8,0:2:0:0:
376,330,67266,2,0,P|310:317|272:317,2,61.8800003776855,10|0|0,1:2|1:2|1:2,0:2:0:0:
243,244,67566,2,0,P|272:235|303:231,2,61.8800003776855,0|0|0,1:2|1:2|1:2,0:2:0:0:
482,107,67866,6,0,P|467:181|458:235,1,92.8200005665283,6|2,1:2|1:2,0:2:0:0:
262,70,68166,2,0,P|277:144|286:198,1,92.8200005665283,2|2,1:2|1:2,0:2:0:0:
481,32,68466,1,2,0:2:0:0:
377,231,68616,1,14,0:2:0:0:
299,8,68766,1,10,0:2:0:0:
436,134,68916,1,14,0:2:0:0:
239,263,69066,6,0,P|186:250|137:243,1,92.8200005665283,2|8,0:2|0:2,0:2:0:0:
21,113,69366,2,0,L|30:172,1,46.4100002832642,10|0,0:2|1:2,0:2:0:0:
125,326,69516,2,0,L|134:267,1,46.4100002832642,0|0,1:2|1:2,0:2:0:0:
217,126,69666,1,10,0:2:0:0:
36,363,69816,5,4,1:2:0:0:
36,363,70116,6,0,B|100:346|160:326|160:326|218:370,1,185.640001133057,6|0,1:2|1:2,0:2:0:0:
347,270,70566,1,10,0:2:0:0:
221,172,70716,1,2,0:2:0:0:
221,172,70791,1,2,0:2:0:0:
221,172,70866,2,0,P|236:243|241:269,1,92.8200005665283,0|0,1:2|1:2,0:2:0:0:
414,346,71166,2,0,P|424:300|433:255,1,92.8200005665283,10|0,0:2|0:2,0:2:0:0:
209,292,71466,2,0,P|218:337|227:382,1,92.8200005665283,2|0,1:2|1:2,0:2:0:0:
332,214,71766,1,14,0:2:0:0:
139,199,71916,1,2,1:2:0:0:
253,345,72066,2,0,P|297:333|313:331,3,46.4100002832642,0|0|0|0,1:2|1:2|1:2|1:2,0:2:0:0:
96,271,72366,1,10,0:2:0:0:
58,244,72441,1,8,0:2:0:0:
42,201,72516,1,8,0:2:0:0:
52,156,72591,1,8,0:2:0:0:
85,124,72666,6,0,B|161:85|251:142|219:183|306:250|408:188,1,338.519986569947,2|2,1:2|0:2,0:2:0:0:
470,38,73866,2,0,P|419:9|365:18,1,112.839995523316,2|2,0:2|0:2,0:2:0:0:
316,70,74316,2,0,P|332:114|349:187,1,112.839995523316,2|0,0:2|0:2,0:2:0:0:
277,264,74766,1,2,0:2:0:0:
376,360,74916,1,2,0:2:0:0:
226,118,75066,5,12,0:2:0:0:
135,352,75216,2,0,P|183:342|198:340,1,41.8599985947876,0|0,1:2|1:2,0:2:0:0:
326,187,75366,2,0,P|278:177|263:175,1,41.8599985947876,0|0,1:2|1:2,0:2:0:0:
76,194,75516,1,8,0:2:0:0:
277,351,75666,2,0,P|285:298|288:276,1,41.8599985947876,0|0,1:2|1:2,0:2:0:0:
153,154,75816,2,0,P|156:174|159:195,1,41.8599985947876,0|0,1:2|1:2,0:2:0:0:
55,371,75966,5,8,0:2:0:0:
265,100,76116,1,4,1:2:0:0:
265,100,76716,5,0,0:2:0:0:
265,100,76791,1,0,0:2:0:0:
265,100,76866,2,0,P|273:126|276:162,1,47.3199997111816,2|2,0:2|0:2,0:2:0:0:
173,187,77166,2,0,P|176:163|183:141,1,47.3199997111816,2|2,0:2|0:2,0:2:0:0:
314,326,77466,6,0,P|268:359|197:351,1,101.920001244141,6|0,1:2|0:2,0:2:0:0:
355,149,77766,2,0,P|405:153|444:184,1,101.920001244141,8|2,0:2|0:2,0:2:0:0:
225,240,78066,1,2,1:2:0:0:
295,28,78216,1,2,0:2:0:0:
316,265,78366,1,10,0:2:0:0:
158,62,78516,1,2,0:2:0:0:
483,77,78666,6,0,P|493:139|498:181,1,101.920001244141,2|0,1:2|0:2,0:2:0:0:
382,365,78966,1,10,0:2:0:0:
248,169,79116,2,0,P|194:153|138:141,1,101.920001244141,2|0,0:2|1:2,0:2:0:0:
4,275,79416,1,0,0:2:0:0:
115,53,79566,1,10,0:2:0:0:
190,260,79716,1,2,0:2:0:0:
408,111,79866,6,0,P|385:191|374:232,1,101.920001244141,2|0,1:2|0:2,0:2:0:0:
217,358,80166,2,0,P|194:278|183:237,1,101.920001244141,10|0,0:2|0:2,0:2:0:0:
334,99,80466,2,0,P|311:179|300:220,1,101.920001244141,2|0,1:2|0:2,0:2:0:0:
119,297,80766,2,0,P|96:217|85:176,1,101.920001244141,10|0,0:2|0:2,0:2:0:0:
213,6,81066,2,0,B|274:-1|309:28|292:46|347:89|410:63,2,203.840002488281,2|8|0,1:2|0:2|1:2,0:2:0:0:
85,167,81816,1,2,0:2:0:0:
258,99,81966,1,10,0:2:0:0:
196,284,82116,1,2,0:2:0:0:
50,33,82266,5,6,1:2:0:0:
225,199,82416,1,2,0:2:0:0:
0,131,82566,1,10,0:2:0:0:
23,360,82716,1,2,0:2:0:0:
161,114,82866,2,0,P|216:93|267:103,1,101.920001244141,2|0,1:2|0:2,0:2:0:0:
364,297,83166,5,10,0:2:0:0:
426,53,83316,1,2,0:2:0:0:
321,229,83466,1,2,1:2:0:0:
228,39,83616,1,2,0:2:0:0:
501,164,83766,6,0,P|484:229|447:379,1,203.840002488281,10|0,0:2|1:2,0:2:0:0:
267,134,84216,1,2,0:2:0:0:
502,73,84366,1,10,0:2:0:0:
391,274,84516,1,2,0:2:0:0:
294,52,84666,6,0,P|221:14|133:18,1,152.880001866211,2|0,1:2|0:2,0:2:0:0:
89,56,84966,1,10,0:2:0:0:
98,263,85116,1,2,0:2:0:0:
295,152,85266,2,0,P|282:230|269:314,1,152.880001866211,2|0,1:2|0:2,0:2:0:0:
200,341,85566,2,0,P|140:326|98:318,1,101.920001244141,10|2,0:2|1:2,0:2:0:0:
57,321,85791,1,0,1:2:0:0:
57,321,85866,6,0,P|58:235|58:187,1,101.920001244141,14|0,0:2|0:2,0:2:0:0:
250,81,86166,1,6,0:2:0:0:
62,180,86316,1,2,0:2:0:0:
311,341,86466,5,8,0:2:0:0:
351,349,86541,1,8,0:2:0:0:
390,340,86616,1,8,0:2:0:0:
423,318,86691,1,8,0:2:0:0:
440,281,86766,2,0,P|447:219|449:203,1,50.9600006220703,8|8,0:2|0:2,0:2:0:0:
256,151,86916,2,0,P|263:213|265:229,1,50.9600006220703,8|8,0:2|0:2,0:2:0:0:
462,61,87066,5,2,1:2:0:0:
333,245,87216,1,2,0:2:0:0:
217,50,87366,2,0,P|156:36|109:33,1,101.920001244141,10|0,0:2|0:2,0:2:0:0:
70,261,87666,2,0,P|131:247|178:244,1,101.920001244141,2|0,1:2|0:2,0:2:0:0:
343,368,87966,1,10,0:2:0:0:
370,148,88116,1,2,0:2:0:0:
116,283,88266,6,0,P|127:340|135:399,1,101.920001244141,2|0,1:2|0:2,0:2:0:0:
293,186,88566,1,10,0:2:0:0:
76,118,88716,2,0,P|65:175|57:234,1,101.920001244141,2|0,0:2|1:2,0:2:0:0:
235,83,89016,1,2,0:2:0:0:
15,52,89166,1,10,0:2:0:0:
133,213,89316,1,2,0:2:0:0:
293,8,89466,6,0,P|350:-4|405:3,1,101.920001244141,2|0,1:2|0:2,0:2:0:0:
344,230,89766,2,0,P|293:233|243:221,1,101.920001244141,10|0,0:2|0:2,0:2:0:0:
446,128,90066,2,0,P|460:185|451:250,1,101.920001244141,2|0,1:2|0:2,0:2:0:0:
234,364,90366,2,0,P|220:307|229:242,1,101.920001244141,10|0,0:2|0:2,0:2:0:0:
367,67,90666,2,0,P|411:104|349:230,2,203.840002488281,2|8|0,1:2|0:2|1:2,0:2:0:0:
119,86,91416,1,2,0:2:0:0:
289,164,91566,1,10,0:2:0:0:
80,21,91716,1,10,0:2:0:0:
80,21,91791,1,8,0:2:0:0:
80,21,91866,6,0,P|78:82|73:137,1,101.920001244141,6|0,1:2|0:2,0:2:0:0:
153,326,92166,1,10,0:2:0:0:
0,189,92316,1,2,0:2:0:0:
217,101,92466,2,0,P|236:159|246:213,1,101.920001244141,2|0,1:2|0:2,0:2:0:0:
388,378,92766,6,0,P|398:328|415:279,1,101.920001244141,10|0,0:2|0:2,0:2:0:0:
505,100,93066,1,2,1:2:0:0:
302,30,93216,1,2,0:2:0:0:
411,242,93366,2,0,P|496:232|522:230,1,101.920001244141,10|0,0:2|0:2,0:2:0:0:
315,63,93666,2,0,P|274:101|291:228,1,152.880001866211,2|2,1:2|0:2,0:2:0:0:
304,259,93966,2,0,P|240:235|174:223,1,101.920001244141,8|2,0:2|0:2,0:2:0:0:
114,47,94266,6,0,P|161:28|210:15,1,101.920001244141,2|0,1:2|0:2,0:2:0:0:
253,24,94491,1,10,0:2:0:0:
253,24,94566,1,0,1:2:0:0:
120,213,94716,1,10,0:2:0:0:
278,97,94866,2,0,P|325:116|374:129,1,101.920001244141,2|0,1:2|0:2,0:2:0:0:
417,121,95091,1,8,0:2:0:0:
417,121,95166,1,2,1:2:0:0:
222,237,95316,1,10,0:2:0:0:
451,39,95466,6,0,B|512:91|512:91|491:144|472:221,1,203.840002488281,2|8,1:2|0:2,0:2:0:0:
350,367,95916,1,2,0:2:0:0:
254,161,96066,1,10,0:2:0:0:
217,144,96141,1,8,0:2:0:0:
177,151,96216,1,8,0:2:0:0:
147,178,96291,1,8,0:2:0:0:
137,216,96366,2,0,P|146:276|147:285,1,50.9600006220703,8|8,0:2|0:2,0:2:0:0:
273,371,96516,2,0,P|282:311|283:302,1,50.9600006220703,10|8,0:2|0:2,0:2:0:0:
410,125,96666,5,6,1:2:0:0:
218,268,96816,1,2,0:2:0:0:
440,327,96966,1,10,0:2:0:0:
291,134,97116,1,2,0:2:0:0:
174,353,97266,1,2,1:2:0:0:
358,175,97416,1,2,0:2:0:0:
271,370,97566,1,10,0:2:0:0:
177,151,97716,1,2,0:2:0:0:
384,365,97866,6,0,P|449:352|492:345,1,101.920001244141,2|0,1:2|0:2,0:2:0:0:
343,128,98166,1,10,0:2:0:0:
192,312,98316,2,0,P|127:299|84:292,1,101.920001244141,2|0,0:2|1:2,0:2:0:0:
19,72,98616,2,0,P|84:59|238:43,1,203.840002488281,2|2,0:2|0:2,0:2:0:0:
415,245,99066,5,2,1:2:0:0:
321,26,99216,1,2,0:2:0:0:
216,235,99366,1,10,0:2:0:0:
141,18,99516,1,2,0:2:0:0:
122,260,99666,1,2,1:2:0:0:
288,102,99816,1,2,0:2:0:0:
226,328,99966,1,10,0:2:0:0:
132,130,100116,1,2,0:2:0:0:
399,239,100266,6,0,P|388:321|384:359,1,101.920001244141,2|0,1:2|0:2,0:2:0:0:
225,144,100566,1,10,0:2:0:0:
395,25,100716,2,0,P|406:107|410:145,1,101.920001244141,2|0,0:2|1:2,0:2:0:0:
212,245,101016,2,0,P|217:194|225:143,1,101.920001244141,2|8,0:2|0:2,0:2:0:0:
436,200,101316,2,0,P|443:250|449:301,1,101.920001244141,0|0,0:2|1:2,0:2:0:0:
306,130,101616,5,2,0:2:0:0:
501,38,101766,1,10,0:2:0:0:
333,246,101916,2,0,P|277:227|223:221,1,101.920001244141,2|0,0:2|1:2,0:2:0:0:
376,15,102216,5,2,0:2:0:0:
476,227,102366,1,10,0:2:0:0:
287,37,102516,1,2,0:2:0:0:
355,274,102666,5,2,1:2:0:0:
464,57,102816,1,2,0:2:0:0:
442,306,102966,1,10,0:2:0:0:
336,93,103116,1,2,0:2:0:0:
376,360,103266,1,2,1:2:0:0:
485,143,103416,1,2,0:2:0:0:
277,360,103566,2,0,P|187:337|61:313,1,203.840002488281,10|0,0:2|1:2,0:2:0:0:
0,148,104016,5,2,0:2:0:0:
40,344,104166,1,10,0:2:0:0:
149,152,104316,2,0,P|211:132|261:120,1,101.920001244141,2|0,0:2|1:2,0:2:0:0:
382,302,104616,5,2,0:2:0:0:
177,182,104766,1,10,0:2:0:0:
397,51,104916,1,2,0:2:0:0:
267,263,105066,5,2,1:2:0:0:
164,28,105216,1,2,1:2:0:0:
344,232,105366,1,10,0:2:0:0:
120,101,105516,1,10,0:2:0:0:
120,101,105591,1,8,0:2:0:0:
120,101,105666,5,10,0:2:0:0:
141,314,105816,1,0,1:2:0:0:
240,157,105966,1,2,1:2:0:0:
82,254,106116,1,0,1:2:0:0:
311,380,106266,6,0,P|321:320|327:276,1,92.8200005665283,4|0,1:2|0:2,0:2:0:0:
244,119,106566,1,2,0:2:0:0:
368,284,106716,1,2,1:2:0:0:
164,240,106866,1,10,0:2:0:0:
376,191,107016,1,6,1:2:0:0:
243,354,107166,1,2,0:2:0:0:
119,180,107316,1,10,0:2:0:0:
239,280,107466,6,0,P|315:257|360:248,1,92.8200005665283,6|0,1:2|0:2,0:2:0:0:
422,132,107766,1,2,0:2:0:0:
422,132,107916,2,0,P|346:109|301:100,1,92.8200005665283,2|8,0:2|0:2,0:2:0:0:
193,188,108216,1,4,1:2:0:0:
193,188,108366,2,0,P|237:176|282:162,1,92.8200005665283,2|8,0:2|0:2,0:2:0:0:
103,50,108666,6,0,P|58:97|65:142,1,92.8200005665283,4|0,1:2|0:2,0:2:0:0:
135,297,108966,1,2,0:2:0:0:
0,199,109116,1,2,1:2:0:0:
64,346,109266,1,10,0:2:0:0:
176,162,109416,1,6,1:2:0:0:
20,277,109566,1,2,0:2:0:0:
199,340,109716,1,10,0:2:0:0:
83,171,109866,6,0,P|93:233|101:279,1,92.8200005665283,6|8,1:2|0:2,0:2:0:0:
257,150,110166,1,2,1:2:0:0:
109,72,110316,1,2,1:2:0:0:
212,244,110466,1,8,0:2:0:0:
257,252,110541,1,0,1:2:0:0:
300,237,110616,1,2,1:2:0:0:
330,202,110691,1,0,1:2:0:0:
338,157,110766,2,0,P|325:95|319:51,1,92.8200005665283,14|2,0:2|0:2,0:2:0:0:
495,232,111066,6,0,P|448:268|393:260,1,92.8200005665283,6|0,1:2|0:2,0:2:0:0:
257,150,111366,1,10,0:2:0:0:
426,42,111516,2,0,P|460:86|455:141,1,92.8200005665283,2|0,0:2|1:2,0:2:0:0:
300,237,111816,1,8,0:2:0:0:
300,237,111891,1,8,0:2:0:0:
300,237,111966,2,0,P|235:224|220:221,1,46.4100002832642,8|8,0:2|0:2,0:2:0:0:
194,52,112116,2,0,P|259:39|274:36,1,46.4100002832642,8|8,0:2|0:2,0:2:0:0:
120,184,112266,6,0,P|64:166|16:158,1,92.8200005665283,2|2,0:2|0:2,0:2:0:0:
116,302,112566,2,0,P|172:284|220:276,1,92.8200005665283,2|2,0:2|0:2,0:2:0:0:
323,113,112866,1,2,1:2:0:0:
323,113,112941,1,0,1:2:0:0:
323,113,113016,2,0,P|258:100|241:96,1,46.4100002832642,8|10,0:2|0:2,0:2:0:0:
389,277,113166,2,0,P|411:272|439:267,1,46.4100002832642,0|8,1:2|0:2,0:2:0:0:
496,90,113316,2,0,P|473:85|443:78,1,46.4100002832642,10|8,0:2|0:2,0:2:0:0:
257,314,113466,6,0,P|249:269|239:224,1,92.8200005665283,6|0,1:2|0:2,0:2:0:0:
161,63,113766,1,10,0:2:0:0:
318,236,113916,2,0,P|325:190|336:145,1,92.8200005665283,2|0,0:2|1:2,0:2:0:0:
432,2,114216,1,2,0:2:0:0:
250,149,114366,2,0,P|239:103|231:58,1,92.8200005665283,10|0,0:2|0:2,0:2:0:0:
364,208,114666,5,2,1:2:0:0:
158,254,114816,1,0,0:2:0:0:
286,112,114966,1,10,0:2:0:0:
227,325,115116,1,2,0:2:0:0:
76,170,115266,1,0,1:2:0:0:
287,278,115416,1,2,0:2:0:0:
65,339,115566,1,10,0:2:0:0:
168,158,115716,1,2,0:2:0:0:
301,356,115866,6,0,P|367:344|399:338,1,92.8200005665283,2|0,1:2|0:2,0:2:0:0:
502,182,116166,1,10,0:2:0:0:
297,129,116316,2,0,P|320:184|328:223,1,92.8200005665283,2|0,0:2|1:2,0:2:0:0:
434,50,116616,1,2,0:2:0:0:
233,9,116766,2,0,P|210:64|202:103,1,92.8200005665283,10|0,0:2|0:2,0:2:0:0:
189,288,117066,5,2,1:2:0:0:
297,129,117216,1,0,0:2:0:0:
55,146,117366,1,10,0:2:0:0:
265,254,117516,1,2,0:2:0:0:
102,65,117666,1,0,1:2:0:0:
113,269,117816,1,2,0:2:0:0:
255,114,117966,1,10,0:2:0:0:
319,342,118116,1,10,0:2:0:0:
319,342,118191,1,8,0:2:0:0:
319,342,118266,5,2,1:2:0:0:
147,197,118416,1,2,0:2:0:0:
333,101,118566,1,10,0:2:0:0:
192,259,118716,1,2,0:2:0:0:
191,52,118866,1,2,1:2:0:0:
364,176,119016,1,2,1:2:0:0:
168,122,119166,1,8,0:2:0:0:
333,303,119316,6,0,P|392:292|448:283,1,92.8200005665283,6|0,1:2|0:2,0:2:0:0:
255,114,119616,1,10,0:2:0:0:
154,369,119766,1,10,0:2:0:0:
364,176,119916,2,0,P|356:236|351:274,1,92.8200005665283,10|0,0:2|0:2,0:2:0:0:
143,130,120216,1,10,0:2:0:0:
401,38,120366,1,8,0:2:0:0:
203,193,120516,1,8,0:2:0:0:
463,335,120666,5,4,1:2:0:0:
331,178,120816,1,8,0:2:0:0:
331,178,120891,1,8,0:2:0:0:
331,178,120966,2,0,P|338:237|339:251,1,46.4100002832642,8|8,1:2|1:2,0:2:0:0:
274,364,121116,2,0,P|281:305|282:291,1,46.4100002832642,0|0,1:2|1:2,0:2:0:0:
455,185,121266,5,8,0:2:0:0:
406,278,121491,5,4,1:2:0:0:
356,371,121716,5,4,1:2:0:0:
261,111,122016,5,0,1:2:0:0:
261,111,122091,1,0,1:2:0:0:
261,111,122166,2,0,B|189:72|132:111|156:135|103:174|37:144,1,223.860003415833,8|0,0:2|0:2,0:2:0:0:
0,289,122916,1,0,0:2:0:0:
80,373,123066,6,0,P|127:366|163:360,1,76.4399976672364,6|2,1:2|0:2,0:2:0:0:
229,294,123516,2,0,P|276:301|312:307,1,76.4399976672364,2|2,0:2|0:2,0:2:0:0:
372,379,123966,1,2,0:2:0:0:
372,379,125166,6,0,P|375:334|377:324,1,38.2199988336182,2|2,0:2|0:2,0:2:0:0:
422,264,125466,2,0,P|362:242|336:236,1,76.4399976672364,2|2,0:2|0:2,0:2:0:0:
276,165,125916,2,0,P|336:143|362:137,1,76.4399976672364,2|2,0:2|0:2,0:2:0:0:
427,180,126366,1,2,0:2:0:0:
427,180,127716,5,2,0:2:0:0:
427,180,127866,2,0,P|366:162|344:157,1,76.4399976672364,2|2,0:2|0:2,0:2:0:0:
295,240,128316,2,0,P|234:258|212:263,1,76.4399976672364,2|2,0:2|0:2,0:2:0:0:
134,211,128766,1,2,0:2:0:0:
134,211,129966,6,0,P|126:171|125:166,1,38.2199988336182,2|0,0:2|0:2,0:2:0:0:
73,88,130266,2,0,P|149:80|196:86,1,114.659996500855,2|2,0:2|0:2,0:2:0:0:
233,171,130866,2,0,P|309:179|356:173,1,114.659996500855,2|2,0:2|0:2,0:2:0:0:
430,120,131466,1,2,0:2:0:0:
430,120,132066,6,0,L|434:165,3,37.3100005693054,8|8|8|8,0:2|0:2|0:2|0:2,0:2:0:0:
352,250,132366,2,0,L|356:205,3,37.3100005693054,0|0|0|0,1:2|1:2|1:2|1:2,0:2:0:0:
280,115,132666,1,8,0:2:0:0:
261,110,132741,1,0,1:2:0:0:
243,107,132816,1,0,1:2:0:0:
224,106,132891,1,0,1:2:0:0:
204,106,132966,6,0,P|192:145|178:194,1,83.7199971895753,4|2,1:2|0:2,0:2:0:0:
219,345,133266,1,2,1:2:0:0:
110,220,133416,1,10,0:2:0:0:
58,373,133566,1,2,1:2:0:0:
186,274,133716,1,2,1:2:0:0:
0,181,133866,6,0,P|10:227|20:268,1,83.7199971895753,10|0,0:2|0:2,0:2:0:0:
134,143,134166,1,2,1:2:0:0:
134,143,134316,2,0,P|196:134|231:129,1,83.7199971895753,10|0,0:2|0:2,0:2:0:0:
328,9,134616,1,2,1:2:0:0:
136,45,134766,1,10,0:2:0:0:
299,162,134916,1,8,0:2:0:0:
299,162,134991,1,8,0:2:0:0:
299,162,135066,5,4,1:2:0:0:
210,31,135216,1,8,1:2:0:0:
122,187,135366,2,0,P|131:237|138:278,1,83.7199971895753,8|2,0:2|0:2,0:2:0:0:
292,340,135666,2,0,P|301:290|308:249,1,83.7199971895753,10|2,0:2|0:2,0:2:0:0:
191,104,135966,1,2,1:2:0:0:
136,269,136116,1,10,0:2:0:0:
312,131,136266,6,0,P|321:81|334:38,1,83.7199971895753,2|0,0:2|1:2,0:2:0:0:
208,201,136566,1,14,0:2:0:0:
234,29,136716,1,2,0:2:0:0:
389,148,136866,1,0,1:2:0:0:
401,178,136941,1,8,0:2:0:0:
398,211,137016,1,2,1:2:0:0:
378,238,137091,1,0,1:2:0:0:
348,251,137166,2,0,P|301:242|276:238,1,41.8599985947876,2|0,1:2|1:2,0:2:0:0:
179,130,137316,2,0,P|226:121|251:117,1,41.8599985947876,0|0,1:2|1:2,0:2:0:0:
173,317,137466,6,0,P|126:348|33:282,1,167.439994379151,4|8,1:2|0:2,0:2:0:0:
15,125,137916,1,2,0:2:0:0:
165,212,138066,1,2,1:2:0:0:
19,331,138216,1,2,1:2:0:0:
126,187,138366,1,10,0:2:0:0:
185,354,138516,1,2,0:2:0:0:
29,173,138666,6,0,P|31:214|33:256,1,83.7199971895753,2|0,1:2|1:2,0:2:0:0:
114,76,138966,1,10,0:2:0:0:
114,76,139116,2,0,P|111:117|109:159,1,83.7199971895753,2|0,0:2|1:2,0:2:0:0:
201,257,139416,1,2,0:2:0:0:
201,257,139566,2,0,P|258:251|304:245,1,83.7199971895753,10|0,0:2|1:2,0:2:0:0:
321,260,139791,1,0,1:2:0:0:
321,260,139866,5,12,0:2:0:0:
210,64,140016,1,0,1:2:0:0:
175,300,140166,5,8,0:2:0:0:
291,101,140316,1,2,1:2:0:0:
332,346,140466,5,10,0:2:0:0:
215,146,140616,1,2,1:2:0:0:
174,382,140766,5,10,0:2:0:0:
290,183,140916,2,0,P|356:184|402:190,1,83.7199971895753,6|2,0:2|0:2,0:2:0:0:
134,295,141216,2,0,L|126:199,1,83.7199971895753,8|2,0:2|0:2,0:2:0:0:
106,21,141516,1,12,0:2:0:0:
209,215,141666,1,2,1:2:0:0:
14,20,141816,5,8,0:2:0:0:
288,153,141966,1,8,0:2:0:0:
45,305,142116,1,8,0:2:0:0:
196,98,142266,6,0,P|207:143|208:150,2,38.2199988336182,2|2|2,0:2|0:2|0:2,0:2:0:0:
298,29,142716,2,0,P|287:74|286:81,2,38.2199988336182,2|2|2,0:2|0:2|0:2,0:2:0:0:
394,69,143166,2,0,P|405:114|406:121,1,38.2199988336182,2|2,0:2|0:2,0:2:0:0:
323,198,143466,5,2,0:2:0:0:
379,280,143766,1,2,0:2:0:0:
347,336,144066,1,2,0:2:0:0:
347,336,144666,6,0,P|378:310|426:301,1,76.4399976672364,2|2,0:2|0:2,0:2:0:0:
499,346,145116,2,0,P|511:375|515:389,2,38.2199988336182,2|2|2,0:2|0:2|0:2,0:2:0:0:
495,257,145566,2,0,L|499:204,1,38.2199988336182,2|2,0:2|0:2,0:2:0:0:
410,102,145866,5,2,0:2:0:0:
309,166,146166,1,2,0:2:0:0:
243,120,146466,1,2,0:2:0:0:
243,120,146916,5,2,0:2:0:0:
243,120,147066,2,0,P|238:174|234:205,1,76.4399976672364,2|2,0:2|0:2,0:2:0:0:
198,285,147516,2,0,L|225:329,2,38.2199988336182,2|2|2,0:2|0:2|0:2,0:2:0:0:
138,211,147966,2,0,P|102:207|92:205,1,38.2199988336182,2|2,0:2|0:2,0:2:0:0:
15,114,148266,5,2,0:2:0:0:
132,359,148566,5,2,0:2:0:0:
264,150,148866,5,10,0:2:0:0:
296,131,148941,1,0,1:2:0:0:
332,124,149016,1,0,1:2:0:0:
369,128,149091,1,0,1:2:0:0:
403,142,149166,6,0,P|417:201|428:273,1,111.930001707916,14|0,0:2|0:2,0:2:0:0:
402,331,149466,5,6,0:2:0:0:
260,234,149616,1,8,0:2:0:0:
226,218,149691,1,8,0:2:0:0:
189,219,149766,1,10,0:2:0:0:
155,234,149841,1,8,0:2:0:0:
121,250,149916,1,10,0:2:0:0:
84,249,149991,1,8,0:2:0:0:
50,233,150066,2,0,P|41:182|38:169,3,41.8599985947876,8|8|8|8,0:2|0:2|0:2|0:2,0:2:0:0:
145,109,150366,2,0,P|135:160|132:175,3,41.8599985947876,10|8|8|8,0:2|0:2|0:2|0:2,0:2:0:0:
38,90,150666,5,10,0:2:0:0:
49,54,150741,1,8,0:2:0:0:
73,26,150816,1,8,0:2:0:0:
105,7,150891,1,8,0:2:0:0:
142,1,150966,1,10,0:2:0:0:
178,8,151041,1,8,0:2:0:0:
209,28,151116,2,0,L|219:85,3,41.8599985947876,10|8|8|8,0:2|0:2|0:2|0:2,0:2:0:0:
330,193,151416,1,8,0:2:0:0:
330,193,151491,1,8,0:2:0:0:
330,193,151566,2,0,L|339:136,1,41.8599985947876,10|8,0:2|0:2,0:2:0:0:
145,109,151716,2,0,L|156:163,1,41.8599985947876,8|8,0:2|0:2,0:2:0:0:
171,339,151866,6,0,P|231:318|296:313,1,125.579995784363,6|0,0:2|0:2,0:2:0:0:
343,346,152166,6,0,P|350:288|360:246,1,83.7199971895753,4|0,0:2|0:2,0:2:0:0:
464,123,152466,2,0,L|481:174,1,41.8599985947876,8|0,0:2|1:2,0:2:0:0:
291,176,152616,2,0,L|308:125,1,41.8599985947876,2|0,1:2|1:2,0:2:0:0:
486,240,152766,1,10,0:2:0:0:
300,378,152916,2,0,P|247:363|178:353,1,125.579995784363,6|0,1:2|0:2,0:2:0:0:
118,365,153216,5,8,0:2:0:0:
263,74,153366,1,8,0:2:0:0:
379,341,153516,1,10,0:2:0:0:
379,341,153666,6,0,P|384:289|386:274,1,47.3199997111816,2|2,0:2|0:2,0:2:0:0:
268,290,153966,2,0,P|263:238|261:223,1,47.3199997111816,2|2,0:2|0:2,0:2:0:0:
421,54,154266,6,0,P|409:109|396:187,1,101.920001244141,6|0,1:2|0:2,0:2:0:0:
233,7,154566,1,8,0:2:0:0:
294,248,154716,1,2,0:2:0:0:
383,44,154866,1,2,1:2:0:0:
166,146,155016,1,2,0:2:0:0:
361,297,155166,1,10,0:2:0:0:
289,112,155316,1,2,0:2:0:0:
73,284,155466,6,0,P|81:337|88:389,1,101.920001244141,2|0,1:2|0:2,0:2:0:0:
235,183,155766,1,10,0:2:0:0:
63,71,155916,2,0,P|55:124|48:176,1,101.920001244141,2|0,0:2|1:2,0:2:0:0:
263,311,156216,1,2,0:2:0:0:
212,77,156366,1,10,0:2:0:0:
100,268,156516,1,2,0:2:0:0:
388,191,156666,6,0,P|399:121|408:75,1,101.920001244141,2|0,1:2|0:2,0:2:0:0:
206,233,156966,2,0,P|217:303|226:349,1,101.920001244141,10|0,0:2|0:2,0:2:0:0:
308,134,157266,2,0,P|244:105|207:107,1,101.920001244141,2|0,1:2|0:2,0:2:0:0:
354,311,157566,2,0,P|404:307|448:282,1,101.920001244141,10|0,0:2|0:2,0:2:0:0:
480,66,157866,2,0,P|445:21|306:80,2,203.840002488281,2|8|0,1:2|0:2|1:2,0:2:0:0:
317,207,158616,1,2,0:2:0:0:
495,345,158766,1,10,0:2:0:0:
381,144,158916,1,2,0:2:0:0:
214,381,159066,5,6,1:2:0:0:
423,218,159216,1,2,0:2:0:0:
202,124,159366,1,10,0:2:0:0:
363,270,159516,1,2,0:2:0:0:
216,14,159666,2,0,P|158:19|105:25,1,101.920001244141,2|0,1:2|0:2,0:2:0:0:
251,232,159966,5,10,0:2:0:0:
363,21,160116,1,2,0:2:0:0:
470,256,160266,1,2,1:2:0:0:
316,95,160416,1,2,0:2:0:0:
217,358,160566,2,0,P|131:341|12:326,1,203.840002488281,10|0,0:2|1:2,0:2:0:0:
152,147,161016,5,2,0:2:0:0:
257,355,161166,1,10,0:2:0:0:
61,242,161316,1,2,0:2:0:0:
262,56,161466,6,0,P|247:119|227:213,1,152.880001866211,2|2,1:2|0:2,0:2:0:0:
212,278,161766,1,8,0:2:0:0:
53,130,161916,1,2,0:2:0:0:
288,257,162066,2,0,P|364:241|448:233,1,152.880001866211,2|2,1:2|0:2,0:2:0:0:
506,275,162366,2,0,L|520:349,1,50.9600006220703,8|8,0:2|0:2,0:2:0:0:
340,379,162516,2,0,L|326:305,1,50.9600006220703,2|0,1:2|1:2,0:2:0:0:
404,97,162666,6,0,P|392:156|381:213,1,101.920001244141,14|0,0:2|0:2,0:2:0:0:
211,354,162966,1,6,0:2:0:0:
384,240,163116,1,2,0:2:0:0:
140,112,163266,5,8,1:2:0:0:
151,73,163341,1,0,1:2:0:0:
182,48,163416,1,8,0:2:0:0:
222,44,163491,1,8,0:2:0:0:
257,63,163566,2,0,L|280:113,1,50.9600006220703,8|8,0:2|0:2,0:2:0:0:
197,221,163716,2,0,L|219:171,1,50.9600006220703,8|8,0:2|0:2,0:2:0:0:
405,95,163866,6,0,B|448:130|448:130|427:182|411:230,1,152.880001866211,6|2,1:2|0:2,0:2:0:0:
402,302,164166,1,8,0:2:0:0:
277,136,164316,1,2,0:2:0:0:
149,349,164466,2,0,P|193:317|288:324,1,152.880001866211,2|2,1:2|0:2,0:2:0:0:
325,374,164766,1,8,0:2:0:0:
399,156,164916,1,2,0:2:0:0:
197,221,165066,6,0,P|144:207|86:199,1,101.920001244141,2|0,1:2|0:2,0:2:0:0:
247,41,165366,1,10,0:2:0:0:
355,235,165516,2,0,P|405:227|454:213,1,101.920001244141,2|0,0:2|1:2,0:2:0:0:
289,58,165816,1,2,0:2:0:0:
211,256,165966,1,10,0:2:0:0:
363,125,166116,1,2,0:2:0:0:
93,200,166266,6,0,P|104:267|114:313,1,101.920001244141,2|0,1:2|0:2,0:2:0:0:
345,377,166566,2,0,P|355:327|363:276,1,101.920001244141,10|0,0:2|0:2,0:2:0:0:
182,114,166866,2,0,P|193:181|203:227,1,101.920001244141,2|0,1:2|0:2,0:2:0:0:
453,306,167166,2,0,P|463:256|471:205,1,101.920001244141,10|0,0:2|0:2,0:2:0:0:
306,13,167466,2,0,B|237:-2|196:37|218:57|174:99|103:81,2,203.840002488281,2|8|0,1:2|0:2|1:2,0:2:0:0:
497,134,168216,1,2,0:2:0:0:
281,216,168366,1,10,0:2:0:0:
438,66,168516,1,2,0:2:0:0:
472,340,168666,5,6,1:2:0:0:
305,139,168816,1,2,0:2:0:0:
273,348,168966,1,10,0:2:0:0:
386,165,169116,1,2,0:2:0:0:
162,298,169266,6,0,P|103:286|52:278,1,101.920001244141,2|0,1:2|0:2,0:2:0:0:
236,67,169566,1,10,0:2:0:0:
353,238,169716,1,2,0:2:0:0:
166,99,169866,5,2,1:2:0:0:
366,3,170016,1,2,0:2:0:0:
182,182,170166,2,0,P|192:252|199:309,1,101.920001244141,10|0,0:2|0:2,0:2:0:0:
363,86,170466,6,0,P|430:79|486:155,1,152.880001866211,2|2,1:2|0:2,0:2:0:0:
494,182,170766,1,8,0:2:0:0:
293,316,170916,1,2,0:2:0:0:
296,31,171066,6,0,P|313:101|326:156,1,101.920001244141,6|0,1:2|0:2,0:2:0:0:
333,182,171291,1,10,0:2:0:0:
333,182,171366,1,0,1:2:0:0:
480,18,171516,1,10,0:2:0:0:
180,177,171666,2,0,P|197:107|210:52,1,101.920001244141,2|0,1:2|0:2,0:2:0:0:
217,26,171891,1,10,0:2:0:0:
217,26,171966,1,0,1:2:0:0:
308,261,172116,1,10,0:2:0:0:
78,141,172266,6,0,P|100:215|131:347,1,203.840002488281,6|8,1:2|0:2,0:2:0:0:
255,171,172716,1,0,0:2:0:0:
389,344,172866,1,2,1:2:0:0:
430,353,172941,1,8,0:2:0:0:
469,336,173016,1,8,0:2:0:0:
490,301,173091,1,8,0:2:0:0:
487,259,173166,2,0,P|459:242|422:231,1,50.9600006220703,8|8,0:2|0:2,0:2:0:0:
289,368,173316,2,0,P|319:355|351:339,1,50.9600006220703,10|8,0:2|0:2,0:2:0:0:
381,144,173466,5,6,1:2:0:0:
495,348,173616,1,2,0:2:0:0:
278,278,173766,1,10,0:2:0:0:
478,120,173916,1,2,0:2:0:0:
349,297,174066,1,2,1:2:0:0:
252,79,174216,1,2,0:2:0:0:
387,220,174366,1,10,0:2:0:0:
450,22,174516,1,2,0:2:0:0:
254,207,174666,6,0,P|194:193|144:184,1,101.920001244141,2|0,1:2|0:2,0:2:0:0:
32,344,174966,1,10,0:2:0:0:
0,112,175116,2,0,P|60:98|110:89,1,101.920001244141,2|0,0:2|1:2,0:2:0:0:
175,274,175416,2,0,P|124:264|75:252,1,101.920001244141,2|8,0:2|0:2,0:2:0:0:
212,91,175716,1,2,0:2:0:0:
322,323,175866,5,2,1:2:0:0:
126,157,176016,1,2,0:2:0:0:
207,375,176166,1,10,0:2:0:0:
352,137,176316,1,2,0:2:0:0:
163,308,176466,1,2,1:2:0:0:
374,236,176616,1,2,0:2:0:0:
212,91,176766,1,10,0:2:0:0:
422,175,176916,1,2,0:2:0:0:
163,308,177066,6,0,P|153:249|142:182,1,101.920001244141,2|0,1:2|0:2,0:2:0:0:
61,10,177366,1,10,0:2:0:0:
306,16,177516,2,0,P|296:75|285:142,1,101.920001244141,2|0,0:2|1:2,0:2:0:0:
71,220,177816,2,0,P|61:161|50:94,1,101.920001244141,2|8,0:2|0:2,0:2:0:0:
294,205,178116,2,0,P|284:264|273:331,1,101.920001244141,0|0,0:2|1:2,0:2:0:0:
170,122,178416,5,2,0:2:0:0:
395,101,178566,1,10,0:2:0:0:
180,277,178716,2,0,P|125:268|65:263,1,101.920001244141,2|0,0:2|1:2,0:2:0:0:
266,79,179016,5,2,0:2:0:0:
332,317,179166,1,10,0:2:0:0:
170,122,179316,1,2,0:2:0:0:
89,378,179466,5,2,1:2:0:0:
280,176,179616,1,2,0:2:0:0:
18,137,179766,1,10,0:2:0:0:
204,259,179916,1,2,0:2:0:0:
114,26,180066,2,0,P|95:98|76:162,1,101.920001244141,2|0,1:2|0:2,0:2:0:0:
246,331,180366,2,0,B|318:303|382:282|382:282|450:324,1,203.840002488281,10|0,0:2|1:2,0:2:0:0:
512,118,180816,5,2,0:2:0:0:
358,256,180966,1,10,0:2:0:0:
261,51,181116,2,0,P|205:38|154:30,1,101.920001244141,2|0,0:2|1:2,0:2:0:0:
237,247,181416,5,2,0:2:0:0:
367,46,181566,1,10,0:2:0:0:
164,158,181716,1,2,0:2:0:0:
342,369,181866,5,2,1:2:0:0:
257,139,182016,1,2,0:2:0:0:
87,332,182166,1,10,0:2:0:0:
199,81,182316,1,2,0:2:0:0:
322,284,182466,5,10,0:2:0:0:
388,287,182566,1,8,0:2:0:0:
438,254,182666,1,8,0:2:0:0:
457,203,182766,5,2,1:2:0:0:
446,152,182866,1,0,1:2:0:0:
416,117,182966,1,0,1:2:0:0:
372,102,183066,6,0,L|376:223,1,92.8200005665283,4|0,1:2|1:2,0:2:0:0:
474,339,183366,1,2,0:2:0:0:
303,223,183516,1,2,1:2:0:0:
458,113,183666,1,10,0:2:0:0:
312,315,183816,1,6,1:2:0:0:
288,140,183966,1,2,0:2:0:0:
438,254,184116,1,10,0:2:0:0:
223,369,184266,6,0,P|173:359|128:349,1,92.8200005665283,6|0,1:2|0:2,0:2:0:0:
84,202,184566,1,2,0:2:0:0:
84,202,184716,2,0,P|134:192|179:182,1,92.8200005665283,2|8,0:2|0:2,0:2:0:0:
338,21,185016,1,4,0:2:0:0:
265,216,185166,1,2,0:2:0:0:
152,90,185316,1,8,0:2:0:0:
401,202,185466,6,0,P|393:264|388:314,1,92.8200005665283,4|0,1:2|0:2,0:2:0:0:
251,138,185766,1,2,0:2:0:0:
422,85,185916,1,2,1:2:0:0:
303,206,186066,1,10,0:2:0:0:
260,0,186216,1,6,0:2:0:0:
171,167,186366,1,2,1:2:0:0:
333,86,186516,1,10,0:2:0:0:
100,30,186666,6,0,P|110:90|119:143,1,92.8200005665283,6|8,1:2|0:2,0:2:0:0:
26,300,186966,1,2,1:2:0:0:
8,140,187116,1,2,1:2:0:0:
164,309,187266,1,8,0:2:0:0:
196,325,187341,1,0,1:2:0:0:
233,326,187416,1,2,1:2:0:0:
266,309,187491,1,0,1:2:0:0:
288,280,187566,2,0,P|295:225|307:172,1,92.8200005665283,12|2,0:2|0:2,0:2:0:0:
189,41,187866,5,6,1:2:0:0:
97,243,188016,1,2,1:2:0:0:
258,79,188166,1,10,0:2:0:0:
330,284,188316,2,0,P|387:267|443:254,1,92.8200005665283,2|0,1:2|1:2,0:2:0:0:
502,77,188616,1,8,0:2:0:0:
502,77,188691,1,8,0:2:0:0:
502,77,188766,2,0,P|440:54|419:51,1,46.4100002832642,8|8,0:2|0:2,0:2:0:0:
330,164,188916,2,0,P|351:156|372:145,1,46.4100002832642,8|8,0:2|0:2,0:2:0:0:
505,260,189066,6,0,P|495:325|490:365,1,92.8200005665283,2|2,0:2|0:2,0:2:0:0:
343,375,189366,2,0,P|333:310|328:270,1,92.8200005665283,2|10,0:2|0:2,0:2:0:0:
302,240,189591,1,8,0:2:0:0:
302,240,189666,1,10,0:2:0:0:
172,191,189816,1,0,1:2:0:0:
104,264,189966,1,0,1:2:0:0:
21,225,190116,1,2,1:2:0:0:
46,73,190266,6,0,B|142:51|246:156|246:156|308:43|444:36,1,458.639986003418,6|0,0:2|0:2,0:2:0:0:
504,99,192666,2,0,P|459:213|449:329,1,229.319993001709,4|0,0:2|0:2,0:2:0:0:
448,318,193866,6,0,P|390:310|332:308,1,114.659996500855,4|0,0:2|0:2,0:2:0:0:
272,335,194391,1,0,0:2:0:0:
272,335,194466,2,0,P|256:280|253:267,2,50.9599984448243,8|0|0,0:2|1:2|1:2,0:2:0:0:
167,302,195066,2,0,B|90:409|-71:329|-3:134|73:187|119:44,1,458.639986003418,4|0,0:2|0:2,0:2:0:0:
119,50,197016,1,0,0:2:0:0:
220,37,197166,2,0,L|222:85,1,38.2199988336182,0|0,0:2|0:2,0:2:0:0:
177,186,197466,6,0,B|245:170|284:216|268:232|321:290|395:256,1,229.319993001709,4|0,1:2|0:2,0:2:0:0:
378,261,198666,6,0,P|329:275|256:303,1,114.659996500855,4|0,1:2|1:2,0:2:0:0:
224,294,199191,1,0,1:2:0:0:
224,294,199266,2,0,P|212:340|206:361,2,50.9599984448243,8|8|8,0:2|0:2|0:2,0:2:0:0:
151,194,199866,6,0,P|118:187|54:178,3,94.6399994223633,0|0|0|0,1:2|1:2|1:2|1:2,0:2:0:0:
105,43,201066,2,0,P|138:36|202:27,3,94.6399994223633,0|0|0|0,1:2|1:2|1:2|1:2,0:2:0:0:
265,212,202266,1,0,1:2:0:0:
339,122,202566,1,0,1:2:0:0:
172,240,202866,1,0,1:2:0:0:
418,382,203166,2,0,P|423:325|427:271,1,94.6399994223633,0|0,1:2|0:2,0:2:0:0:
425,287,204666,6,0,P|385:275|321:294,1,98.2800023994141,6|2,1:2|0:2,0:2:0:0:
197,229,205142,2,0,P|213:290|221:330,1,98.2800023994141,2|2,0:2|0:2,0:2:0:0:
95,241,205609,2,0,P|105:192|118:145,1,98.2800023994141,2|2,0:2|0:2,0:2:0:0:
196,61,206101,2,0,P|261:49|293:41,1,98.2800023994141,2|2,0:2|0:2,0:2:0:0:
381,115,206592,1,2,0:2:0:0:
381,115,206892,1,2,0:2:0:0:
309,201,207235,2,0,P|320:262|329:301,1,98.2800023994141,2|2,0:2|0:2,0:2:0:0:
417,366,207684,2,0,P|427:285|434:252,1,98.2800023994141,2|2,0:2|0:2,0:2:0:0:
489,173,208171,2,0,P|428:156|371:147,1,98.2800023994141,2|2,0:2|0:2,0:2:0:0:
275,39,208663,5,2,0:2:0:0:
163,122,208890,2,0,L|159:175,2,32.7600007998047,2|0|0,0:2|0:2|0:2,0:2:0:0:
282,209,209094,2,0,L|279:176,3,32.7600007998047,2|0|0|0,0:2|0:2|0:2|0:2,0:2:0:0:
148,263,209397,2,0,L|145:295,3,32.7600007998047,2|0|0|0,0:2|0:2|0:2|0:2,0:2:0:0:
356,307,209722,5,14,0:2:0:0:
391,298,209801,1,0,0:2:0:0:
420,275,209880,1,0,0:2:0:0:
435,242,209960,1,2,0:2:0:0:
434,205,210039,1,0,0:2:0:0:
416,173,210118,1,0,0:2:0:0:
385,152,210196,2,0,P|337:146|327:145,5,46.4100002832642,2|0|0|2|0|0,1:2|0:2|0:2|0:2|0:2|0:2,0:2:0:0:
224,244,210670,2,0,P|201:247|177:249,5,46.4100002832642,2|0|0|2|0|0,1:2|0:2|0:2|0:2|0:2|0:2,0:2:0:0:
75,111,211144,1,2,1:2:0:0:
85,74,211223,1,0,0:2:0:0:
106,45,211301,1,0,0:2:0:0:
137,24,211380,1,2,0:2:0:0:
173,15,211459,1,0,0:2:0:0:
209,19,211538,1,0,0:2:0:0:
243,35,211617,2,0,L|250:92,3,46.4100002832642,2|0|0|0,1:2|0:2|0:2|0:2,0:2:0:0:
161,187,211933,2,0,L|156:140,3,46.4100002832642,2|0|0|0,1:2|0:2|0:2|0:2,0:2:0:0:
336,263,212249,5,6,1:2:0:0:
340,299,212328,1,0,0:2:0:0:
328,334,212407,1,0,0:2:0:0:
304,361,212486,1,2,0:2:0:0:
270,376,212565,1,0,0:2:0:0:
233,375,212644,1,0,0:2:0:0:
196,354,212723,2,0,L|148:333,5,46.4100002832642,6|0|0|2|0|0,1:2|0:2|0:2|0:2|0:2|0:2,0:2:0:0:
213,188,213196,2,0,L|257:202,5,46.4100002832642,6|0|0|2|0|0,1:2|0:2|0:2|0:2|0:2|0:2,0:2:0:0:
33,267,213670,2,0,L|21:207,1,46.4100002832642,6|0,1:2|0:2,0:2:0:0:
113,67,213828,2,0,L|101:127,1,46.4100002832642,0|2,0:2|0:2,0:2:0:0:
175,268,213986,2,0,L|187:208,1,46.4100002832642,0|0,0:2|0:2,0:2:0:0:
207,46,214144,5,6,1:2:0:0:
246,36,214223,1,0,0:2:0:0:
282,39,214301,1,0,0:2:0:0:
314,63,214380,1,0,0:2:0:0:
331,95,214459,1,2,0:2:0:0:
345,134,214538,1,0,0:2:0:0:
379,163,214617,1,0,0:2:0:0:
423,170,214696,1,0,0:2:0:0:
465,153,214775,5,6,1:2:0:0:
492,117,214854,1,0,0:2:0:0:
496,72,214933,1,0,0:2:0:0:
476,31,215012,1,0,0:2:0:0:
436,11,215091,1,0,0:2:0:0:
389,10,215170,1,0,0:2:0:0:
353,39,215249,2,0,L|373:106,1,50.9600006220703,6|0,1:2|0:2,0:2:0:0:
482,266,215407,2,0,L|496:217,3,50.9600006220703,0|2|0|0,0:2|0:2|0:2|0:2,0:2:0:0:
320,356,215723,5,6,0:2:0:0:
272,372,215801,1,0,0:2:0:0:
222,365,215880,1,0,0:2:0:0:
180,337,215959,1,2,0:2:0:0:
154,294,216038,1,0,0:2:0:0:
151,243,216117,1,0,0:2:0:0:
170,197,216196,2,0,P|224:185|243:185,3,50.9600006220703,6|0|0|2,1:2|0:2|0:2|0:2,0:2:0:0:
336,82,216512,1,0,0:2:0:0:
336,82,216591,1,0,0:2:0:0:
336,82,216670,2,0,P|282:69|263:69,3,50.9600006220703,6|0|0|0,1:2|0:2|0:2|0:2,0:2:0:0:
405,301,216986,6,0,P|415:244|419:226,1,50.9600006220703,6|0,1:2|0:2,0:2:0:0:
251,89,217144,2,0,P|261:146|265:164,1,50.9600006220703,0|0,0:2|0:2,0:2:0:0:
147,326,217301,2,0,P|137:269|133:251,3,50.9600006220703,6|0|0|0,0:2|0:2|0:2|0:2,0:2:0:0:
330,217,217617,2,0,P|320:274|316:292,1,50.9600006220703,0|0,0:2|0:2,0:2:0:0:
52,140,217775,5,6,1:2:0:0:
54,92,217854,1,0,0:2:0:0:
81,49,217933,1,0,0:2:0:0:
126,26,218012,1,0,0:2:0:0:
176,25,218091,1,0,0:2:0:0:
221,48,218170,1,0,0:2:0:0:
251,89,218249,2,0,L|253:154,3,50.9600006220703,6|0|0|0,1:2|0:2|0:2|0:2,0:2:0:0:
123,253,218565,1,0,0:2:0:0:
123,253,218644,1,0,0:2:0:0:
123,253,218723,6,0,L|112:188,3,50.9600006220703,6|0|0|0,1:2|0:2|0:2|0:2,0:2:0:0:
259,297,219038,1,0,0:2:0:0:
259,297,219117,1,0,0:2:0:0:
259,297,219196,2,0,L|247:365,3,50.9600006220703,6|0|0|0,1:2|0:2|0:2|0:2,0:2:0:0:
317,205,219512,1,0,0:2:0:0:
347,164,219591,1,0,0:2:0:0:
393,145,219670,1,0,0:2:0:0:
443,151,219749,1,0,0:2:0:0:
482,183,219828,2,0,L|481:240,1,50.9600006220703,14|0,0:0|0:0,0:0:0:0:
281,13,219986,5,0,1:2:0:0:
278,63,220065,1,0,0:2:0:0:
276,114,220144,1,0,0:2:0:0:
274,165,220223,1,0,0:2:0:0:
272,216,220301,2,0,L|275:276,1,50.9600006220703,14|0,0:0|0:0,0:0:0:0:
167,39,220459,5,0,1:2:0:0:
119,22,220538,1,0,0:2:0:0:
70,34,220617,1,0,0:2:0:0:
35,70,220696,1,0,0:2:0:0:
26,120,220775,2,0,L|37:185,1,55.5099977130586,14|0,0:2|0:2,0:2:0:0:
156,348,220933,2,0,L|168:284,3,55.5099977130586,8|2|0|0,0:2|0:2|0:2|0:2,0:2:0:0:
206,111,221249,2,0,L|193:183,1,55.5099977130586,14|0,0:2|0:2,0:2:0:0:
40,317,221407,2,0,L|27:249,3,55.5099977130586,0|2|0|0,0:2|0:2|0:2|0:2,0:2:0:0:
272,216,221723,2,0,L|261:280,3,55.5099977130586,14|0|0|0,0:2|0:2|0:2|0:2,0:2:0:0:
95,128,222038,2,0,L|103:188,3,55.5099977130586,12|0|0|0,0:2|0:2|0:2|0:2,0:2:0:0:
326,14,222354,5,14,0:2:0:0:
376,10,222433,1,0,0:2:0:0:
420,33,222512,1,0,0:2:0:0:
447,76,222591,1,2,0:2:0:0:
447,126,222670,1,0,0:2:0:0:
420,169,222749,1,0,0:2:0:0:
374,188,222828,5,14,0:2:0:0:
324,182,222907,1,0,0:2:0:0:
280,150,222986,1,0,0:2:0:0:
235,116,223065,1,2,0:2:0:0:
179,113,223144,1,0,0:2:0:0:
131,137,223223,1,0,0:2:0:0:
103,184,223301,2,0,L|115:259,1,55.5099977130586,14|0,0:2|0:2,0:2:0:0:
256,355,223459,2,0,L|270:280,1,55.5099977130586,0|2,0:2|0:2,0:2:0:0:
25,194,223617,2,0,L|9:268,1,55.5099977130586,0|0,0:2|0:2,0:2:0:0:
224,28,223775,5,14,0:2:0:0:
284,20,223854,1,8,0:2:0:0:
341,38,223933,1,8,0:2:0:0:
386,80,224012,1,8,0:2:0:0:
408,136,224091,1,8,0:2:0:0:
404,197,224170,1,8,0:2:0:0:
375,250,224249,6,0,P|300:242|278:241,1,64.609996746628,6|0,0:2|0:2,0:2:0:0:
140,59,224407,2,0,P|215:51|237:50,1,64.609996746628,10|0,0:2|0:2,0:2:0:0:
131,333,224565,2,0,P|56:325|34:324,1,64.609996746628,2|0,0:2|0:2,0:2:0:0:
223,130,224723,2,0,P|255:132|287:137,1,64.609996746628,10|0,0:2|0:2,0:2:0:0:
426,320,224882,6,0,B|320:399|191:264|246:222|142:130|28:172,1,458.639986003418,6|0,0:2|0:2,0:2:0:0:
37,168,227282,6,0,P|58:220|73:287,2,114.659996500855,2|0|0,0:2|0:2|0:2,0:2:0:0:
108,59,228482,2,0,P|136:49|188:59,1,76.4399976672364,2|0,0:2|0:2,0:2:0:0:
246,124,228932,2,0,P|274:134|326:124,1,76.4399976672364,0|0,0:2|0:2,0:2:0:0:
381,68,229382,1,0,0:2:0:0:
486,207,229682,6,0,P|473:269|466:331,2,114.659996500855,2|0|0,0:2|0:2|0:2,0:2:0:0:
387,356,230882,2,0,P|379:299|367:243,2,114.659996500855,2|0|0,0:2|0:2|0:2,0:2:0:0:
288,217,232082,6,0,P|261:250|258:292,1,76.4399976672364,2|0,0:2|0:2,0:2:0:0:
297,360,232532,2,0,P|254:358|217:354,1,76.4399976672364,0|0,0:2|0:2,0:2:0:0:
138,380,232982,1,0,0:2:0:0:
23,244,233282,2,0,P|34:292|51:369,2,114.659996500855,2|0|0,0:2|0:2|0:2,0:2:0:0:
96,98,234482,6,0,P|146:81|216:68,2,114.659996500855,2|0|0,0:2|0:2|0:2,0:2:0:0:
198,201,235682,2,0,P|246:207|277:212,1,76.4399976672364,2|0,0:2|0:2,0:2:0:0:
331,131,236132,2,0,P|379:125|410:120,1,76.4399976672364,0|0,0:2|0:2,0:2:0:0:
480,172,236582,1,0,0:2:0:0:
372,272,236882,6,0,P|389:329|401:386,2,114.659996500855,2|0|0,0:2|0:2|0:2,0:2:0:0:
245,322,238082,2,0,P|257:265|273:211,2,114.659996500855,2|0|0,0:2|0:2|0:2,0:2:0:0:
160,371,239282,6,0,P|116:363|82:355,1,76.4399976672364,2|0,0:2|0:2,0:2:0:0:
25,285,239732,2,0,P|20:238|16:207,1,76.4399976672364,0|0,0:2|0:2,0:2:0:0:
38,121,240182,1,0,0:2:0:0:
160,40,240482,2,0,P|173:99|181:155,2,114.659996500855,2|0|0,0:2|0:2|0:2,0:2:0:0:
273,107,241682,6,0,P|307:88|354:87,1,76.4399976672364,2|0,0:2|0:2,0:2:0:0:
416,126,242132,2,0,P|421:170|425:209,1,76.4399976672364,0|0,0:2|0:2,0:2:0:0:
387,280,242582,1,0,0:2:0:0:
276,356,242882,2,0,P|361:363|398:372,2,114.659996500855,2|0|0,0:2|0:2|0:2,0:2:0:0:
133,265,244082,6,0,P|124:207|114:147,1,112.839995523316,6|0,1:2|0:2,0:2:0:0:
65,55,244532,2,0,P|112:34|180:29,1,112.839995523316,2|0,0:2|0:2,0:2:0:0:
232,104,244982,1,2,0:2:0:0:
403,14,245282,2,0,B|416:84|383:122|365:107|326:149|352:227,1,225.679991046631,0|0,1:2|1:2,0:2:0:0:
371,361,246182,1,2,0:2:0:0:
371,361,246482,6,0,P|378:314|390:242,1,112.839995523316,2|0,1:2|0:2,0:2:0:0:
302,312,246932,2,0,P|255:287|186:278,1,112.839995523316,2|0,0:2|0:2,0:2:0:0:
110,331,247382,1,2,0:2:0:0:
10,168,247682,2,0,B|65:160|112:205|112:205|148:152|231:151,1,225.679991046631,0|0,1:2|1:2,0:2:0:0:
324,30,248582,1,2,0:2:0:0:
324,30,248882,6,0,P|321:86|315:148,1,112.839995523316,2|0,1:2|0:2,0:2:0:0:
375,243,249332,2,0,B|314:232|323:277|261:268,1,112.839995523316,2|0,0:2|0:2,0:2:0:0:
162,221,249782,1,2,0:2:0:0:
18,325,250082,2,0,B|91:376|91:376|223:319,1,225.679991046631,0|0,1:2|1:2,0:2:0:0:
96,184,250982,1,2,0:2:0:0:
96,184,251282,6,0,P|93:250|96:314,1,112.839995523316,2|0,1:2|0:2,0:2:0:0:
166,374,251732,2,0,P|213:365|285:359,1,112.839995523316,2|0,0:2|0:2,0:2:0:0:
378,383,252182,1,2,0:2:0:0:
463,292,252482,6,0,P|468:248|471:224,1,56.4199977616578,0|0,1:2|0:2,0:2:0:0:
388,277,252782,2,0,P|393:233|396:209,1,56.4199977616578,0|0,1:2|0:2,0:2:0:0:
447,152,253082,1,0,1:2:0:0:
344,85,253232,2,0,L|341:127,5,28.2099988808289,8|8|10|8|8|8,0:2|0:2|0:2|0:2|0:2|0:2,0:2:0:0:
312,54,253682,6,0,P|262:45|233:38,1,65.5200015996094,6|0,1:2|0:2,0:2:0:0:
247,41,253982,1,0,1:2:0:0:
174,152,254132,2,0,P|224:143|253:136,1,65.5200015996094,2|0,0:2|1:2,0:2:0:0:
238,139,254432,1,0,0:2:0:0:
319,207,254582,1,2,1:2:0:0:
208,318,254732,1,12,0:2:0:0:
298,367,254882,6,0,P|342:361|363:358,1,65.5200015996094,0|0,1:2|0:2,0:2:0:0:
294,290,255182,2,0,P|338:284|359:281,1,65.5200015996094,0|0,1:2|0:2,0:2:0:0:
465,222,255482,2,0,P|432:217|400:213,1,65.5200015996094,0|0,1:2|0:2,0:2:0:0:
324,127,255782,1,0,1:2:0:0:
426,47,255932,1,8,0:2:0:0:
426,47,256007,1,8,0:2:0:0:
426,47,256082,6,0,P|416:101|413:124,1,65.5200015996094,2|0,1:2|0:2,0:2:0:0:
414,111,256382,1,0,1:2:0:0:
282,27,256532,2,0,P|292:81|295:104,1,65.5200015996094,2|0,0:2|1:2,0:2:0:0:
293,91,256832,1,0,0:2:0:0:
223,171,256982,1,0,1:2:0:0:
106,75,257132,1,12,0:2:0:0:
191,31,257282,6,0,P|192:99|195:165,1,131.040003199219,0|0,1:2|0:2,0:2:0:0:
116,255,257732,1,8,0:2:0:0:
116,255,257807,1,8,0:2:0:0:
116,255,257882,1,8,0:2:0:0:
197,314,258032,2,0,P|201:358|203:384,2,65.5200015996094,0|0|0,1:2|1:2|1:2,0:2:0:0:
278,219,258482,6,0,P|321:224|367:233,1,74.6200011386109,6|0,1:2|0:2,0:2:0:0:
420,280,258782,1,0,1:2:0:0:
504,207,258932,2,0,L|499:130,1,74.6200011386109,2|0,0:2|1:2,0:2:0:0:
429,80,259232,1,0,0:2:0:0:
278,220,259382,2,0,P|202:200|128:185,1,149.240002277222,14|0,0:2|1:2,0:2:0:0:
31,96,259832,1,8,0:2:0:0:
86,242,259982,1,0,1:2:0:0:
165,103,260132,1,0,1:2:0:0:
0,228,260282,5,8,0:2:0:0:
175,297,260432,1,0,1:2:0:0:
104,69,260582,5,12,0:2:0:0:
46,237,260732,1,0,1:2:0:0:
242,166,260882,6,0,P|252:213|256:250,1,74.6200011386109,12|0,0:2|0:2,0:2:0:0:
321,153,261182,2,0,P|331:200|335:237,1,74.6200011386109,0|0,1:2|0:2,0:2:0:0:
417,293,261482,2,0,P|427:246|431:209,1,74.6200011386109,0|0,1:2|0:2,0:2:0:0:
496,306,261782,2,0,P|506:259|510:222,1,74.6200011386109,0|0,1:2|0:2,0:2:0:0:
438,104,262082,6,0,P|374:93|354:91,1,74.6200011386109,0|0,1:2|0:2,0:2:0:0:
308,15,262382,2,0,P|372:4|392:2,1,74.6200011386109,0|0,1:2|0:2,0:2:0:0:
277,127,262682,2,0,P|213:116|193:114,1,74.6200011386109,0|0,1:2|0:2,0:2:0:0:
157,16,262982,2,0,P|221:5|241:3,1,74.6200011386109,0|0,1:2|0:2,0:2:0:0:
130,122,263282,6,0,P|121:162|112:213,1,74.6200011386109,0|0,1:2|0:2,0:2:0:0:
15,335,263582,2,0,P|8:298|-1:261,1,74.6200011386109,0|0,1:2|0:2,0:2:0:0:
186,371,263882,2,0,P|232:353|267:344,1,74.6200011386109,0|0,1:2|0:2,0:2:0:0:
358,377,264182,1,0,0:2:0:0:
68,120,266132,5,8,0:2:0:0:
68,120,266207,1,8,0:2:0:0:
68,120,266282,2,0,P|83:179|86:200,2,63.0933329482422,10|8|8,0:2|0:2|0:2,0:2:0:0:
137,43,266882,6,0,B|215:19|269:75|251:98|312:168|405:127,1,283.91999826709,6|0,1:2|0:2,0:2:0:0:
386,133,268082,6,0,B|367:219|353:337|353:337|328:291|308:259,1,283.91999826709,6|0,1:2|0:2,0:2:0:0:
315,269,269282,6,0,B|235:270|194:329|194:329|153:276|60:268,1,283.91999826709,6|0,1:2|0:2,0:2:0:0:
71,269,270482,6,0,B|192:224|257:200|257:200|331:258,1,283.91999826709,6|0,1:2|0:2,0:2:0:0:
324,252,271682,6,0,P|328:165|332:98,1,141.959999133545,6|0,1:2|0:2,0:2:0:0:
366,67,272282,6,0,P|362:154|358:221,1,141.959999133545,6|0,1:2|0:2,0:2:0:0:
402,296,272882,6,0,P|315:300|248:304,1,141.959999133545,6|0,1:2|0:2,0:2:0:0:
217,338,273482,6,0,P|304:334|371:330,1,141.959999133545,6|0,1:2|0:2,0:2:0:0:
410,323,274082,5,2,0:2:0:0:
410,323,274682,5,2,0:2:0:0:
498,197,275132,5,0,1:2:0:0:
498,197,275207,1,0,1:2:0:0:
498,197,275282,2,0,P|489:247|486:274,2,63.0933329482422,10|8|8,0:2|0:2|0:2,0:2:0:0:
413,101,275882,1,0,1:2:0:0:
332,189,276032,1,8,0:2:0:0:
309,183,276107,1,8,0:2:0:0:
285,178,276182,1,8,0:2:0:0:
262,173,276257,1,8,0:2:0:0:
239,169,276332,1,8,0:2:0:0:
215,166,276407,1,8,0:2:0:0:
187,165,276482,5,6,1:2:0:0:
300,0,276632,1,2,0:2:0:0:
436,226,276782,2,0,P|420:284|408:337,1,101.920001244141,14|0,0:2|0:2,0:2:0:0:
205,384,277082,2,0,P|189:326|177:273,1,101.920001244141,2|0,1:2|0:2,0:2:0:0:
313,101,277382,1,10,0:2:0:0:
115,40,277532,1,2,0:2:0:0:
217,280,277682,6,0,P|276:271|333:266,1,101.920001244141,2|0,1:2|0:2,0:2:0:0:
161,111,277982,1,10,0:2:0:0:
336,3,278132,2,0,P|386:8|437:16,1,101.920001244141,2|0,0:2|1:2,0:2:0:0:
296,221,278432,1,2,0:2:0:0:
203,20,278582,1,10,0:2:0:0:
401,94,278732,1,2,0:2:0:0:
212,274,278882,6,0,P|159:263|105:255,1,101.920001244141,2|0,1:2|0:2,0:2:0:0:
103,38,279182,2,0,P|156:27|210:19,1,101.920001244141,10|0,0:2|0:2,0:2:0:0:
44,201,279482,2,0,P|30:147|41:95,1,101.920001244141,2|0,1:2|0:2,0:2:0:0:
280,94,279782,2,0,P|293:142|286:192,1,101.920001244141,10|0,0:2|0:2,0:2:0:0:
185,384,280082,2,0,B|127:401|73:366|91:341|48:308|-28:334,2,203.840002488281,2|8|0,1:2|0:2|1:2,0:2:0:0:
333,206,280832,1,2,0:2:0:0:
432,383,280982,1,10,0:2:0:0:
198,245,281132,1,10,0:2:0:0:
198,245,281207,1,8,0:2:0:0:
198,245,281282,6,0,P|200:184|205:129,1,101.920001244141,6|0,1:2|0:2,0:2:0:0:
333,3,281582,1,10,0:2:0:0:
125,82,281732,1,2,0:2:0:0:
300,302,281882,2,0,P|367:288|430:279,1,101.920001244141,2|0,1:2|0:2,0:2:0:0:
432,64,282182,6,0,P|365:50|302:41,1,101.920001244141,10|0,0:2|0:2,0:2:0:0:
484,204,282482,1,2,1:2:0:0:
512,9,282632,1,2,0:2:0:0:
333,206,282782,2,0,P|248:196|222:194,1,101.920001244141,10|0,0:2|0:2,0:2:0:0:
0,90,283082,2,0,P|40:27|118:16,1,152.880001866211,2|2,1:2|0:2,0:2:0:0:
142,46,283382,2,0,P|154:106|160:149,1,101.920001244141,8|2,0:2|0:2,0:2:0:0:
0,352,283682,6,0,P|7:301|17:251,1,101.920001244141,2|0,1:2|0:2,0:2:0:0:
34,209,283907,1,10,0:2:0:0:
37,212,283982,1,0,1:2:0:0:
184,369,284132,1,10,0:2:0:0:
293,174,284282,2,0,P|341:159|391:150,1,101.920001244141,2|0,1:2|0:2,0:2:0:0:
433,162,284507,1,8,0:2:0:0:
433,162,284582,1,2,1:2:0:0:
266,6,284732,1,10,0:2:0:0:
203,229,284882,5,10,0:2:0:0:
203,229,284957,1,8,0:2:0:0:
203,229,285032,1,8,0:2:0:0:
203,229,285107,1,8,0:2:0:0:
224,267,285182,5,8,0:2:0:0:
255,283,285257,1,8,0:2:0:0:
291,278,285332,1,10,0:2:0:0:
318,254,285407,1,8,0:2:0:0:
342,215,285482,5,2,1:2:0:0:
377,195,285557,1,0,1:2:0:0:
417,194,285632,1,0,1:2:0:0:
453,213,285707,1,0,1:2:0:0:
475,246,285782,2,0,P|461:311|460:322,1,50.9600006220703,0|0,1:2|1:2,0:2:0:0:
318,254,285932,2,0,P|304:189|303:178,1,50.9600006220703,2|0,1:2|1:2,0:2:0:0:
494,54,286082,6,0,P|477:106|472:119,1,50.9600006220703,2|0,1:2|0:2,0:2:0:0:
323,127,286232,2,0,P|306:75|301:62,1,50.9600006220703,2|0,1:2|0:2,0:2:0:0:
417,0,286382,2,0,P|404:68|398:121,1,101.920001244141,14|2,0:2|0:2,0:2:0:0:
242,284,286682,2,0,P|235:233|224:183,1,101.920001244141,6|2,1:2|0:2,0:2:0:0:
80,44,286982,1,10,0:2:0:0:
0,242,287132,1,2,0:2:0:0:
227,64,287282,6,0,P|208:128|200:176,1,101.920001244141,2|0,1:2|0:2,0:2:0:0:
10,71,287582,1,10,0:2:0:0:
153,224,287732,2,0,P|172:288|180:336,1,101.920001244141,2|0,0:2|1:2,0:2:0:0:
328,157,288032,2,0,P|405:139|454:135,1,101.920001244141,2|8,0:2|0:2,0:2:0:0:
259,0,288332,1,2,0:2:0:0:
153,224,288482,5,2,1:2:0:0:
305,82,288632,1,2,0:2:0:0:
377,297,288782,1,10,0:2:0:0:
204,134,288932,1,2,0:2:0:0:
303,339,289082,1,2,1:2:0:0:
432,161,289232,1,2,0:2:0:0:
225,295,289382,1,10,0:2:0:0:
461,236,289532,1,2,0:2:0:0:
218,56,289682,6,0,P|239:133|248:186,1,101.920001244141,2|0,1:2|0:2,0:2:0:0:
416,36,289982,1,10,0:2:0:0:
156,0,290132,2,0,P|135:77|126:130,1,101.920001244141,2|0,0:2|1:2,0:2:0:0:
350,212,290432,2,0,P|339:162|324:113,1,101.920001244141,2|8,0:2|0:2,0:2:0:0:
121,171,290732,2,0,P|106:219|95:269,1,101.920001244141,0|0,0:2|1:2,0:2:0:0:
325,379,291032,5,2,0:2:0:0:
220,163,291182,1,10,0:2:0:0:
100,378,291332,2,0,P|49:362|-5:346,1,101.920001244141,2|0,0:2|1:2,0:2:0:0:
177,167,291632,1,2,0:2:0:0:
292,382,291782,1,10,0:2:0:0:
75,251,291932,1,2,0:2:0:0:
313,132,292082,5,2,1:2:0:0:
161,332,292232,1,2,0:2:0:0:
79,119,292382,1,10,0:2:0:0:
228,281,292532,1,2,0:2:0:0:
313,85,292682,1,2,1:2:0:0:
130,202,292832,1,2,0:2:0:0:
393,374,292982,2,0,P|408:316|440:174,1,203.840002488281,10|2,0:2|1:2,0:2:0:0:
225,10,293432,5,2,0:2:0:0:
175,214,293582,1,10,0:2:0:0:
413,47,293732,2,0,P|470:31|513:24,1,101.920001244141,2|0,0:2|1:2,0:2:0:0:
393,245,294032,1,2,1:2:0:0:
304,41,294182,1,10,0:2:0:0:
505,248,294332,1,2,1:2:0:0:
207,255,294482,5,14,0:2:0:0:
413,47,294632,1,2,1:2:0:0:
352,349,294782,5,14,0:2:0:0:
199,89,294932,1,2,1:2:0:0:
463,200,295082,5,10,0:2:0:0:
505,248,295182,1,8,0:2:0:0:
510,308,295282,1,8,0:2:0:0:
481,355,295382,5,2,1:2:0:0:
434,378,295482,1,0,1:2:0:0:
389,373,295582,1,0,1:2:0:0:
352,349,295682,6,0,P|294:327|251:314,1,92.8200005665283,4|0,1:2|0:2,0:2:0:0:
59,361,295982,1,2,0:2:0:0:
120,195,296132,1,2,1:2:0:0:
224,345,296282,1,10,0:2:0:0:
20,232,296432,1,6,0:2:0:0:
204,153,296582,1,2,1:2:0:0:
137,289,296732,1,10,0:2:0:0:
84,74,296882,6,0,P|159:50|205:41,1,92.8200005665283,6|0,1:2|0:2,0:2:0:0:
363,28,297182,1,2,0:2:0:0:
363,28,297332,2,0,P|318:13|273:2,1,92.8200005665283,2|8,0:2|0:2,0:2:0:0:
409,155,297632,1,4,0:2:0:0:
409,155,297782,2,0,P|453:143|498:129,1,92.8200005665283,2|0,0:2|0:2,0:2:0:0:
288,138,298082,6,0,P|281:187|273:253,1,92.8200005665283,4|0,1:2|0:2,0:2:0:0:
372,366,298382,1,2,0:2:0:0:
259,249,298532,1,2,0:2:0:0:
186,384,298682,1,10,0:2:0:0:
375,260,298832,1,6,0:2:0:0:
179,239,298982,1,2,1:2:0:0:
292,360,299132,1,10,0:2:0:0:
202,124,299282,6,0,P|156:133|100:140,1,92.8200005665283,6|0,1:2|0:2,0:2:0:0:
227,4,299582,1,2,1:2:0:0:
309,174,299732,1,2,1:2:0:0:
150,45,299882,1,8,0:2:0:0:
105,37,299957,1,0,1:2:0:0:
62,52,300032,1,2,1:2:0:0:
32,87,300107,1,0,1:2:0:0:
24,132,300182,2,0,P|37:194|43:238,1,92.8200005665283,14|2,0:2|0:2,0:2:0:0:
161,384,300482,6,0,P|208:370|263:356,1,92.8200005665283,6|0,1:2|1:2,0:2:0:0:
96,262,300782,1,10,0:2:0:0:
235,188,300932,2,0,P|279:199|324:213,1,92.8200005665283,2|8,0:2|0:2,0:2:0:0:
456,355,301232,1,8,0:2:0:0:
456,355,301307,1,8,0:2:0:0:
456,355,301382,2,0,P|446:289|444:274,1,46.4100002832642,8|8,0:2|0:2,0:2:0:0:
276,239,301532,2,0,P|259:303|255:318,1,46.4100002832642,8|8,0:2|0:2,0:2:0:0:
371,124,301682,6,0,P|419:100|475:111,1,92.8200005665283,2|2,0:2|0:2,0:2:0:0:
361,260,301982,2,0,P|315:261|275:238,1,92.8200005665283,2|2,0:2|0:2,0:2:0:0:
153,77,302282,1,10,0:2:0:0:
119,61,302357,1,8,0:2:0:0:
83,68,302432,1,8,0:2:0:0:
57,93,302507,1,10,0:2:0:0:
49,129,302582,2,0,P|69:196|71:202,1,46.4100002832642,8|8,0:2|0:2,0:2:0:0:
185,276,302732,2,0,P|205:209|207:203,1,46.4100002832642,10|8,0:2|0:2,0:2:0:0:
293,91,302882,6,0,P|350:65|416:78,1,92.8200005665283,6|0,0:2|0:2,0:2:0:0:
303,265,303182,1,10,0:2:0:0:
155,160,303332,2,0,P|143:114|137:69,1,92.8200005665283,2|0,0:2|1:2,0:2:0:0:
308,176,303632,1,2,0:2:0:0:
154,294,303782,2,0,P|82:284|43:277,1,92.8200005665283,10|0,0:2|0:2,0:2:0:0:
229,147,304082,5,2,1:2:0:0:
339,347,304232,1,0,0:2:0:0:
162,185,304382,1,10,0:2:0:0:
345,89,304532,1,2,0:2:0:0:
226,234,304682,1,0,1:2:0:0:
210,48,304832,1,2,0:2:0:0:
329,201,304982,1,10,0:2:0:0:
158,106,305132,1,2,0:2:0:0:
119,292,305282,6,0,P|185:280|217:274,1,92.8200005665283,2|0,1:2|0:2,0:2:0:0:
73,127,305582,1,10,0:2:0:0:
5,290,305732,2,0,P|14:346|17:382,1,92.8200005665283,2|0,0:2|1:2,0:2:0:0:
141,203,306032,1,2,0:2:0:0:
250,351,306182,2,0,L|356:326,1,92.8200005665283,10|0,0:2|0:2,0:2:0:0:
448,134,306482,5,2,1:2:0:0:
373,347,306632,1,0,0:2:0:0:
283,144,306782,1,10,0:2:0:0:
498,212,306932,1,2,0:2:0:0:
283,233,307082,1,0,1:2:0:0:
485,308,307232,1,2,0:2:0:0:
368,138,307382,1,10,0:2:0:0:
241,311,307532,1,2,1:2:0:0:
241,311,307607,1,0,1:2:0:0:
241,311,307682,5,10,0:2:0:0:
217,88,307832,1,2,1:2:0:0:
352,312,307982,5,10,0:2:0:0:
130,202,308132,1,2,1:2:0:0:
315,62,308282,5,10,0:2:0:0:
199,241,308432,1,2,1:2:0:0:
95,18,308582,1,8,0:2:0:0:
283,233,308732,6,0,P|342:222|398:213,1,92.8200005665283,6|0,1:2|0:2,0:2:0:0:
478,36,309032,1,10,0:2:0:0:
233,79,309182,1,10,0:2:0:0:
479,268,309332,2,0,P|485:221|491:175,1,92.8200005665283,10|0,0:2|0:2,0:2:0:0:
270,3,309632,5,8,0:2:0:0:
148,307,309782,1,10,0:2:0:0:
394,106,309932,2,0,B|296:49|189:131|228:183|97:273|11:199,1,425.879997400635,12|0,0:2|0:2,0:2:0:0:
