osu file format v14

[General]
AudioFilename: audio.mp3
AudioLeadIn: 0
PreviewTime: 103064
Countdown: 0
SampleSet: Normal
StackLeniency: 0.7
Mode: 0
LetterboxInBreaks: 1
WidescreenStoryboard: 1

[Editor]
DistanceSpacing: 0.8
BeatDivisor: 4
GridSize: 8
TimelineZoom: 2.700003

[Metadata]
Title:Zettai Zetsumei
TitleUnicode:絶対絶命
Artist:MY FIRST STORY
ArtistUnicode:MY FIRST STORY
Creator:october
Version:Stalemate
Source:
Tags:
BeatmapID:1815235
BeatmapSetID:868451

[Difficulty]
HPDrainRate:6
CircleSize:4
OverallDifficulty:8.6
ApproachRate:9.6
SliderMultiplier:2
SliderTickRate:1

[Events]
//Background and Video events
0,0,"bg.jpg",0,0
//Break Periods
2,80014,89894
//Storyboard Layer 0 (Background)
//Storyboard Layer 1 (Fail)
//Storyboard Layer 2 (Pass)
//Storyboard Layer 3 (Foreground)
//Storyboard Sound Samples

[TimingPoints]
756,352.941176470588,4,1,0,90,1,0
12050,-100,4,1,0,90,0,1
23344,-100,4,1,0,90,0,0
23520,-133.333333333333,4,1,0,90,0,0
34991,-100,4,1,0,90,0,0
45933,-83.3333333333333,4,1,0,90,0,1
68520,-100,4,1,0,90,0,1
79814,-100,4,1,0,90,0,0
99579,-100,4,1,0,90,0,1
99755,-100,4,1,0,90,0,0
99932,-100,4,1,0,90,0,1
100108,-100,4,1,0,90,0,0
100285,-100,4,1,0,90,0,1
100461,-100,4,1,0,90,0,0
100638,-100,4,1,0,90,0,1
100991,-100,4,1,0,90,0,0
103814,-83.3333333333333,4,1,0,90,0,1
126403,-100,4,1,0,90,0,0

[HitObjects]
256,192,9226,12,0,10814,0:0:0:0:
207,206,11520,6,0,L|291:172,2,50
338,107,12050,6,0,P|194:93|135:142,1,200
228,298,12579,1,0,0:0:0:0:
61,187,12755,1,0,0:0:0:0:
280,183,12932,5,0,0:0:0:0:
280,183,13020,1,0,0:0:0:0:
280,183,13108,2,0,P|329:192|386:232,1,100
171,300,13461,1,0,0:0:0:0:
138,129,13638,1,0,0:0:0:0:
382,269,13814,2,0,P|331:260|261:215,1,100
281,54,14167,5,0,0:0:0:0:
441,140,14344,1,0,0:0:0:0:
204,146,14520,1,0,0:0:0:0:
347,302,14697,1,0,0:0:0:0:
347,302,14785,1,0,0:0:0:0:
347,302,14873,2,0,P|266:283|157:333,1,200
116,138,15403,5,0,0:0:0:0:
39,268,15579,1,0,0:0:0:0:
250,192,15755,2,0,P|302:187|344:197,1,50
383,233,15932,2,0,P|316:278|256:259,1,100
159,153,16285,1,0,0:0:0:0:
310,96,16461,1,0,0:0:0:0:
181,288,16638,1,0,0:0:0:0:
202,52,16814,1,0,0:0:0:0:
413,179,16991,5,0,0:0:0:0:
439,208,17079,1,0,0:0:0:0:
451,247,17167,2,0,P|440:305|425:326,1,50
331,259,17344,5,0,0:0:0:0:
306,228,17432,1,0,0:0:0:0:
269,206,17520,1,0,0:0:0:0:
235,193,17608,1,0,0:0:0:0:
199,192,17697,2,0,P|140:209|80:268,1,100,4|0,0:0|0:0,0:0:0:0:
412,219,18226,5,0,0:0:0:0:
292,73,18403,1,0,0:0:0:0:
197,330,18579,1,0,0:0:0:0:
282,205,18755,2,0,P|182:176|112:198,1,100
70,81,19108,5,0,0:0:0:0:
83,273,19285,1,0,0:0:0:0:
260,73,19461,1,0,0:0:0:0:
100,171,19638,1,0,0:0:0:0:
261,282,19814,1,0,0:0:0:0:
261,282,19903,1,0,0:0:0:0:
261,282,19991,2,0,L|335:253,1,50
417,216,20167,5,0,0:0:0:0:
385,177,20255,1,0,0:0:0:0:
341,153,20344,1,0,0:0:0:0:
292,148,20432,1,0,0:0:0:0:
248,157,20520,2,0,B|189:189|189:189|154:249,1,100
305,275,20873,5,0,0:0:0:0:
175,53,21050,1,0,0:0:0:0:
86,187,21226,1,0,0:0:0:0:
327,150,21403,1,0,0:0:0:0:
178,339,21579,2,0,P|137:308|68:303,1,100
213,171,21932,5,0,0:0:0:0:
321,291,22108,2,0,P|353:251|420:231,2,100
144,308,22638,1,0,0:0:0:0:
102,291,22726,1,0,0:0:0:0:
70,259,22814,1,0,0:0:0:0:
55,215,22903,1,0,0:0:0:0:
62,168,22991,1,0,0:0:0:0:
77,148,23079,1,0,0:0:0:0:
93,129,23167,1,0,0:0:0:0:
109,110,23255,1,0,0:0:0:0:
125,91,23344,1,0,0:0:0:0:
292,151,23697,5,0,0:0:0:0:
371,209,23873,2,0,P|343:236|298:252,1,75.0000028610231
173,194,24226,1,0,0:0:0:0:
203,304,24403,1,0,0:0:0:0:
227,321,24491,1,0,0:0:0:0:
250,332,24579,1,0,0:0:0:0:
275,337,24667,1,0,0:0:0:0:
302,339,24755,2,0,P|362:318|386:288,2,75.0000028610231
72,301,25461,5,0,0:0:0:0:
119,166,25638,2,0,P|154:183|194:223,1,75.0000028610231
256,281,25991,5,0,0:0:0:0:
275,297,26079,1,0,0:0:0:0:
296,315,26167,2,0,B|338:351|338:351|419:353,1,112.500004291535
376,250,26520,6,0,P|349:219|347:167,1,75.0000028610231
331,70,26873,1,0,0:0:0:0:
236,125,27050,1,0,0:0:0:0:
220,236,27226,1,0,0:0:0:0:
220,236,27314,1,0,0:0:0:0:
220,236,27403,1,0,0:0:0:0:
353,188,27579,5,0,0:0:0:0:
329,321,27755,1,0,0:0:0:0:
353,188,27932,2,0,P|319:130|267:103,1,112.500004291535
241,213,28285,2,0,P|203:209|146:177,1,75.0000028610231
104,85,28638,1,0,0:0:0:0:
75,114,28726,1,0,0:0:0:0:
53,149,28814,1,0,0:0:0:0:
46,190,28903,1,0,0:0:0:0:
49,230,28991,2,0,B|73:276|73:276|173:286|176:321,1,150.000005722046
286,259,29520,6,0,L|213:181,1,75.0000028610231
117,134,29873,1,0,0:0:0:0:
239,76,30050,1,0,0:0:0:0:
265,75,30138,1,0,0:0:0:0:
290,78,30226,1,0,0:0:0:0:
315,84,30314,1,0,0:0:0:0:
338,95,30403,2,0,P|370:113|405:146,1,75.0000028610231
277,204,30755,1,0,0:0:0:0:
114,102,31108,5,0,0:0:0:0:
134,311,31285,2,0,P|170:324|247:333,1,75.0000028610231
329,262,31638,5,0,0:0:0:0:
305,235,31726,1,0,0:0:0:0:
278,205,31814,1,0,0:0:0:0:
191,69,32167,5,0,0:0:0:0:
42,215,32344,1,0,0:0:0:0:
171,201,32520,1,0,0:0:0:0:
276,293,32697,5,0,0:0:0:0:
160,308,32873,1,0,0:0:0:0:
160,308,32961,1,0,0:0:0:0:
160,308,33050,1,0,0:0:0:0:
160,308,33138,1,0,0:0:0:0:
160,308,33226,1,0,0:0:0:0:
239,117,33403,5,0,0:0:0:0:
302,213,33579,1,0,0:0:0:0:
76,194,33755,1,0,0:0:0:0:
176,320,34108,5,0,0:0:0:0:
329,71,34285,1,0,0:0:0:0:
404,279,34461,1,0,0:0:0:0:
194,134,34638,5,0,0:0:0:0:
287,296,34814,1,0,0:0:0:0:
420,180,34991,2,0,P|322:166|234:227,1,200
152,286,35520,5,0,0:0:0:0:
101,177,35697,1,0,0:0:0:0:
297,305,35873,1,0,0:0:0:0:
315,136,36050,2,0,P|256:133|181:117,1,100
104,59,36403,2,0,P|91:161|114:188,2,100
208,34,36932,5,0,0:0:0:0:
288,114,37108,1,0,0:0:0:0:
222,213,37285,1,0,0:0:0:0:
308,292,37461,2,0,P|399:198|386:159,1,150
393,104,37814,2,0,P|466:136|485:190,1,100
316,171,38167,5,0,0:0:0:0:
314,51,38344,1,0,0:0:0:0:
408,234,38520,2,0,P|379:269|295:274,1,100
117,282,38873,5,0,0:0:0:0:
228,68,39050,1,0,0:0:0:0:
307,161,39226,2,0,P|259:182|184:180,1,100
132,55,39579,1,0,0:0:0:0:
286,268,39755,1,0,0:0:0:0:
125,280,39932,2,0,P|88:243|72:194,1,100
81,114,40197,5,0,0:0:0:0:
107,79,40285,2,0,P|161:92|233:75,1,100
344,57,40638,1,0,0:0:0:0:
384,77,40726,1,0,0:0:0:0:
416,108,40814,1,0,0:0:0:0:
433,149,40903,1,0,0:0:0:0:
436,193,40991,1,0,0:0:0:0:
342,286,41167,1,0,0:0:0:0:
327,161,41344,5,0,0:0:0:0:
474,301,41520,1,0,0:0:0:0:
259,354,41697,1,0,0:0:0:0:
259,354,41785,1,0,0:0:0:0:
259,354,41873,2,0,P|169:299|158:275,1,100
165,120,42226,5,0,0:0:0:0:
256,243,42403,1,0,0:0:0:0:
77,179,42579,1,0,0:0:0:0:
258,108,42755,1,0,0:0:0:0:
89,292,42932,1,0,0:0:0:0:
256,243,43108,5,0,0:0:0:0:
300,233,43197,1,0,0:0:0:0:
343,242,43285,1,0,0:0:0:0:
384,258,43373,1,0,0:0:0:0:
427,269,43461,1,0,0:0:0:0:
467,248,43550,1,0,0:0:0:0:
488,208,43638,1,0,0:0:0:0:
485,163,43726,1,0,0:0:0:0:
458,126,43814,1,0,0:0:0:0:
415,111,43903,1,0,0:0:0:0:
373,128,43991,1,0,0:0:0:0:
334,150,44079,1,0,0:0:0:0:
290,161,44167,2,0,P|237:156|171:106,1,100
78,36,44520,5,0,0:0:0:0:
131,259,44697,1,0,0:0:0:0:
131,259,44785,1,0,0:0:0:0:
131,259,44873,2,0,L|211:273,1,50
279,194,45050,1,0,0:0:0:0:
269,171,45138,1,0,0:0:0:0:
252,152,45226,1,0,0:0:0:0:
230,138,45314,1,0,0:0:0:0:
205,134,45403,1,0,0:0:0:0:
180,135,45491,1,0,0:0:0:0:
156,144,45579,1,0,0:0:0:0:
351,303,45932,6,0,L|472:257,1,100
326,124,46285,2,0,L|205:170,1,100
234,289,46638,1,0,0:0:0:0:
211,47,46814,1,0,0:0:0:0:
87,194,46991,1,0,0:0:0:0:
347,167,47167,1,0,0:0:0:0:
347,167,47255,1,0,0:0:0:0:
347,167,47344,2,0,P|340:68|286:49,1,119.999996337891
207,268,47697,5,0,0:0:0:0:
448,182,47873,1,0,0:0:0:0:
214,92,48050,1,0,0:0:0:0:
351,324,48226,5,0,0:0:0:0:
346,32,48403,1,0,0:0:0:0:
351,324,48579,1,0,0:0:0:0:
351,324,48667,1,0,0:0:0:0:
351,324,48755,2,0,P|283:339|196:318,1,119.999996337891
283,140,49108,1,0,0:0:0:0:
397,227,49285,1,0,0:0:0:0:
154,147,49461,5,0,0:0:0:0:
383,34,49638,1,0,0:0:0:0:
247,299,49814,1,0,0:0:0:0:
74,111,49991,1,0,0:0:0:0:
74,111,50079,1,0,0:0:0:0:
74,111,50167,2,0,P|153:86|225:101,1,119.999996337891
388,157,50520,5,0,0:0:0:0:
138,245,50697,1,0,0:0:0:0:
316,47,50873,1,0,0:0:0:0:
293,331,51050,1,0,0:0:0:0:
71,182,51226,1,0,0:0:0:0:
95,141,51314,1,0,0:0:0:0:
131,109,51403,1,0,0:0:0:0:
174,89,51491,1,0,0:0:0:0:
221,87,51579,2,0,P|294:97|347:124,1,119.999996337891
464,226,51932,5,0,0:0:0:0:
262,283,52108,1,0,0:0:0:0:
421,80,52285,1,0,0:0:0:0:
391,348,52461,1,0,0:0:0:0:
228,113,52638,1,0,0:0:0:0:
475,186,52814,1,0,0:0:0:0:
251,274,52991,1,0,0:0:0:0:
251,274,53079,1,0,0:0:0:0:
251,274,53167,2,0,P|164:294|120:279,1,119.999996337891
41,124,53520,5,0,0:0:0:0:
241,176,53697,1,0,0:0:0:0:
42,243,53873,1,0,0:0:0:0:
172,71,54050,1,0,0:0:0:0:
217,56,54138,1,0,0:0:0:0:
264,52,54226,1,0,0:0:0:0:
311,58,54314,1,0,0:0:0:0:
356,75,54403,1,0,0:0:0:0:
461,197,54579,5,0,0:0:0:0:
257,199,54755,1,0,0:0:0:0:
456,77,54932,1,0,0:0:0:0:
359,334,55108,1,0,0:0:0:0:
275,76,55285,1,0,0:0:0:0:
470,296,55461,1,0,0:0:0:0:
176,207,55638,5,0,0:0:0:0:
425,72,55814,1,0,0:0:0:0:
354,248,55991,1,0,0:0:0:0:
319,280,56079,1,0,0:0:0:0:
277,303,56167,1,0,0:0:0:0:
230,312,56255,1,0,0:0:0:0:
182,303,56344,1,0,0:0:0:0:
140,278,56432,1,0,0:0:0:0:
114,237,56520,1,0,0:0:0:0:
108,189,56608,1,0,0:0:0:0:
142,154,56697,5,0,0:0:0:0:
187,168,56785,1,0,0:0:0:0:
234,165,56873,1,0,0:0:0:0:
278,147,56961,1,0,0:0:0:0:
316,117,57050,5,0,0:0:0:0:
316,117,57138,1,0,0:0:0:0:
316,117,57226,2,0,P|389:91|456:122,1,119.999996337891,4|0,0:0|0:0,0:0:0:0:
453,273,57579,6,0,P|380:190|382:161,1,119.999996337891
396,46,57932,2,0,P|346:81|251:73,1,119.999996337891
66,55,58285,1,0,0:0:0:0:
233,260,58461,1,0,0:0:0:0:
167,130,58638,2,0,P|96:178|79:241,1,119.999996337891
257,360,58991,1,0,0:0:0:0:
338,156,59167,1,0,0:0:0:0:
141,298,59344,1,0,0:0:0:0:
395,295,59520,5,0,0:0:0:0:
155,94,59697,1,0,0:0:0:0:
395,295,59873,1,0,0:0:0:0:
404,110,60050,2,0,P|277:165|270:201,1,119.999996337891
201,306,60403,2,0,P|160:182|109:168,1,119.999996337891
202,71,60755,2,0,P|260:91|298:147,1,119.999996337891
304,318,61108,5,0,0:0:0:0:
87,227,61285,1,0,0:0:0:0:
223,172,61461,2,0,P|286:169|359:202,1,119.999996337891
212,283,61814,5,0,0:0:0:0:
304,53,61991,1,0,0:0:0:0:
419,207,62167,1,0,0:0:0:0:
140,133,62344,1,0,0:0:0:0:
304,53,62520,1,0,0:0:0:0:
351,56,62608,1,0,0:0:0:0:
395,75,62697,1,0,0:0:0:0:
427,110,62785,1,0,0:0:0:0:
447,153,62873,2,0,P|450:219|419:263,1,119.999996337891
237,303,63226,5,0,0:0:0:0:
340,151,63403,1,0,0:0:0:0:
354,354,63579,1,0,0:0:0:0:
354,354,63667,1,0,0:0:0:0:
354,354,63755,1,0,0:0:0:0:
213,166,63932,1,0,0:0:0:0:
420,261,64108,5,0,0:0:0:0:
430,87,64285,1,0,0:0:0:0:
268,279,64461,1,0,0:0:0:0:
261,70,64638,1,0,0:0:0:0:
420,261,64814,1,0,0:0:0:0:
159,318,64991,2,0,P|103:274|82:208,1,119.999996337891
154,58,65344,5,0,0:0:0:0:
344,183,65520,1,0,0:0:0:0:
344,183,65608,1,0,0:0:0:0:
344,183,65697,1,0,0:0:0:0:
185,242,65873,1,0,0:0:0:0:
317,47,66050,1,0,0:0:0:0:
332,276,66226,1,0,0:0:0:0:
197,90,66403,5,0,0:0:0:0:
454,207,66579,1,0,0:0:0:0:
252,321,66755,1,0,0:0:0:0:
210,328,66844,1,0,0:0:0:0:
168,328,66932,1,0,0:0:0:0:
128,314,67020,1,0,0:0:0:0:
97,285,67108,2,0,P|78:222|121:137,1,119.999996337891
342,180,67461,2,0,P|231:202|179:185,1,119.999996337891
190,76,67814,5,0,0:0:0:0:
345,66,67991,1,0,0:0:0:0:
385,77,68079,1,0,0:0:0:0:
421,96,68167,2,0,P|462:151|453:216,1,119.999996337891
333,293,68520,6,0,P|189:307|130:258,1,200
223,102,69049,1,0,0:0:0:0:
56,213,69225,1,0,0:0:0:0:
275,217,69402,5,0,0:0:0:0:
275,217,69490,1,0,0:0:0:0:
275,217,69578,2,0,P|324:208|381:168,1,100
166,100,69931,1,0,0:0:0:0:
133,271,70108,1,0,0:0:0:0:
377,131,70284,2,0,P|326:140|256:185,1,100
276,346,70637,5,0,0:0:0:0:
436,260,70814,1,0,0:0:0:0:
199,254,70990,1,0,0:0:0:0:
342,98,71167,1,0,0:0:0:0:
342,98,71255,1,0,0:0:0:0:
342,98,71343,2,0,P|261:117|152:67,1,200
111,262,71873,5,0,0:0:0:0:
34,132,72049,1,0,0:0:0:0:
245,208,72225,2,0,P|297:213|339:203,1,50
378,167,72402,2,0,P|311:122|251:141,1,100
154,247,72755,1,0,0:0:0:0:
305,304,72931,1,0,0:0:0:0:
176,112,73108,1,0,0:0:0:0:
197,348,73284,1,0,0:0:0:0:
408,221,73461,5,0,0:0:0:0:
434,192,73549,1,0,0:0:0:0:
446,153,73637,2,0,P|435:95|420:74,1,50
326,141,73814,5,0,0:0:0:0:
301,172,73902,1,0,0:0:0:0:
264,194,73990,1,0,0:0:0:0:
230,207,74078,1,0,0:0:0:0:
194,208,74167,2,0,P|135:191|75:132,1,100,4|0,0:0|0:0,0:0:0:0:
407,181,74696,5,0,0:0:0:0:
287,327,74873,1,0,0:0:0:0:
192,70,75049,1,0,0:0:0:0:
277,195,75225,2,0,P|177:224|107:202,1,100
65,319,75578,5,0,0:0:0:0:
78,127,75755,1,0,0:0:0:0:
255,327,75931,1,0,0:0:0:0:
95,229,76108,1,0,0:0:0:0:
256,118,76284,1,0,0:0:0:0:
256,118,76373,1,0,0:0:0:0:
256,118,76461,2,0,L|330:147,1,50
412,184,76637,5,0,0:0:0:0:
380,223,76725,1,0,0:0:0:0:
336,247,76814,1,0,0:0:0:0:
287,252,76902,1,0,0:0:0:0:
243,243,76990,2,0,B|184:211|184:211|149:151,1,100
300,125,77343,5,0,0:0:0:0:
170,347,77520,1,0,0:0:0:0:
81,213,77696,1,0,0:0:0:0:
322,250,77873,1,0,0:0:0:0:
173,62,78049,2,0,P|132:93|63:98,1,100
208,229,78402,5,0,0:0:0:0:
316,109,78578,2,0,P|348:149|415:169,2,100
139,92,79108,1,0,0:0:0:0:
97,109,79196,1,0,0:0:0:0:
65,141,79284,1,0,0:0:0:0:
50,185,79373,1,0,0:0:0:0:
57,232,79461,1,0,0:0:0:0:
88,247,79550,1,0,0:0:0:0:
116,266,79638,1,0,0:0:0:0:
139,292,79726,1,0,0:0:0:0:
157,321,79814,1,0,0:0:0:0:
266,123,90403,5,0,0:0:0:0:
300,117,90491,1,0,0:0:0:0:
334,117,90579,1,0,0:0:0:0:
368,124,90667,1,0,0:0:0:0:
400,136,90755,1,0,0:0:0:0:
405,155,90844,1,0,0:0:0:0:
410,174,90932,1,0,0:0:0:0:
416,192,91020,1,0,0:0:0:0:
423,210,91108,2,0,B|438:262|438:262|395:333,1,100
253,355,91461,5,0,0:0:0:0:
239,192,91638,2,0,P|286:209|331:246,1,100
140,282,91991,5,0,0:0:0:0:
140,282,92167,2,0,P|81:194|82:165,1,100
88,77,92520,2,0,P|141:92|196:145,1,100
319,200,92873,1,0,0:0:0:0:
187,290,93050,2,0,P|164:245|163:190,1,100
249,90,93403,5,0,0:0:0:0:
312,193,93579,1,0,0:0:0:0:
412,108,93755,1,0,0:0:0:0:
412,108,93844,1,0,0:0:0:0:
412,108,93932,2,0,P|408:155|472:203,1,100
375,301,94285,5,0,0:0:0:0:
258,257,94461,1,0,0:0:0:0:
306,139,94638,2,0,P|261:117|196:121,1,100
62,214,94991,2,0,P|109:200|178:217,1,100
207,313,95344,2,0,P|273:232|272:197,1,100
328,103,95697,2,0,P|220:127|183:103,1,100
105,65,96050,5,0,0:0:0:0:
73,96,96138,1,0,0:0:0:0:
53,136,96226,1,0,0:0:0:0:
52,180,96314,1,0,0:0:0:0:
64,223,96403,1,0,0:0:0:0:
177,295,96579,5,0,0:0:0:0:
177,295,96667,1,0,0:0:0:0:
177,295,96755,2,0,P|226:271|296:285,1,100
361,103,97108,1,0,0:0:0:0:
177,149,97285,1,0,0:0:0:0:
416,254,97461,1,0,0:0:0:0:
265,54,97638,1,0,0:0:0:0:
248,299,97814,1,0,0:0:0:0:
460,80,97991,1,0,0:0:0:0:
460,80,98079,1,0,0:0:0:0:
460,80,98167,1,0,0:0:0:0:
246,202,98344,5,0,0:0:0:0:
312,25,98520,1,0,0:0:0:0:
411,290,98697,1,0,0:0:0:0:
169,83,98873,1,0,0:0:0:0:
473,185,99049,1,0,0:0:0:0:
234,342,99226,1,0,0:0:0:0:
329,107,99403,1,0,0:0:0:0:
329,107,99491,1,0,0:0:0:0:
329,107,99579,1,0,0:0:0:0:
109,237,99755,5,0,0:0:0:0:
203,20,99932,1,0,0:0:0:0:
346,256,100108,1,0,0:0:0:0:
86,101,100284,1,0,0:0:0:0:
463,165,100460,1,0,0:0:0:0:
195,348,100637,5,0,0:0:0:0:
407,50,100814,1,0,0:0:0:0:
384,359,100991,1,0,0:0:0:0:
181,41,101167,1,0,0:0:0:0:
476,265,101344,1,0,0:0:0:0:
85,300,101520,5,0,0:0:0:0:
476,265,101697,1,0,0:0:0:0:
286,32,101873,1,0,0:0:0:0:
235,281,102050,1,0,0:0:0:0:
405,131,102226,1,0,0:0:0:0:
405,131,102314,1,0,0:0:0:0:
405,131,102403,1,0,0:0:0:0:
255,122,102579,5,0,0:0:0:0:
128,190,102755,1,0,0:0:0:0:
266,271,102932,1,0,0:0:0:0:
407,188,103108,5,0,0:0:0:0:
437,154,103197,1,0,0:0:0:0:
450,111,103285,1,0,0:0:0:0:
445,66,103373,1,0,0:0:0:0:
420,28,103461,1,0,0:0:0:0:
382,52,103550,1,0,0:0:0:0:
340,69,103638,1,0,0:0:0:0:
295,76,103726,1,0,0:0:0:0:
249,77,103814,2,0,B|206:67|206:67|169:117|92:105,1,119.999996337891
264,331,104167,5,0,0:0:0:0:
374,169,104344,1,0,0:0:0:0:
97,251,104520,1,0,0:0:0:0:
97,251,104608,1,0,0:0:0:0:
97,251,104697,1,0,0:0:0:0:
196,73,104873,5,0,0:0:0:0:
311,272,105050,1,0,0:0:0:0:
85,123,105226,1,0,0:0:0:0:
346,63,105403,1,0,0:0:0:0:
191,300,105579,5,0,0:0:0:0:
232,122,105755,1,0,0:0:0:0:
413,237,105932,1,0,0:0:0:0:
101,202,106108,1,0,0:0:0:0:
288,41,106285,2,0,P|348:52|416:98,1,119.999996337891
265,303,106638,5,0,0:0:0:0:
180,73,106814,1,0,0:0:0:0:
426,198,106991,1,0,0:0:0:0:
158,328,107167,1,0,0:0:0:0:
261,91,107344,2,0,P|304:138|377:156,1,119.999996337891
341,336,107697,1,0,0:0:0:0:
164,169,107873,5,0,0:0:0:0:
476,140,108050,1,0,0:0:0:0:
216,287,108226,1,0,0:0:0:0:
320,31,108403,1,0,0:0:0:0:
445,271,108579,1,0,0:0:0:0:
445,271,108667,1,0,0:0:0:0:
445,271,108755,2,0,P|374:314|318:315,1,119.999996337891
170,293,109108,5,0,0:0:0:0:
333,123,109285,1,0,0:0:0:0:
333,123,109373,1,0,0:0:0:0:
333,123,109461,1,0,0:0:0:0:
259,274,109638,1,0,0:0:0:0:
154,48,109814,1,0,0:0:0:0:
366,223,109991,1,0,0:0:0:0:
162,235,110167,5,0,0:0:0:0:
393,345,110344,1,0,0:0:0:0:
316,68,110520,1,0,0:0:0:0:
266,301,110697,1,0,0:0:0:0:
266,301,110785,1,0,0:0:0:0:
266,301,110873,1,0,0:0:0:0:
475,146,111050,5,0,0:0:0:0:
175,160,111226,1,0,0:0:0:0:
354,259,111403,1,0,0:0:0:0:
227,20,111579,1,0,0:0:0:0:
174,314,111756,1,0,0:0:0:0:
361,134,111932,1,0,0:0:0:0:
34,121,112108,1,0,0:0:0:0:
34,121,112197,1,0,0:0:0:0:
34,121,112285,1,0,0:0:0:0:
301,231,112461,5,0,0:0:0:0:
47,313,112638,1,0,0:0:0:0:
191,41,112814,1,0,0:0:0:0:
295,337,112991,1,0,0:0:0:0:
149,203,113167,1,0,0:0:0:0:
393,80,113344,1,0,0:0:0:0:
400,245,113520,5,0,0:0:0:0:
216,83,113697,1,0,0:0:0:0:
186,120,113785,1,0,0:0:0:0:
151,153,113873,1,0,0:0:0:0:
113,183,113961,1,0,0:0:0:0:
99,229,114050,1,0,0:0:0:0:
108,275,114138,1,0,0:0:0:0:
132,315,114226,2,0,P|187:358|221:363,1,59.9999981689454
327,304,114491,5,0,0:0:0:0:
308,253,114579,1,0,0:0:0:0:
275,209,114667,1,0,0:0:0:0:
228,181,114755,1,0,0:0:0:0:
210,186,114844,1,0,0:0:0:0:
192,188,114932,1,0,0:0:0:0:
174,187,115020,1,0,0:0:0:0:
156,184,115108,2,0,P|98:161|59:87,1,119.999996337891,4|0,0:0|0:0,0:0:0:0:
304,57,115461,6,0,P|352:90|373:176,1,119.999996337891,4|0,0:0|0:0,0:0:0:0:
213,344,115814,1,0,0:0:0:0:
197,104,115991,1,0,0:0:0:0:
483,212,116167,1,0,0:0:0:0:
140,235,116344,1,0,0:0:0:0:
140,235,116432,1,0,0:0:0:0:
140,235,116520,1,4,0:0:0:0:
281,142,116697,5,0,0:0:0:0:
293,317,116873,1,4,0:0:0:0:
238,229,117050,1,0,0:0:0:0:
464,254,117226,5,4,0:0:0:0:
170,335,117403,1,0,0:0:0:0:
440,126,117579,1,4,0:0:0:0:
289,358,117755,1,0,0:0:0:0:
275,48,117932,2,0,P|214:81|136:85,1,119.999996337891,4|0,0:0|0:0,0:0:0:0:
55,265,118285,1,0,0:0:0:0:
225,228,118461,1,0,0:0:0:0:
225,228,118550,1,0,0:0:0:0:
225,228,118638,1,4,0:0:0:0:
66,62,118814,5,0,0:0:0:0:
170,356,118991,1,0,0:0:0:0:
370,128,119167,1,0,0:0:0:0:
370,128,119255,1,0,0:0:0:0:
370,128,119344,1,4,0:0:0:0:
26,290,119520,1,0,0:0:0:0:
317,32,119697,1,4,0:0:0:0:
75,367,119873,1,0,0:0:0:0:
219,8,120050,1,4,0:0:0:0:
394,324,120226,5,0,0:0:0:0:
254,180,120403,1,4,0:0:0:0:
208,163,120491,1,0,0:0:0:0:
160,167,120579,1,0,0:0:0:0:
120,193,120667,1,0,0:0:0:0:
94,236,120755,1,0,0:0:0:0:
209,319,120932,5,0,0:0:0:0:
64,112,121108,1,0,0:0:0:0:
65,355,121285,1,0,0:0:0:0:
386,142,121462,1,0,0:0:0:0:
39,226,121638,5,0,0:0:0:0:
328,349,121814,1,0,0:0:0:0:
182,68,121991,1,0,0:0:0:0:
182,68,122079,1,0,0:0:0:0:
182,68,122167,1,4,0:0:0:0:
183,310,122344,5,0,0:0:0:0:
56,84,122520,1,0,0:0:0:0:
437,158,122697,1,0,0:0:0:0:
38,305,122873,1,0,0:0:0:0:
276,27,123050,1,0,0:0:0:0:
351,368,123226,1,0,0:0:0:0:
144,65,123403,1,0,0:0:0:0:
473,298,123579,5,0,0:0:0:0:
54,226,123755,1,0,0:0:0:0:
468,171,123932,1,0,0:0:0:0:
81,352,124108,1,0,0:0:0:0:
394,26,124285,1,0,0:0:0:0:
211,382,124461,1,0,0:0:0:0:
487,62,124638,1,0,0:0:0:0:
39,231,124814,5,0,0:0:0:0:
483,307,124991,1,0,0:0:0:0:
483,307,125079,1,0,0:0:0:0:
483,307,125167,1,0,0:0:0:0:
211,70,125344,2,0,P|155:78|77:132,1,119.999996337891
115,297,125697,5,0,0:0:0:0:
251,192,125873,1,0,0:0:0:0:
251,192,125961,1,0,0:0:0:0:
251,192,126050,2,0,P|300:222|386:229,1,119.999996337891
343,84,126403,1,4,0:0:0:0:
256,192,126491,12,0,130285,0:0:0:0:
