osu file format v14

[General]
AudioFilename: audio.mp3
AudioLeadIn: 0
PreviewTime: 40928
Countdown: 0
SampleSet: Soft
StackLeniency: 0.7
Mode: 0
LetterboxInBreaks: 0
WidescreenStoryboard: 0

[Editor]
DistanceSpacing: 0.99
BeatDivisor: 4
GridSize: 16
TimelineZoom: 1

[Metadata]
Title:We Are Never Ever Getting Back Together
TitleUnicode:We Are Never Ever Getting Back Together
Artist:MY FIRST STORY
ArtistUnicode:MY FIRST STORY
Creator:Nao Tomori
Version:Heartbreak
Source:
Tags:森内 寛樹 Moriuchi Hiroki Hiro Taylor Swift mfs cover english pop acoustic Red 不可逆リプレイス Fukagyaku Replace akitoshi corinn -laura- schoolboy komore starcastler
BeatmapID:2472187
BeatmapSetID:1186095

[Difficulty]
HPDrainRate:4
CircleSize:4.1
OverallDifficulty:6.1
ApproachRate:7.3
SliderMultiplier:1.1
SliderTickRate:1

[Events]
//Background and Video events
0,0,"touka bg.jpg",0,0
//Break Periods
//Storyboard Layer 0 (Background)
//Storyboard Layer 1 (Fail)
//Storyboard Layer 2 (Pass)
//Storyboard Layer 3 (Foreground)
//Storyboard Layer 4 (Overlay)
//Storyboard Sound Samples

[TimingPoints]
710,375,4,2,0,49,1,0
40084,-116.279069767442,4,2,0,49,0,0
40928,-100,4,2,0,59,0,0
49271,-83.3333333333333,4,2,0,59,0,0
49834,-100,4,2,0,59,0,0
61271,-83.3333333333333,4,2,0,59,0,0
61834,-100,4,2,0,59,0,0
65209,-166.666666666667,4,2,0,59,0,0
66709,-100,4,2,0,49,0,0
94083,-114.942528735632,4,2,0,49,0,0
94833,-100,4,2,0,49,0,0
95208,-100,4,2,0,54,0,0
96708,-100,4,2,0,59,0,0
103270,-80,4,2,0,59,0,0
103833,-100,4,2,0,59,0,0
115271,-80,4,2,0,59,0,0
115832,-100,4,2,0,59,0,0
120895,-222.222222222222,4,2,0,59,0,0
123707,-100,4,2,0,59,0,0
132708,-133.333333333333,4,2,0,34,0,0
143207,-149.253731343284,4,2,0,34,0,0
144707,-114.942528735632,4,2,0,49,0,0
155957,-81.3008130081301,4,2,0,64,0,0
156707,-100,4,2,0,59,0,0
163269,-76.9230769230769,4,2,0,59,0,0
163832,-100,4,2,0,59,0,0
175268,-76.9230769230769,4,2,0,59,0,0
175831,-100,4,2,0,59,0,0
187269,-76.9230769230769,4,2,0,59,0,0
187831,-100,4,2,0,59,0,0
199269,-76.9230769230769,4,2,0,59,0,0
199831,-100,4,2,0,59,0,0
203206,-222.222222222222,4,2,0,59,0,0

[Colours]
Combo1 : 205,194,204
Combo2 : 251,188,164
Combo3 : 187,191,249
Combo4 : 171,209,171

[HitObjects]
32,232,710,6,0,P|136:218|199:211,1,165,2|0,2:2|2:2,2:2:0:0:
263,262,1460,2,0,P|228:297|159:280,1,110,2|0,2:2|2:2,2:2:0:0:
218,128,2022,2,0,P|253:133|284:135,1,55,2|0,2:2|2:2,2:2:0:0:
344,191,2397,1,0,2:2:0:0:
344,191,2585,6,0,P|378:183|408:175,1,55,2|0,2:2|2:2,2:2:0:0:
310,272,2960,2,0,P|279:269|243:264,1,55,2|0,2:2|2:2,2:2:0:0:
180,314,3335,2,0,P|152:317|125:321,1,55,2|0,2:2|2:2,2:2:0:0:
3,189,3710,6,0,P|24:229|133:207,1,165,2|2,2:2|2:2,2:2:0:0:
142,203,4366,2,0,P|145:172|144:107,1,82.4999999999999,2|0,2:2|2:2,2:2:0:0:
73,70,4835,2,0,P|67:105|70:141,1,55,2|0,2:2|2:2,2:2:0:0:
223,173,5210,6,0,P|308:168|350:163,1,110,2|0,2:2|2:2,2:2:0:0:
394,103,5772,2,0,B|354:65|354:65|294:95,1,110,0|0,2:2|2:2,2:2:0:0:
316,231,6335,2,0,P|324:206|329:176,1,55,0|0,2:2|2:2,2:2:0:0:
249,282,6710,6,0,P|280:308|391:261,1,165,2|0,2:2|2:2,2:2:0:0:
411,295,7460,1,2,2:2:0:0:
177,346,8210,6,0,B|102:323|102:323|9:373,1,165,2|0,2:2|2:2,2:2:0:0:
0,346,8960,2,0,B|-3:294|-14:236|-14:236,1,110,2|2,2:2|2:2,2:2:0:0:
126,59,9710,6,0,P|88:122|97:228,1,165,2|0,2:2|2:2,2:2:0:0:
108,230,10460,1,2,2:2:0:0:
282,186,11022,5,0,2:2:0:0:
282,186,11116,1,0,2:2:0:0:
282,186,11210,2,0,B|376:166|349:235|453:206,1,165,2|0,2:2|2:2,2:2:0:0:
487,111,11960,2,0,P|473:151|469:234,1,110,2|2,2:2|2:2,2:2:0:0:
254,371,12710,6,0,L|267:202,1,165,2|0,2:2|2:2,2:2:0:0:
248,181,13460,1,2,2:2:0:0:
109,250,14210,6,0,P|68:268|-2:182,1,165,2|0,2:2|2:2,2:2:0:0:
29,68,14960,2,0,P|27:134|22:189,1,110,2|2,2:2|2:2,2:2:0:0:
210,348,15710,6,0,P|203:266|201:226,1,110,2|0,2:2|2:2,2:2:0:0:
212,211,16272,1,2,2:2:0:0:
303,292,17022,5,0,2:2:0:0:
303,292,17116,1,0,2:2:0:0:
303,292,17210,2,0,B|321:319|359:323|359:323|410:246|502:275,1,220,2|0,2:2|2:2,2:2:0:0:
491,299,18147,2,0,P|466:243|486:192,1,110,0|0,2:2|2:2,2:2:0:0:
401,48,18710,6,0,P|412:86|416:116,1,55,2|0,2:2|2:2,2:2:0:0:
323,133,19085,2,0,P|312:95|308:65,1,55,2|0,2:2|2:2,2:2:0:0:
236,41,19460,2,0,L|181:33,1,55,2|0,2:2|2:2,2:2:0:0:
68,107,19835,2,0,L|123:100,1,55,2|0,2:2|2:2,2:2:0:0:
22,181,20210,6,0,P|18:219|125:252,1,165,2|0,2:2|2:2,2:2:0:0:
259,162,20960,1,2,2:2:0:0:
168,199,21147,2,0,P|222:191|277:186,1,110,2|0,2:2|2:2,2:2:0:0:
396,244,21710,6,0,B|425:292|407:330|407:330|380:308,1,110,2|0,2:2|2:2,2:2:0:0:
377,233,22272,1,2,2:2:0:0:
174,257,23022,5,0,2:2:0:0:
179,245,23116,1,0,2:2:0:0:
182,234,23210,2,0,P|150:200|35:237,1,165,2|0,2:2|2:2,2:2:0:0:
18,123,23960,1,2,2:2:0:0:
47,244,24147,2,0,P|44:203|37:128,1,110,2|0,2:2|2:2,2:2:0:0:
107,11,24710,6,0,B|79:61|79:61|108:78|121:110,1,110,2|0,2:2|2:2,2:2:0:0:
132,7,25272,1,2,2:2:0:0:
334,155,26210,6,0,P|385:172|434:150,1,110,2|0,2:2|2:2,2:2:0:0:
384,79,26772,1,2,2:2:0:0:
317,168,26960,2,0,B|263:164|273:209|207:228,1,110,2|2,2:2|2:2,2:2:0:0:
67,253,27710,6,0,B|103:222|150:234|150:234|158:280|198:294,1,165,2|2,2:2|2:2,2:2:0:0:
462,187,29022,5,0,2:2:0:0:
462,187,29116,1,0,2:2:0:0:
462,187,29210,2,0,P|400:175|329:261,1,165,2|0,2:2|2:2,2:2:0:0:
362,328,29960,2,0,P|424:340|495:254,1,165,2|0,2:2|2:2,2:2:0:0:
331,240,30710,6,0,B|237:257|287:311|195:361,1,165,2|0,2:2|2:2,2:2:0:0:
64,338,31460,2,0,P|110:288|152:292,1,110,0|2,2:2|2:2,2:2:0:0:
144,377,32022,5,2,2:2:0:0:
49,214,32397,1,2,2:2:0:0:
155,368,32772,1,0,2:2:0:0:
112,298,32960,1,2,2:2:0:0:
123,286,33147,2,0,P|126:232|128:167,1,110,2|0,2:2|2:2,2:2:0:0:
64,64,33710,6,0,P|57:96|60:131,1,55,2|0,2:2|2:2,2:2:0:0:
212,210,34085,2,0,P|219:178|216:143,1,55,0|0,2:2|2:2,2:2:0:0:
156,39,34460,2,0,P|152:84|150:113,1,55,2|0,2:2|2:2,2:2:0:0:
240,145,34835,1,2,2:2:0:0:
375,95,35022,6,0,P|345:82|312:83,1,55,2|0,2:2|2:2,2:2:0:0:
452,93,35397,2,0,P|422:106|389:105,1,55,0|0,2:2|2:2,2:2:0:0:
496,21,35772,2,0,P|481:73|466:205,1,165,2|2,2:2|2:2,2:2:0:0:
315,364,36710,6,0,P|279:335|168:366,1,165,2|0,2:2|2:2,2:2:0:0:
96,292,37460,2,0,P|92:237|88:182,1,110,0|2,2:2|2:2,2:2:0:0:
10,278,38022,5,2,2:2:0:0:
178,195,38397,1,2,2:2:0:0:
32,93,38772,1,0,2:2:0:0:
70,192,38960,1,2,2:2:0:0:
87,182,39147,2,0,P|136:175|210:165,1,110,2|0,2:2|2:2,2:2:0:0:
351,212,39710,6,0,P|396:218|425:226,1,55,2|0,2:2|2:2,2:2:0:0:
228,279,40085,2,0,P|306:250|419:242,1,189.200002886963,2|0,2:2|2:2,2:2:0:0:
419,379,41022,5,2,2:2:0:0:
419,379,41116,1,2,2:2:0:0:
419,379,41210,2,0,P|404:344|404:313,1,55,2|0,2:2|2:2,2:2:0:0:
413,163,41585,1,2,2:2:0:0:
424,173,41772,2,0,P|439:208|439:239,1,55,2|0,2:2|2:2,2:2:0:0:
75,190,42710,6,0,B|25:150|91:65|215:127|221:236,1,275,6|0,2:2|2:2,2:2:0:0:
173,345,43835,2,0,P|159:308|163:279,1,55,2|0,2:2|2:2,2:2:0:0:
273,129,44210,5,2,2:2:0:0:
295,146,44397,2,0,P|309:183|305:212,1,55,2|0,2:2|2:2,2:2:0:0:
78,335,44772,5,2,2:2:0:0:
67,309,44960,2,0,P|73:269|91:246,1,55,2|0,2:2|2:2,2:2:0:0:
227,192,45335,5,2,2:2:0:0:
172,264,45522,1,2,2:2:0:0:
81,232,45710,2,0,B|44:152|132:152|81:70,1,165,0|0,2:2|2:2,2:2:0:0:
2,72,46460,2,0,P|31:73|56:62,1,55,0|0,2:2|2:2,2:2:0:0:
152,5,46835,5,2,2:2:0:0:
169,15,47022,1,2,2:2:0:0:
273,9,47210,2,0,P|247:41|239:173,1,165,2|2,2:2|2:2,2:2:0:0:
311,225,47960,1,2,2:2:0:0:
331,233,48147,2,0,P|339:287|346:341,1,110,2|0,2:2|2:2,2:2:0:0:
257,361,48710,6,0,P|210:339|144:361,1,110,2|0,2:2|2:2,2:2:0:0:
8,308,49272,2,0,B|41:334|74:324|74:324|88:288|131:270,1,131.99999597168,2|0,2:2|2:2,2:2:0:0:
197,198,49835,2,0,P|191:233|198:269,1,55,2|0,2:2|2:2,2:2:0:0:
369,346,50210,5,2,2:2:0:0:
390,328,50397,2,0,P|419:326|459:321,1,55,2|0,2:2|2:2,2:2:0:0:
366,143,50772,5,2,2:2:0:0:
291,97,50960,2,0,P|279:136|284:174,1,55,2|0,2:2|2:2,2:2:0:0:
487,233,51335,5,2,2:2:0:0:
512,143,51522,1,2,2:2:0:0:
472,253,51710,2,0,B|360:294|375:197|253:240,1,220,0|0,2:2|2:2,2:2:0:0:
57,345,52835,5,2,2:2:0:0:
74,357,53022,1,2,2:2:0:0:
144,278,53210,2,0,P|142:238|129:153,1,110,2|0,2:2|2:2,2:2:0:0:
39,96,53772,1,2,2:2:0:0:
28,119,53960,1,2,2:2:0:0:
24,145,54147,2,0,P|77:159|131:168,1,110,2|0,2:2|2:2,2:2:0:0:
247,243,54710,6,0,P|281:235|327:228,1,55,2|0,2:2|2:2,2:2:0:0:
299,110,55085,2,0,P|317:129|335:150,1,55,2|0,2:2|2:2,2:2:0:0:
443,97,55460,2,0,P|436:130|406:226,1,110,2|0,2:2|2:2,2:2:0:0:
481,325,56022,6,0,P|433:292|420:286,1,55,2|0,2:2|2:2,2:2:0:0:
317,354,56397,2,0,P|335:305|322:236,1,110,2|0,2:2|2:2,2:2:0:0:
175,319,56960,6,0,P|215:326|248:317,1,55,2|0,2:2|2:2,2:2:0:0:
195,233,57335,1,2,2:2:0:0:
98,355,57522,2,0,P|85:320|72:292,1,55,2|0,2:2|2:2,2:2:0:0:
25,229,57897,2,0,P|40:186|59:104,1,110,2|0,2:2|2:2,2:2:0:0:
112,30,58460,6,0,P|121:67|132:108,1,55,2|0,2:2|2:2,2:2:0:0:
256,135,58835,2,0,P|221:134|179:146,1,55,2|0,2:2|2:2,2:2:0:0:
323,190,59210,1,2,2:2:0:0:
345,117,59397,1,2,2:2:0:0:
340,207,59585,2,0,B|371:210|392:227|392:227|419:230|459:205,1,110,2|0,2:2|2:2,2:2:0:0:
258,361,60335,6,0,L|247:285,1,55,2|0,2:2|2:2,2:2:0:0:
180,202,60710,2,0,P|154:233|167:304,1,110,2|0,2:2|2:2,2:2:0:0:
325,195,61272,2,0,B|296:228|260:221|260:221|238:195|188:197,1,131.99999597168,2|0,2:2|2:2,2:2:0:0:
59,229,61835,2,0,P|85:237|112:241,1,55,2|0,2:2|2:2,2:2:0:0:
195,115,62210,5,2,2:2:0:0:
206,94,62397,2,0,P|213:51|210:16,1,55,2|0,2:2|2:2,2:2:0:0:
371,113,62772,5,2,2:2:0:0:
302,166,62960,2,0,P|303:194|310:221,1,55,2|0,2:2|2:2,2:2:0:0:
406,356,63335,5,2,2:2:0:0:
512,291,63522,2,0,P|483:283|445:291,1,55,2|0,2:2|2:2,2:2:0:0:
289,339,63897,6,0,B|224:353|244:307|166:331,1,110,2|0,2:2|2:2,2:2:0:0:
92,327,64460,2,0,P|81:360|87:402,1,55,2|0,2:2|2:2,2:2:0:0:
131,247,64835,2,0,P|124:212|97:179,1,55,0|0,2:2|2:2,2:2:0:0:
276,252,65210,6,0,B|380:252|338:335|431:374,1,197.99999395752,6|0,2:2|2:2,2:2:0:0:
473,282,66710,6,0,P|481:232|508:96,1,165,2|0,2:2|2:2,2:2:0:0:
435,49,67460,2,0,P|408:67|422:143,1,110,2|0,2:2|2:2,2:2:0:0:
368,205,68022,2,0,P|331:191|304:190,1,55,0|0,2:2|2:2,2:2:0:0:
245,238,68397,5,2,2:2:0:0:
245,238,68585,2,0,P|208:252|181:253,1,55,2|0,2:2|2:2,2:2:0:0:
156,328,68960,2,0,P|118:315|96:299,1,55,2|0,2:2|2:2,2:2:0:0:
36,346,69335,2,0,P|15:312|9:286,1,55,2|0,2:2|2:2,2:2:0:0:
101,99,69710,6,0,P|108:142|113:284,1,165,2|2,2:2|2:2,2:2:0:0:
92,278,70366,2,0,P|75:242|87:200,1,82.5,2|0,2:2|2:2,2:2:0:0:
184,118,70835,2,0,P|189:149|192:177,1,55,2|0,2:2|2:2,2:2:0:0:
282,246,71210,6,0,B|370:217|359:294|455:257,1,165,2|0,2:2|2:2,2:2:0:0:
476,159,71960,2,0,P|454:212|483:269,1,110,2|2,2:2|2:2,2:2:0:0:
498,60,72710,6,0,P|466:54|376:43,1,110,2|0,2:2|2:2,2:2:0:0:
320,94,73272,1,0,2:2:0:0:
320,94,73366,2,0,P|274:101|229:117,1,82.5,2|0,2:2|2:2,2:2:0:0:
164,74,73835,2,0,P|121:69|100:68,1,55,2|0,2:2|2:2,2:2:0:0:
36,132,74210,6,0,P|21:161|27:320,1,192.5,2|0,2:2|2:2,2:2:0:0:
35,323,74960,1,2,2:2:0:0:
205,365,75147,2,0,P|154:349|105:372,1,110,2|0,2:2|2:2,2:2:0:0:
237,277,75710,6,0,B|258:302|288:305|288:305|328:260|392:271,1,165,2|0,2:2|2:2,2:2:0:0:
421,350,76460,2,0,P|367:357|344:355,1,55,2|0,2:2|2:2,2:2:0:0:
309,193,76835,2,0,P|363:186|386:188,1,55,2|0,2:2|2:2,2:2:0:0:
458,139,77210,6,0,P|481:91|388:8,1,192.5,2|0,2:2|2:2,2:2:0:0:
381,13,77960,1,2,2:2:0:0:
202,53,78147,2,0,L|312:57,1,110,2|0,2:2|2:2,2:2:0:0:
249,133,78710,6,0,L|139:129,1,110,2|0,2:2|2:2,2:2:0:0:
66,180,79272,1,0,2:2:0:0:
66,180,79366,2,0,P|52:212|64:266,1,82.5,2|0,2:2|2:2,2:2:0:0:
129,120,79835,2,0,L|119:52,1,55,2|0,2:2|2:2,2:2:0:0:
190,2,80210,6,0,P|220:53|315:26,1,165,2|0,2:2|2:2,2:2:0:0:
336,46,80960,1,2,2:2:0:0:
492,10,81710,6,0,P|485:41|469:130,1,110,2|0,2:2|2:2,2:2:0:0:
509,203,82272,1,0,2:2:0:0:
509,203,82460,2,0,P|524:238|521:270,1,55,2|0,2:2|2:2,2:2:0:0:
453,328,82835,2,0,P|428:291|435:241,1,82.5,2|0,2:2|2:2,2:2:0:0:
409,231,83210,6,0,P|324:216|240:192,1,165,2|0,2:2|2:2,2:2:0:0:
95,333,83960,2,0,P|138:293|243:320,1,165,2|0,2:2|2:2,2:2:0:0:
20,286,84710,6,0,P|2:178|-11:112,1,165,2|0,2:2|2:2,2:2:0:0:
49,45,85460,2,0,P|75:61|73:146,1,110,0|2,2:2|2:2,2:2:0:0:
161,181,86022,5,2,2:2:0:0:
296,96,86397,1,2,2:2:0:0:
317,253,86772,1,0,2:2:0:0:
238,211,86960,1,2,2:2:0:0:
234,198,87147,2,0,P|227:158|219:84,1,110,2|0,2:2|2:2,2:2:0:0:
141,209,87710,6,0,P|134:251|128:283,1,55,2|0,2:2|2:2,2:2:0:0:
218,367,88085,2,0,P|213:339|208:312,1,55,2|0,2:2|2:2,2:2:0:0:
295,281,88460,2,0,P|335:268|402:301,1,110,2|0,2:2|2:2,2:2:0:0:
506,208,89022,6,0,P|467:227|442:231,1,55,2|0,2:2|2:2,2:2:0:0:
333,140,89397,2,0,P|360:148|384:162,1,55,2|0,2:2|2:2,2:2:0:0:
465,15,89772,2,0,P|463:54|463:139,1,110,2|0,2:2|2:2,2:2:0:0:
375,63,90335,2,0,P|370:21|366:-10,1,55,2|0,2:2|2:2,2:2:0:0:
270,76,90710,6,0,P|243:115|258:185,1,110,2|0,2:2|2:2,2:2:0:0:
316,236,91272,1,0,2:2:0:0:
316,236,91460,2,0,P|359:224|426:220,1,110,0|2,2:2|2:2,2:2:0:0:
384,304,92022,5,2,2:2:0:0:
349,140,92397,1,2,2:2:0:0:
369,313,92772,1,0,2:2:0:0:
307,253,92960,1,2,2:2:0:0:
296,264,93147,2,0,P|235:276|185:282,1,110,2|0,2:2|2:2,2:2:0:0:
70,190,93710,6,0,P|42:192|18:204,1,55,2|0,2:2|2:2,2:2:0:0:
0,120,94085,2,0,P|40:146|141:123,1,143.55000120472,2|0,2:2|2:2,2:2:0:0:
81,13,94835,2,0,P|72:52|73:89,1,55,2|0,2:2|2:2,2:2:0:0:
185,223,95210,5,2,2:2:0:0:
248,29,95585,1,2,2:2:0:0:
406,223,95960,1,2,2:2:0:0:
355,85,96335,1,2,2:2:0:0:
279,183,96710,6,0,B|204:233|136:186|177:167|69:113|10:185,1,275,6|0,2:2|2:2,2:2:0:0:
75,293,97835,2,0,P|81:258|79:227,1,55,2|0,2:2|2:2,2:2:0:0:
228,46,98210,5,2,2:2:0:0:
214,64,98397,2,0,L|219:137,1,55,2|0,2:2|2:2,2:2:0:0:
342,310,98772,5,2,2:2:0:0:
377,186,98960,2,0,L|380:240,1,55,2|0,2:2|2:2,2:2:0:0:
327,82,99335,5,2,2:2:0:0:
419,106,99522,1,2,2:2:0:0:
310,94,99710,2,0,P|278:123|298:238,1,165,0|0,2:2|2:2,2:2:0:0:
201,349,100460,2,0,P|207:316|211:286,1,55,0|0,2:2|2:2,2:2:0:0:
99,145,100835,5,2,2:2:0:0:
88,133,101022,1,2,2:2:0:0:
22,240,101210,2,0,P|90:223|201:208,1,165,2|2,2:2|2:2,2:2:0:0:
286,256,101960,1,2,2:2:0:0:
307,268,102147,2,0,P|356:273|427:285,1,110,2|0,2:2|2:2,2:2:0:0:
491,98,102710,6,0,P|445:127|386:98,1,110,2|0,2:2|2:2,2:2:0:0:
247,60,103272,2,0,B|277:90|320:84|320:84|331:50|375:27,1,137.5,2|0,2:2|2:2,2:2:0:0:
184,14,103835,2,0,P|170:50|173:81,1,55,2|0,2:2|2:2,2:2:0:0:
209,221,104210,5,2,2:2:0:0:
120,173,104397,2,0,P|76:179|53:185,1,55,2|0,2:2|2:2,2:2:0:0:
222,237,104772,5,2,2:2:0:0:
302,171,104960,2,0,P|349:160|377:149,1,55,2|0,2:2|2:2,2:2:0:0:
233,253,105335,5,2,2:2:0:0:
168,320,105522,1,2,2:2:0:0:
84,282,105710,2,0,B|43:266|8:283|8:283|8:309|28:332,2,110,0|0|0,2:2|2:2|2:2,2:2:0:0:
381,353,106835,5,2,2:2:0:0:
445,294,107022,1,2,2:2:0:0:
367,259,107210,2,0,P|323:257|248:281,1,110,2|0,2:2|2:2,2:2:0:0:
376,172,107772,1,2,2:2:0:0:
448,220,107960,1,2,2:2:0:0:
489,141,108147,2,0,P|477:86|468:19,1,110,2|0,2:2|2:2,2:2:0:0:
311,20,108710,6,0,P|297:68|292:82,1,55,2|0,2:2|2:2,2:2:0:0:
161,51,109085,2,0,P|195:87|205:98,1,55,2|0,2:2|2:2,2:2:0:0:
78,213,109460,2,0,P|125:192|190:174,1,110,2|0,2:2|2:2,2:2:0:0:
262,294,110022,6,0,P|256:252|250:231,1,55,2|0,2:2|2:2,2:2:0:0:
414,241,110397,2,0,P|376:196|318:179,1,110,2|0,2:2|2:2,2:2:0:0:
176,142,110960,6,0,P|214:137|250:121,1,55,2|0,2:2|2:2,2:2:0:0:
191,52,111335,1,2,2:2:0:0:
98,106,111522,2,0,P|93:133|84:159,1,55,2|0,2:2|2:2,2:2:0:0:
146,222,111897,2,0,P|161:274|180:326,1,110,2|0,2:2|2:2,2:2:0:0:
337,368,112460,6,0,P|346:318|359:251,1,110,2|0,2:2|2:2,2:2:0:0:
423,190,113022,2,0,P|438:226|447:252,1,55,2|0,2:2|2:2,2:2:0:0:
342,173,113397,1,2,2:2:0:0:
405,106,113585,2,0,B|458:88|462:139|526:107,2,110,2|0|2,2:2|2:2|2:2,2:2:0:0:
105,193,114710,6,0,P|143:216|208:176,1,110,2|0,2:2|2:2,2:2:0:0:
355,172,115272,2,0,B|317:199|283:177|283:177|275:141|245:126,1,137.5,2|0,2:2|2:2,2:2:0:0:
424,127,115835,2,0,P|437:168|433:197,1,55,2|0,2:2|2:2,2:2:0:0:
331,299,116210,5,2,2:2:0:0:
346,272,116397,2,0,P|379:260|417:260,1,55,2|0,2:2|2:2,2:2:0:0:
180,278,116772,5,2,2:2:0:0:
226,345,116960,2,0,P|259:357|297:357,1,55,2|0,2:2|2:2,2:2:0:0:
97,336,117335,5,2,2:2:0:0:
172,257,117522,2,0,P|172:217|164:181,1,55,2|0,2:2|2:2,2:2:0:0:
67,240,117897,6,0,P|74:288|84:357,1,110,2|0,2:2|2:2,2:2:0:0:
0,160,118460,2,0,P|7:112|17:43,2,110,2|2|0,2:2|2:2|2:2,2:2:0:0:
349,278,119585,5,2,2:2:0:0:
455,217,119772,1,2,2:2:0:0:
280,203,119960,2,0,P|264:248|261:329,1,110,2|2,2:2|2:2,2:2:0:0:
242,120,120522,5,2,2:2:0:0:
363,195,120710,1,2,2:2:0:0:
245,101,120897,2,0,B|156:73|80:147|148:170|81:256|-3:317,1,346.49998942566,2|0,2:2|2:2,2:2:0:0:
3,207,123710,2,0,P|38:210|75:217,1,55,0|0,2:2|2:2,2:2:0:0:
224,297,124085,6,0,L|225:242,1,55,2|0,2:2|2:2,2:2:0:0:
314,193,124460,2,0,L|313:248,1,55,2|0,2:2|2:2,2:2:0:0:
399,292,124835,2,0,L|400:237,1,55,2|0,2:2|2:2,2:2:0:0:
314,193,125210,2,0,P|288:181|261:181,1,55,0|0,2:2|2:2,2:2:0:0:
148,109,125585,6,0,B|175:110|175:110|202:104,1,55,2|0,2:2|2:2,2:2:0:0:
320,42,125960,2,0,B|303:64|303:64|297:90,1,55,2|0,2:2|2:2,2:2:0:0:
292,225,126335,2,0,B|280:199|280:199|261:180,1,55,2|0,2:2|2:2,2:2:0:0:
71,376,126710,6,0,P|81:322|99:270,1,110,2|0,2:2|2:2,2:2:0:0:
205,243,127272,2,0,P|222:295|232:349,1,110,2|0,2:2|2:2,2:2:0:0:
335,375,127835,1,2,2:2:0:0:
435,299,128022,6,0,P|397:292|366:291,1,55,2|0,2:2|2:2,2:2:0:0:
442,160,128397,2,0,P|406:171|330:216,1,110,2|0,2:2|2:2,2:2:0:0:
338,95,128960,1,0,2:2:0:0:
259,157,129147,2,0,P|205:163|162:130,1,110,2|0,2:2|2:2,2:2:0:0:
34,281,129710,6,0,P|62:241|180:257,1,165,2|0,2:2|2:2,2:2:0:0:
395,296,130460,2,0,P|317:314|260:259,1,165,2|0,2:2|2:2,2:2:0:0:
328,175,131210,2,0,P|337:211|344:243,1,55,2|0,2:2|2:2,2:2:0:0:
180,263,131585,2,0,P|174:290|168:317,1,55,2|0,2:2|2:2,2:2:0:0:
106,188,131960,2,0,P|98:148|78:75,1,110,2|0,2:2|2:2,2:2:0:0:
202,2,132710,6,0,P|194:32|185:90,2,82.5000031471254,2|0|2,2:2|2:2|2:2,2:2:0:0:
277,64,133835,1,2,2:2:0:0:
237,159,134210,2,0,P|201:177|161:169,1,82.5000031471254,2|0,2:2|2:2,2:2:0:0:
317,186,134960,2,0,P|357:178|393:197,1,82.5000031471254,0|2,2:2|2:2,2:2:0:0:
481,257,135710,6,0,P|482:214|494:165,1,82.5000031471254,2|0,2:2|2:2,2:2:0:0:
433,321,136460,1,2,2:2:0:0:
411,314,136835,1,2,2:2:0:0:
306,276,137210,6,0,P|322:314|338:367,1,82.5000031471254,2|0,2:2|2:2,2:2:0:0:
224,271,137960,2,0,P|236:232|253:194,1,82.5000031471254,2|0,2:2|2:2,2:2:0:0:
144,295,138710,6,0,B|53:284|83:353|0:381,1,165.000006294251,2|2,2:2|2:2,2:2:0:0:
35,197,139835,2,0,P|89:195|112:223,1,82.5000031471254,2|0,2:2|2:2,2:2:0:0:
143,123,140585,2,0,P|197:143|282:76,1,165.000006294251,2|0,2:2|2:2,2:2:0:0:
509,136,141710,5,2,2:2:0:0:
404,77,142085,1,0,2:2:0:0:
334,175,142460,1,0,2:2:0:0:
506,157,142835,5,2,2:2:0:0:
402,102,143210,2,0,B|359:220|450:195|412:330,1,221.099989541474,2|0,2:2|2:2,2:2:0:0:
251,353,144710,6,0,P|279:337|342:355,1,95.7000008031464,2|0,2:2|2:2,2:2:0:0:
95,286,145460,2,0,P|123:302|186:284,1,95.7000008031464,2|0,2:2|2:2,2:2:0:0:
51,372,146210,2,0,P|61:333|12:176,1,191.400001606293,2|0,2:2|2:2,2:2:0:0:
73,123,147147,1,2,2:2:0:0:
73,123,147335,2,0,P|110:117|139:115,1,47.8500004015732,2|0,2:2|2:2,2:2:0:0:
187,46,147710,6,0,P|229:60|281:65,1,95.7000008031464,2|0,2:2|2:2,2:2:0:0:
463,17,148460,2,0,P|415:21|370:36,1,95.7000008031464,2|0,2:2|2:2,2:2:0:0:
337,113,149022,2,0,P|343:147|357:225,1,95.7000008031464,2|0,2:2|2:2,2:2:0:0:
430,245,149585,2,0,P|422:289|419:309,1,47.8500004015732,2|0,2:2|2:2,2:2:0:0:
294,267,149960,2,0,P|322:301|335:316,1,47.8500004015732,2|0,2:2|2:2,2:2:0:0:
218,362,150335,2,0,P|260:377|278:384,1,47.8500004015732,2|0,2:2|2:2,2:2:0:0:
110,302,150710,6,0,P|166:283|220:260,1,95.7000008031464,2|0,2:2|2:2,2:2:0:0:
86,164,151460,2,0,P|143:175|202:182,1,95.7000008031464,2|0,2:2|2:2,2:2:0:0:
154,14,152210,2,0,P|195:69|223:102,1,95.7000008031464,2|0,2:2|2:2,2:2:0:0:
381,133,152960,2,0,P|312:141|270:149,1,95.7000008031464,2|0,2:2|2:2,2:2:0:0:
457,86,153710,6,0,P|476:112|459:179,1,95.7000008031464,2|0,2:2|2:2,2:2:0:0:
377,243,154460,1,0,2:2:0:0:
292,175,154835,1,0,2:2:0:0:
227,233,155210,2,0,P|248:277|262:332,1,95.7000008031464,0|0,2:2|2:2,2:2:0:0:
131,343,155960,6,0,B|65:259|174:224|151:146,1,202.950003096771,2|0,2:2|2:2,2:2:0:0:
74,107,156710,6,0,P|66:149|241:202,1,275,6|0,2:2|2:2,2:2:0:0:
331,182,157835,2,0,P|320:136|315:116,1,55,2|0,2:2|2:2,2:2:0:0:
448,231,158210,5,2,2:2:0:0:
433,251,158397,2,0,P|424:287|424:314,1,55,2|0,2:2|2:2,2:2:0:0:
246,363,158772,5,2,2:2:0:0:
179,287,158960,2,0,P|177:260|170:234,1,55,2|0,2:2|2:2,2:2:0:0:
100,356,159335,5,2,2:2:0:0:
204,274,159522,1,2,2:2:0:0:
85,213,159710,2,0,B|27:209|40:242|-17:272,2,110,0|0|0,2:2|2:2|2:2,2:2:0:0:
130,133,160647,1,0,2:2:0:0:
114,111,160835,2,0,P|87:106|61:116,1,55,2|0,2:2|2:2,2:2:0:0:
188,206,161210,6,0,P|216:229|330:178,1,165,2|2,2:2|2:2,2:2:0:0:
255,132,161960,1,2,2:2:0:0:
289,268,162147,2,0,P|330:253|417:243,1,110,2|0,2:2|2:2,2:2:0:0:
487,95,162710,6,0,P|440:69|371:103,1,110,2|0,2:2|2:2,2:2:0:0:
225,71,163272,2,0,B|266:98|303:74|303:74|307:44|330:23,1,142.99999345398,2|0,2:2|2:2,2:2:0:0:
157,117,163835,2,0,P|142:78|142:45,1,55,2|0,2:2|2:2,2:2:0:0:
227,178,164210,5,2,2:2:0:0:
208,203,164397,2,0,P|163:206|135:210,1,55,2|0,2:2|2:2,2:2:0:0:
333,255,164772,5,2,2:2:0:0:
384,332,164960,2,0,P|425:341|456:334,1,55,2|0,2:2|2:2,2:2:0:0:
338,177,165335,5,2,2:2:0:0:
309,265,165522,1,2,2:2:0:0:
273,355,165710,2,0,P|232:342|160:370,2,110,0|0|0,2:2|2:2|2:2,2:2:0:0:
22,297,166835,5,2,2:2:0:0:
32,280,167022,1,2,2:2:0:0:
79,200,167210,2,0,P|59:140|55:83,1,110,2|0,2:2|2:2,2:2:0:0:
229,47,167772,1,2,2:2:0:0:
185,118,167960,1,2,2:2:0:0:
134,18,168147,2,0,P|98:60|54:93,1,110,2|0,2:2|2:2,2:2:0:0:
294,124,168710,6,0,P|316:144|344:163,1,55,2|0,2:2|2:2,2:2:0:0:
429,50,169085,2,0,P|400:59|370:73,1,55,2|0,2:2|2:2,2:2:0:0:
420,244,169460,2,0,P|429:196|430:125,1,110,2|0,2:2|2:2,2:2:0:0:
228,302,170022,6,0,P|236:336|248:372,1,55,2|0,2:2|2:2,2:2:0:0:
285,232,170397,2,0,P|228:214|156:230,1,110,2|0,2:2|2:2,2:2:0:0:
53,313,170960,6,0,P|90:312|121:299,1,55,2|0,2:2|2:2,2:2:0:0:
159,235,171335,1,2,2:2:0:0:
56,177,171522,2,0,L|72:243,1,55,2|0,2:2|2:2,2:2:0:0:
243,317,171897,2,0,P|249:250|257:193,1,110,2|0,2:2|2:2,2:2:0:0:
401,362,172460,6,0,P|393:325|383:288,1,55,2|0,2:2|2:2,2:2:0:0:
454,223,172835,1,2,2:2:0:0:
435,214,173022,2,0,P|428:187|423:161,1,55,2|0,2:2|2:2,2:2:0:0:
464,88,173397,1,2,2:2:0:0:
345,151,173585,2,0,P|305:170|237:144,1,110,2|0,2:2|2:2,2:2:0:0:
87,49,174335,6,0,P|89:89|98:114,1,55,2|0,2:2|2:2,2:2:0:0:
129,269,174710,2,0,P|156:216|141:161,1,110,2|0,2:2|2:2,2:2:0:0:
96,344,175272,2,0,B|139:363|184:333|184:333|218:351|216:402,1,142.99999345398,2|0,2:2|2:2,2:2:0:0:
74,207,175835,2,0,P|44:206|12:218,1,55,2|0,2:2|2:2,2:2:0:0:
115,116,176210,5,2,2:2:0:0:
186,240,176397,2,0,P|225:230|259:224,1,55,2|0,2:2|2:2,2:2:0:0:
127,134,176772,5,2,2:2:0:0:
254,245,176960,2,0,P|307:257|316:257,1,55,2|0,2:2|2:2,2:2:0:0:
141,151,177335,5,2,2:2:0:0:
329,260,177522,2,0,P|336:304|343:337,1,55,2|0,2:2|2:2,2:2:0:0:
154,171,177897,6,0,P|101:161|53:208,1,110,2|0,2:2|2:2,2:2:0:0:
120,317,178460,2,0,P|121:265|123:240,1,55,2|0,2:2|2:2,2:2:0:0:
230,80,178835,2,0,P|231:132|239:153,1,55,0|0,2:2|2:2,2:2:0:0:
309,181,179210,1,0,2:2:0:0:
504,56,179585,5,2,2:2:0:0:
343,9,179772,1,2,2:2:0:0:
434,1,179960,2,0,P|415:93|407:179,1,165,2|0,2:2|2:2,2:2:0:0:
468,326,180710,5,2,2:2:0:0:
391,255,180897,2,0,B|256:223|316:342|155:381,1,275,2|0,2:2|2:2,2:2:0:0:
12,212,182210,5,2,2:2:0:0:
38,231,182397,2,0,P|38:269|41:308,1,55,2|0,2:2|2:2,2:2:0:0:
139,165,182772,5,2,2:2:0:0:
89,92,182960,2,0,P|42:86|16:90,1,55,2|0,2:2|2:2,2:2:0:0:
203,230,183335,5,2,2:2:0:0:
273,150,183522,1,2,2:2:0:0:
324,244,183710,2,0,B|381:265|372:210|444:236,1,110,0|0,2:2|2:2,2:2:0:0:
300,73,184460,6,0,P|264:63|233:74,1,55,0|0,2:2|2:2,2:2:0:0:
353,137,184835,1,2,2:2:0:0:
380,63,185022,1,2,2:2:0:0:
503,151,185210,6,0,B|519:104|519:104|467:-4,1,165,2|2,2:2|2:2,2:2:0:0:
283,61,185960,1,2,2:2:0:0:
271,70,186147,2,0,P|231:73|162:45,1,110,2|0,2:2|2:2,2:2:0:0:
16,166,186710,6,0,P|60:142|126:172,1,110,2|0,2:2|2:2,2:2:0:0:
284,178,187272,2,0,B|242:144|199:171|199:171|193:210|150:228,1,142.99999345398,2|0,2:2|2:2,2:2:0:0:
94,291,187835,2,0,P|85:265|70:241,1,55,2|0,2:2|2:2,2:2:0:0:
1,300,188210,5,2,2:2:0:0:
108,372,188397,2,0,P|157:360|180:352,1,55,2|0,2:2|2:2,2:2:0:0:
302,244,188772,5,2,2:2:0:0:
388,296,188960,2,0,P|372:328|360:366,1,55,2|0,2:2|2:2,2:2:0:0:
504,168,189335,5,2,2:2:0:0:
466,252,189522,1,2,2:2:0:0:
409,136,189710,2,0,P|415:88|418:63,1,55,0|0,2:2|2:2,2:2:0:0:
209,165,190085,6,0,P|201:197|208:234,1,55,2|0,2:2|2:2,2:2:0:0:
198,74,190460,2,0,P|174:51|138:38,1,55,2|0,2:2|2:2,2:2:0:0:
282,109,190835,2,0,P|313:99|342:75,1,55,2|0,2:2|2:2,2:2:0:0:
124,119,191210,6,0,P|115:164|129:245,1,110,0|2,2:2|2:2,2:2:0:0:
183,302,191772,1,2,2:2:0:0:
277,230,191960,2,0,P|234:221|206:227,1,55,2|0,2:2|2:2,2:2:0:0:
30,325,192335,2,0,P|58:326|84:318,1,55,2|0,2:2|2:2,2:2:0:0:
276,367,192710,6,0,P|320:369|352:374,1,55,2|0,2:2|2:2,2:2:0:0:
368,279,193085,2,0,P|405:302|430:323,1,55,2|0,2:2|2:2,2:2:0:0:
485,175,193460,2,0,P|497:222|500:294,1,110,2|0,2:2|2:2,2:2:0:0:
399,129,194022,6,0,P|404:91|417:52,1,55,2|0,2:2|2:2,2:2:0:0:
312,176,194397,2,0,P|297:138|290:55,1,110,2|0,2:2|2:2,2:2:0:0:
164,160,194960,6,0,P|157:201|147:230,1,55,2|0,2:2|2:2,2:2:0:0:
82,172,195335,1,2,2:2:0:0:
241,222,195522,2,0,P|250:259|262:293,1,55,2|0,2:2|2:2,2:2:0:0:
120,350,195897,2,0,P|129:290|142:240,1,110,2|0,2:2|2:2,2:2:0:0:
40,44,196460,6,0,P|25:81|32:119,1,55,2|0,2:2|2:2,2:2:0:0:
164,21,196835,2,0,P|127:6|89:13,1,55,2|0,2:2|2:2,2:2:0:0:
190,108,197210,1,2,2:2:0:0:
246,38,197397,1,2,2:2:0:0:
293,173,197585,2,0,B|356:181|337:130|415:146,2,110,2|0|2,2:2|2:2|2:2,2:2:0:0:
29,342,198710,6,0,P|88:348|127:295,1,110,2|0,2:2|2:2,2:2:0:0:
283,302,199272,2,0,B|249:326|207:301|207:301|201:262|160:244,1,142.99999345398,2|0,2:2|2:2,2:2:0:0:
354,259,199835,2,0,P|364:296|363:325,1,55,2|0,2:2|2:2,2:2:0:0:
266,153,200210,5,2,2:2:0:0:
285,130,200397,2,0,L|347:117,1,55,2|0,2:2|2:2,2:2:0:0:
83,142,200772,5,2,2:2:0:0:
150,202,200960,2,0,P|190:210|219:207,1,55,2|0,2:2|2:2,2:2:0:0:
165,25,201335,5,2,2:2:0:0:
82,115,201522,2,0,P|41:104|17:104,1,55,2|0,2:2|2:2,2:2:0:0:
55,251,201897,6,0,P|88:265|157:218,1,110,2|0,2:2|2:2,2:2:0:0:
279,118,202460,2,0,P|263:185|241:301,1,165,2|0,2:2|2:2,2:2:0:0:
328,353,203210,2,0,P|354:319|335:267,1,98.9999969787599,2|2,2:2|2:2,2:2:0:0:
