osu file format v14

[General]
AudioFilename: audio.mp3
AudioLeadIn: 0
PreviewTime: -1
Countdown: 0
SampleSet: Soft
StackLeniency: 0.5
Mode: 0
LetterboxInBreaks: 0
WidescreenStoryboard: 0

[Editor]
DistanceSpacing: 0.7
BeatDivisor: 4
GridSize: 8
TimelineZoom: 1.6

[Metadata]
Title:WINNER
TitleUnicode:WINNER
Artist:MY FIRST STORY
ArtistUnicode:MY FIRST STORY
Creator:banter
Version:loser loser biscuit straight
Source:
Tags:
BeatmapID:1990300
BeatmapSetID:953232

[Difficulty]
HPDrainRate:5
CircleSize:4
OverallDifficulty:8.7
ApproachRate:9.2
SliderMultiplier:1.9
SliderTickRate:1

[Events]
//Background and Video events
0,0,"65547317_p0.jpg",0,0
//Break Periods
//Storyboard Layer 0 (Background)
//Storyboard Layer 1 (Fail)
//Storyboard Layer 2 (Pass)
//Storyboard Layer 3 (Foreground)
//Storyboard Sound Samples

[TimingPoints]
128,352.941176470588,4,2,1,45,1,0
128,-166.666666666667,4,2,1,45,0,0
4363,-133.333333333333,4,2,1,45,0,0
5775,-86.9565217391304,4,2,1,45,0,0
6127,-125,4,2,1,45,0,0
8598,-86.9565217391304,4,2,1,45,0,0
8951,-125,4,2,1,45,0,0
11333,-125,4,2,1,5,0,0
11422,-86.9565217391304,4,2,1,45,0,0
11775,-125,4,2,1,45,0,0
14157,-125,4,2,1,5,0,0
14245,-86.9565217391304,4,2,1,45,0,0
14598,-125,4,2,1,45,0,0
17069,-86.9565217391304,4,2,1,45,0,0
17422,-100,4,2,1,45,0,0
19892,-86.9565217391304,4,2,1,45,0,0
20245,-100,4,2,1,45,0,0
22716,-86.9565217391304,4,2,1,45,0,0
23069,-100,4,2,1,45,0,0
25539,-100,4,2,1,45,0,0
28363,-100,4,2,1,80,0,1
31186,-100,4,2,1,80,0,0
34010,-100,4,2,1,80,0,1
36833,-100,4,2,1,80,0,0
39657,-125,4,2,1,60,0,0
50951,-90.9090909090909,4,2,1,70,0,0
61539,-125,4,2,1,70,0,0
61804,-125,4,2,1,5,0,0
61892,-125,4,2,1,70,0,0
62157,-125,4,2,1,5,0,0
62245,-100,4,2,1,70,0,0
65686,-100,4,2,1,5,0,0
65775,-100,4,2,1,70,0,0
70716,-90.9090909090909,4,2,1,80,0,0
73010,-142.857142857143,4,2,1,80,0,0
73539,-86.9565217391304,4,2,1,90,0,1
83422,-86.9565217391304,4,2,1,90,0,0
84833,-86.9565217391304,4,2,1,90,0,1
89775,-86.9565217391304,4,2,1,90,0,0
90480,-86.9565217391304,4,2,1,90,0,1
94716,-86.9565217391304,4,2,1,90,0,0
96127,-83.3333333333333,4,2,1,90,0,1
98951,-90.9090909090909,4,2,1,80,0,0
101775,-83.3333333333333,4,2,1,80,0,1
107333,-100,4,2,1,80,0,0

[Colours]
Combo1 : 255,149,43
Combo2 : 255,128,255
Combo3 : 255,255,128
Combo4 : 128,64,64

[HitObjects]
258,304,128,6,0,L|266:371,1,56.9999982604981,8|0,0:0|0:0,0:0:0:0:
395,232,480,1,8,0:0:0:0:
305,145,657,1,0,0:0:0:0:
160,237,833,2,0,L|93:229,1,56.9999982604981,8|0,0:0|0:0,0:0:0:0:
298,88,1186,2,0,L|306:155,1,56.9999982604981,8|0,0:0|0:0,0:0:0:0:
150,89,1539,6,0,L|156:32,1,56.9999982604981,8|0,0:0|0:0,0:0:0:0:
305,145,1892,2,0,L|313:212,1,56.9999982604981,8|0,0:0|0:0,0:0:0:0:
143,145,2245,2,0,L|149:88,1,56.9999982604981,8|0,0:0|0:0,0:0:0:0:
311,201,2598,2,0,L|317:257,1,56.9999982604981,8|0,0:0|0:0,0:0:0:0:
66,351,2951,6,0,P|94:353|121:347,1,56.9999982604981,12|0,0:0|0:0,0:0:0:0:
160,237,3304,1,8,0:0:0:0:
264,360,3480,1,0,0:0:0:0:
366,204,3657,2,0,P|338:197|310:200,1,56.9999982604981,8|0,0:0|0:0,0:0:0:0:
457,324,4010,2,0,P|484:330|512:327,1,56.9999982604981,8|0,0:0|0:0,0:0:0:0:
313,130,4363,6,0,P|306:164|309:200,1,71.2500027179719,8|0,0:0|0:0,0:0:0:0:
457,324,4716,2,0,P|463:289|460:253,1,71.2500027179719,8|0,0:0|0:0,0:0:0:0:
329,13,5069,2,0,L|226:26,1,71.2500027179719,8|0,0:0|0:0,0:0:0:0:
412,167,5422,2,0,L|515:154,1,71.2500027179719,8|0,0:0|0:0,0:0:0:0:
152,284,5775,6,0,B|130:235|130:235|141:177,1,109.250002083778,14|0,0:0|0:0,0:0:0:0:
170,38,6127,1,10,0:0:0:0:
251,218,6304,1,0,3:3:0:0:
91,110,6480,2,0,B|50:104|50:104|11:120,1,76,10|0,0:0|0:0,0:0:0:0:
236,190,6833,2,0,L|328:179,1,76,10|0,0:0|0:0,0:0:0:0:
31,334,7186,6,0,P|19:297|26:260,1,76,8|0,0:0|0:0,0:0:0:0:
269,256,7539,2,0,P|280:292|273:329,1,76,8|0,0:0|0:0,0:0:0:0:
0,260,7892,2,0,P|17:225|48:204,1,76,8|0,0:0|0:0,0:0:0:0:
300,330,8245,2,0,P|282:364|251:385,1,76,8|0,0:0|0:0,0:0:0:0:
476,384,8598,6,0,B|498:335|498:335|487:276,1,109.250002083778,14|0,0:0|0:0,0:0:0:0:
372,119,8951,1,10,0:0:0:0:
387,313,9127,1,2,0:0:0:0:
482,166,9304,2,0,P|490:129|487:91,1,76,10|0,0:0|0:0,0:0:0:0:
284,263,9657,2,0,P|275:299|278:337,1,76,10|0,0:0|0:0,0:0:0:0:
249,86,10010,6,0,L|167:76,1,76,10|0,0:0|0:0,0:0:0:0:
437,250,10363,2,0,L|519:240,1,76,8|0,0:0|0:0,0:0:0:0:
183,152,10716,2,0,L|173:70,1,76,8|0,0:0|0:0,0:0:0:0:
362,194,11069,2,0,L|377:68,1,114,8|0,0:0|0:0,0:0:0:0:
438,26,11422,6,0,B|383:36|383:36|334:13,1,109.250002083778,14|0,0:0|0:0,0:0:0:0:
271,217,11775,1,10,0:0:0:0:
218,0,11951,1,0,3:0:0:0:
109,201,12127,2,0,B|104:242|104:242|117:274,1,76,10|0,0:0|0:0,0:0:0:0:
301,328,12480,2,0,P|263:321|226:328,1,76,10|0,0:0|0:0,0:0:0:0:
9,381,12833,6,0,P|46:387|83:380,1,76,10|0,0:0|0:0,0:0:0:0:
271,217,13186,2,0,P|277:179|270:142,1,76,8|0,0:0|0:0,0:0:0:0:
22,207,13539,2,0,P|15:244|22:281,1,76,8|0,0:0|0:0,0:0:0:0:
271,217,13892,2,0,L|406:204,1,114,8|0,0:0|0:0,0:0:0:0:
372,102,14245,6,0,B|361:156|361:156|384:205,1,109.250002083778,14|0,0:0|0:0,0:0:0:0:
512,384,14598,2,0,B|517:343|517:343|503:310,1,76,8|0,0:0|0:0,0:0:0:0:
349,347,14951,2,0,B|300:324|300:324|202:333,1,152,8|8,0:0|0:0,0:0:0:0:
0,384,15657,6,8,P|21:312|4:238,1,152
58,72,16186,1,0,3:0:0:0:
55,95,16274,1,0,3:0:0:0:
52,118,16363,1,0,3:0:0:0:
228,78,16539,1,0,3:0:0:0:
0,0,16716,1,0,3:0:0:0:
278,0,16892,1,0,3:0:0:0:
146,184,17069,6,0,B|135:238|135:238|158:287,1,109.250002083778,14|0,0:0|0:0,0:0:0:0:
275,220,17422,1,8,0:0:0:0:
189,0,17598,1,2,0:0:0:0:
46,211,17775,2,0,B|32:314,1,95,8|0,0:0|0:0,0:0:0:0:
287,314,18127,2,0,B|274:219,1,95,8|0,0:0|0:0,0:0:0:0:
58,116,18480,6,0,B|44:219,1,95,8|0,0:0|0:0,0:0:0:0:
314,329,18833,2,0,B|301:234,1,95,8|0,0:0|0:0,0:0:0:0:
149,104,19186,2,0,P|102:99|57:115,1,95,8|0,0:0|0:0,0:0:0:0:
222,340,19539,2,0,P|268:344|313:328,1,95,8|0,0:0|0:0,0:0:0:0:
352,40,19892,6,0,B|297:29|297:29|248:52,1,109.250002083778,14|0,0:0|0:0,0:0:0:0:
313,146,20245,1,8,0:0:0:0:
486,66,20422,1,2,0:0:0:0:
248,53,20598,2,0,P|201:57|155:43,1,95,8|0,0:0|0:0,0:0:0:0:
24,0,20951,2,0,L|14:104,1,95,8|0,0:0|0:0,0:0:0:0:
102,230,21304,6,0,P|115:184|111:137,1,95,8|0,0:0|0:0,0:0:0:0:
10,292,21657,2,0,P|-3:337|0:384,1,95,8|0,0:0|0:0,0:0:0:0:
221,256,22010,2,0,L|329:247,1,95,8|0,0:0|0:0,0:0:0:0:
206,129,22363,2,0,L|98:138,1,95,8|0,0:0|0:0,0:0:0:0:
351,370,22716,6,0,B|405:380|405:380|454:357,1,109.250002083778,14|0,0:0|0:0,0:0:0:0:
345,110,23069,1,8,0:0:0:0:
257,348,23245,1,0,3:0:0:0:
206,129,23422,2,0,L|190:28,1,95,8|0,0:0|0:0,0:0:0:0:
436,181,23775,2,0,L|452:80,1,95,8|0,0:0|0:0,0:0:0:0:
206,129,24127,6,0,L|98:138,1,95,8|0,0:0|0:0,0:0:0:0:
379,267,24480,2,0,P|424:283|471:278,1,95,8|0,0:0|0:0,0:0:0:0:
165,235,24833,2,0,P|149:279|154:326,1,95,8|0,0:0|0:0,0:0:0:0:
436,181,25186,2,0,L|452:80,1,95,8|0,0:0|0:0,0:0:0:0:
191,35,25539,5,14,0:0:0:0:
191,35,25892,1,8,0:0:0:0:
376,384,26245,5,14,0:0:0:0:
376,384,26598,1,8,0:0:0:0:
264,288,26775,1,2,0:0:0:0:
292,2,28363,5,12,0:0:0:0:
329,270,28539,1,0,3:0:0:0:
193,34,28716,5,8,0:0:0:0:
195,315,28892,1,0,3:0:0:0:
404,100,29069,5,8,0:0:0:0:
71,205,29245,1,0,3:0:0:0:
417,212,29422,5,8,0:0:0:0:
89,79,29598,1,0,3:0:0:0:
261,383,29775,5,8,0:0:0:0:
317,125,29951,2,0,P|322:76|308:30,1,95,0|8,3:0|0:0,0:0:0:0:
237,219,30304,1,0,3:0:0:0:
13,105,30480,2,0,P|8:56|21:10,1,95,8|0,0:0|3:0,0:0:0:0:
102,218,30833,2,0,P|107:267|93:312,1,95,8|0,0:0|0:0,0:0:0:0:
74,340,31098,1,8,0:0:0:0:
74,340,31186,5,12,0:0:0:0:
8,194,31363,1,0,3:0:0:0:
248,246,31539,2,0,L|342:254,1,95,12|0,0:0|0:0,0:0:0:0:
399,186,31804,1,8,0:0:0:0:
399,186,31892,1,12,0:3:0:0:
388,373,32069,1,0,3:0:0:0:
297,156,32245,2,0,L|288:61,1,95,8|0,0:0|0:0,0:0:0:0:
386,87,32598,5,8,0:3:0:0:
116,72,32775,1,8,0:0:0:0:
270,268,32951,2,0,L|364:276,1,95,8|0,0:0|0:0,0:0:0:0:
299,362,33216,1,8,0:0:0:0:
299,362,33304,2,0,L|200:349,1,95,0|0,3:0|0:0,0:0:0:0:
83,384,33569,1,8,0:0:0:0:
83,384,33657,2,0,L|87:336,3,47.5,8|8|10|10,0:0|0:0|3:3|3:3,0:0:0:0:
58,260,34010,5,12,0:0:0:0:
217,191,34186,1,0,3:0:0:0:
0,156,34363,5,8,0:0:0:0:
319,201,34539,1,0,3:0:0:0:
0,316,34716,5,8,0:0:0:0:
56,20,34892,1,0,3:0:0:0:
204,353,35069,5,8,0:0:0:0:
136,106,35245,1,0,3:0:0:0:
396,323,35422,5,8,0:0:0:0:
103,341,35598,1,0,3:0:0:0:
279,116,35775,5,8,0:0:0:0:
313,373,35951,1,0,3:0:0:0:
200,60,36127,5,8,0:0:0:0:
103,341,36304,1,0,3:0:0:0:
278,30,36480,5,8,0:0:0:0:
396,323,36657,1,8,0:0:0:0:
396,323,36745,1,8,0:0:0:0:
396,323,36833,5,10,0:0:0:0:
364,153,37010,1,0,3:0:0:0:
232,250,37186,2,0,P|185:258|140:248,1,95,12|0,0:0|3:0,0:0:0:0:
25,291,37451,1,8,0:0:0:0:
25,291,37539,2,0,P|16:244|27:198,1,95,12|0,0:0|0:0,3:0:0:0:
120,0,37892,1,2,2:0:0:0:
190,164,38069,1,8,0:0:0:0:
0,78,38245,5,2,2:0:0:0:
246,82,38422,2,0,B|317:78|317:78|363:98|363:98|431:95,1,190,0|2,3:0|2:0,0:0:0:0:
379,8,38951,1,0,3:0:0:0:
298,169,39127,1,8,0:0:0:0:
294,187,39216,1,8,0:0:0:0:
292,205,39304,2,10,L|297:258,3,47.5,10|10|10|10,2:3|2:3|2:3|2:3,2:3:0:0:
392,220,39657,6,0,L|377:371,1,152,12|8,0:0|0:0,0:0:0:0:
251,343,40186,1,2,0:0:0:0:
62,237,40363,2,8,P|134:220|204:247,1,152
128,337,40892,1,8,0:0:0:0:
12,159,41069,5,8,3:0:0:0:
36,329,41245,1,8,0:0:0:0:
204,247,41422,2,0,L|305:235,1,76,8|0,0:0|3:0,0:0:0:0:
36,329,41775,1,8,0:0:0:0:
12,159,41951,1,0,3:0:0:0:
26,358,42127,1,8,0:0:0:0:
279,238,42304,5,6,1:0:0:0:
37,174,42480,1,6,1:0:0:0:
320,161,42657,2,0,L|410:151,1,76,6|6,1:0|1:0,0:0:0:0:
479,268,43010,2,0,L|403:259,1,76,2|8,0:0|0:0,0:0:0:0:
288,80,43363,1,2,3:0:0:0:
493,142,43539,2,0,L|502:66,1,76,8|8,0:0|0:0,0:0:0:0:
277,51,43892,5,8,3:0:0:0:
221,254,44069,1,8,0:0:0:0:
168,103,44245,2,0,L|159:27,1,76,8|0,0:0|3:0,0:0:0:0:
320,161,44598,1,8,0:0:0:0:
112,211,44775,1,0,3:0:0:0:
343,158,44951,2,8,L|347:195,1,38
216,291,45127,2,0,L|220:253,1,38,0|0,3:0|3:0,3:0:0:0:
343,66,45304,5,6,1:0:0:0:
371,308,45480,1,6,1:0:0:0:
243,59,45657,1,6,1:0:0:0:
212,322,45833,1,6,1:0:0:0:
459,181,46010,2,0,P|464:143|456:106,1,76,8|0,0:0|0:0,0:0:0:0:
432,83,46275,1,0,3:0:0:0:
432,83,46363,1,8,0:0:0:0:
466,293,46539,1,8,0:0:0:0:
343,158,46716,5,8,3:0:0:0:
338,384,46892,2,0,P|375:389|412:381,1,76,8|8,0:0|0:0,0:0:0:0:
290,265,47245,1,0,3:0:0:0:
135,377,47422,1,8,0:0:0:0:
369,300,47598,2,0,P|374:262|366:225,1,76,0|8,3:0|0:0,0:0:0:0:
248,77,47951,5,6,1:0:0:0:
338,384,48127,1,6,1:0:0:0:
343,44,48304,1,6,1:0:0:0:
212,322,48480,2,0,L|202:218,1,76,6|0,1:0|0:0,0:0:0:0:
62,99,48833,2,0,L|55:174,1,76,8|0,0:0|0:0,0:0:0:0:
98,202,49098,1,0,3:0:0:0:
98,202,49186,1,8,0:0:0:0:
140,18,49363,1,8,0:0:0:0:
318,187,49539,5,8,1:3:0:0:
221,101,49716,1,8,0:0:0:0:
215,138,49804,1,8,0:0:0:0:
209,175,49892,2,8,L|213:212,1,38
286,284,50069,1,0,3:0:0:0:
282,306,50157,1,0,3:0:0:0:
278,327,50245,1,14,3:3:0:0:
274,349,50333,1,6,3:3:0:0:
270,370,50422,2,6,L|232:374,1,38,6|6,3:0|3:0,3:0:0:0:
373,262,50598,2,8,L|410:266,1,38
126,294,50775,2,8,L|89:290,1,38
407,171,50951,6,0,P|415:119|408:68,1,104.500003189087,14|0,0:0|3:0,0:0:0:0:
280,109,51304,1,8,0:0:0:0:
362,357,51480,2,0,P|413:365|464:358,1,104.500003189087,0|8,0:0|0:0,0:0:0:0:
293,207,51833,1,0,0:0:0:0:
197,378,52010,1,8,0:0:0:0:
166,135,52186,1,8,0:0:0:0:
395,255,52363,6,0,L|501:262,1,104.500003189087,14|0,0:0|0:0,0:0:0:0:
331,22,52716,1,8,0:0:0:0:
153,155,52892,2,0,L|47:162,1,104.500003189087,2|8,0:0|0:0,0:0:0:0:
109,34,53245,1,0,0:0:0:0:
280,109,53422,1,8,0:0:0:0:
103,257,53598,1,0,0:0:0:0:
101,277,53686,1,8,0:0:0:0:
99,297,53775,5,10,0:3:0:0:
260,219,53951,1,0,0:0:0:0:
48,161,54127,1,0,0:0:0:0:
51,381,54304,2,0,P|101:391|151:379,1,104.500003189087
274,203,54657,2,0,P|324:190|374:201,1,104.500003189087
280,344,55010,1,0,0:0:0:0:
188,83,55186,5,0,0:0:0:0:
151,379,55363,1,0,0:0:0:0:
305,58,55539,1,0,0:0:0:0:
392,332,55716,2,0,L|511:348,1,104.500003189087
274,203,56069,1,0,0:0:0:0:
274,203,56157,1,0,0:0:0:0:
274,203,56245,2,0,L|267:151,1,52.2500015945435
195,6,56422,2,0,L|188:57,1,52.2500015945435
200,284,56598,6,0,B|149:296|149:296|99:280,1,104.500003189087
55,154,56951,1,0,0:0:0:0:
312,284,57127,2,0,B|324:335|324:335|308:384,1,104.500003189087
150,193,57480,1,0,0:0:0:0:
92,376,57657,1,0,0:0:0:0:
84,62,57833,1,0,0:0:0:0:
366,208,58010,6,0,P|416:218|467:207,1,104.500003189087
327,63,58363,1,0,0:0:0:0:
271,158,58539,2,0,P|260:208|271:259,1,104.500003189087
417,113,58892,1,0,0:0:0:0:
219,69,59069,1,0,0:0:0:0:
219,69,59157,1,0,0:0:0:0:
219,69,59245,2,0,L|163:63,1,52.2500015945435
271,259,59422,5,0,0:0:0:0:
335,41,59598,1,0,0:0:0:0:
159,165,59775,1,0,0:0:0:0:
371,339,59951,5,0,0:0:0:0:
303,129,60127,1,0,0:0:0:0:
239,381,60304,1,0,0:0:0:0:
311,107,60480,1,0,0:0:0:0:
467,311,60657,5,0,0:0:0:0:
164,284,60833,1,0,0:0:0:0:
319,85,61010,1,0,0:0:0:0:
371,339,61186,5,0,0:0:0:0:
159,165,61363,1,0,0:0:0:0:
468,74,61539,2,0,B|492:115|492:115|485:180,1,114
394,250,61892,2,0,B|406:136,1,114
381,54,62245,6,0,P|327:52|285:70,1,95
273,94,62510,1,0,0:0:0:0:
273,94,62598,2,0,L|279:155,3,47.5
164,42,62951,2,0,L|158:103,5,47.5
282,188,63480,2,0,L|277:140,1,47.5
145,195,63657,6,0,L|140:242,3,47.5
282,188,64010,2,0,L|329:183,1,47.5
249,303,64186,1,0,0:0:0:0:
249,303,64275,1,0,0:0:0:0:
249,303,64363,1,0,0:0:0:0:
159,89,64539,1,0,0:0:0:0:
124,335,64716,5,0,0:0:0:0:
93,352,64804,1,0,0:0:0:0:
57,355,64892,1,0,0:0:0:0:
24,344,64980,1,0,0:0:0:0:
0,319,65068,5,0,0:0:0:0:
282,188,65245,1,0,0:0:0:0:
69,136,65422,2,0,B|48:86|48:86|65:0,1,142.5
159,89,65775,2,0,P|169:135|153:192,1,95
72,269,66039,1,0,0:0:0:0:
72,270,66127,2,0,P|74:246|81:223,1,47.5
325,265,66304,6,0,P|332:287|334:311,5,47.5
165,280,66833,2,0,P|157:302|155:326,1,47.5
282,188,67010,1,0,0:0:0:0:
282,188,67098,1,0,0:0:0:0:
282,188,67186,1,0,0:0:0:0:
378,384,67363,1,0,0:0:0:0:
402,184,67539,5,0,0:0:0:0:
406,153,67627,1,0,0:0:0:0:
411,122,67715,1,0,0:0:0:0:
416,92,67803,1,0,0:0:0:0:
421,61,67891,5,0,0:0:0:0:
325,265,68069,1,0,0:0:0:0:
259,66,68245,1,0,0:0:0:0:
228,49,68333,1,0,0:0:0:0:
192,46,68421,1,0,0:0:0:0:
159,57,68509,1,0,0:0:0:0:
135,82,68597,5,0,0:0:0:0:
159,341,68775,1,0,0:0:0:0:
203,131,68951,1,0,0:0:0:0:
22,236,69127,5,0,0:0:0:0:
260,210,69305,1,0,0:0:0:0:
0,149,69481,1,0,0:0:0:0:
159,341,69657,5,0,0:0:0:0:
135,82,69833,1,0,0:0:0:0:
79,365,70010,1,0,0:0:0:0:
354,268,70186,1,0,0:0:0:0:
70,138,70363,1,0,0:0:0:0:
53,107,70451,1,0,0:0:0:0:
50,71,70539,1,0,0:0:0:0:
61,38,70627,1,0,0:0:0:0:
86,14,70715,5,0,0:0:0:0:
243,351,70892,1,0,0:0:0:0:
235,1,71069,5,0,0:0:0:0:
79,365,71245,1,0,0:0:0:0:
86,14,71422,5,0,0:0:0:0:
252,369,71598,1,0,0:0:0:0:
226,18,71775,5,0,0:0:0:0:
69,381,71951,1,0,0:0:0:0:
282,175,72127,5,0,0:0:0:0:
327,151,72215,1,0,0:0:0:0:
378,159,72303,1,0,0:0:0:0:
425,179,72392,1,0,0:0:0:0:
475,169,72480,1,0,0:0:0:0:
232,276,72657,1,0,0:0:0:0:
433,80,73010,6,0,L|440:-8,2,66.4999979705811
343,251,73539,5,0,0:0:0:0:
226,18,73716,1,0,0:0:0:0:
140,257,73892,2,0,L|9:267,1,109.250002083778
31,265,74157,1,0,0:0:0:0:
31,265,74245,1,0,0:0:0:0:
247,363,74422,1,0,0:0:0:0:
305,158,74598,2,0,L|315:27,1,109.250002083778
125,73,74951,5,0,0:0:0:0:
239,265,75127,1,0,0:0:0:0:
312,49,75304,2,0,P|364:32|417:43,1,109.250002083778
417,43,75569,1,0,0:0:0:0:
417,43,75657,1,0,0:0:0:0:
341,362,75833,1,0,0:0:0:0:
196,168,76010,1,0,0:0:0:0:
435,139,76186,1,0,0:0:0:0:
239,265,76363,6,0,P|185:273|134:254,1,109.250002083778
100,83,76716,1,0,0:0:0:0:
222,368,76892,1,0,0:0:0:0:
222,368,76981,1,0,0:0:0:0:
222,368,77069,1,0,0:0:0:0:
315,68,77245,1,0,0:0:0:0:
451,231,77422,2,0,P|467:282|456:335,1,109.250002083778
287,174,77775,5,0,0:0:0:0:
222,368,77951,1,0,0:0:0:0:
108,105,78127,1,0,0:0:0:0:
385,162,78304,2,0,L|515:152,1,109.250002083778
221,81,78657,5,0,0:0:0:0:
195,106,78745,1,0,0:0:0:0:
178,138,78833,1,0,0:0:0:0:
173,173,78921,1,0,0:0:0:0:
178,209,79009,1,0,0:0:0:0:
195,241,79098,1,0,0:0:0:0:
221,267,79186,5,0,0:0:0:0:
348,50,79363,1,0,0:0:0:0:
370,268,79539,2,0,L|380:398,1,109.250002083778
378,376,79804,1,0,0:0:0:0:
378,376,79892,1,0,0:0:0:0:
493,153,80069,1,0,0:0:0:0:
221,81,80245,2,0,B|169:64|169:64|112:77,1,109.250002083778
108,377,80598,5,0,0:0:0:0:
163,168,80775,1,0,0:0:0:0:
272,372,80951,2,0,B|323:388|323:388|381:376,1,109.250002083778
378,376,81216,1,0,0:0:0:0:
378,376,81304,1,0,0:0:0:0:
362,177,81480,1,0,0:0:0:0:
206,269,81657,2,0,P|153:279|101:263,1,109.250002083778
280,8,82010,5,0,0:0:0:0:
330,282,82186,1,0,0:0:0:0:
466,112,82363,2,0,L|476:-3,1,109.250002083778
475,3,82627,1,0,0:0:0:0:
475,3,82716,1,0,0:0:0:0:
452,256,82892,1,0,0:0:0:0:
312,93,83069,2,0,P|259:82|207:98,1,109.250002083778
175,340,83422,6,0,B|195:290|195:290|188:235,1,109.250002083778
170,207,83686,1,0,0:0:0:0:
139,193,83775,1,0,0:0:0:0:
5,356,83951,1,0,0:0:0:0:
264,384,84127,1,0,0:0:0:0:
292,337,84215,1,0,0:0:0:0:
302,284,84303,1,0,0:0:0:0:
294,230,84391,1,0,0:0:0:0:
267,183,84480,2,0,P|261:156|260:129,3,54.6250010418892
89,277,84833,5,0,0:0:0:0:
358,145,85010,1,0,0:0:0:0:
110,62,85186,2,0,L|-3:46,1,109.250002083778
1,46,85451,1,0,0:0:0:0:
1,46,85539,1,0,0:0:0:0:
188,235,85716,1,0,0:0:0:0:
325,50,85892,2,0,L|438:34,1,109.250002083778
372,294,86245,5,0,0:0:0:0:
260,129,86422,1,0,0:0:0:0:
472,247,86598,2,0,P|482:300|466:352,1,109.250002083778
466,351,86863,1,0,0:0:0:0:
466,351,86951,1,0,0:0:0:0:
268,254,87127,1,0,0:0:0:0:
460,129,87304,1,0,0:0:0:0:
473,358,87480,1,0,0:0:0:0:
149,144,87657,6,0,B|94:132|94:132|43:147,1,109.250002083778
118,325,88010,1,0,0:0:0:0:
261,127,88186,1,0,0:0:0:0:
261,127,88275,1,0,0:0:0:0:
261,127,88363,1,0,0:0:0:0:
298,363,88539,1,0,0:0:0:0:
373,176,88716,2,0,B|384:121|384:121|369:70,1,109.250002083778
162,242,89069,5,0,0:0:0:0:
377,280,89245,1,0,0:0:0:0:
33,278,89422,1,0,0:0:0:0:
279,217,89598,1,0,0:0:0:0:
125,42,89775,5,0,0:0:0:0:
89,33,89863,1,0,0:0:0:0:
54,38,89951,1,0,0:0:0:0:
23,58,90039,1,0,0:0:0:0:
3,87,90127,1,0,0:0:0:0:
0,123,90216,1,0,0:0:0:0:
4,158,90304,2,0,L|62:152,1,54.6250010418892
261,98,90480,5,0,0:0:0:0:
175,349,90657,1,0,0:0:0:0:
268,76,90833,5,0,0:0:0:0:
336,337,91010,1,0,0:0:0:0:
275,54,91186,5,0,0:0:0:0:
162,375,91363,1,0,0:0:0:0:
282,32,91539,5,0,0:0:0:0:
351,359,91716,1,0,0:0:0:0:
404,52,91892,5,0,0:0:0:0:
151,183,92069,1,0,0:0:0:0:
418,168,92245,5,0,0:0:0:0:
151,61,92422,1,0,0:0:0:0:
417,30,92598,5,0,0:0:0:0:
267,264,92775,1,0,0:0:0:0:
433,8,92951,5,0,0:0:0:0:
475,330,93127,1,0,0:0:0:0:
475,330,93216,1,0,0:0:0:0:
475,330,93304,5,0,0:0:0:0:
327,111,93480,1,0,0:0:0:0:
314,372,93657,5,0,0:0:0:0:
308,95,93833,1,0,0:0:0:0:
171,314,94010,5,0,0:0:0:0:
301,67,94186,1,0,0:0:0:0:
62,160,94363,5,0,0:0:0:0:
309,349,94539,1,0,0:0:0:0:
191,53,94716,5,0,0:0:0:0:
60,320,94892,1,0,0:0:0:0:
60,320,94980,1,0,0:0:0:0:
60,320,95069,1,0,0:0:0:0:
111,0,95245,5,0,0:0:0:0:
243,262,95422,1,0,0:0:0:0:
243,262,95510,1,0,0:0:0:0:
243,262,95598,2,0,L|251:190,1,54.6250010418892
56,107,95775,2,0,L|62:161,1,54.6250010418892
230,369,95951,1,0,0:0:0:0:
230,369,96039,1,0,0:0:0:0:
230,369,96127,5,0,0:0:0:0:
227,81,96303,1,0,0:0:0:0:
383,380,96480,5,0,0:0:0:0:
335,62,96656,1,0,0:0:0:0:
119,284,96833,5,0,0:0:0:0:
451,166,97009,1,0,0:0:0:0:
100,178,97186,5,0,0:0:0:0:
443,289,97362,1,0,0:0:0:0:
242,38,97539,5,0,0:0:0:0:
119,284,97716,1,0,0:0:0:0:
19,66,97892,5,0,0:0:0:0:
193,351,98069,1,0,0:0:0:0:
234,60,98245,5,0,0:0:0:0:
100,375,98422,1,0,0:0:0:0:
19,66,98598,2,0,P|72:47|128:55,1,113.999996520996
128,55,98863,1,0,0:0:0:0:
128,55,98951,5,0,0:0:0:0:
213,242,99127,1,0,0:0:0:0:
372,0,99304,2,0,P|332:43|321:99,1,104.500003189087
320,86,99569,1,0,0:0:0:0:
320,86,99657,1,0,0:0:0:0:
406,321,99833,1,0,0:0:0:0:
512,155,100010,2,0,P|454:142|400:160,1,104.500003189087
285,356,100363,5,0,0:0:0:0:
512,299,100539,1,0,0:0:0:0:
275,174,100716,2,0,L|151:157,1,104.500003189087
171,159,100980,1,0,0:0:0:0:
171,159,101069,1,0,0:0:0:0:
33,337,101245,5,0,0:0:0:0:
71,331,101333,1,0,0:0:0:0:
110,326,101422,2,0,L|117:269,1,52.2500015945435
46,118,101598,2,0,L|53:175,1,56.9999982604981
222,255,101775,5,0,0:0:0:0:
21,257,101951,1,0,0:0:0:0:
275,174,102127,5,0,0:0:0:0:
1,250,102304,1,0,0:0:0:0:
229,354,102480,5,0,0:0:0:0:
223,90,102657,1,0,0:0:0:0:
108,361,102833,5,0,0:0:0:0:
210,66,103010,1,0,0:0:0:0:
378,220,103186,5,0,0:0:0:0:
117,267,103363,1,0,0:0:0:0:
396,238,103539,5,0,0:0:0:0:
119,151,103716,1,0,0:0:0:0:
414,256,103892,5,0,0:0:0:0:
93,280,104069,1,0,0:0:0:0:
331,117,104245,6,0,P|386:108|440:127,1,113.999996520996
440,127,104510,1,0,0:0:0:0:
440,127,104598,5,0,0:0:0:0:
342,369,104775,1,0,0:0:0:0:
219,163,104951,2,0,P|210:107|229:53,1,113.999996520996
428,257,105304,5,0,0:0:0:0:
178,374,105480,1,0,0:0:0:0:
331,117,105657,5,0,0:0:0:0:
495,378,105833,1,0,0:0:0:0:
195,259,106010,5,0,0:0:0:0:
146,229,106098,1,0,0:0:0:0:
123,178,106186,1,0,0:0:0:0:
131,123,106274,1,0,0:0:0:0:
168,80,106363,6,0,P|196:77|224:79,1,56.9999982604981
113,309,106539,2,0,P|53:313|-13:303,1,113.999996520996
300,169,106892,1,0,0:0:0:0:
334,198,106980,1,0,0:0:0:0:
355,238,107068,1,0,0:0:0:0:
360,283,107156,1,0,0:0:0:0:
346,326,107244,1,0,0:0:0:0:
318,362,107333,1,0,0:0:0:0:
