osu file format v14

[General]
AudioFilename: audio.mp3
AudioLeadIn: 0
PreviewTime: -1
Countdown: 0
SampleSet: Soft
StackLeniency: 0.2
Mode: 0
LetterboxInBreaks: 0
WidescreenStoryboard: 1

[Editor]
DistanceSpacing: 1.3
BeatDivisor: 4
GridSize: 32
TimelineZoom: 2.4

[Metadata]
Title:Smash Out!!
TitleUnicode:Smash Out!!
Artist:MY FIRST STORY
ArtistUnicode:MY FIRST STORY
Creator:PsiOniC
Version:Ponoyoshi
Source:
Tags:
BeatmapID:1323326
BeatmapSetID:627848

[Difficulty]
HPDrainRate:5.2
CircleSize:4
OverallDifficulty:9
ApproachRate:9.4
SliderMultiplier:1.84
SliderTickRate:1

[Events]
//Background and Video events
0,0,"thumb-1920-522622.jpg",0,0
//Break Periods
2,127669,135544
//Storyboard Layer 0 (Background)
//Storyboard Layer 1 (Fail)
//Storyboard Layer 2 (Pass)
//Storyboard Layer 3 (Foreground)
//Storyboard Sound Samples

[TimingPoints]
700,307.692307692308,4,2,0,78,1,0
700,-100,4,2,0,78,0,0
5315,-200,4,2,0,98,0,0
5623,-83.3333333333333,4,2,0,78,0,0
10546,-100,4,2,0,78,0,0
11007,-83.3333333333333,4,2,0,78,0,0
15469,-99.9999999999999,4,2,0,78,0,0
17623,-83.3333333333333,4,2,0,78,0,0
17930,-99.9999999999999,4,2,0,78,0,0
20084,-66.6666666666667,4,2,0,78,0,0
20392,-83.3333333333333,4,2,0,78,0,0
22776,-83.3333333333333,4,2,0,5,0,0
22853,-83.3333333333333,4,2,0,78,0,0
35930,-100,4,2,0,78,0,0
36238,-66.6666666666667,4,2,0,78,0,0
39930,-76.9230769230769,4,2,0,78,0,1
58853,-66.6666666666667,4,2,0,78,0,1
59776,-66.6666666666667,4,2,0,78,0,0
62238,-83.3333333333333,4,2,0,78,0,0
62469,-83.3333333333333,4,2,0,5,0,0
62546,-83.3333333333333,4,2,0,78,0,0
72853,-100,4,2,0,78,0,0
73161,-66.6666666666667,4,2,0,78,0,0
73469,-83.3333333333333,4,2,0,78,0,0
77776,-100,4,2,0,78,0,0
78084,-66.6666666666667,4,2,0,78,0,0
78392,-83.3333333333333,4,2,0,78,0,0
79238,-83.3333333333333,4,2,0,5,0,0
79315,-83.3333333333333,4,2,0,78,0,0
151161,-66.6666666666667,4,2,0,78,0,0

[Colours]
Combo1 : 255,128,0
Combo2 : 0,0,255
Combo3 : 255,0,0
Combo4 : 128,0,255

[HitObjects]
357,338,700,6,0,P|372:270|368:203,1,138
312,113,1007,1,0,0:0:0:0:
464,253,1161,1,0,0:0:0:0:
195,212,1315,1,0,0:0:0:0:
488,259,1469,1,0,0:0:0:0:
215,119,1623,1,0,0:0:0:0:
510,263,1777,1,0,0:0:0:0:
267,341,1930,5,0,0:0:0:0:
287,52,2084,1,0,0:0:0:0:
510,263,2238,1,0,0:0:0:0:
195,212,2392,1,0,0:0:0:0:
412,81,2546,2,0,P|414:145|390:210,1,92
267,341,2853,1,0,0:0:0:0:
215,119,3007,1,0,0:0:0:0:
510,263,3161,6,0,P|429:249|371:260,1,138
267,341,3469,1,0,0:0:0:0:
349,152,3623,1,0,0:0:0:0:
417,356,3776,1,0,0:0:0:0:
194,168,3930,1,0,0:0:0:0:
341,383,4084,1,0,0:0:0:0:
428,101,4238,1,0,0:0:0:0:
166,259,4392,6,0,P|242:269|276:303,1,92
430,223,4700,2,0,P|354:233|320:267,1,92
107,150,5007,2,0,P|183:160|217:194,1,92
54,278,5315,2,0,L|51:206,1,69
51,209,5623,5,0,0:0:0:0:
149,379,5776,1,0,0:0:0:0:
176,100,5930,1,0,0:0:0:0:
141,360,6084,1,0,0:0:0:0:
57,94,6238,1,0,0:0:0:0:
248,321,6392,1,0,0:0:0:0:
293,53,6546,2,0,B|296:90|296:90|310:125|310:125|316:181,1,110.399996630859
328,345,6853,5,0,0:0:0:0:
410,91,7007,1,0,0:0:0:0:
323,362,7161,1,0,0:0:0:0:
180,141,7315,1,0,0:0:0:0:
140,384,7469,2,0,P|159:320|146:251,1,110.399996630859
42,77,7776,1,0,0:0:0:0:
24,347,7930,1,0,0:0:0:0:
27,291,8006,1,0,0:0:0:0:
30,236,8083,5,0,0:0:0:0:
262,312,8238,1,0,0:0:0:0:
24,347,8392,1,0,0:0:0:0:
295,149,8546,1,0,0:0:0:0:
111,297,8700,1,0,0:0:0:0:
403,252,8853,1,0,0:0:0:0:
149,136,9007,1,0,0:0:0:0:
354,353,9161,1,0,0:0:0:0:
415,52,9315,5,0,0:0:0:0:
258,325,9469,1,0,0:0:0:0:
190,31,9623,1,0,0:0:0:0:
456,180,9776,1,0,0:0:0:0:
149,136,9930,2,0,P|224:142|236:146,1,55.1999983154297
456,180,10084,2,0,P|381:186|369:190,1,55.1999983154297
190,31,10238,2,0,P|261:46|279:57,1,55.1999983154297
469,175,10392,2,0,P|397:152|381:142,1,55.1999983154297
170,26,10545,5,0,0:0:0:0:
448,0,10700,1,0,0:0:0:0:
358,263,10853,1,0,0:0:0:0:
303,6,11007,1,0,0:0:0:0:
469,175,11161,2,0,B|426:171|426:171|404:176|404:176|347:171,1,110.399996630859
149,136,11469,2,0,B|193:139|193:139|215:134|215:134|258:138,1,110.399996630859
430,83,11776,5,0,0:0:0:0:
246,272,11930,1,0,0:0:0:0:
201,33,12084,1,0,0:0:0:0:
249,294,12238,1,0,0:0:0:0:
343,21,12392,2,0,P|349:103|337:153,1,110.399996630859
252,316,12700,1,0,0:0:0:0:
201,33,12853,1,0,0:0:0:0:
35,261,13007,5,0,0:0:0:0:
305,202,13161,1,0,0:0:0:0:
74,90,13315,1,0,0:0:0:0:
168,343,13469,1,0,0:0:0:0:
325,96,13623,2,0,B|321:177|321:177|290:224,1,110.399996630859
62,363,13930,2,0,B|143:359|143:359|190:328,1,110.399996630859
325,96,14238,5,0,0:0:0:0:
63,210,14392,1,0,0:0:0:0:
330,342,14546,2,0,P|375:281|302:271,1,165.599994946289
223,322,14853,5,0,0:0:0:0:
212,325,14930,1,0,0:0:0:0:
190,330,15007,1,0,0:0:0:0:
156,332,15084,1,0,0:0:0:0:
113,318,15161,1,0,0:0:0:0:
75,276,15238,1,0,0:0:0:0:
63,210,15315,1,0,0:0:0:0:
98,141,15392,1,0,0:0:0:0:
181,113,15469,6,0,B|301:90|301:90|267:161,1,184
223,322,15930,2,0,P|223:251|238:216,1,92
400,101,16238,1,0,0:0:0:0:
343,265,16392,1,0,0:0:0:0:
289,33,16546,1,0,0:0:0:0:
289,33,16623,1,0,0:0:0:0:
289,33,16700,5,0,0:0:0:0:
435,202,16853,1,0,0:0:0:0:
209,153,17007,1,0,0:0:0:0:
400,101,17161,1,0,0:0:0:0:
249,314,17315,1,0,0:0:0:0:
204,57,17469,1,0,0:0:0:0:
342,240,17623,2,0,P|278:224|351:216,1,165.599994946289
429,293,17930,6,0,L|436:182,1,92
448,26,18238,1,0,0:0:0:0:
249,314,18392,2,0,L|242:203,1,92
228,36,18700,1,0,0:0:0:0:
342,240,18853,1,0,0:0:0:0:
448,26,19007,1,0,0:0:0:0:
298,182,19161,6,0,P|369:171|406:204,1,92
429,293,19469,1,0,0:0:0:0:
298,182,19623,2,0,P|255:166|212:178,1,92
145,317,19930,1,0,0:0:0:0:
73,34,20084,5,0,0:0:0:0:
151,344,20238,1,0,0:0:0:0:
298,182,20392,6,0,P|253:167|192:203,1,110.399996630859
151,344,20700,1,0,0:0:0:0:
348,292,20853,2,0,P|284:268|244:221,1,110.399996630859
340,43,21161,2,0,P|377:84|394:137,1,110.399996630859
348,292,21469,1,0,0:0:0:0:
139,174,21623,5,0,0:0:0:0:
340,43,21776,1,0,0:0:0:0:
251,295,21930,1,0,0:0:0:0:
206,31,22084,1,0,0:0:0:0:
398,171,22238,1,0,0:0:0:0:
118,87,22392,1,0,0:0:0:0:
251,295,22546,2,0,B|256:246|256:246|244:213|244:213|251:137,1,110.399996630859
265,64,22853,5,0,0:0:0:0:
144,293,23007,2,0,P|122:217|145:171,1,110.399996630859
118,87,23315,2,0,P|140:163|117:209,1,110.399996630859
37,307,23623,2,0,P|108:287|170:304,1,110.399996630859
332,349,23930,2,0,P|395:287|336:271,1,165.599994946289
143,292,24238,5,0,0:0:0:0:
446,188,24392,1,0,0:0:0:0:
118,87,24546,1,0,0:0:0:0:
332,349,24700,2,0,L|334:288,1,55.1999983154297
295,97,24853,1,0,0:0:0:0:
284,151,24929,1,0,0:0:0:0:
273,205,25006,1,0,0:0:0:0:
262,259,25083,1,0,0:0:0:0:
256,187,25160,1,0,0:0:0:0:
250,116,25237,1,0,0:0:0:0:
208,67,25315,6,0,B|206:185|206:185|186:158|160:153,1,165.599994946289
61,137,25623,1,0,0:0:0:0:
139,334,25776,2,0,L|143:191,1,110.399996630859
137,19,26084,1,0,0:0:0:0:
256,187,26238,1,0,0:0:0:0:
354,26,26392,1,0,0:0:0:0:
354,26,26469,1,0,0:0:0:0:
354,26,26546,5,0,0:0:0:0:
262,259,26699,1,0,0:0:0:0:
192,63,26853,1,0,0:0:0:0:
347,289,27007,1,0,0:0:0:0:
280,70,27161,1,0,0:0:0:0:
224,352,27315,1,0,0:0:0:0:
103,197,27469,2,0,P|119:133|127:206,1,165.599994946289
54,300,27776,6,0,L|165:307,1,110.399996630859
347,289,28084,1,0,0:0:0:0:
103,197,28238,2,0,L|214:190,1,110.399996630859
433,173,28546,1,0,0:0:0:0:
227,269,28699,1,0,0:0:0:0:
441,375,28853,1,0,0:0:0:0:
343,203,29007,6,0,P|354:274|321:311,1,110.399996630859
174,356,29315,1,0,0:0:0:0:
343,203,29469,2,0,P|358:160|339:94,1,110.399996630859
150,72,29776,1,0,0:0:0:0:
433,0,29930,5,0,0:0:0:0:
340,308,30084,1,0,0:0:0:0:
340,308,30161,1,0,0:0:0:0:
340,308,30238,6,0,P|355:265|335:190,1,110.399996630859
123,78,30546,1,0,0:0:0:0:
193,298,30699,2,0,L|202:167,1,110.399996630859
350,92,31007,2,0,L|342:202,1,110.399996630859
193,298,31315,1,0,0:0:0:0:
278,62,31469,5,0,0:0:0:0:
424,267,31622,1,0,0:0:0:0:
172,178,31776,1,0,0:0:0:0:
436,133,31930,1,0,0:0:0:0:
296,325,32084,1,0,0:0:0:0:
380,45,32238,1,0,0:0:0:0:
171,177,32392,2,0,P|256:201|313:178,1,110.399996630859
380,45,32700,5,0,0:0:0:0:
163,67,32853,2,0,L|173:200,1,110.399996630859
296,325,33161,2,0,L|287:214,1,110.399996630859
275,50,33469,1,0,0:0:0:0:
168,299,33623,1,0,0:0:0:0:
69,68,33776,1,0,0:0:0:0:
175,321,33930,5,0,0:0:0:0:
391,178,34084,1,0,0:0:0:0:
126,133,34238,1,0,0:0:0:0:
303,351,34392,1,0,0:0:0:0:
303,351,34469,1,0,0:0:0:0:
303,351,34546,1,0,0:0:0:0:
326,57,34700,1,0,0:0:0:0:
106,301,34853,1,0,0:0:0:0:
410,359,35007,1,0,0:0:0:0:
216,54,35161,5,0,0:0:0:0:
106,301,35315,1,0,0:0:0:0:
385,257,35469,2,0,B|443:220|454:165|454:165|416:169|398:208,1,165.599994946289
303,351,35776,1,0,0:0:0:0:
216,54,35930,1,0,0:0:0:0:
208,40,36238,2,0,L|196:195,1,138.000005264282
178,369,36546,1,0,0:0:0:0:
23,146,36700,5,0,0:0:0:0:
82,113,36776,1,0,0:0:0:0:
151,115,36853,1,0,0:0:0:0:
208,152,36930,1,0,0:0:0:0:
239,213,37008,1,0,0:0:0:0:
270,274,37085,1,0,0:0:0:0:
327,311,37162,1,0,0:0:0:0:
396,313,37239,1,0,0:0:0:0:
456,281,37315,2,0,P|492:214|495:195,1,69.0000026321412
325,27,37469,2,0,P|314:121|318:149,1,69.0000026321412
327,311,37623,5,0,0:0:0:0:
454,78,37776,1,0,0:0:0:0:
331,341,37930,1,0,0:0:0:0:
221,26,38084,1,0,0:0:0:0:
334,370,38238,1,0,0:0:0:0:
460,57,38392,1,0,0:0:0:0:
153,308,38546,1,0,0:0:0:0:
478,225,38700,1,0,0:0:0:0:
160,99,38853,5,0,0:0:0:0:
92,96,38929,1,0,0:0:0:0:
35,134,39006,1,0,0:0:0:0:
12,197,39083,1,0,0:0:0:0:
30,263,39160,1,0,0:0:0:0:
84,304,39237,1,0,0:0:0:0:
152,307,39314,1,0,0:0:0:0:
214,275,39392,1,0,0:0:0:0:
245,213,39469,6,0,L|264:109,1,69.0000026321412
79,28,39623,2,0,L|91:95,1,69.0000026321412
259,228,39776,2,0,L|281:107,1,69.0000026321412
64,12,39930,6,0,B|96:189|96:189|104:155|132:127,1,239.199989050293
371,206,40392,2,0,P|289:234|230:213,1,119.599994525147
123,136,40700,1,0,0:0:0:0:
397,218,40853,1,0,0:0:0:0:
249,60,41007,1,0,0:0:0:0:
267,321,41161,6,0,P|289:212|167:247,1,239.199989050293
84,340,41623,2,0,B|84:289|84:289|68:256|68:256|65:170,1,119.599994525147
61,50,41930,1,0,0:0:0:0:
177,308,42084,1,0,0:0:0:0:
249,60,42238,1,0,0:0:0:0:
66,224,42392,6,0,B|162:214|162:214|215:227|215:227|331:219,1,239.199989050293
461,214,42853,5,0,0:0:0:0:
126,97,43007,1,0,0:0:0:0:
447,57,43161,5,0,0:0:0:0:
97,298,43315,1,0,0:0:0:0:
476,48,43469,1,0,0:0:0:0:
70,33,43623,6,0,L|88:296,1,239.199989050293
158,356,44084,1,0,0:0:0:0:
55,20,44238,1,0,0:0:0:0:
254,270,44392,1,0,0:0:0:0:
300,60,44546,1,0,0:0:0:0:
86,271,44700,1,0,0:0:0:0:
358,176,44853,6,0,B|296:131|224:184|224:184|178:144|97:183,1,239.199989050293
0,225,45315,1,0,0:0:0:0:
283,317,45469,1,0,0:0:0:0:
18,124,45623,1,0,0:0:0:0:
332,51,45776,1,0,0:0:0:0:
128,372,45930,1,0,0:0:0:0:
104,36,46084,6,0,P|115:126|82:279,1,239.199989050293
128,372,46546,2,0,P|164:281|206:229,1,119.599994525147
374,112,46853,1,0,0:0:0:0:
283,317,47007,1,0,0:0:0:0:
213,55,47161,1,0,0:0:0:0:
284,343,47315,6,0,B|292:254|292:254|304:229|304:229|294:202|294:202|301:88,1,239.199989050293
312,8,47776,1,0,0:0:0:0:
180,349,47930,1,0,0:0:0:0:
46,8,48084,1,0,0:0:0:0:
182,371,48238,1,0,0:0:0:0:
455,118,48392,1,0,0:0:0:0:
132,89,48546,6,0,P|235:113|161:208,1,239.199989050293
3,194,49007,2,0,P|82:171|159:182,1,119.599994525147
361,275,49315,1,0,0:0:0:0:
416,255,49391,1,0,0:0:0:0:
450,207,49468,1,0,0:0:0:0:
451,148,49545,1,0,0:0:0:0:
418,99,49622,1,0,0:0:0:0:
363,78,49699,1,0,0:0:0:0:
306,92,49776,1,0,0:0:0:0:
249,108,49852,1,0,0:0:0:0:
191,98,49930,6,0,P|270:81|346:120,1,119.599994525147
149,175,50238,2,0,P|69:158|-6:197,1,119.599994525147
156,309,50546,1,0,0:0:0:0:
191,98,50700,2,0,B|205:9|205:9|218:75,1,119.599994525147
342,195,51007,2,0,L|365:62,1,119.599994525147
390,255,51315,2,0,P|321:269|269:220,1,119.599994525147
83,86,51623,2,0,P|152:72|204:121,1,119.599994525147
215,318,51930,1,0,0:0:0:0:
132,141,52084,1,0,0:0:0:0:
225,339,52238,1,0,0:0:0:0:
286,109,52392,5,0,0:0:0:0:
233,358,52546,1,0,0:0:0:0:
83,86,52700,1,0,0:0:0:0:
240,376,52853,1,0,0:0:0:0:
315,38,53007,1,0,0:0:0:0:
35,278,53161,1,0,0:0:0:0:
375,380,53315,1,0,0:0:0:0:
161,72,53469,1,0,0:0:0:0:
124,267,53623,5,0,0:0:0:0:
302,203,53776,1,0,0:0:0:0:
71,51,53930,2,0,L|111:192,1,119.599994525147
363,289,54238,1,0,0:0:0:0:
303,283,54314,1,0,0:0:0:0:
243,278,54391,1,0,0:0:0:0:
184,272,54468,1,0,0:0:0:0:
124,267,54546,1,0,0:0:0:0:
201,260,54622,1,0,0:0:0:0:
278,253,54699,1,0,0:0:0:0:
356,246,54776,1,0,0:0:0:0:
433,239,54853,5,0,0:0:0:0:
28,148,55007,1,0,0:0:0:0:
489,64,55161,5,0,0:0:0:0:
50,232,55315,1,0,0:0:0:0:
497,343,55469,5,0,0:0:0:0:
66,61,55623,1,0,0:0:0:0:
506,199,55776,5,0,0:0:0:0:
69,347,55930,1,0,0:0:0:0:
451,262,56084,5,0,0:0:0:0:
66,61,56238,1,0,0:0:0:0:
489,115,56392,1,0,0:0:0:0:
50,232,56546,1,0,0:0:0:0:
497,343,56700,1,0,0:0:0:0:
180,21,56853,1,0,0:0:0:0:
185,362,57007,1,0,0:0:0:0:
382,51,57161,1,0,0:0:0:0:
382,51,57238,1,0,0:0:0:0:
382,51,57315,6,0,L|370:184,1,119.599994525147
185,362,57623,2,0,L|174:242,1,119.599994525147
382,51,57930,2,0,L|370:184,1,119.599994525147
185,362,58238,2,0,L|174:242,1,119.599994525147
154,33,58546,5,0,0:0:0:0:
421,238,58700,2,0,P|355:255|291:198,1,119.599994525147
154,33,59007,2,0,P|220:16|289:109,1,138.000005264282
335,316,59315,1,0,0:0:0:0:
340,247,59391,1,0,0:0:0:0:
346,178,59468,1,0,0:0:0:0:
352,109,59545,1,0,0:0:0:0:
357,40,59623,2,0,L|369:134,1,69.0000026321412
391,379,59776,5,0,0:0:0:0:
256,192,59853,12,0,60930,0:0:0:0:
101,51,61007,5,0,0:0:0:0:
101,64,61083,1,0,0:0:0:0:
102,78,61160,1,0,0:0:0:0:
103,92,61237,1,0,0:0:0:0:
104,106,61315,2,0,L|108:189,1,69.0000026321412
248,154,61469,5,0,0:0:0:0:
247,167,61545,1,0,0:0:0:0:
246,181,61622,1,0,0:0:0:0:
245,195,61699,1,0,0:0:0:0:
245,209,61776,2,0,L|241:292,1,69.0000026321412
97,346,61930,2,0,L|100:277,1,69.0000026321412
264,199,62084,2,0,L|260:282,1,69.0000026321412
76,363,62238,5,0,0:0:0:0:
171,117,62392,1,0,0:0:0:0:
218,362,62546,1,0,0:0:0:0:
45,159,62700,1,0,0:0:0:0:
277,291,62853,1,0,0:0:0:0:
264,61,63007,1,0,0:0:0:0:
126,282,63161,1,0,0:0:0:0:
76,63,63315,1,0,0:0:0:0:
354,191,63469,5,0,0:0:0:0:
126,282,63623,1,0,0:0:0:0:
381,330,63776,1,0,0:0:0:0:
135,158,63930,1,0,0:0:0:0:
426,251,64084,1,0,0:0:0:0:
184,355,64238,1,0,0:0:0:0:
333,104,64392,1,0,0:0:0:0:
306,361,64546,1,0,0:0:0:0:
267,33,64700,5,0,0:0:0:0:
426,251,64853,1,0,0:0:0:0:
173,158,65007,1,0,0:0:0:0:
471,82,65161,1,0,0:0:0:0:
236,296,65315,1,0,0:0:0:0:
173,43,65469,1,0,0:0:0:0:
322,215,65623,1,0,0:0:0:0:
82,101,65776,1,0,0:0:0:0:
390,105,65930,5,0,0:0:0:0:
92,299,66084,1,0,0:0:0:0:
286,18,66238,1,0,0:0:0:0:
227,379,66392,2,0,L|237:227,1,110.399996630859
82,101,66700,1,0,0:0:0:0:
82,101,66853,2,0,L|92:253,1,110.399996630859
101,361,67161,5,0,0:0:0:0:
205,118,67315,1,0,0:0:0:0:
289,333,67469,1,0,0:0:0:0:
390,105,67623,2,0,P|387:181|356:246,1,110.399996630859
274,351,67930,1,0,0:0:0:0:
82,101,68084,2,0,P|80:155|96:208,1,110.399996630859
286,264,68392,5,0,0:0:0:0:
286,264,68546,2,0,P|220:258|150:279,1,110.399996630859
369,322,68853,2,0,P|435:328|373:242,1,220.799993261719
177,267,69315,2,0,P|134:212|220:171,1,165.599994946289
392,232,69623,5,0,0:0:0:0:
177,267,69776,2,0,L|337:291,1,110.399996630859
501,215,70084,2,0,L|391:231,1,110.399996630859
186,125,70392,1,0,0:0:0:0:
393,325,70546,1,0,0:0:0:0:
476,82,70700,6,0,P|443:27|354:59,1,165.599994946289
286,212,71007,1,0,0:0:0:0:
286,212,71161,2,0,L|282:70,1,110.399996630859
235,29,71392,1,0,0:0:0:0:
235,29,71468,1,0,0:0:0:0:
162,261,71622,1,0,0:0:0:0:
106,62,71776,1,0,0:0:0:0:
242,324,71930,1,0,0:0:0:0:
381,95,72084,6,0,L|376:243,1,110.399996630859
371,339,72392,1,0,0:0:0:0:
116,197,72546,2,0,P|191:187|228:218,1,110.399996630859
154,361,72853,2,0,P|144:286|175:249,1,92
324,164,73161,1,0,0:0:0:0:
215,313,73315,5,0,0:0:0:0:
176,105,73469,1,0,0:0:0:0:
305,279,73623,1,0,0:0:0:0:
383,112,73776,2,0,P|323:86|263:113,1,110.399996630859
149,258,74084,1,0,0:0:0:0:
63,53,74238,2,0,L|81:187,1,110.399996630859
105,353,74546,5,0,0:0:0:0:
182,120,74700,1,0,0:0:0:0:
305,279,74853,1,0,0:0:0:0:
333,48,75007,1,0,0:0:0:0:
201,318,75161,1,0,0:0:0:0:
63,53,75315,1,0,0:0:0:0:
276,363,75469,1,0,0:0:0:0:
333,48,75623,1,0,0:0:0:0:
127,246,75776,5,0,0:0:0:0:
371,270,75930,1,0,0:0:0:0:
132,142,76084,1,0,0:0:0:0:
391,263,76238,1,0,0:0:0:0:
145,65,76392,5,0,0:0:0:0:
91,75,76468,1,0,0:0:0:0:
58,118,76545,1,0,0:0:0:0:
62,171,76622,1,0,0:0:0:0:
100,210,76699,1,0,0:0:0:0:
138,248,76776,1,0,0:0:0:0:
141,302,76853,1,0,0:0:0:0:
108,344,76930,1,0,0:0:0:0:
55,355,77007,6,0,P|121:331|193:346,1,110.399996630859
330,372,77315,1,0,0:0:0:0:
266,149,77469,2,0,P|251:252|271:303,1,110.399996630859
331,109,77776,2,0,P|278:74|223:87,1,92
111,217,78084,1,0,0:0:0:0:
356,193,78238,5,0,0:0:0:0:
120,77,78392,1,0,0:0:0:0:
378,196,78546,1,0,0:0:0:0:
91,297,78700,1,0,0:0:0:0:
307,59,78853,1,0,0:0:0:0:
296,365,79007,1,0,0:0:0:0:
296,365,79084,1,0,0:0:0:0:
296,365,79161,1,0,0:0:0:0:
61,150,79315,1,0,0:0:0:0:
61,150,79392,1,0,0:0:0:0:
61,150,79469,6,0,L|187:157,1,110.399996630859
387,164,79776,1,0,0:0:0:0:
187,347,79930,2,0,L|176:225,1,110.399996630859
377,54,80238,2,0,L|388:176,1,110.399996630859
401,326,80546,1,0,0:0:0:0:
459,79,80700,5,0,0:0:0:0:
273,265,80853,2,0,P|265:168|268:131,1,110.399996630859
459,79,81161,1,0,0:0:0:0:
466,133,81237,1,0,0:0:0:0:
466,188,81314,1,0,0:0:0:0:
248,35,81469,1,0,0:0:0:0:
402,259,81623,1,0,0:0:0:0:
101,136,81776,1,0,0:0:0:0:
377,157,81930,5,0,0:0:0:0:
281,334,82084,1,0,0:0:0:0:
248,35,82238,1,0,0:0:0:0:
377,157,82546,5,0,0:0:0:0:
281,334,82700,1,0,0:0:0:0:
248,35,82854,1,0,0:0:0:0:
310,223,83007,1,0,0:0:0:0:
129,136,83161,5,0,0:0:0:0:
347,69,83315,1,0,0:0:0:0:
188,257,83469,1,0,0:0:0:0:
364,52,83623,1,0,0:0:0:0:
71,51,83776,1,0,0:0:0:0:
380,35,83930,1,0,0:0:0:0:
217,346,84084,1,0,0:0:0:0:
172,28,84238,1,0,0:0:0:0:
416,268,84392,5,0,0:0:0:0:
71,233,84546,1,0,0:0:0:0:
329,152,84700,1,0,0:0:0:0:
416,268,85007,5,0,0:0:0:0:
71,233,85161,1,0,0:0:0:0:
329,152,85315,1,0,0:0:0:0:
329,152,85623,5,0,0:0:0:0:
329,152,85700,1,0,0:0:0:0:
329,152,85776,1,0,0:0:0:0:
217,346,85930,1,0,0:0:0:0:
150,41,86084,1,0,0:0:0:0:
220,365,86238,1,0,0:0:0:0:
301,59,86392,1,0,0:0:0:0:
301,59,86469,1,0,0:0:0:0:
301,59,86546,1,0,0:0:0:0:
131,303,86700,1,0,0:0:0:0:
131,303,86776,1,0,0:0:0:0:
131,303,86853,5,0,0:0:0:0:
396,248,87007,1,0,0:0:0:0:
152,108,87161,1,0,0:0:0:0:
310,350,87315,1,0,0:0:0:0:
383,60,87469,1,0,0:0:0:0:
310,350,87623,1,0,0:0:0:0:
241,133,87776,1,0,0:0:0:0:
430,345,87930,1,0,0:0:0:0:
430,345,88007,1,0,0:0:0:0:
430,345,88084,5,0,0:0:0:0:
105,189,88238,1,0,0:0:0:0:
451,132,88392,1,0,0:0:0:0:
166,291,88546,1,0,0:0:0:0:
440,235,88700,1,0,0:0:0:0:
161,101,88853,1,0,0:0:0:0:
440,235,89007,2,0,L|317:239,1,110.399996630859
81,260,89315,5,0,0:0:0:0:
319,120,89469,1,0,0:0:0:0:
228,360,89623,1,0,0:0:0:0:
327,88,89776,1,0,0:0:0:0:
108,171,89930,1,0,0:0:0:0:
361,328,90084,1,0,0:0:0:0:
274,22,90238,1,0,0:0:0:0:
340,306,90392,1,0,0:0:0:0:
84,154,90546,5,0,0:0:0:0:
409,153,90700,1,0,0:0:0:0:
151,305,90853,1,0,0:0:0:0:
433,141,91007,1,0,0:0:0:0:
132,63,91161,1,0,0:0:0:0:
459,128,91315,1,0,0:0:0:0:
247,352,91469,1,0,0:0:0:0:
250,296,91545,1,0,0:0:0:0:
253,241,91622,1,0,0:0:0:0:
257,186,91699,1,0,0:0:0:0:
260,131,91776,5,0,0:0:0:0:
412,316,91930,1,0,0:0:0:0:
437,29,92084,1,0,0:0:0:0:
260,131,92392,5,0,0:0:0:0:
412,316,92546,1,0,0:0:0:0:
437,29,92700,1,0,0:0:0:0:
322,243,92853,1,0,0:0:0:0:
248,20,93007,5,0,0:0:0:0:
325,262,93161,1,0,0:0:0:0:
429,51,93315,1,0,0:0:0:0:
329,287,93469,1,0,0:0:0:0:
248,20,93623,1,0,0:0:0:0:
442,227,93776,1,0,0:0:0:0:
180,142,93930,1,0,0:0:0:0:
429,51,94084,2,0,L|419:192,1,110.399996630859
415,357,94392,5,0,0:0:0:0:
415,357,94469,1,0,0:0:0:0:
415,357,94546,1,0,0:0:0:0:
334,115,94700,1,0,0:0:0:0:
255,347,94853,1,0,0:0:0:0:
246,62,95007,1,0,0:0:0:0:
162,290,95161,1,0,0:0:0:0:
324,32,95315,1,0,0:0:0:0:
351,347,95469,5,0,0:0:0:0:
169,87,95623,1,0,0:0:0:0:
255,347,95776,1,0,0:0:0:0:
389,85,95930,1,0,0:0:0:0:
389,85,96007,1,0,0:0:0:0:
389,85,96084,1,0,0:0:0:0:
255,347,96238,1,0,0:0:0:0:
169,87,96392,1,0,0:0:0:0:
322,247,96546,1,0,0:0:0:0:
277,71,96700,5,0,0:0:0:0:
401,284,96853,1,0,0:0:0:0:
169,87,97007,1,0,0:0:0:0:
450,204,97161,1,0,0:0:0:0:
450,204,97238,1,0,0:0:0:0:
450,204,97315,1,0,0:0:0:0:
117,171,97469,1,0,0:0:0:0:
463,110,97623,1,0,0:0:0:0:
138,260,97776,1,0,0:0:0:0:
463,294,97930,5,0,0:0:0:0:
169,87,98084,1,0,0:0:0:0:
492,21,98238,1,0,0:0:0:0:
237,287,98392,1,0,0:0:0:0:
237,287,98469,1,0,0:0:0:0:
237,287,98546,1,0,0:0:0:0:
355,21,98700,1,0,0:0:0:0:
295,353,98853,1,0,0:0:0:0:
218,15,99007,1,0,0:0:0:0:
381,355,99161,6,0,L|391:281,1,55.1999983154297
399,131,99315,2,0,L|387:221,1,55.1999983154297
295,353,99469,2,0,L|299:275,1,55.1999983154297
285,64,99623,2,0,L|286:154,1,55.1999983154297
174,361,99776,1,0,0:0:0:0:
133,19,99930,1,0,0:0:0:0:
66,364,100084,1,0,0:0:0:0:
11,7,100238,1,0,0:0:0:0:
174,361,100392,5,0,0:0:0:0:
174,361,100469,1,0,0:0:0:0:
174,361,100546,1,0,0:0:0:0:
285,64,100700,1,0,0:0:0:0:
381,355,100853,1,0,0:0:0:0:
381,355,100930,1,0,0:0:0:0:
381,355,101007,5,0,0:0:0:0:
386,300,101083,1,0,0:0:0:0:
391,245,101160,1,0,0:0:0:0:
397,190,101237,1,0,0:0:0:0:
402,135,101315,5,0,0:0:0:0:
370,211,101391,1,0,0:0:0:0:
339,288,101469,2,0,L|327:141,1,110.399996630859
316,20,101776,5,0,0:0:0:0:
201,332,101930,1,0,0:0:0:0:
145,46,102084,1,0,0:0:0:0:
297,363,102238,1,0,0:0:0:0:
229,35,102392,1,0,0:0:0:0:
110,356,102546,1,0,0:0:0:0:
60,22,102700,1,0,0:0:0:0:
201,332,102853,5,0,0:0:0:0:
286,97,103007,1,0,0:0:0:0:
135,276,103161,1,0,0:0:0:0:
85,98,103315,1,0,0:0:0:0:
284,284,103469,1,0,0:0:0:0:
316,20,103623,1,0,0:0:0:0:
90,182,103776,1,0,0:0:0:0:
349,222,103930,6,0,P|404:178|306:152,1,220.799993261719
174,296,104392,2,0,L|292:283,1,110.399996630859
455,263,104700,1,0,0:0:0:0:
169,180,104853,1,0,0:0:0:0:
460,74,105007,1,0,0:0:0:0:
460,74,105161,1,0,0:0:0:0:
287,348,105315,6,0,P|278:259|287:190,1,110.399996630859
338,32,105623,1,0,0:0:0:0:
393,331,105776,1,0,0:0:0:0:
230,84,105930,1,0,0:0:0:0:
409,352,106084,1,0,0:0:0:0:
460,74,106238,1,0,0:0:0:0:
287,348,106392,6,0,P|278:259|310:114,1,220.799993261719
188,304,106853,2,0,P|205:220|193:147,1,110.399996630859
124,32,107161,1,0,0:0:0:0:
183,327,107315,1,0,0:0:0:0:
324,80,107469,2,0,P|307:164|319:237,1,110.399996630859
404,308,107776,6,0,B|324:285|324:285|268:303,1,110.399996630859
183,327,108084,6,0,B|157:335|157:335|77:312,1,110.399996630859
33,184,108392,1,0,0:0:0:0:
180,349,108546,1,0,0:0:0:0:
227,50,108700,1,0,0:0:0:0:
184,368,108853,2,0,P|197:251|184:212,1,110.399996630859
115,87,109161,5,0,0:0:0:0:
290,266,109315,1,0,0:0:0:0:
362,64,109469,1,0,0:0:0:0:
284,364,109623,1,0,0:0:0:0:
227,50,109776,1,0,0:0:0:0:
437,209,109930,1,0,0:0:0:0:
131,270,110084,1,0,0:0:0:0:
362,64,110238,5,0,0:0:0:0:
284,364,110392,1,0,0:0:0:0:
279,308,110468,1,0,0:0:0:0:
275,253,110545,1,0,0:0:0:0:
271,198,110622,1,0,0:0:0:0:
267,143,110699,1,0,0:0:0:0:
312,172,110776,1,0,0:0:0:0:
320,225,110853,5,0,0:0:0:0:
285,266,110930,1,0,0:0:0:0:
232,267,111007,1,0,0:0:0:0:
196,228,111084,1,0,0:0:0:0:
159,188,111161,1,0,0:0:0:0:
106,189,111238,1,0,0:0:0:0:
71,230,111315,1,0,0:0:0:0:
79,283,111392,1,0,0:0:0:0:
124,312,111469,5,0,0:0:0:0:
320,225,111623,1,0,0:0:0:0:
48,110,111776,1,0,0:0:0:0:
354,84,111930,1,0,0:0:0:0:
159,188,112084,1,0,0:0:0:0:
402,300,112238,1,0,0:0:0:0:
151,91,112392,1,0,0:0:0:0:
447,148,112546,1,0,0:0:0:0:
182,298,112700,5,0,0:0:0:0:
461,369,112853,1,0,0:0:0:0:
239,130,113007,1,0,0:0:0:0:
486,229,113161,1,0,0:0:0:0:
251,352,113315,1,0,0:0:0:0:
310,73,113469,1,0,0:0:0:0:
461,369,113623,1,0,0:0:0:0:
476,51,113776,1,0,0:0:0:0:
341,338,113930,5,0,0:0:0:0:
310,73,114084,1,0,0:0:0:0:
176,301,114238,1,0,0:0:0:0:
155,30,114392,1,0,0:0:0:0:
251,352,114546,1,0,0:0:0:0:
396,114,114700,1,0,0:0:0:0:
103,223,114853,1,0,0:0:0:0:
395,288,115007,1,0,0:0:0:0:
108,121,115161,5,0,0:0:0:0:
251,352,115315,1,0,0:0:0:0:
235,73,115469,1,0,0:0:0:0:
333,344,115623,1,0,0:0:0:0:
380,22,115776,6,0,L|376:113,1,55.1999983154297
301,259,115930,2,0,L|303:203,1,55.1999983154297
235,73,116084,2,0,L|231:164,1,55.1999983154297
156,310,116238,2,0,L|158:254,1,55.1999983154297
76,66,116392,5,0,0:0:0:0:
242,336,116546,1,0,0:0:0:0:
298,14,116700,1,0,0:0:0:0:
156,310,116853,1,0,0:0:0:0:
152,20,117007,1,0,0:0:0:0:
321,306,117161,1,0,0:0:0:0:
386,28,117315,1,0,0:0:0:0:
215,246,117469,1,0,0:0:0:0:
454,85,117623,5,0,0:0:0:0:
268,181,117776,1,0,0:0:0:0:
421,167,117930,1,0,0:0:0:0:
206,98,118084,1,0,0:0:0:0:
366,271,118238,1,0,0:0:0:0:
341,29,118392,1,0,0:0:0:0:
123,170,118546,1,0,0:0:0:0:
366,271,118700,1,0,0:0:0:0:
260,30,118853,5,0,0:0:0:0:
131,277,119007,1,0,0:0:0:0:
101,21,119161,1,0,0:0:0:0:
260,30,119315,5,0,0:0:0:0:
106,265,119469,1,0,0:0:0:0:
107,4,119623,1,0,0:0:0:0:
355,105,119776,5,0,0:0:0:0:
80,276,119930,1,0,0:0:0:0:
107,4,120084,5,0,0:0:0:0:
374,233,120238,1,0,0:0:0:0:
53,285,120392,1,0,0:0:0:0:
205,6,120546,1,0,0:0:0:0:
352,328,120700,1,0,0:0:0:0:
44,198,120853,1,0,0:0:0:0:
309,4,121007,1,0,0:0:0:0:
352,328,121161,1,0,0:0:0:0:
2,358,121315,5,0,0:0:0:0:
256,192,121392,12,0,124776,0:0:0:0:
319,296,124853,5,0,0:0:0:0:
319,296,124930,1,0,0:0:0:0:
319,296,125007,5,0,0:0:0:0:
105,231,125161,1,0,0:0:0:0:
365,176,125315,1,0,0:0:0:0:
89,328,125469,5,0,0:0:0:0:
414,256,125623,1,0,0:0:0:0:
60,157,125776,1,0,0:0:0:0:
246,346,125930,1,0,0:0:0:0:
230,92,126084,1,0,0:0:0:0:
17,257,126238,5,0,0:0:0:0:
256,192,126315,12,0,127469,0:0:0:0:
375,68,136084,5,0,0:0:0:0:
211,160,136238,1,0,0:0:0:0:
375,85,136392,1,0,0:0:0:0:
211,177,136546,1,0,0:0:0:0:
375,102,136700,1,0,0:0:0:0:
211,194,136854,1,0,0:0:0:0:
375,119,137007,1,0,0:0:0:0:
211,211,137161,1,0,0:0:0:0:
296,36,137315,5,0,0:0:0:0:
265,313,137469,1,0,0:0:0:0:
271,35,137623,1,0,0:0:0:0:
289,313,137777,1,0,0:0:0:0:
247,39,137930,1,0,0:0:0:0:
313,309,138084,1,0,0:0:0:0:
224,46,138238,1,0,0:0:0:0:
336,302,138392,1,0,0:0:0:0:
156,203,138546,5,0,0:0:0:0:
433,234,138700,1,0,0:0:0:0:
155,227,138854,1,0,0:0:0:0:
433,209,139008,1,0,0:0:0:0:
159,251,139161,1,0,0:0:0:0:
429,185,139315,1,0,0:0:0:0:
166,274,139469,1,0,0:0:0:0:
422,162,139623,1,0,0:0:0:0:
151,128,139776,5,0,0:0:0:0:
345,207,139930,1,0,0:0:0:0:
145,145,140084,1,0,0:0:0:0:
350,189,140238,1,0,0:0:0:0:
143,163,140392,1,0,0:0:0:0:
352,171,140546,1,0,0:0:0:0:
144,181,140700,1,0,0:0:0:0:
351,153,140854,1,0,0:0:0:0:
220,265,141007,5,0,0:0:0:0:
299,71,141161,1,0,0:0:0:0:
237,270,141315,1,0,0:0:0:0:
281,65,141469,1,0,0:0:0:0:
255,272,141623,1,0,0:0:0:0:
263,63,141777,1,0,0:0:0:0:
273,271,141931,1,0,0:0:0:0:
245,64,142085,1,0,0:0:0:0:
348,328,142238,5,0,0:0:0:0:
393,80,142392,1,0,0:0:0:0:
244,355,142546,1,0,0:0:0:0:
156,122,142700,1,0,0:0:0:0:
86,340,142853,1,0,0:0:0:0:
82,56,143007,1,0,0:0:0:0:
162,310,143161,1,0,0:0:0:0:
245,64,143315,1,0,0:0:0:0:
244,355,143469,5,0,0:0:0:0:
74,144,143623,1,0,0:0:0:0:
336,265,143776,1,0,0:0:0:0:
89,240,143930,1,0,0:0:0:0:
372,133,144084,1,0,0:0:0:0:
156,328,144238,1,0,0:0:0:0:
155,55,144392,1,0,0:0:0:0:
244,355,144546,5,0,0:0:0:0:
256,192,144623,12,0,146315,0:0:0:0:
346,246,146392,5,0,0:0:0:0:
346,246,146469,1,0,0:0:0:0:
346,246,146546,1,0,0:0:0:0:
259,59,146700,1,0,0:0:0:0:
191,316,146853,1,0,0:0:0:0:
171,0,147007,5,0,0:0:0:0:
256,192,147084,12,0,149546,0:0:0:0:
448,118,149623,5,0,0:0:0:0:
365,113,149700,1,0,0:0:0:0:
282,109,149776,1,0,0:0:0:0:
199,105,149853,1,0,0:0:0:0:
117,101,149930,1,0,0:0:0:0:
170,115,150007,1,0,0:0:0:0:
223,129,150084,1,0,0:0:0:0:
277,143,150161,1,0,0:0:0:0:
330,157,150238,5,0,0:0:0:0:
73,268,150392,1,0,0:0:0:0:
441,340,150546,1,0,0:0:0:0:
210,18,150700,1,0,0:0:0:0:
210,18,151007,2,0,L|211:99,1,55.1999983154297
210,348,151161,5,0,0:0:0:0:
376,68,151392,1,0,0:0:0:0:
123,136,151469,1,0,0:0:0:0:
397,218,151622,1,0,0:0:0:0:
210,18,151776,1,0,0:0:0:0:
267,321,151930,6,0,P|289:212|167:247,1,276.000010528565
84,340,152392,2,0,B|84:289|84:289|68:256|68:256|65:170,1,138.000005264282
61,50,152699,1,0,0:0:0:0:
177,308,152853,1,0,0:0:0:0:
249,60,153007,1,0,0:0:0:0:
66,224,153161,6,0,B|162:214|162:214|215:227|215:227|366:217,1,276.000010528565
461,214,153622,5,0,0:0:0:0:
126,97,153776,1,0,0:0:0:0:
437,30,153930,5,0,0:0:0:0:
97,298,154084,1,0,0:0:0:0:
486,347,154238,1,0,0:0:0:0:
235,20,154392,6,0,L|254:311,1,276.000010528565
255,384,154853,1,0,0:0:0:0:
54,21,155007,1,0,0:0:0:0:
252,295,155161,1,0,0:0:0:0:
320,51,155315,1,0,0:0:0:0:
86,271,155469,1,0,0:0:0:0:
358,176,155622,6,0,B|296:131|224:184|224:184|178:144|97:183,1,276.000010528565
0,225,156084,1,0,0:0:0:0:
252,295,156238,1,0,0:0:0:0:
18,124,156392,1,0,0:0:0:0:
332,51,156545,1,0,0:0:0:0:
128,372,156699,1,0,0:0:0:0:
104,36,156853,6,0,P|115:126|62:311,1,276.000010528565
128,372,157315,2,0,P|164:281|206:229,1,138.000005264282
374,112,157622,1,0,0:0:0:0:
283,317,157776,1,0,0:0:0:0:
213,55,157930,1,0,0:0:0:0:
277,384,158084,6,0,B|285:295|285:295|297:270|297:270|287:243|287:243|299:91,1,276.000010528565
400,16,158546,5,0,0:0:0:0:
436,73,158622,1,0,0:0:0:0:
435,141,158699,1,0,0:0:0:0:
398,198,158776,1,0,0:0:0:0:
335,225,158853,1,0,0:0:0:0:
268,213,158930,1,0,0:0:0:0:
218,167,159007,1,0,0:0:0:0:
168,121,159084,1,0,0:0:0:0:
101,109,159161,1,0,0:0:0:0:
38,136,159238,1,0,0:0:0:0:
1,193,159315,1,0,0:0:0:0:
0,261,159392,1,0,0:0:0:0:
37,319,159469,5,0,0:0:0:0:
121,346,159545,1,0,0:0:0:0:
207,327,159622,1,0,0:0:0:0:
272,266,159699,1,0,0:0:0:0:
296,181,159776,1,0,0:0:0:0:
273,95,159853,1,0,0:0:0:0:
210,33,159930,1,0,0:0:0:0:
123,9,160007,1,0,0:0:0:0:
44,54,160084,5,0,0:0:0:0:
11,137,160161,1,0,0:0:0:0:
40,221,160238,1,0,0:0:0:0:
117,265,160315,1,0,0:0:0:0:
206,258,160392,1,0,0:0:0:0:
283,212,160469,1,0,0:0:0:0:
364,173,160546,1,0,0:0:0:0:
451,191,160623,1,0,0:0:0:0:
485,273,160700,6,0,L|496:122,1,138.000005264282
272,74,161007,2,0,L|282:211,1,138.000005264282
300,348,161315,1,0,0:0:0:0:
402,79,161469,2,0,P|309:59|251:88,1,138.000005264282
166,239,161776,2,0,P|191:160|188:74,1,138.000005264282
54,319,162084,2,0,L|219:311,1,138.000005264282
406,216,162392,2,0,P|353:174|288:189,1,138.000005264282
191,312,162699,1,0,0:0:0:0:
109,89,162853,1,0,0:0:0:0:
197,334,163007,1,0,0:0:0:0:
277,34,163161,5,0,0:0:0:0:
289,335,163315,1,0,0:0:0:0:
27,189,163469,1,0,0:0:0:0:
373,102,163622,1,0,0:0:0:0:
54,335,163776,1,0,0:0:0:0:
364,9,163930,1,0,0:0:0:0:
170,384,164084,1,0,0:0:0:0:
75,1,164238,1,0,0:0:0:0:
215,318,164392,5,0,0:0:0:0:
275,83,164545,1,0,0:0:0:0:
66,236,164699,2,0,B|164:252|164:252|235:230,1,138.000005264282
420,62,165007,2,0,P|382:129|376:154,1,69.0000026321412
315,369,165161,2,0,P|335:291|335:271,1,69.0000026321412
206,36,165315,2,0,P|193:104|200:144,1,69.0000026321412
305,353,165469,2,0,P|320:273|317:250,1,69.0000026321412
222,19,165623,5,0,0:0:0:0:
95,357,165776,1,0,0:0:0:0:
438,171,165930,1,0,0:0:0:0:
35,86,166084,1,0,0:0:0:0:
426,299,166238,1,0,0:0:0:0:
0,245,166392,1,0,0:0:0:0:
454,52,166546,1,0,0:0:0:0:
38,359,166700,1,0,0:0:0:0:
493,152,166853,5,0,0:0:0:0:
1,39,167007,1,0,0:0:0:0:
501,359,167161,1,0,0:0:0:0:
5,174,167315,1,0,0:0:0:0:
508,9,167469,1,0,0:0:0:0:
14,335,167623,1,0,0:0:0:0:
507,143,167776,1,0,0:0:0:0:
1,39,167930,1,0,0:0:0:0:
472,248,168084,6,0,L|304:266,1,138.000005264282
5,174,168392,2,0,L|173:192,1,138.000005264282
472,248,168700,2,0,L|304:266,1,138.000005264282
5,174,169008,2,0,L|173:192,1,138.000005264282
369,169,169315,5,0,0:0:0:0:
89,323,169469,1,0,0:0:0:0:
89,323,169546,1,0,0:0:0:0:
89,323,169623,1,0,0:0:0:0:
65,260,169699,1,0,0:0:0:0:
93,198,169776,1,0,0:0:0:0:
155,174,169853,1,0,0:0:0:0:
217,201,169930,5,0,0:0:0:0:
278,228,170007,1,0,0:0:0:0:
341,204,170084,1,0,0:0:0:0:
368,142,170161,1,0,0:0:0:0:
345,79,170238,2,0,P|332:167|335:187,1,69.0000026321412
367,368,170392,2,0,P|380:280|377:260,1,69.0000026321412
230,73,170546,5,0,0:0:0:0:
60,171,170699,1,0,0:0:0:0:
339,198,170853,1,0,0:0:0:0:
79,163,171007,1,0,0:0:0:0:
345,79,171161,1,0,0:0:0:0:
118,270,171315,1,0,0:0:0:0:
386,315,171469,2,0,B|349:318|349:318|314:332|314:332|258:338,1,110.399996630859
103,293,171776,5,0,0:0:0:0:
185,39,171930,1,0,0:0:0:0:
118,270,172084,1,0,0:0:0:0:
333,243,172238,1,0,0:0:0:0:
373,0,172392,2,0,P|354:64|367:133,1,110.399996630859
471,307,172699,1,0,0:0:0:0:
489,37,172853,1,0,0:0:0:0:
489,37,172929,1,0,0:0:0:0:
489,37,173006,5,0,0:0:0:0:
251,72,173161,1,0,0:0:0:0:
489,37,173315,1,0,0:0:0:0:
218,235,173469,1,0,0:0:0:0:
402,87,173623,1,0,0:0:0:0:
110,132,173776,1,0,0:0:0:0:
364,248,173930,1,0,0:0:0:0:
159,31,174084,1,0,0:0:0:0:
98,332,174238,5,0,0:0:0:0:
255,59,174392,1,0,0:0:0:0:
323,353,174546,1,0,0:0:0:0:
57,204,174699,1,0,0:0:0:0:
364,248,174853,2,0,P|289:242|277:238,1,55.1999983154297
57,204,175007,2,0,P|132:198|144:194,1,55.1999983154297
323,353,175161,2,0,P|252:338|234:327,1,55.1999983154297
44,209,175315,2,0,P|116:232|132:242,1,55.1999983154297
343,358,175468,5,0,0:0:0:0:
65,384,175623,1,0,0:0:0:0:
155,121,175776,1,0,0:0:0:0:
210,378,175930,1,0,0:0:0:0:
44,209,176084,2,0,B|87:213|87:213|109:208|109:208|166:213,1,110.399996630859
364,248,176392,2,0,B|320:245|320:245|298:250|298:250|255:246,1,110.399996630859
83,301,176699,5,0,0:0:0:0:
267,112,176853,1,0,0:0:0:0:
312,351,177007,1,0,0:0:0:0:
264,90,177161,1,0,0:0:0:0:
170,363,177315,2,0,P|164:281|176:231,1,110.399996630859
261,68,177623,1,0,0:0:0:0:
312,351,177776,1,0,0:0:0:0:
478,123,177930,5,0,0:0:0:0:
208,182,178084,1,0,0:0:0:0:
439,294,178238,1,0,0:0:0:0:
345,41,178392,1,0,0:0:0:0:
188,288,178546,2,0,B|192:207|192:207|223:160,1,110.399996630859
451,21,178853,2,0,B|370:25|370:25|323:56,1,110.399996630859
188,288,179161,5,0,0:0:0:0:
450,174,179315,1,0,0:0:0:0:
183,42,179469,2,0,P|138:103|211:113,1,165.599994946289
290,62,179776,5,0,0:0:0:0:
95,248,179930,1,0,0:0:0:0:
382,61,180084,1,0,0:0:0:0:
217,364,180238,1,0,0:0:0:0:
