osu file format v14

[General]
AudioFilename: audio.mp3
AudioLeadIn: 0
PreviewTime: 39392
Countdown: 0
SampleSet: Normal
StackLeniency: 0.5
Mode: 0
LetterboxInBreaks: 0
WidescreenStoryboard: 0

[Editor]
Bookmarks: 83168
DistanceSpacing: 0.8
BeatDivisor: 4
GridSize: 4
TimelineZoom: 3.499999

[Metadata]
Title:Smash Out!!
TitleUnicode:Smash Out!!
Artist:MY FIRST STORY
ArtistUnicode:MY FIRST STORY
Creator:FCL
Version:Extreme
Source:
Tags:antithese emo rock alternative post-hardcore slayed rmdy neilperry
BeatmapID:1090928
BeatmapSetID:478289

[Difficulty]
HPDrainRate:6.5
CircleSize:4
OverallDifficulty:8.8
ApproachRate:9.4
SliderMultiplier:1.9
SliderTickRate:1

[Events]
//Background and Video events
0,0,"wallpaper-2176819.jpg",0,0
//Break Periods
2,127469,135544
//Storyboard Layer 0 (Background)
//Storyboard Layer 1 (Fail)
//Storyboard Layer 2 (Pass)
//Storyboard Layer 3 (Foreground)
//Storyboard Sound Samples

[TimingPoints]
700,307.692307692308,4,2,1,30,1,0
700,-200,4,2,1,30,0,0
5623,-100,4,1,1,50,0,0
15469,-166.666666666667,4,1,1,40,0,0
16699,-142.857142857143,4,1,1,40,0,0
17930,-166.666666666667,4,1,1,40,0,0
21623,-142.857142857143,4,1,1,40,0,0
22853,-166.666666666667,4,1,1,40,0,0
23623,-125,4,1,1,40,0,0
23930,-111.111111111111,4,1,1,40,0,0
24853,-100,4,1,1,40,0,0
25315,-117.647058823529,4,1,1,40,0,0
26392,-100,4,1,1,40,0,0
26853,-117.647058823529,4,1,1,40,0,0
28853,-100,4,1,1,40,0,0
29161,-117.647058823529,4,1,1,40,0,0
35930,-125,4,1,1,40,0,0
36238,-111.111111111111,4,1,1,40,0,0
36700,-100,4,1,1,40,0,0
39930,-95.2380952380952,4,1,1,50,0,1
59776,-100,4,1,1,50,0,0
61469,-95.2380952380952,4,1,1,50,0,0
62238,-117.647058823529,4,1,1,40,0,0
70699,-100,4,1,1,40,0,0
71007,-117.647058823529,4,1,1,40,0,0
82546,-100,4,1,1,40,0,0
82853,-133.333333333333,4,1,1,40,0,0
83161,-117.647058823529,4,1,1,40,0,0
96700,-100,4,1,1,40,0,0
99161,-95.2380952380952,4,1,1,50,0,1
101469,-100,4,1,1,50,0,0
101623,-100,4,1,1,40,0,0
116392,-95.2380952380952,4,1,1,40,0,0
121315,-117.647058823529,4,1,1,40,0,0
125007,-117.647058823529,4,1,1,40,0,0
126238,-117.647058823529,4,1,10,40,0,0
136084,-200,4,2,1,30,0,0
143469,-181.818181818182,4,2,1,35,0,0
143776,-166.666666666667,4,2,1,40,0,0
144546,-1000,4,1,1,40,0,0
146699,-117.647058823529,4,1,1,40,0,0
147007,-1000,4,1,1,40,0,0
149469,-1000,4,1,1,15,0,0
149623,-100,4,1,1,40,0,0
151161,-95.2380952380952,4,1,1,50,0,1
170546,-100,4,1,1,50,0,1
175469,-100,4,1,1,40,0,0
180238,-100,4,1,10,40,0,0

[Colours]
Combo1 : 154,157,98
Combo2 : 11,191,119
Combo3 : 176,225,244
Combo4 : 244,64,104

[HitObjects]
104,316,700,6,0,P|157:318|215:308,1,95,2|0,0:0|0:0,0:0:0:0:
262,254,1161,1,0,0:0:0:0:
150,204,1315,2,0,L|144:145,1,47.5
311,180,1623,2,0,L|317:121,1,47.5
156,128,1930,5,2,0:0:0:0:
298,111,2084,1,0,0:0:0:0:
165,113,2238,1,0,0:0:0:0:
283,98,2392,1,0,0:0:0:0:
219,66,2546,1,2,0:0:0:0:
219,66,2853,2,0,P|225:31|228:4,1,47.5
242,12,3161,6,0,P|190:18|131:14,1,95,2|0,0:0|0:0,0:0:0:0:
43,71,3623,1,0,0:0:0:0:
128,127,3776,2,0,P|134:169|131:192,1,47.5
277,90,4084,2,0,P|271:132|274:155,1,47.5
126,202,4392,5,8,0:3:0:0:
124,220,4700,1,8,0:3:0:0:
122,241,5007,1,8,0:3:0:0:
317,333,5315,1,8,0:0:0:0:
340,314,5623,6,0,L|344:199,1,95,12|0,0:0|0:0,0:0:0:0:
119,125,5930,1,8,0:0:0:0:
181,222,6084,1,0,0:0:0:0:
359,138,6238,2,0,P|404:129|478:136,1,95,8|0,0:0|0:0,0:0:0:0:
224,306,6546,2,0,P|179:297|105:304,1,95,8|0,0:0|0:0,0:0:0:0:
50,126,6853,5,8,0:0:0:0:
242,79,7007,1,0,0:0:0:0:
28,124,7161,1,8,0:0:0:0:
194,167,7315,1,0,0:0:0:0:
153,357,7469,2,0,L|146:241,1,95,8|0,0:0|0:0,0:0:0:0:
219,50,7776,1,8,0:0:0:0:
236,233,7930,1,0,0:0:0:0:
269,250,8007,1,0,0:0:0:0:
307,254,8084,6,0,L|302:122,1,95,8|0,0:0|0:0,0:0:0:0:
135,46,8392,1,8,0:0:0:0:
198,149,8546,1,0,0:0:0:0:
350,11,8700,2,0,P|359:56|356:112,1,95,8|0,0:0|0:0,0:0:0:0:
195,177,9007,2,0,P|130:183|70:177,1,95,8|0,0:0|0:0,0:0:0:0:
269,233,9315,5,8,0:0:0:0:
218,95,9469,1,0,0:0:0:0:
279,260,9623,1,8,0:0:0:0:
307,42,9776,1,0,0:0:0:0:
283,298,9930,5,8,0:0:0:0:
283,298,10007,1,0,0:0:0:0:
283,298,10084,1,8,0:0:0:0:
259,327,10161,1,8,0:0:0:0:
224,342,10238,1,8,0:0:0:0:
187,340,10315,1,8,0:0:0:0:
154,320,10392,1,8,0:0:0:0:
134,289,10469,1,8,0:0:0:0:
162,253,10546,6,0,L|168:145,1,95,4|0,0:0|0:0,0:0:0:0:
335,57,10853,1,8,0:0:0:0:
249,133,11007,1,0,0:0:0:0:
70,79,11161,1,0,0:0:0:0:
70,79,11315,1,0,0:0:0:0:
94,246,11469,2,0,P|54:251|-4:239,1,95,8|0,0:0|0:0,0:0:0:0:
160,340,11776,5,0,0:0:0:0:
131,150,11930,1,0,0:0:0:0:
165,369,12084,1,8,0:0:0:0:
238,213,12238,1,0,0:0:0:0:
371,329,12392,2,0,P|431:333|494:324,1,95
511,137,12700,1,8,0:0:0:0:
381,226,12853,1,0,0:0:0:0:
412,28,13007,6,0,L|409:148,1,95
292,293,13315,1,8,0:0:0:0:
381,226,13469,1,0,0:0:0:0:
207,166,13623,1,0,0:0:0:0:
207,166,13776,1,0,0:0:0:0:
233,349,13930,1,8,0:0:0:0:
233,349,14238,5,0,0:0:0:0:
123,167,14392,1,0,0:0:0:0:
308,218,14546,1,12,0:0:0:0:
66,256,14700,1,0,0:0:0:0:
119,58,14853,5,0,0:0:0:0:
285,104,15007,1,8,0:0:0:0:
322,101,15084,1,8,0:0:0:0:
360,99,15161,1,8,0:0:0:0:
398,96,15238,1,8,0:0:0:0:
436,94,15315,1,8,0:0:0:0:
474,91,15392,1,8,0:0:0:0:
495,53,15469,6,0,L|412:49,1,56.9999982604981,4|0,0:0|0:0,0:0:0:0:
360,99,15776,2,0,L|283:130,1,56.9999982604981,8|0,0:0|0:0,0:0:0:0:
280,208,16084,2,0,L|223:269,1,56.9999982604981
259,354,16392,1,8,0:0:0:0:
269,350,16546,1,0,0:0:0:0:
147,309,16700,6,0,P|139:277|143:229,1,66.4999979705811,2|0,0:2|0:0,0:0:0:0:
55,204,17007,2,0,P|61:171|85:129,1,66.4999979705811,8|0,0:0|0:0,0:0:0:0:
15,69,17315,2,0,P|34:42|73:14,1,66.4999979705811
225,50,17623,1,8,0:0:0:0:
119,76,17776,1,0,0:0:0:0:
251,152,17930,6,0,L|326:144,1,56.9999982604981,2|0,0:2|0:0,0:0:0:0:
393,194,18238,2,0,L|450:201,1,56.9999982604981,8|0,0:0|0:0,0:0:0:0:
319,289,18546,2,0,P|284:297|241:290,1,56.9999982604981
191,239,18853,2,0,P|162:238|135:245,1,56.9999982604981,8|0,0:0|0:0,0:0:0:0:
41,176,19161,5,2,0:2:0:0:
39,164,19315,1,0,0:0:0:0:
162,122,19469,1,8,0:0:0:0:
165,110,19623,1,0,0:0:0:0:
286,147,19776,1,0,0:0:0:0:
293,137,19930,1,0,0:0:0:0:
401,243,20084,1,8,0:0:0:0:
431,44,20238,1,2,0:3:0:0:
286,147,20392,6,0,L|292:226,1,56.9999982604981,2|0,0:2|0:0,0:0:0:0:
226,270,20700,2,0,L|220:349,1,56.9999982604981,8|0,0:0|0:0,0:0:0:0:
135,218,21007,2,0,P|128:176|138:136,1,56.9999982604981
186,55,21315,1,8,0:0:0:0:
195,48,21469,1,0,0:0:0:0:
52,141,21623,6,0,L|-24:145,1,66.4999979705811,2|0,0:2|0:0,0:0:0:0:
102,240,21930,2,0,L|178:244,1,66.4999979705811,8|0,0:0|0:0,0:0:0:0:
246,155,22238,2,0,B|251:118|251:118|243:66,1,66.4999979705811
107,35,22546,1,8,0:0:0:0:
163,118,22700,1,0,0:0:0:0:
294,32,22853,6,0,L|370:29,1,56.9999982604981,2|0,0:2|0:0,0:0:0:0:
293,160,23161,2,0,L|369:163,1,56.9999982604981,8|0,0:0|0:0,0:0:0:0:
274,276,23469,1,0,0:0:0:0:
155,155,23623,6,0,L|141:55,1,76,10|0,0:0|0:0,0:0:0:0:
133,230,23930,6,0,L|127:87,1,128.249996086121,6|0,0:0|2:0,0:0:0:0:
144,79,24238,1,8,0:0:0:0:
114,329,24392,1,8,0:0:0:0:
114,329,24700,5,0,0:0:0:0:
224,182,24853,1,8,0:0:0:0:
248,153,24930,1,8,0:0:0:0:
284,141,25007,1,8,0:0:0:0:
321,148,25084,1,8,0:0:0:0:
357,158,25161,1,8,0:0:0:0:
395,154,25238,1,8,0:0:0:0:
434,128,25315,6,0,L|441:20,1,80.750001540184,4|0,0:0|0:0,0:0:0:0:
426,257,25623,1,8,0:0:0:0:
365,80,25776,2,0,P|337:69|279:64,1,80.750001540184
130,108,26084,1,2,0:2:0:0:
274,234,26238,1,8,0:0:0:0:
138,327,26392,6,0,B|181:301|224:323|224:323|276:348|333:318,1,190,2|0,0:2|0:0,0:0:0:0:
435,202,26853,1,10,0:0:0:0:
435,202,27007,2,0,L|437:91,1,80.750001540184
483,297,27315,1,0,0:0:0:0:
356,182,27469,1,10,0:0:0:0:
512,131,27623,1,0,0:0:0:0:
310,63,27776,6,0,L|193:58,1,80.750001540184
38,17,28084,1,8,0:0:0:0:
94,161,28238,2,0,P|99:121|99:80,1,80.750001540184
161,271,28546,1,2,0:0:0:0:
58,230,28700,1,8,0:0:0:0:
233,175,28853,6,0,B|306:165|306:165|343:193|343:193|441:178,1,190,2|0,0:2|0:0,0:0:0:0:
289,332,29315,1,10,0:0:0:0:
233,175,29469,2,0,P|229:114|234:64,1,80.750001540184
182,319,29776,1,0,0:0:0:0:
113,125,29930,1,10,0:0:0:0:
334,187,30084,1,8,0:0:0:0:
365,194,30161,1,8,0:0:0:0:
396,202,30238,5,0,0:0:0:0:
303,97,30392,1,0,0:0:0:0:
258,287,30546,1,8,0:0:0:0:
417,132,30700,2,0,L|532:126,1,80.750001540184
382,306,31007,2,0,P|325:316|274:304,1,80.750001540184,2|8,0:0|0:0,0:0:0:0:
87,152,31315,6,0,B|144:123|144:123|276:130,1,161.500003080368,2|0,0:2|0:0,0:0:0:0:
492,150,31776,1,10,0:0:0:0:
492,150,31930,2,0,L|500:240,1,80.750001540184
363,351,32238,1,0,0:0:0:0:
314,164,32392,1,10,0:0:0:0:
464,351,32546,1,0,0:0:0:0:
344,240,32700,5,2,0:2:0:0:
492,150,32853,1,2,0:0:0:0:
311,62,33007,2,0,L|200:57,1,80.750001540184,12|0,0:0|0:0,0:0:0:0:
109,257,33315,5,2,0:2:0:0:
90,54,33469,1,0,0:0:0:0:
278,161,33623,1,8,0:0:0:0:
278,161,33930,5,2,0:2:0:0:
60,71,34084,1,2,0:0:0:0:
311,62,34238,1,0,0:0:0:0:
160,173,34392,1,10,0:0:0:0:
157,205,34469,1,8,0:0:0:0:
155,237,34546,1,8,0:0:0:0:
16,324,34700,6,0,L|24:236,1,80.750001540184,10|8,3:0|3:3,0:0:0:0:
93,140,35007,1,8,3:3:0:0:
189,284,35161,5,6,0:0:0:0:
271,57,35315,1,0,0:0:0:0:
300,343,35469,1,4,0:0:0:0:
300,343,35776,5,0,0:0:0:0:
271,57,35930,2,0,L|185:51,1,76,8|0,0:0|0:0,0:0:0:0:
420,39,36238,6,0,L|270:44,1,128.249996086121,4|0,0:0|2:0,0:0:0:0:
271,57,36546,1,8,0:0:0:0:
386,156,36700,1,8,0:0:0:0:
406,187,36776,1,8,0:0:0:0:
413,224,36853,1,8,0:0:0:0:
405,261,36930,1,8,0:0:0:0:
383,292,37007,5,8,3:0:0:0:
372,271,37084,1,8,3:0:0:0:
368,247,37161,1,8,3:0:0:0:
371,224,37238,1,8,3:0:0:0:
380,202,37315,2,0,L|497:197,1,95,12|0,3:0|0:0,0:0:0:0:
296,308,37623,5,10,0:0:0:0:
267,63,37776,1,0,0:0:0:0:
185,372,37930,5,10,0:0:0:0:
214,127,38084,1,0,0:0:0:0:
419,243,38238,5,10,0:0:0:0:
99,280,38392,1,0,0:0:0:0:
443,322,38546,5,10,0:0:0:0:
66,202,38700,1,0,0:0:0:0:
390,162,38853,5,10,0:0:0:0:
132,42,39007,1,8,0:0:0:0:
97,57,39084,1,8,0:0:0:0:
70,84,39161,1,8,0:0:0:0:
55,118,39238,1,8,0:0:0:0:
53,156,39315,2,0,P|56:179|71:208,1,47.5,8|0,0:0|2:0,0:0:0:0:
197,345,39469,5,10,0:0:0:0:
212,310,39546,1,8,0:0:0:0:
216,272,39623,1,10,0:0:0:0:
209,234,39700,1,8,0:0:0:0:
227,248,39776,1,8,3:0:0:0:
249,255,39853,1,8,3:0:0:0:
273,256,39930,6,0,L|284:75,1,149.624995433808,6|0,0:0|2:0,0:0:0:0:
312,77,40238,1,0,0:0:0:0:
212,310,40392,2,0,P|151:318|89:284,1,99.7499969558717,10|0,0:0|0:0,0:0:0:0:
29,76,40700,1,0,0:0:0:0:
167,167,40853,1,2,0:0:0:0:
0,230,41007,1,8,0:0:0:0:
148,75,41161,6,0,B|194:55|194:55|309:62,1,149.624995433808,2|0,0:0|2:0,0:0:0:0:
330,44,41469,1,0,0:0:0:0:
469,186,41623,2,0,P|477:238|467:295,1,99.7499969558717,10|0,0:0|0:0,0:0:0:0:
303,338,41930,1,0,0:0:0:0:
444,175,42084,1,2,0:0:0:0:
293,61,42238,1,8,0:0:0:0:
248,260,42392,6,0,P|188:297|69:228,1,199.499993911743,6|0,0:0|0:0,0:0:0:0:
31,65,42853,1,10,0:0:0:0:
166,190,43007,1,2,0:0:0:0:
0,298,43161,1,0,0:0:0:0:
36,155,43315,1,2,0:0:0:0:
169,361,43469,1,8,0:0:0:0:
247,190,43623,1,2,0:0:0:0:
99,294,43776,6,0,L|-23:298,1,99.7499969558717,4|0,0:3|0:0,0:0:0:0:
75,52,44084,2,0,L|174:55,1,99.7499969558717,8|0,0:0|0:0,0:0:0:0:
351,198,44392,1,2,0:0:0:0:
189,130,44546,1,2,0:0:0:0:
330,19,44700,1,8,0:0:0:0:
420,254,44853,6,0,B|361:242|361:242|256:268,1,149.624995433808,6|0,0:0|2:0,0:0:0:0:
248,294,45161,1,0,0:0:0:0:
110,252,45315,2,0,P|100:195|115:141,1,99.7499969558717,10|0,0:0|0:0,0:0:0:0:
30,20,45623,1,0,0:0:0:0:
214,73,45776,1,2,0:0:0:0:
27,203,45930,1,8,0:0:0:0:
239,55,46084,6,0,P|301:33|416:45,1,149.624995433808,2|0,0:0|2:0,0:0:0:0:
422,22,46392,1,0,0:0:0:0:
508,236,46546,2,0,L|371:228,1,99.7499969558717,10|0,0:0|0:0,0:0:0:0:
245,364,46853,1,0,0:0:0:0:
297,163,47007,1,2,0:0:0:0:
413,314,47161,1,8,0:0:0:0:
169,250,47315,6,0,B|153:106|153:106|206:154,1,199.499993911743,6|0,0:0|0:0,0:0:0:0:
335,333,47776,1,10,0:0:0:0:
148,252,47930,1,2,0:0:0:0:
364,168,48084,1,0,0:0:0:0:
215,370,48238,1,2,0:0:0:0:
193,142,48392,1,8,0:0:0:0:
335,333,48546,6,0,B|403:357|473:340|473:340|447:326|411:278,1,199.499993911743,2|0,0:0|0:0,0:0:0:0:
193,338,49007,1,8,0:0:0:0:
193,338,49315,5,8,0:0:0:0:
76,208,49469,1,8,0:0:0:0:
46,182,49546,1,8,0:0:0:0:
34,144,49623,1,8,0:0:0:0:
43,106,49700,1,8,0:0:0:0:
71,78,49776,1,8,0:0:0:0:
109,69,49853,1,8,0:0:0:0:
148,98,49930,6,0,L|267:91,1,99.7499969558717,4|0,0:0|0:0,0:0:0:0:
426,160,50238,2,0,P|446:220|444:288,1,99.7499969558717,10|0,0:0|0:0,0:0:0:0:
461,79,50546,1,0,0:0:0:0:
325,197,50700,1,2,0:0:0:0:
512,300,50853,1,8,0:0:0:0:
351,115,51007,6,0,L|346:6,1,99.7499969558717,2|0,0:0|0:0,0:0:0:0:
233,252,51315,2,0,L|228:351,1,99.7499969558717,2|8,0:0|0:0,0:0:0:0:
54,183,51623,2,0,L|50:84,1,99.7499969558717,2|0,0:0|0:0,0:0:0:0:
255,34,51930,1,2,0:0:0:0:
164,209,52084,1,10,0:0:0:0:
399,103,52238,6,0,B|435:149|417:200|417:200|397:257|437:315,1,199.499993911743,6|0,0:0|0:0,0:0:0:0:
247,181,52700,2,0,P|318:165|381:172,1,99.7499969558717,10|0,0:0|0:0,0:0:0:0:
465,35,53007,1,0,0:0:0:0:
282,22,53161,1,2,0:0:0:0:
477,200,53315,1,8,0:0:0:0:
253,284,53469,5,2,0:0:0:0:
344,165,53623,2,0,L|348:53,1,99.7499969558717,4|0,0:3|0:0,0:0:0:0:
362,268,53930,1,8,0:0:0:0:
188,179,54084,1,0,0:0:0:0:
423,129,54238,5,2,0:0:0:0:
195,101,54392,1,10,0:0:0:0:
170,103,54469,1,8,0:0:0:0:
147,112,54546,1,0,0:0:0:0:
140,98,54623,1,8,3:0:0:0:
135,84,54700,1,8,0:0:0:0:
128,70,54776,1,8,0:0:0:0:
84,61,54853,6,0,B|77:110|77:110|93:195,1,99.7499969558717,10|0,0:0|0:0,0:0:0:0:
220,358,55161,2,0,B|229:308|229:308|222:259,1,99.7499969558717,10|0,0:0|0:0,0:0:0:0:
293,113,55469,5,10,0:0:0:0:
43,186,55623,1,0,0:0:0:0:
358,265,55776,5,10,0:0:0:0:
62,232,55930,2,0,L|135:239,1,49.8749984779358
293,113,56084,6,0,L|416:107,1,99.7499969558717,10|0,0:0|0:0,0:0:0:0:
289,356,56392,2,0,L|166:350,1,99.7499969558717,10|0,0:0|0:0,0:0:0:0:
411,275,56700,5,10,0:0:0:0:
119,310,56853,1,0,0:0:0:0:
435,255,57007,5,10,0:0:0:0:
87,220,57161,1,0,0:0:0:0:
81,180,57238,1,0,0:0:0:0:
76,140,57315,5,14,0:0:0:0:
101,359,57469,1,0,0:0:0:0:
181,103,57623,5,10,0:0:0:0:
210,383,57777,1,0,0:0:0:0:
111,182,57930,5,10,0:0:0:0:
409,134,58084,1,0,0:0:0:0:
85,111,58238,5,10,0:0:0:0:
436,205,58392,1,0,0:0:0:0:
34,172,58546,5,10,0:0:0:0:
490,147,58700,1,6,0:0:0:0:
194,356,58853,1,8,0:0:0:0:
247,57,59007,1,6,0:0:0:0:
403,360,59315,5,2,0:0:0:0:
246,215,59469,1,8,3:0:0:0:
244,190,59546,1,8,3:0:0:0:
243,165,59623,1,8,3:0:0:0:
242,140,59700,1,8,3:0:0:0:
259,97,59776,5,2,3:0:0:0:
253,77,60084,1,2,3:0:0:0:
247,57,60392,1,2,3:0:0:0:
242,37,60700,1,2,3:0:0:0:
46,184,61007,5,8,0:0:0:0:
28,208,61084,1,4,0:3:0:0:
21,236,61161,1,4,0:3:0:0:
26,266,61238,1,4,0:3:0:0:
41,291,61315,2,0,P|72:300|110:292,1,47.5,4|4,0:3|0:3,0:0:0:0:
199,225,61469,5,8,0:0:0:0:
217,201,61546,1,4,0:3:0:0:
224,173,61623,1,4,0:3:0:0:
219,143,61700,1,4,0:3:0:0:
204,118,61776,2,0,P|173:109|130:118,1,49.8749984779358,4|4,0:3|0:3,0:0:0:0:
17,168,61930,5,10,0:0:0:0:
22,217,62007,1,8,0:0:0:0:
26,266,62084,1,10,0:0:0:0:
28,315,62161,1,8,0:0:0:0:
32,354,62238,5,6,0:0:0:0:
116,234,62392,1,0,0:0:0:0:
158,376,62546,1,10,0:0:0:0:
217,201,62700,2,0,P|215:148|208:95,1,80.750001540184,2|0,0:0|0:0,0:0:0:0:
53,18,63007,1,2,0:0:0:0:
34,162,63161,1,10,0:0:0:0:
34,162,63315,1,0,0:0:0:0:
134,326,63469,5,2,0:0:0:0:
297,235,63623,1,0,0:0:0:0:
118,325,63776,1,10,0:0:0:0:
201,160,63930,2,0,L|206:55,1,80.750001540184,2|0,0:0|0:0,0:0:0:0:
374,22,64238,5,2,0:0:0:0:
297,235,64392,1,10,0:0:0:0:
206,54,64546,1,0,0:0:0:0:
368,170,64700,6,0,L|479:164,1,80.750001540184,2|0,0:0|0:0,0:0:0:0:
275,115,65007,1,10,0:0:0:0:
441,291,65161,2,0,P|398:295|360:295,1,80.750001540184,2|0,0:0|0:0,0:0:0:0:
183,364,65469,1,2,0:0:0:0:
258,138,65623,1,10,0:0:0:0:
342,327,65776,1,0,0:0:0:0:
146,242,65930,5,2,0:0:0:0:
146,242,66084,1,0,0:0:0:0:
121,85,66238,1,10,0:0:0:0:
302,222,66392,2,0,P|312:159|306:106,1,80.750001540184,2|0,0:0|0:0,0:0:0:0:
148,57,66700,5,2,0:0:0:0:
65,246,66853,2,0,L|174:240,1,80.750001540184,14|0,0:0|0:0,0:0:0:0:
311,142,67161,5,6,0:0:0:0:
478,56,67315,1,0,0:0:0:0:
443,231,67469,1,10,0:0:0:0:
324,54,67623,2,0,P|286:51|215:53,1,80.750001540184,2|0,0:0|0:0,0:0:0:0:
39,55,67930,1,2,0:0:0:0:
230,141,68084,2,0,P|279:139|310:141,1,80.750001540184,10|0,0:0|0:0,0:0:0:0:
397,304,68392,5,2,0:0:0:0:
441,138,68546,1,0,0:0:0:0:
289,244,68700,1,10,0:0:0:0:
512,228,68853,2,0,P|476:220|419:217,1,80.750001540184,2|0,0:0|0:0,0:0:0:0:
230,141,69161,5,0,0:0:0:0:
392,360,69315,2,0,L|387:247,1,80.750001540184,10|0,0:0|0:0,0:0:0:0:
474,85,69623,5,2,0:0:0:0:
289,244,69776,1,2,0:0:0:0:
472,297,69930,1,8,0:0:0:0:
230,141,70084,2,0,L|224:40,1,80.750001540184,2|0,0:0|0:0,0:0:0:0:
166,356,70392,2,0,L|170:275,1,80.750001540184,2|0,0:0|0:0,0:0:0:0:
472,297,70700,6,0,B|410:324|410:324|273:289,1,190,6|0,0:0|0:0,0:0:0:0:
96,251,71161,2,0,P|88:209|90:138,1,80.750001540184,8|0,0:0|0:0,0:0:0:0:
136,114,71392,1,8,0:0:0:0:
133,81,71469,5,8,0:0:0:0:
206,177,71623,1,8,3:0:0:0:
270,75,71776,1,8,3:0:0:0:
336,235,71930,1,8,3:0:0:0:
463,86,72084,6,0,L|468:-22,2,80.750001540184,6|0|8,0:0|0:0|0:0,0:0:0:0:
496,264,72546,1,0,0:0:0:0:
492,248,72623,1,0,0:0:0:0:
488,232,72700,1,0,0:0:0:0:
356,95,72853,2,0,P|353:155|370:185,1,80.750001540184,10|0,0:0|0:0,0:0:0:0:
286,252,73161,2,0,P|339:280|373:277,1,80.750001540184,10|0,0:0|3:0,3:0:0:0:
496,264,73469,1,0,0:0:0:0:
357,96,73623,5,10,0:0:0:0:
357,96,73776,2,0,L|257:94,1,80.750001540184,2|0,0:0|0:0,0:0:0:0:
100,29,74084,1,0,0:0:0:0:
159,232,74238,1,10,0:0:0:0:
269,70,74392,1,0,0:0:0:0:
264,50,74469,1,0,0:0:0:0:
258,29,74546,5,6,0:3:0:0:
90,128,74700,1,4,0:3:0:0:
181,22,74853,1,8,0:0:0:0:
162,200,75007,1,0,0:0:0:0:
160,216,75084,1,0,0:0:0:0:
159,232,75161,1,0,0:0:0:0:
269,70,75315,1,10,0:0:0:0:
438,104,75469,1,0,0:0:0:0:
236,250,75623,5,10,0:0:0:0:
384,188,75776,2,0,B|429:182|429:182|488:183,1,80.750001540184
268,362,76084,1,10,0:0:0:0:
309,225,76238,1,0,0:0:0:0:
107,342,76392,1,8,0:0:0:0:
106,310,76469,1,8,0:0:0:0:
103,278,76546,1,8,0:0:0:0:
101,246,76623,1,8,0:0:0:0:
99,213,76700,1,10,0:0:0:0:
97,181,76776,1,8,0:0:0:0:
95,149,76853,1,8,0:0:0:0:
94,117,76930,1,8,0:0:0:0:
116,70,77007,6,0,P|162:67|220:70,1,80.750001540184,6|0,0:0|0:0,0:0:0:0:
381,4,77315,1,8,0:0:0:0:
259,149,77469,1,0,0:0:0:0:
302,47,77623,1,0,0:0:0:0:
366,232,77776,2,0,B|326:234|326:234|269:219,1,80.750001540184,10|0,0:0|0:0,0:0:0:0:
208,360,78084,2,0,B|189:324|189:324|178:266,1,80.750001540184,10|0,0:0|0:0,0:0:0:0:
129,125,78392,5,0,0:0:0:0:
286,223,78546,2,0,P|338:212|394:219,1,80.750001540184,10|0,0:0|0:0,0:0:0:0:
490,286,78853,1,8,0:0:0:0:
502,256,78930,1,8,0:0:0:0:
508,224,79007,1,8,0:0:0:0:
507,192,79084,1,8,0:0:0:0:
498,161,79161,1,10,0:0:0:0:
364,97,79315,1,8,0:0:0:0:
366,64,79392,1,8,0:0:0:0:
368,32,79469,6,0,P|301:26|265:29,1,80.750001540184,6|0,0:0|0:0,0:0:0:0:
114,92,79776,1,8,0:0:0:0:
234,223,79930,1,2,0:0:0:0:
231,211,80007,1,0,0:0:0:0:
228,199,80084,1,0,0:0:0:0:
203,14,80238,1,10,0:0:0:0:
337,160,80392,1,0,0:0:0:0:
85,82,80546,1,8,0:0:0:0:
356,148,80700,5,2,0:0:0:0:
356,148,80853,2,0,L|360:37,1,80.750001540184,2|0,0:0|0:0,0:0:0:0:
465,236,81161,1,10,0:0:0:0:
433,230,81238,1,8,0:0:0:0:
402,224,81315,5,8,0:0:0:0:
291,275,81469,1,10,3:0:0:0:
178,229,81623,1,8,3:0:0:0:
70,283,81776,1,10,3:0:0:0:
272,327,81930,5,4,0:0:0:0:
208,135,82084,1,4,0:3:0:0:
70,283,82238,1,4,0:3:0:0:
70,283,82546,6,0,L|78:150,1,95
92,46,82853,2,0,L|97:123,1,71.2500027179719,0|2,0:0|0:0,0:0:0:0:
157,170,83084,1,0,0:0:0:0:
157,170,83161,5,2,0:0:0:0:
221,17,83315,1,8,0:0:0:0:
266,127,83469,2,0,L|360:124,1,80.750001540184,0|2,0:0|0:0,0:0:0:0:
512,236,83776,1,0,0:0:0:0:
512,236,83930,2,0,L|404:234,1,80.750001540184,2|0,0:0|0:0,0:0:0:0:
222,350,84238,2,0,P|209:311|208:271,1,80.750001540184,8|0,0:0|0:0,0:0:0:0:
254,93,84546,5,2,0:0:0:0:
448,117,84700,1,0,0:0:0:0:
230,92,85007,5,2,0:0:0:0:
469,121,85161,1,0,0:0:0:0:
208,271,85315,1,0,0:0:0:0:
457,258,85623,5,6,0:3:0:0:
424,260,85700,1,4,0:3:0:0:
392,262,85776,1,4,0:3:0:0:
219,178,85930,5,10,0:0:0:0:
365,40,86084,1,0,0:0:0:0:
298,160,86238,5,8,0:0:0:0:
281,132,86315,1,4,0:3:0:0:
257,111,86392,1,4,0:3:0:0:
226,101,86469,1,4,0:3:0:0:
194,102,86546,1,10,3:0:0:0:
200,91,86623,1,8,3:0:0:0:
207,81,86700,1,4,0:3:0:0:
214,71,86776,1,4,0:3:0:0:
223,63,86853,6,0,B|178:57|178:57|113:61,2,80.750001540184,12|0|0,0:0|0:0|0:0,0:0:0:0:
354,18,87315,1,2,0:0:0:0:
297,251,87469,1,8,0:0:0:0:
355,149,87623,1,4,0:0:0:0:
355,149,87930,5,0,0:0:0:0:
322,146,88007,1,0,0:0:0:0:
290,144,88084,2,0,L|288:43,1,80.750001540184,8|2,0:0|0:0,0:0:0:0:
291,225,88392,1,2,0:0:0:0:
119,113,88546,1,14,0:0:0:0:
375,47,88700,1,0,0:0:0:0:
375,47,88853,1,0,0:0:0:0:
203,179,89007,6,0,P|200:218|203:275,1,80.750001540184,12|2,0:0|0:0,0:0:0:0:
431,331,89315,1,10,0:0:0:0:
327,136,89469,1,6,0:0:0:0:
285,358,89623,1,0,0:0:0:0:
285,358,89776,1,0,0:0:0:0:
162,168,89930,5,12,0:0:0:0:
275,214,90084,1,2,0:0:0:0:
69,296,90238,1,2,0:0:0:0:
83,175,90392,1,2,0:0:0:0:
194,351,90546,1,12,0:0:0:0:
232,135,90700,1,0,0:0:0:0:
232,135,90853,1,0,0:0:0:0:
363,307,91007,5,14,0:0:0:0:
122,241,91161,1,2,0:0:0:0:
194,351,91315,1,2,0:0:0:0:
294,179,91469,1,8,0:0:0:0:
303,161,91546,1,4,0:3:0:0:
308,141,91623,1,4,0:3:0:0:
308,121,91700,1,4,0:3:0:0:
334,83,91776,5,8,0:0:0:0:
286,346,91930,1,8,0:0:0:0:
232,135,92084,1,8,0:0:0:0:
360,69,92392,5,8,0:0:0:0:
298,369,92546,1,0,0:0:0:0:
214,272,92700,1,0,0:0:0:0:
471,148,92853,2,0,L|404:145,1,40.375000770092,2|0,0:0|0:0,0:0:0:0:
232,135,93007,1,2,0:0:0:0:
485,288,93161,6,0,L|390:294,1,80.750001540184,8|0,0:0|0:0,0:0:0:0:
208,306,93469,1,2,0:0:0:0:
202,290,93776,1,0,0:0:0:0:
196,274,94084,2,0,L|205:184,1,80.750001540184,10|0,0:0|0:0,0:0:0:0:
334,48,94392,5,4,0:3:0:0:
382,45,94469,1,4,0:3:0:0:
430,42,94546,1,4,0:3:0:0:
258,17,94700,1,0,0:0:0:0:
454,131,94853,1,10,0:0:0:0:
243,251,95007,1,0,0:0:0:0:
243,251,95161,1,0,0:0:0:0:
382,125,95315,6,0,P|386:75|377:28,1,80.750001540184,10|0,0:0|0:0,0:0:0:0:
442,247,95623,1,0,0:0:0:0:
259,354,95776,2,0,P|209:350|162:359,1,80.750001540184,10|0,0:0|0:0,0:0:0:0:
112,322,96007,1,0,0:0:0:0:
63,320,96084,5,8,3:0:0:0:
196,239,96238,1,8,3:0:0:0:
33,190,96392,1,10,3:0:0:0:
222,128,96546,1,8,3:0:0:0:
25,94,96700,6,0,L|19:-9,1,95,2|0,0:0|0:0,0:0:0:0:
33,190,97007,1,8,0:0:0:0:
165,73,97161,1,4,0:3:0:0:
185,60,97238,1,4,0:3:0:0:
207,52,97315,1,4,0:3:0:0:
325,202,97469,1,0,0:0:0:0:
318,17,97623,2,0,L|322:117,1,95,8|0,0:0|0:0,0:0:0:0:
480,164,97930,5,0,0:0:0:0:
480,164,98084,1,0,0:0:0:0:
340,297,98238,2,0,P|280:306|215:291,1,95,8|4,0:0|0:3,0:0:0:0:
181,340,98469,1,4,0:3:0:0:
159,330,98546,1,4,0:3:0:0:
292,217,98700,1,0,0:0:0:0:
250,379,98853,1,8,0:0:0:0:
221,157,99007,1,0,0:0:0:0:
340,297,99161,6,0,B|389:300|389:300|454:287,1,99.7499969558717,14|0,0:0|0:0,0:0:0:0:
175,373,99469,2,0,B|131:349|131:349|64:334,1,99.7499969558717,8|0,0:0|0:0,0:0:0:0:
0,145,99776,1,8,0:0:0:0:
219,272,99930,1,8,0:0:0:0:
16,367,100084,1,8,0:0:0:0:
111,123,100238,1,8,0:0:0:0:
194,346,100392,5,8,0:0:0:0:
161,323,100469,1,8,0:0:0:0:
144,287,100546,1,8,0:0:0:0:
146,248,100623,1,8,0:0:0:0:
167,214,100700,2,0,P|185:202|235:198,1,49.8749984779358,8|0,0:0|0:0,0:0:0:0:
379,243,100853,5,8,0:0:0:0:
379,243,100930,1,8,0:0:0:0:
379,243,101007,1,8,0:0:0:0:
428,235,101084,1,8,0:0:0:0:
465,203,101161,1,8,0:0:0:0:
480,156,101238,1,8,0:0:0:0:
468,108,101315,1,8,0:0:0:0:
433,74,101392,1,8,0:0:0:0:
382,93,101469,6,0,B|315:113|315:113|174:84,1,190,6|0,0:0|0:0,0:0:0:0:
379,243,101930,1,8,0:0:0:0:
306,25,102084,1,2,0:0:0:0:
184,210,102238,1,2,0:0:0:0:
315,112,102392,1,0,0:0:0:0:
98,151,102546,1,10,0:0:0:0:
297,233,102700,1,0,0:0:0:0:
78,249,102853,5,0,0:0:0:0:
280,338,103007,1,2,0:0:0:0:
489,227,103161,2,0,P|449:241|378:223,1,95,8|0,0:0|0:0,0:0:0:0:
232,114,103469,1,2,0:0:0:0:
232,114,103623,1,2,0:0:0:0:
317,327,103776,1,10,0:0:0:0:
315,56,103930,6,0,P|249:22|127:90,1,190,6|0,0:0|0:0,0:0:0:0:
217,239,104392,2,0,B|258:247|258:247|331:227,1,95,10|0,0:0|0:0,0:0:0:0:
466,96,104700,2,0,P|481:144|471:203,1,95,2|0,0:0|0:0,0:0:0:0:
304,337,105007,1,10,0:0:0:0:
495,261,105161,1,0,0:0:0:0:
211,154,105315,6,0,B|116:144|116:144|38:177,1,142.5,2|0,0:0|2:0,0:0:0:0:
1,133,105623,1,10,0:0:0:0:
179,48,105776,1,2,0:0:0:0:
120,287,105930,1,0,0:0:0:0:
211,154,106084,1,2,0:0:0:0:
367,195,106238,1,10,0:0:0:0:
202,332,106392,6,0,P|114:339|14:293,1,190,6|0,0:0|0:0,0:0:0:0:
155,193,106853,2,0,L|146:80,1,95,10|2,0:0|0:3,0:0:0:0:
401,251,107161,2,0,L|410:138,1,95,2|2,0:0|0:3,0:0:0:0:
139,209,107469,2,0,L|120:97,1,95,10|2,0:0|0:3,0:0:0:0:
401,251,107776,5,2,0:0:0:0:
391,234,107930,1,2,0:3:0:0:
139,209,108084,1,10,0:0:0:0:
149,192,108238,1,2,0:3:0:0:
407,129,108392,1,2,0:0:0:0:
137,88,108546,1,2,0:0:0:0:
308,285,108700,1,10,0:0:0:0:
99,247,108853,6,0,B|64:229|46:189|46:189|23:317,1,190,6|0,0:0|0:0,0:0:0:0:
263,368,109315,2,0,P|315:373|375:350,1,95,10|0,0:0|0:0,0:0:0:0:
194,203,109623,2,0,P|144:185|100:139,1,95,2|0,0:0|0:0,0:0:0:0:
383,114,109930,2,0,P|420:77|441:16,1,95,10|0,0:0|0:0,0:0:0:0:
184,21,110238,5,2,0:0:0:0:
288,109,110392,1,8,0:0:0:0:
310,139,110469,1,4,0:3:0:0:
318,176,110546,1,10,0:0:0:0:
311,213,110623,1,4,0:3:0:0:
292,246,110700,1,8,0:0:0:0:
285,283,110776,1,4,0:3:0:0:
290,320,110853,5,10,0:0:0:0:
253,291,110930,1,8,0:0:0:0:
208,279,111007,1,8,0:0:0:0:
162,289,111084,1,8,0:0:0:0:
124,317,111161,1,8,0:0:0:0:
79,331,111238,1,8,0:0:0:0:
34,319,111315,1,8,0:0:0:0:
3,284,111392,1,8,0:0:0:0:
77,255,111469,6,0,L|81:124,1,95,6|0,0:0|0:0,0:0:0:0:
201,11,111776,1,8,0:0:0:0:
176,188,111930,1,2,0:0:0:0:
351,76,112084,1,2,0:0:0:0:
128,98,112238,2,0,L|10:106,2,95,0|10|0,0:0|0:0|0:0,0:0:0:0:
262,28,112700,5,2,0:0:0:0:
283,235,112853,1,2,0:0:0:0:
128,98,113007,1,10,0:0:0:0:
277,47,113161,5,0,0:0:0:0:
277,221,113315,1,2,0:0:0:0:
146,100,113469,1,0,0:0:0:0:
380,128,113623,1,10,0:0:0:0:
174,252,113776,2,0,L|54:245,1,95,2|0,0:0|0:0,0:0:0:0:
184,343,114084,5,2,0:0:0:0:
277,221,114238,2,0,L|270:98,1,95,2|0,0:0|0:0,0:0:0:0:
114,61,114546,1,2,0:0:0:0:
114,61,114700,1,2,0:0:0:0:
79,246,114853,1,8,0:0:0:0:
195,97,115007,1,2,0:0:0:0:
375,60,115161,6,0,P|421:68|496:54,1,95,2|0,0:0|0:0,0:0:0:0:
288,182,115469,2,0,L|277:313,1,95,10|0,0:0|0:0,0:0:0:0:
66,330,115776,1,12,3:0:0:0:
54,309,115853,1,8,3:0:0:0:
49,286,115930,1,8,3:0:0:0:
51,262,116007,1,8,3:0:0:0:
86,220,116084,1,12,3:0:0:0:
85,196,116161,1,8,3:0:0:0:
84,172,116238,1,8,3:0:0:0:
83,148,116315,1,8,3:0:0:0:
120,100,116392,6,0,L|114:242,1,99.7499969558717,10|2,0:0|0:3,0:0:0:0:
401,324,116700,2,0,L|397:225,1,99.7499969558717,10|2,0:0|0:3,0:0:0:0:
166,36,117007,5,10,0:0:0:0:
181,276,117161,1,2,0:3:0:0:
413,181,117315,5,10,0:0:0:0:
115,199,117469,1,2,0:3:0:0:
252,35,117623,5,10,0:0:0:0:
219,282,117776,1,2,0:3:0:0:
337,77,117930,5,10,0:0:0:0:
235,299,118084,1,2,0:3:0:0:
417,135,118238,5,10,0:0:0:0:
248,319,118392,1,2,0:3:0:0:
476,225,118546,5,10,0:0:0:0:
256,339,118700,1,10,3:0:0:0:
281,333,118776,1,8,3:0:0:0:
305,327,118853,5,14,0:0:0:0:
307,207,119007,1,0,0:0:0:0:
209,140,119161,1,2,0:3:0:0:
353,337,119315,5,14,0:0:0:0:
319,196,119469,1,0,0:0:0:0:
183,148,119623,1,2,0:3:0:0:
399,346,119776,5,14,0:0:0:0:
329,187,119930,1,0,0:0:0:0:
159,158,120084,1,2,0:3:0:0:
452,353,120238,5,14,0:0:0:0:
336,179,120392,1,2,0:0:0:0:
129,180,120546,1,2,0:0:0:0:
318,297,120700,5,14,0:0:0:0:
363,46,120853,1,8,3:0:0:0:
159,158,121007,5,8,3:0:0:0:
188,348,121161,1,8,3:0:0:0:
336,179,121315,5,6,0:0:0:0:
336,179,121776,1,0,0:0:0:0:
490,232,121930,1,8,0:0:0:0:
490,232,122238,1,0,0:0:0:0:
361,125,122392,2,0,B|356:82|356:82|366:23,1,80.750001540184
339,236,122700,5,0,0:0:0:0:
482,129,122853,2,0,L|343:124,1,121.125002310276,6|0,0:3|2:0,0:0:0:0:
343,113,123161,1,8,0:0:0:0:
153,26,123315,1,0,3:3:0:0:
156,45,123392,1,0,3:3:0:0:
159,65,123469,1,0,3:3:0:0:
190,213,123623,1,0,0:0:0:0:
290,35,123776,5,0,0:0:0:0:
290,35,124238,1,0,0:0:0:0:
400,215,124392,2,0,P|357:193|248:233,1,161.500003080368,8|6,0:0|0:3,0:0:0:0:
123,195,124853,1,0,3:0:0:0:
121,170,124930,1,0,3:0:0:0:
119,145,125007,6,0,L|134:35,1,80.750001540184,10|0,0:0|0:0,0:0:0:0:
193,326,125315,1,0,0:0:0:0:
194,124,125469,6,0,L|212:6,1,80.750001540184,10|0,0:0|0:0,0:0:0:0:
202,341,125776,1,0,0:0:0:0:
272,113,125930,6,0,L|290:-5,1,80.750001540184,10|0,0:0|0:0,0:0:0:0:
211,353,126238,1,6,0:0:0:0:
58,244,136084,6,0,L|55:181,1,47.5,6|0,0:0|0:0,0:0:0:0:
130,136,136392,2,0,L|127:73,1,47.5
225,39,136700,2,0,L|222:86,1,47.5,8|0,0:0|0:0,0:0:0:0:
297,147,137007,2,0,L|294:194,1,47.5
162,303,137315,6,0,P|123:310|107:308,1,47.5
93,229,137623,2,0,P|54:218|41:210,1,47.5
29,86,137930,2,0,P|61:108|76:113,1,47.5,8|0,0:0|0:0,0:0:0:0:
122,48,138238,2,0,P|161:54|177:52,1,47.5
296,100,138546,6,0,L|301:168,1,47.5,2|0,0:0|0:0,0:0:0:0:
224,206,138853,2,0,P|219:242|221:272,1,47.5
324,325,139161,2,0,L|392:320,1,47.5,8|0,0:0|0:0,0:0:0:0:
461,358,139469,2,0,P|497:363|527:361,1,47.5
457,246,139776,5,0,0:0:0:0:
460,237,139930,1,0,0:0:0:0:
363,158,140084,1,0,1:0:0:0:
366,149,140238,1,0,0:0:0:0:
225,213,140392,1,8,0:0:0:0:
222,204,140546,1,0,0:0:0:0:
108,152,140700,1,0,0:0:0:0:
229,29,140853,1,2,0:3:0:0:
222,204,141007,6,0,L|216:271,1,47.5,6|0,0:0|0:0,0:0:0:0:
297,346,141315,2,0,L|292:298,1,47.5
364,195,141623,2,0,B|369:167|369:167|362:128,1,47.5,8|0,0:0|0:0,0:0:0:0:
439,71,141930,2,0,B|434:43|434:43|441:4,1,47.5
321,55,142238,6,0,P|283:53|255:56,1,47.5
218,120,142546,2,0,P|182:134|158:148,1,47.5,0|0,1:0|0:0,0:0:0:0:
152,221,142853,2,0,P|126:248|110:272,1,47.5,8|0,0:0|0:0,0:0:0:0:
150,337,143161,2,0,P|138:373|133:401,1,47.5
298,273,143469,6,0,L|304:202,1,52.2500015945435,2|2,0:0|0:0,0:0:0:0:
175,162,143776,2,0,L|167:88,1,56.9999982604981
128,251,144084,1,0,0:0:0:0:
323,218,144238,1,0,0:0:0:0:
86,177,144392,1,0,0:0:0:0:
222,333,144546,6,0,P|209:280|219:222,1,114,6|8,0:0|0:0,0:0:0:0:
226,213,146469,1,8,0:0:0:0:
234,206,146546,1,10,0:0:0:0:
150,34,146700,2,0,L|153:114,1,80.750001540184,10|0,0:0|0:0,0:0:0:0:
120,287,147007,6,0,P|167:310|263:298,1,152,6|0,0:0|0:0,0:0:0:0:
365,356,149623,5,8,0:0:0:0:
360,320,149700,1,8,0:0:0:0:
359,284,149776,1,8,3:0:0:0:
359,284,149853,1,8,3:0:0:0:
359,284,149930,5,8,3:0:0:0:
394,269,150007,1,8,3:0:0:0:
418,240,150084,1,8,3:0:0:0:
426,202,150161,1,8,3:0:0:0:
411,167,150238,5,10,0:0:0:0:
212,371,150392,1,6,0:3:0:0:
236,374,150469,1,4,0:3:0:0:
260,378,150546,1,2,0:3:0:0:
202,200,150700,1,2,0:0:0:0:
202,200,151007,1,0,3:0:0:0:
166,188,151084,1,0,3:0:0:0:
127,176,151161,6,0,L|12:173,1,99.7499969558717,12|0,0:0|0:0,0:0:0:0:
206,104,151469,1,0,0:0:0:0:
168,245,151623,1,2,0:0:0:0:
141,45,151776,1,8,0:0:0:0:
236,288,151930,6,0,P|210:314|88:255,1,149.624995433808,6|0,0:0|2:0,0:0:0:0:
90,262,152238,1,0,0:0:0:0:
306,202,152392,2,0,P|321:268|317:319,1,99.7499969558717,10|0,0:0|0:0,0:0:0:0:
337,82,152700,1,0,0:0:0:0:
236,288,152853,1,2,0:0:0:0:
454,171,153007,1,8,0:0:0:0:
192,131,153161,6,0,B|126:111|57:138|57:138|95:137|137:165,1,199.499993911743,6|0,0:0|0:0,0:0:0:0:
297,240,153623,1,10,0:0:0:0:
64,219,153776,1,2,0:0:0:0:
226,96,153930,1,0,0:0:0:0:
230,315,154084,1,2,0:0:0:0:
208,73,154238,1,8,0:0:0:0:
397,190,154392,6,0,P|316:167|232:260,1,199.499993911743,2|0,0:0|0:0,0:0:0:0:
327,371,154853,2,0,B|318:320|318:320|324:272,1,99.7499969558717,8|0,0:0|0:0,0:0:0:0:
374,53,155161,1,2,0:0:0:0:
456,236,155315,1,2,0:0:0:0:
279,102,155469,1,8,0:0:0:0:
449,271,155623,6,0,B|407:301|407:301|280:283,1,149.624995433808,6|0,0:0|2:0,0:0:0:0:
271,297,155930,1,0,0:0:0:0:
172,145,156084,2,0,P|125:139|50:154,1,99.7499969558717,10|0,0:0|0:0,0:0:0:0:
279,102,156392,1,0,0:0:0:0:
163,273,156546,1,2,0:0:0:0:
117,86,156700,1,8,0:0:0:0:
285,26,156853,6,0,L|445:20,1,149.624995433808,2|0,0:0|2:0,0:0:0:0:
470,38,157161,1,0,0:0:0:0:
400,275,157315,2,0,P|395:211|400:142,1,99.7499969558717,10|0,0:0|0:0,0:0:0:0:
221,86,157623,1,0,0:0:0:0:
363,20,157776,1,2,0:0:0:0:
308,200,157930,1,8,0:0:0:0:
69,108,158084,6,0,B|74:178|74:178|111:218|111:218|119:315,1,199.499993911743,6|0,0:0|0:0,0:0:0:0:
255,329,158546,1,10,0:0:0:0:
280,298,158623,1,8,0:0:0:0:
315,279,158700,1,10,0:0:0:0:
354,271,158776,1,8,0:0:0:0:
393,276,158853,5,4,0:3:0:0:
389,262,158930,1,4,0:3:0:0:
384,248,159007,1,10,0:0:0:0:
410,218,159084,1,8,0:0:0:0:
424,181,159161,1,8,0:0:0:0:
421,141,159238,1,8,0:0:0:0:
404,106,159315,5,6,0:3:0:0:
404,106,159392,1,4,0:3:0:0:
404,106,159469,2,0,L|338:109,1,49.8749984779358,8|0,0:0|2:0,0:0:0:0:
160,118,159623,5,8,0:0:0:0:
126,138,159699,1,8,0:0:0:0:
107,172,159776,1,8,0:0:0:0:
108,212,159853,1,8,0:0:0:0:
129,245,159930,1,8,0:0:0:0:
159,270,160006,1,8,0:0:0:0:
169,307,160083,1,8,0:0:0:0:
154,344,160160,1,8,0:0:0:0:
120,363,160237,1,8,0:0:0:0:
81,359,160314,1,8,0:0:0:0:
59,321,160392,5,8,3:0:0:0:
62,296,160469,1,8,3:0:0:0:
65,271,160546,1,8,3:0:0:0:
68,246,160623,1,8,3:0:0:0:
40,224,160700,6,0,L|32:94,1,99.7499969558717,4|0,0:0|0:0,0:0:0:0:
352,9,161007,2,0,P|360:57|354:107,1,99.7499969558717,10|0,0:0|0:0,0:0:0:0:
263,196,161315,1,0,0:0:0:0:
330,298,161469,1,2,0:0:0:0:
272,99,161623,1,8,0:0:0:0:
155,287,161776,6,0,P|102:301|56:340,1,99.7499969558717,2|0,0:0|0:0,0:0:0:0:
263,196,162084,2,0,P|277:143|266:83,1,99.7499969558717,2|8,0:0|0:0,0:0:0:0:
286,324,162392,2,0,P|324:362|381:383,1,99.7499969558717,2|0,0:0|0:0,0:0:0:0:
155,287,162700,1,0,0:0:0:0:
374,251,162853,1,10,0:0:0:0:
154,184,163007,6,0,B|112:204|42:171|42:171|67:255,1,199.499993911743,6|0,0:0|0:0,0:0:0:0:
269,348,163469,2,0,P|280:296|268:231,1,99.7499969558717
81,333,163776,1,2,0:0:0:0:
312,250,163930,1,2,0:0:0:0:
42,171,164084,1,8,0:0:0:0:
312,337,164238,6,0,L|452:327,1,99.7499969558717,2|0,0:0|0:0,0:0:0:0:
486,147,164546,1,0,0:0:0:0:
274,130,164700,2,0,L|373:137,1,99.7499969558717,8|0,0:0|0:0,0:0:0:0:
234,260,165007,5,10,0:0:0:0:
209,253,165084,1,8,3:0:0:0:
185,252,165161,1,10,3:0:0:0:
160,255,165238,1,8,3:0:0:0:
137,264,165315,1,8,3:0:0:0:
116,278,165392,1,8,3:0:0:0:
98,296,165469,5,8,0:0:0:0:
91,256,165546,1,8,0:0:0:0:
85,216,165623,6,0,L|77:94,1,99.7499969558717,14|0,0:0|0:0,0:0:0:0:
409,199,165930,2,0,L|402:298,1,99.7499969558717,10|0,0:0|0:0,0:0:0:0:
470,96,166238,5,10,0:0:0:0:
206,152,166392,1,0,0:0:0:0:
505,162,166546,5,10,0:0:0:0:
231,134,166700,2,0,L|303:142,1,49.8749984779358
499,293,166853,6,0,B|462:304|462:304|375:295,1,99.7499969558717,10|0,0:0|0:0,0:0:0:0:
278,39,167161,2,0,B|241:28|241:28|154:37,1,99.7499969558717,10|0,0:0|0:0,0:0:0:0:
69,178,167469,5,10,0:0:0:0:
355,125,167623,1,0,0:0:0:0:
31,101,167776,5,10,0:0:0:0:
344,210,167930,1,0,0:0:0:0:
350,249,168007,1,0,0:0:0:0:
358,288,168084,5,14,0:0:0:0:
96,340,168238,1,0,0:0:0:0:
403,350,168392,5,10,0:0:0:0:
72,269,168546,1,0,0:0:0:0:
323,358,168700,5,10,0:0:0:0:
359,97,168853,1,0,0:0:0:0:
236,373,169007,5,10,0:0:0:0:
277,58,169161,1,0,0:0:0:0:
67,300,169315,5,10,0:0:0:0:
71,314,169392,1,4,0:3:0:0:
75,328,169469,1,10,0:0:0:0:
103,300,169546,1,8,0:0:0:0:
139,284,169623,1,8,0:0:0:0:
179,280,169700,1,8,0:0:0:0:
217,290,169776,1,10,0:0:0:0:
250,312,169853,1,8,0:0:0:0:
289,319,169930,1,8,0:0:0:0:
325,303,170007,1,8,0:0:0:0:
347,270,170084,1,10,0:0:0:0:
347,231,170161,1,8,0:0:0:0:
326,197,170238,1,8,0:0:0:0:
290,181,170315,1,8,0:0:0:0:
252,187,170392,5,10,3:0:0:0:
252,187,170469,1,8,3:0:0:0:
252,187,170546,2,0,L|136:197,1,95,12|0,0:0|0:0,0:0:0:0:
289,319,170853,1,8,0:0:0:0:
392,165,171007,1,0,0:0:0:0:
373,358,171161,2,0,P|366:302|383:230,1,95,8|0,0:0|0:0,0:0:0:0:
166,54,171469,2,0,P|171:101|164:147,1,95,8|0,0:0|0:0,0:0:0:0:
61,319,171776,6,0,B|108:304|108:304|182:314,1,95,8|0,0:0|0:0,0:0:0:0:
343,221,172084,1,8,0:0:0:0:
202,79,172238,1,0,0:0:0:0:
254,340,172392,2,0,L|261:218,1,95,8|0,0:0|0:0,0:0:0:0:
273,10,172700,1,8,0:0:0:0:
434,156,172853,1,0,0:0:0:0:
177,221,173007,6,0,L|69:228,1,95,8|0,0:0|0:0,0:0:0:0:
296,85,173315,2,0,L|201:78,1,95,8|0,0:0|0:0,0:0:0:0:
86,305,173623,1,8,0:0:0:0:
65,146,173776,1,0,0:0:0:0:
217,355,173930,1,8,0:0:0:0:
238,196,174084,1,0,0:0:0:0:
59,230,174238,5,8,0:0:0:0:
297,287,174392,1,0,0:0:0:0:
201,78,174546,2,0,P|149:81|93:76,1,95,8|0,0:0|0:0,0:0:0:0:
59,230,174853,5,8,0:0:0:0:
91,250,174930,1,8,0:0:0:0:
128,257,175007,1,8,0:0:0:0:
166,251,175084,1,8,0:0:0:0:
198,231,175161,5,8,0:0:0:0:
230,265,175238,1,8,0:0:0:0:
275,278,175315,1,8,0:0:0:0:
320,267,175392,1,8,0:0:0:0:
354,220,175469,6,0,L|358:107,1,95,4|0,0:0|0:0,0:0:0:0:
148,36,175776,1,8,0:0:0:0:
333,20,175930,1,0,0:0:0:0:
207,137,176084,2,0,P|196:218|207:269,1,95
50,371,176392,2,0,B|97:357|97:357|169:362,1,95,8|0,0:0|0:0,0:0:0:0:
374,352,176700,5,0,0:0:0:0:
440,155,176853,1,0,0:0:0:0:
252,229,177007,1,12,0:0:0:0:
418,152,177161,1,0,0:0:0:0:
240,66,177315,2,0,L|131:72,1,95,4|0,0:0|0:0,0:0:0:0:
0,154,177623,1,8,0:0:0:0:
138,265,177776,1,8,0:0:0:0:
134,302,177853,1,8,0:0:0:0:
131,340,177930,5,14,0:0:0:0:
439,292,178084,1,0,0:0:0:0:
63,275,178238,5,10,0:0:0:0:
370,226,178392,1,0,0:0:0:0:
7,212,178546,5,10,0:0:0:0:
406,154,178700,1,12,0:0:0:0:
332,301,178853,1,0,0:0:0:0:
217,74,179007,1,12,0:0:0:0:
214,369,179161,5,8,0:0:0:0:
94,190,179315,1,8,0:3:0:0:
95,175,179392,1,8,0:3:0:0:
96,161,179469,5,8,0:0:0:0:
333,133,179623,1,0,0:0:0:0:
213,294,179776,5,8,0:0:0:0:
138,307,179930,1,12,0:3:0:0:
62,319,180084,1,12,0:3:0:0:
291,280,180238,5,6,0:0:0:0:
