osu file format v14

[General]
AudioFilename: audio.mp3
AudioLeadIn: 0
PreviewTime: 72309
Countdown: 0
SampleSet: Soft
StackLeniency: 0.4
Mode: 0
LetterboxInBreaks: 0
WidescreenStoryboard: 1

[Editor]
DistanceSpacing: 1.1
BeatDivisor: 4
GridSize: 16
TimelineZoom: 1.9

[Metadata]
Title:Shuuen Requiem
TitleUnicode:終焉レクイエム
Artist:MY FIRST STORY
ArtistUnicode:MY FIRST STORY
Creator:A r M i N
Version:Stixy's Expert
Source:
Tags:short cut version j-rock rock jp japanese male vocalist mfs Kowari AirinCat MiracleE Spoes SMOKELIND Armin A_r_m_i_n MugiwaraSekai Irohas Stixy Lami intoon
BeatmapID:2351892
BeatmapSetID:1112825

[Difficulty]
HPDrainRate:5
CircleSize:3.8
OverallDifficulty:8.5
ApproachRate:9.2
SliderMultiplier:1.8
SliderTickRate:1

[Events]
//Background and Video events
0,0,"o.jpg",0,0
//Break Periods
//Storyboard Layer 0 (Background)
//Storyboard Layer 1 (Fail)
//Storyboard Layer 2 (Pass)
//Storyboard Layer 3 (Foreground)
//Storyboard Layer 4 (Overlay)
//Storyboard Sound Samples

[TimingPoints]
1359,300,4,2,7,77,1,0
13359,-100,4,2,7,87,0,0
32259,-100,4,2,7,57,0,0
32559,-200,4,2,7,47,0,0
42159,-125,4,2,7,57,0,0
51609,-111.111111111111,4,2,7,77,0,0
68559,-111.111111111111,4,2,7,87,0,0
70959,-499.999999999997,4,2,7,87,0,0
72459,-166.666666666666,4,2,7,87,0,0
73359,-90.9090909090907,4,2,7,87,0,1
94959,-100,4,2,7,87,0,0

[Colours]
Combo1 : 170,255,170
Combo2 : 255,198,170
Combo3 : 255,255,170
Combo4 : 255,170,255

[HitObjects]
166,89,12159,5,8,0:0:0:0:
101,161,12309,1,0,1:0:0:0:
74,69,12459,1,0,1:0:0:0:
196,183,12609,5,8,0:0:0:0:
129,255,12759,1,0,1:0:0:0:
166,89,12909,1,0,1:0:0:0:
230,279,13059,6,0,L|218:340,1,45,10|10,0:0|0:0,0:0:0:0:
101,161,13209,2,0,L|108:117,1,45,10|0,0:0|0:0,0:0:0:0:
2,347,13359,6,0,P|46:352|88:337,1,90,14|0,0:0|1:0,0:0:0:0:
129,255,13659,1,0,1:0:0:0:
18,167,13809,2,0,L|34:256,1,90,10|0,0:0|1:0,0:0:0:0:
88,337,14109,1,0,1:0:0:0:
181,177,14259,2,0,L|165:88,1,90,10|0,0:0|1:0,0:0:0:0:
129,255,14559,6,0,P|170:270|219:263,1,90,14|0,0:0|1:0,0:0:0:0:
260,99,14859,1,2,1:0:0:0:
84,161,15009,1,8,0:0:0:0:
219,10,15159,1,2,1:0:0:0:
306,183,15309,1,2,1:0:0:0:
121,3,15459,1,10,0:0:0:0:
358,100,15609,1,2,1:0:0:0:
88,116,15759,6,0,B|138:99|138:99|210:118|210:118|259:99,1,180,14|0,0:0|1:0,0:0:0:0:
450,77,16209,2,0,P|395:10|309:16,1,180,10|0,0:0|1:0,0:0:0:0:
424,179,16659,2,0,L|534:159,1,90,10|0,0:0|1:0,0:0:0:0:
306,183,16959,5,14,0:0:0:0:
358,100,17109,1,0,1:0:0:0:
424,179,17259,1,0,1:0:0:0:
258,100,17409,1,8,0:0:0:0:
291,271,17559,2,0,L|307:170,1,90,2|0,1:0|1:0,0:0:0:0:
403,362,17859,2,0,L|388:273,1,90,8|0,0:0|1:0,0:0:0:0:
120,290,18159,6,0,B|230:252|230:252|292:271,1,180,14|0,0:0|1:0,0:0:0:0:
429,80,18609,2,0,B|319:117|319:117|257:99,1,180,10|0,0:0|1:0,0:0:0:0:
112,33,19059,2,0,P|146:62|160:105,1,90,10|0,0:0|1:0,0:0:0:0:
129,314,19359,5,14,0:0:0:0:
66,239,19509,1,0,1:0:0:0:
161,224,19659,1,0,1:0:0:0:
30,331,19809,1,8,0:0:0:0:
47,150,19959,2,0,L|66:243,1,90,2|0,1:0|1:0,0:0:0:0:
210,383,20259,2,0,L|228:294,1,90,8|0,0:0|1:0,0:0:0:0:
242,114,20559,6,0,L|260:203,1,90,14|0,0:0|1:0,0:0:0:0:
161,224,20859,1,0,1:0:0:0:
198,26,21009,2,0,P|246:15|295:36,1,90,10|0,0:0|1:0,0:0:0:0:
242,114,21309,1,0,1:0:0:0:
104,54,21459,1,10,0:0:0:0:
198,26,21609,1,2,1:0:0:0:
64,241,21759,5,10,0:0:0:0:
130,143,21909,1,0,1:0:0:0:
244,286,22059,5,8,0:0:0:0:
163,233,22209,1,2,1:0:0:0:
242,114,22359,2,0,L|235:69,3,45,8|8|8|8,0:0|0:0|3:0|3:0,0:0:0:0:
354,130,22659,2,0,L|346:174,3,45,10|8|8|8,3:0|3:0|3:0|3:0,0:0:0:0:
412,245,22959,6,0,L|500:229,1,90,14|0,0:0|0:0,0:0:0:0:
506,133,23259,1,0,1:0:0:0:
317,268,23409,2,0,L|336:363,1,90,10|0,0:0|1:0,0:0:0:0:
412,245,23709,1,0,1:0:0:0:
258,192,23859,2,0,L|169:207,1,90,10|0,0:0|1:0,0:0:0:0:
371,41,24159,6,0,L|352:136,1,90,14|0,0:0|1:0,0:0:0:0:
348,228,24459,1,2,1:0:0:0:
267,98,24609,1,8,0:0:0:0:
457,126,24759,1,2,1:0:0:0:
258,192,24909,1,2,1:0:0:0:
443,275,25059,1,10,0:0:0:0:
255,329,25209,1,2,1:0:0:0:
451,154,25359,6,0,B|351:141|397:227|288:201,1,180,14|0,0:0|1:0,0:0:0:0:
166,0,25809,2,0,P|250:22|281:104,1,180,10|0,0:0|1:0,0:0:0:0:
157,229,26259,2,0,P|166:186|200:158,1,90,10|0,0:0|1:0,0:0:0:0:
227,291,26559,5,14,0:0:0:0:
136,321,26709,1,0,1:0:0:0:
157,229,26859,1,0,1:0:0:0:
206,384,27009,1,8,0:0:0:0:
65,254,27159,2,0,P|60:209|78:169,1,90,2|0,1:0|1:0,0:0:0:0:
307,260,27459,2,0,P|271:286|226:290,1,90,8|0,0:0|1:0,0:0:0:0:
228,32,27759,6,0,B|264:76|264:76|237:197,1,180,14|0,0:0|1:0,0:0:0:0:
66,365,28209,2,0,P|54:290|-4:199,1,180,8|0,0:0|1:0,0:0:0:0:
110,76,28659,1,10,0:0:0:0:
145,166,28809,1,2,1:0:0:0:
12,91,28959,6,0,L|32:-7,1,90,14|0,0:0|1:0,0:0:0:0:
206,90,29259,1,0,1:0:0:0:
49,179,29409,1,8,0:0:0:0:
176,0,29559,2,0,P|220:-5|261:10,1,90,2|0,1:0|1:0,0:0:0:0:
178,245,29859,2,0,P|151:209|144:165,1,90,8|0,0:0|1:0,0:0:0:0:
349,47,30159,5,14,0:0:0:0:
248,172,30309,1,0,1:0:0:0:
261,10,30459,1,0,1:0:0:0:
282,264,30609,1,10,0:0:0:0:
206,90,30759,1,0,1:0:0:0:
401,127,30909,1,0,1:0:0:0:
178,245,31059,1,10,0:0:0:0:
304,104,31209,1,0,1:0:0:0:
338,366,31359,6,0,L|248:352,1,90,14|0,0:0|1:0,0:0:0:0:
241,180,31659,1,0,1:0:0:0:
470,265,31809,2,0,L|381:279,1,90,10|8,3:0|3:0,0:0:0:0:
304,104,32109,1,8,3:0:0:0:
401,127,32259,1,10,3:0:0:0:
401,127,32559,6,0,P|406:78|425:29,2,90,6|2|2,1:0|0:0|0:0,0:0:0:0:
445,215,33459,1,2,0:0:0:0:
392,299,33759,2,0,P|347:305|302:289,1,90,2|2,0:0|0:0,0:0:0:0:
178,197,34359,2,0,P|222:191|264:205,1,90,2|2,0:0|0:0,0:0:0:0:
139,279,34959,6,0,P|141:221|70:118,1,180,2|2,0:0|0:0,0:0:0:0:
0,66,35859,1,2,0:0:0:0:
80,9,36159,2,0,P|122:-2|184:17,1,90,2|2,0:0|0:0,0:0:0:0:
237,68,36759,2,0,P|280:77|323:65,1,90,2|2,0:0|0:0,0:0:0:0:
428,3,37359,2,0,P|412:45|415:89,1,90,2|2,0:0|0:0,0:0:0:0:
452,173,37809,1,2,0:0:0:0:
452,173,38259,1,2,0:0:0:0:
365,213,38559,6,0,P|318:190|231:225,2,135,2|2|2,0:0|0:0|0:0,0:0:0:0:
439,275,39759,2,0,P|418:344|421:377,1,90,2|0,0:0|0:0,0:0:0:0:
365,213,40359,2,0,P|361:168|344:126,1,90,2|0,0:0|0:0,0:0:0:0:
101,151,40959,6,0,B|202:131|174:216|267:189,1,180,2|2,0:0|0:0,0:0:0:0:
267,188,42159,5,8,3:0:0:0:
247,284,42309,2,0,L|232:374,1,72,8|0,3:0|0:0,0:0:0:0:
139,228,42609,2,0,L|151:300,1,72,8|0,3:0|0:0,0:0:0:0:
220,182,42909,1,8,3:0:0:0:
57,175,43059,2,0,L|45:247,1,72,2|8,0:0|3:0,0:0:0:0:
250,160,43359,6,0,P|236:96|190:28,1,144,10|2,0:0|0:0,0:0:0:0:
330,262,43959,2,0,P|346:192|386:133,1,144,2|2,0:0|0:0,0:0:0:0:
422,293,44559,5,10,3:0:0:0:
346,356,44709,2,0,P|310:356|275:337,1,72,8|0,3:0|0:0,0:0:0:0:
310,195,45009,2,0,P|328:226|329:265,1,72,8|0,3:0|0:0,0:0:0:0:
422,293,45309,1,8,3:0:0:0:
234,254,45459,2,0,L|163:267,1,72,2|8,0:0|3:0,0:0:0:0:
266,109,45759,6,0,B|325:92|325:92|352:109|352:109|431:86,1,144,10|2,0:0|0:0,0:0:0:0:
182,168,46359,2,0,B|138:125|138:125|138:93|138:93|80:35,1,144,2|2,0:0|0:0,0:0:0:0:
266,109,46959,5,10,3:0:0:0:
270,205,47109,2,0,L|253:287,1,72,10|0,3:0|0:0,0:0:0:0:
353,156,47409,2,0,L|367:226,1,72,10|0,3:0|0:0,0:0:0:0:
182,168,47709,1,8,3:0:0:0:
280,38,47859,2,0,L|265:108,1,72,2|8,0:0|3:0,0:0:0:0:
85,167,48159,6,0,P|111:101|175:72,1,144,10|0,0:0|0:0,0:0:0:0:
182,168,48609,2,0,P|225:222|219:292,1,144,2|0,0:0|0:0,0:0:0:0:
136,253,49059,1,2,0:0:0:0:
136,253,49359,5,10,3:0:0:0:
57,307,49509,2,0,L|70:383,1,72,8|0,3:0|0:0,0:0:0:0:
39,215,49809,2,0,L|26:144,1,72,8|2,3:0|0:0,0:0:0:0:
106,84,50109,2,0,P|142:72|181:81,1,72,8|0,3:0|0:0,0:0:0:0:
237,146,50409,1,8,3:0:0:0:
26,144,50559,6,0,L|12:62,1,72,10|0,0:0|1:0,0:0:0:0:
237,146,50859,2,0,L|225:217,1,72,2|8,1:0|3:0,0:0:0:0:
148,279,51159,1,2,1:0:0:0:
133,187,51309,1,0,1:0:0:0:
59,251,51459,1,10,0:0:0:0:
207,355,51609,6,0,B|310:333|310:333|369:359,1,161.999995056153,4|2,1:0|1:0,0:0:0:0:
495,329,52059,1,10,0:0:0:0:
413,274,52209,1,2,0:0:0:0:
512,163,52359,2,0,P|502:200|498:240,1,80.9999975280763,2|2,1:0|0:0,0:0:0:0:
432,116,52659,2,0,P|427:75|411:38,1,80.9999975280763,2|10,1:0|0:0,0:0:0:0:
266,166,52959,5,2,1:0:0:0:
365,185,53109,1,2,0:0:0:0:
244,261,53259,1,10,0:0:0:0:
336,281,53409,2,0,L|429:263,1,80.9999975280763,2|0,0:0|1:0,0:0:0:0:
266,166,53709,2,0,L|172:183,1,80.9999975280763,2|8,0:0|0:0,0:0:0:0:
280,66,54009,6,0,P|347:107|364:184,1,161.999995056153,6|2,1:0|1:0,0:0:0:0:
244,261,54459,1,10,0:0:0:0:
266,166,54609,1,2,0:0:0:0:
335,281,54759,2,0,P|321:318|291:344,1,80.9999975280763,2|2,1:0|0:0,0:0:0:0:
364,184,55059,2,0,P|403:178|441:191,1,80.9999975280763,10|2,0:0|0:0,0:0:0:0:
244,261,55359,5,2,1:0:0:0:
267,165,55509,2,0,L|282:67,1,80.9999975280763,2|10,0:0|0:0,0:0:0:0:
107,98,55809,2,0,P|142:116|182:114,1,80.9999975280763,2|0,0:0|1:0,0:0:0:0:
68,12,56109,2,0,P|35:33|17:69,1,80.9999975280763,2|8,0:0|0:0,0:0:0:0:
122,250,56409,6,0,B|142:189|142:189|107:98,1,161.999995056153,6|2,1:0|1:0,0:0:0:0:
61,325,56859,2,0,P|116:347|162:324,1,80.9999975280763,10|2,0:0|0:0,0:0:0:0:
174,195,57159,2,0,P|139:214|121:250,1,80.9999975280763,2|2,1:0|0:0,0:0:0:0:
267,208,57459,2,0,P|267:168|245:134,1,80.9999975280763,2|10,1:0|0:0,0:0:0:0:
208,281,57759,6,0,L|390:238,1,161.999995056153,2|10,1:0|0:0,0:0:0:0:
440,346,58209,2,0,L|342:336,1,80.9999975280763,2|0,0:0|1:0,0:0:0:0:
419,163,58509,1,2,1:0:0:0:
512,285,58659,1,10,0:0:0:0:
496,99,58809,6,0,B|434:91|434:91|404:121|404:121|335:110,1,161.999995056153,4|0,1:0|1:0,0:0:0:0:
255,29,59259,2,0,L|347:16,1,80.9999975280763,8|0,0:0|0:0,0:0:0:0:
173,81,59559,2,0,P|158:46|162:3,1,80.9999975280763,2|0,1:0|0:0,0:0:0:0:
254,126,59859,2,0,L|232:214,1,80.9999975280763,8|0,0:0|0:0,0:0:0:0:
148,340,60159,6,0,P|133:260|93:191,1,161.999995056153,2|8,1:0|0:0,0:0:0:0:
18,134,60609,1,2,0:0:0:0:
106,94,60759,1,0,1:0:0:0:
6,230,60909,1,0,1:0:0:0:
30,37,61059,1,10,0:0:0:0:
183,216,61209,6,0,B|227:202|264:218|264:218|297:261|347:246,1,161.999995056153,6|2,1:0|1:0,0:0:0:0:
419,141,61659,1,10,0:0:0:0:
437,242,61809,1,2,0:0:0:0:
323,153,61959,2,0,L|338:60,1,80.9999975280763,2|2,1:0|0:0,0:0:0:0:
332,249,62259,2,0,L|344:328,1,80.9999975280763,2|10,1:0|0:0,0:0:0:0:
235,119,62559,5,2,1:0:0:0:
245,210,62709,2,0,L|232:289,1,80.9999975280763,2|10,0:0|0:0,0:0:0:0:
163,54,63009,2,0,P|196:30|236:24,1,80.9999975280763,2|0,0:0|1:0,0:0:0:0:
147,148,63309,2,0,L|55:131,1,80.9999975280763,2|8,0:0|0:0,0:0:0:0:
235,119,63609,6,0,L|207:281,1,161.999995056153,6|2,1:0|1:0,0:0:0:0:
121,329,64059,1,10,0:0:0:0:
121,235,64209,1,2,0:0:0:0:
205,374,64359,1,2,1:0:0:0:
32,356,64509,1,2,0:0:0:0:
207,278,64659,2,0,L|303:292,1,80.9999975280763,10|2,0:0|0:0,0:0:0:0:
133,140,64959,6,0,P|93:141|59:162,1,80.9999975280763,2|0,1:0|0:0,0:0:0:0:
211,193,65259,1,10,0:0:0:0:
217,100,65409,2,0,L|195:-7,1,80.9999975280763,2|0,0:0|1:0,0:0:0:0:
133,140,65709,2,0,L|117:219,1,80.9999975280763,2|8,0:0|0:0,0:0:0:0:
294,142,66009,6,0,P|374:137|433:202,1,161.999995056153,6|2,1:0|1:0,0:0:0:0:
355,306,66459,2,0,L|340:227,1,80.9999975280763,10|2,0:0|0:0,0:0:0:0:
240,370,66759,2,0,L|255:290,1,80.9999975280763,2|2,1:0|0:0,0:0:0:0:
294,142,67059,1,10,0:0:0:0:
454,302,67209,5,6,1:0:0:0:
355,306,67359,2,0,L|370:226,1,80.9999975280763,2|2,0:0|1:0,0:0:0:0:
510,228,67659,1,10,0:0:0:0:
405,384,67809,1,2,1:0:0:0:
254,288,67959,2,0,L|265:230,3,40.4999987640381,10|8|10|8,0:0|0:0|0:0|0:0,0:0:0:0:
164,192,68259,2,0,L|171:231,1,40.4999987640381,10|8,3:0|3:0,0:0:0:0:
163,361,68409,2,0,L|170:321,1,40.4999987640381,10|8,3:0|3:0,0:0:0:0:
180,97,68559,6,0,P|140:97|106:117,1,80.9999975280763,10|0,0:0|1:0,0:0:0:0:
271,50,68859,2,0,P|242:21|204:11,1,80.9999975280763,8|0,0:0|1:0,0:0:0:0:
367,74,69159,2,0,P|367:34|347:0,1,80.9999975280763,10|0,0:0|1:0,0:0:0:0:
417,158,69459,2,0,P|445:129|455:91,1,80.9999975280763,8|0,0:0|1:0,0:0:0:0:
321,156,69759,6,0,L|336:253,1,80.9999975280763,10|0,0:0|1:0,0:0:0:0:
249,291,70059,2,0,B|196:294|207:259|148:261,1,107.999996704102,8|0,0:0|3:0,0:0:0:0:
67,200,70359,2,0,P|53:161|18:125,2,53.9999983520508,2|8|8,1:0|0:0|0:0,0:0:0:0:
51,298,70659,2,0,P|37:321|30:347,2,53.9999983520508,8|8|8,3:0|3:0|3:0,0:0:0:0:
145,143,70959,6,0,P|211:122|267:170,1,144,6|0,1:0|0:0,0:0:0:0:
264,165,72459,6,0,L|358:153,1,80.9999975280763,2|0,0:0|0:0,0:0:0:0:
373,177,72759,2,0,P|364:212|392:257,1,80.9999975280763,2|0,0:0|0:0,0:0:0:0:
420,285,73059,2,0,L|339:295,1,80.9999975280763,2|0,0:0|0:0,0:0:0:0:
247,254,73359,6,0,P|238:302|254:349,1,99.0000030212403,14|0,0:0|1:0,0:0:0:0:
339,295,73659,1,0,1:0:0:0:
214,161,73809,2,0,P|173:188|151:232,1,99.0000030212403,10|0,0:0|0:0,0:0:0:0:
247,254,74109,1,0,1:0:0:0:
255,73,74259,2,0,P|206:63|160:79,1,99.0000030212403,10|0,0:0|1:0,0:0:0:0:
337,131,74559,6,0,L|360:3,1,99.0000030212403,14|0,0:0|1:0,0:0:0:0:
214,161,74859,1,0,1:0:0:0:
459,194,75009,2,0,L|442:97,1,99.0000030212403,10|0,0:0|1:0,0:0:0:0:
290,217,75309,1,0,1:0:0:0:
362,358,75459,2,0,L|380:261,1,99.0000030212403,10|0,0:0|1:0,0:0:0:0:
241,59,75759,6,0,P|309:124|289:216,1,198.000006042481,14|0,0:0|1:0,0:0:0:0:
28,183,76209,2,0,B|97:160|97:160|151:183|151:183|233:154,1,198.000006042481,10|0,0:0|1:0,0:0:0:0:
309,317,76659,2,0,P|260:316|214:285,1,99.0000030212403,10|0,0:0|1:0,0:0:0:0:
401,154,76959,6,0,L|384:252,1,99.0000030212403,14|0,0:0|1:0,0:0:0:0:
285,217,77259,1,0,1:0:0:0:
484,70,77409,2,0,L|501:167,1,99.0000030212403,8|0,0:0|1:0,0:0:0:0:
305,115,77709,1,0,1:0:0:0:
466,275,77859,1,8,0:0:0:0:
386,57,78009,1,0,1:0:0:0:
288,317,78159,6,0,L|385:335,1,99.0000030212403,14|0,0:0|1:0,0:0:0:0:
401,154,78459,1,0,1:0:0:0:
215,248,78609,2,0,P|187:315|200:359,1,99.0000030212403,10|0,0:0|0:0,0:0:0:0:
288,317,78909,1,0,1:0:0:0:
212,153,79059,2,0,P|144:180|122:220,1,99.0000030212403,10|0,0:0|1:0,0:0:0:0:
362,226,79359,6,0,P|380:129|431:45,1,198.000006042481,14|0,0:0|1:0,0:0:0:0:
510,128,79809,1,8,0:0:0:0:
412,314,79959,2,0,P|366:331|319:321,1,99.0000030212403,2|0,0:0|1:0,0:0:0:0:
327,96,80259,1,8,0:0:0:0:
457,223,80409,1,0,1:0:0:0:
223,123,80559,6,0,L|243:4,1,99.0000030212403,14|0,0:0|0:0,0:0:0:0:
416,54,80859,1,0,1:0:0:0:
265,211,81009,2,0,P|196:222|157:199,1,99.0000030212403,10|0,0:0|1:0,0:0:0:0:
327,96,81309,1,0,1:0:0:0:
353,269,81459,2,0,L|340:367,1,99.0000030212403,10|0,0:0|1:0,0:0:0:0:
35,274,81759,6,0,B|113:263|97:325|176:306,1,148.50000453186,14|0,0:0|1:0,0:0:0:0:
171,210,82059,2,0,P|161:187|144:169,3,49.5000015106202,8|8|8|8,0:0|0:0|0:0|0:0,0:0:0:0:
282,212,82359,2,0,P|266:230|257:253,3,49.5000015106202,0|0|8|8,3:0|3:0|0:0|0:0,0:0:0:0:
53,137,82659,1,10,3:0:0:0:
73,105,82734,1,8,3:0:0:0:
103,83,82809,1,10,3:0:0:0:
138,73,82884,1,8,3:0:0:0:
180,79,82959,6,0,L|161:-21,1,99.0000030212403,14|0,0:0|1:0,0:0:0:0:
144,169,83259,1,2,1:0:0:0:
287,113,83409,2,0,L|306:13,1,99.0000030212403,10|0,0:0|1:0,0:0:0:0:
180,79,83709,1,0,1:0:0:0:
281,211,83859,2,0,P|329:202|365:169,1,99.0000030212403,10|0,0:0|1:0,0:0:0:0:
446,0,84159,6,0,L|427:100,1,99.0000030212403,14|0,0:0|1:0,0:0:0:0:
287,113,84459,1,2,1:0:0:0:
366,267,84609,2,0,L|490:243,1,99.0000030212403,10|0,0:0|1:0,0:0:0:0:
365,168,84909,1,0,1:0:0:0:
302,339,85059,1,10,0:0:0:0:
463,249,85209,1,2,1:0:0:0:
224,284,85359,6,0,P|205:338|216:387,1,99.0000030212403,14|0,0:0|1:0,0:0:0:0:
411,347,85659,1,2,1:0:0:0:
212,185,85809,2,0,P|160:209|133:252,1,99.0000030212403,10|0,0:0|1:0,0:0:0:0:
302,339,86109,1,0,1:0:0:0:
270,105,86259,2,0,P|216:85|166:97,1,99.0000030212403,10|0,0:0|1:0,0:0:0:0:
0,296,86559,6,0,B|98:269|65:376|180:332,1,198.000006042481,14|0,0:0|1:0,0:0:0:0:
350,127,87009,2,0,P|259:157|229:247,1,198.000006042481,8|0,0:0|1:0,0:0:0:0:
392,305,87459,2,0,P|378:258|336:235,1,99.0000030212403,10|0,0:0|1:0,0:0:0:0:
147,96,87759,6,0,L|253:77,1,99.0000030212403,14|0,0:0|1:0,0:0:0:0:
352,128,88059,1,0,1:0:0:0:
74,162,88209,2,0,P|49:118|64:54,1,99.0000030212403,10|0,0:0|1:0,0:0:0:0:
147,96,88509,1,0,1:0:0:0:
138,249,88659,2,0,L|32:268,1,99.0000030212403,10|0,0:0|1:0,0:0:0:0:
246,85,88959,5,14,0:0:0:0:
265,181,89109,1,0,1:0:0:0:
147,96,89259,1,0,1:0:0:0:
294,2,89409,1,8,0:0:0:0:
364,165,89559,2,0,L|337:271,1,99.0000030212403,2|0,0:0|1:0,0:0:0:0:
173,198,89859,2,0,P|216:175|264:180,1,99.0000030212403,8|0,0:0|1:0,0:0:0:0:
409,334,90159,5,14,0:0:0:0:
212,369,90309,2,0,L|237:274,1,99.0000030212403,0|0,1:0|1:0,0:0:0:0:
364,165,90609,1,10,0:0:0:0:
137,303,90759,2,0,L|38:285,1,99.0000030212403,0|0,1:0|1:0,0:0:0:0:
195,81,91059,2,0,L|293:98,1,99.0000030212403,10|0,0:0|1:0,0:0:0:0:
314,336,91359,5,10,0:0:0:0:
114,127,91509,1,0,1:0:0:0:
364,165,91659,5,8,0:0:0:0:
72,217,91809,1,0,1:0:0:0:
292,98,91959,6,0,L|306:40,3,49.5000015106202,10|8|8|8,0:0|0:0|0:0|0:0,0:0:0:0:
364,165,92259,2,0,L|375:213,3,49.5000015106202,8|8|8|8,3:0|3:0|3:0|3:0,0:0:0:0:
168,211,92559,6,0,P|212:190|270:201,1,99.0000030212403,12|0,0:0|1:0,0:0:0:0:
439,293,92859,2,0,P|395:314|337:303,1,99.0000030212403,8|0,0:0|1:0,0:0:0:0:
447,98,93159,2,0,L|472:193,1,99.0000030212403,8|0,0:0|1:0,0:0:0:0:
292,98,93459,1,10,0:0:0:0:
414,5,93609,1,2,1:0:0:0:
375,213,93759,5,10,0:0:0:0:
186,85,93909,1,2,1:0:0:0:
447,98,94059,1,8,0:0:0:0:
229,186,94209,2,0,L|116:165,1,99.0000030212403,2|0,0:0|1:0,0:0:0:0:
292,98,94509,1,2,0:0:0:0:
287,273,94659,2,0,L|270:339,2,66.0000020141602,10|8|14,0:0|0:0|0:0,0:0:0:0:
