osu file format v14

[General]
AudioFilename: audio.mp3
AudioLeadIn: 0
PreviewTime: 72309
Countdown: 0
SampleSet: Soft
StackLeniency: 0.7
Mode: 0
LetterboxInBreaks: 0
WidescreenStoryboard: 1

[Editor]
DistanceSpacing: 1.1
BeatDivisor: 4
GridSize: 4
TimelineZoom: 1

[Metadata]
Title:Shuuen Requiem
TitleUnicode:終焉レクイエム
Artist:MY FIRST STORY
ArtistUnicode:MY FIRST STORY
Creator:A r M i N
Version:MiracleE's Extra
Source:
Tags:short cut version j-rock rock jp japanese male vocalist mfs Kowari AirinCat MiracleE Spoes SMOKELIND Armin A_r_m_i_n MugiwaraSekai Irohas Stixy Lami intoon
BeatmapID:2324862
BeatmapSetID:1112825

[Difficulty]
HPDrainRate:5.5
CircleSize:3.6
OverallDifficulty:8.7
ApproachRate:9.3
SliderMultiplier:1.92
SliderTickRate:1

[Events]
//Background and Video events
0,0,"o.jpg",0,0
//Break Periods
//Storyboard Layer 0 (Background)
//Storyboard Layer 1 (Fail)
//Storyboard Layer 2 (Pass)
//Storyboard Layer 3 (Foreground)
//Storyboard Layer 4 (Overlay)
//Storyboard Sound Samples

[TimingPoints]
1359,300,4,2,7,77,1,0
13359,-98.0392156862745,4,2,7,87,0,0
32259,-121.951219512195,4,2,7,57,0,0
32559,-161.290322580645,4,2,7,47,0,0
41859,-312.5,4,2,7,47,0,0
42159,-138.888888888889,4,2,7,57,0,0
51609,-108.695652173913,4,2,7,77,0,0
68559,-98.0392156862745,4,2,7,87,0,0
70959,-217.391304347826,4,2,7,87,0,0
73059,-312.5,4,2,7,87,0,0
73359,-89.2857142857143,4,2,7,87,0,0

[Colours]
Combo1 : 170,255,170
Combo2 : 255,198,170
Combo3 : 255,255,170
Combo4 : 255,170,255

[HitObjects]
258,236,12159,5,8,0:0:0:0:
480,161,12309,1,0,1:0:0:0:
329,82,12459,1,0,1:0:0:0:
427,281,12609,5,8,0:0:0:0:
359,64,12759,1,0,1:0:0:0:
295,223,12909,1,0,1:0:0:0:
435,28,13059,5,10,0:0:0:0:
435,28,13134,1,10,0:0:0:0:
435,28,13209,1,10,0:0:0:0:
145,90,13359,6,0,P|157:156|159:207,1,97.9200005976563,14|0,0:0|1:0,0:0:0:0:
329,82,13659,1,0,1:0:0:0:
213,271,13809,2,0,P|201:336|199:387,1,97.9200005976563,10|0,0:0|1:0,0:0:0:0:
79,182,14109,1,0,1:0:0:0:
299,180,14259,1,10,0:0:0:0:
104,355,14409,1,0,1:0:0:0:
104,355,14484,1,0,1:0:0:0:
104,355,14559,6,0,P|46:324|6:313,1,97.9200005976563,14|0,0:0|1:0,0:0:0:0:
168,117,14859,1,2,1:0:0:0:
213,271,15009,1,8,0:0:0:0:
243,72,15159,1,2,1:0:0:0:
198,226,15309,1,2,1:0:0:0:
319,29,15459,1,10,0:0:0:0:
388,278,15609,1,2,1:0:0:0:
484,31,15759,6,0,P|463:114|452:135,1,97.9200005976563,14|0,0:0|1:0,0:0:0:0:
356,290,16059,1,0,1:0:0:0:
171,132,16209,2,0,P|192:215|203:236,1,97.9200005976563,10|0,0:0|1:0,0:0:0:0:
326,62,16509,1,0,1:0:0:0:
438,295,16659,1,10,0:0:0:0:
206,119,16809,1,0,1:0:0:0:
206,119,16884,1,0,0:0:0:0:
206,119,16959,6,0,P|148:89|85:74,1,97.9200005976563,14|0,0:0|1:0,0:0:0:0:
0,303,17259,1,0,1:0:0:0:
129,167,17409,1,8,0:0:0:0:
238,367,17559,2,0,P|284:386|336:380,1,97.9200005976563,2|0,1:0|1:0,0:0:0:0:
145,294,17859,1,8,0:0:0:0:
371,175,18009,1,0,1:0:0:0:
371,175,18084,1,0,1:0:0:0:
371,175,18159,6,0,P|360:249|354:275,1,97.9200005976563,14|0,0:0|1:0,0:0:0:0:
395,69,18459,1,0,1:0:0:0:
233,225,18609,2,0,P|244:299|250:325,1,97.9200005976563,10|0,0:0|1:0,0:0:0:0:
260,124,18909,1,0,1:0:0:0:
379,313,19059,2,0,P|427:311|474:281,1,97.9200005976563,10|0,0:0|1:0,0:0:0:0:
425,50,19359,6,0,P|383:25|334:23,1,97.9200005976563,14|0,0:0|1:0,0:0:0:0:
154,158,19659,1,0,1:0:0:0:
357,103,19809,1,8,0:0:0:0:
127,180,19959,2,0,P|145:236|157:284,1,97.9200005976563,2|0,1:0|1:0,0:0:0:0:
357,136,20259,1,8,0:0:0:0:
244,369,20409,1,0,1:0:0:0:
244,369,20484,1,0,1:0:0:0:
244,369,20559,6,0,P|256:321|271:275,1,97.9200005976563,14|0,0:0|1:0,0:0:0:0:
126,92,20859,1,0,1:0:0:0:
15,290,21009,2,0,P|30:336|42:384,1,97.9200005976563,10|0,0:0|1:0,0:0:0:0:
145,176,21309,1,0,1:0:0:0:
279,358,21459,2,0,P|327:380|384:379,1,97.9200005976563,10|2,0:0|1:0,0:0:0:0:
456,159,21759,6,0,P|407:161|363:182,1,97.9200005976563,10|0,0:0|1:0,0:0:0:0:
233,371,22059,1,8,0:0:0:0:
277,139,22209,1,2,1:0:0:0:
144,333,22359,1,8,0:0:0:0:
144,333,22434,1,8,0:0:0:0:
144,333,22509,2,0,P|112:318|99:306,1,48.9600002988281,8|8,3:0|3:0,0:0:0:0:
198,146,22659,1,10,3:0:0:0:
198,146,22734,1,8,3:0:0:0:
198,146,22809,2,0,P|217:131|240:122,1,48.9600002988281,8|8,3:0|3:0,0:0:0:0:
367,267,22959,6,0,P|416:290|472:295,1,97.9200005976563,14|0,0:0|0:0,0:0:0:0:
230,260,23259,1,0,1:0:0:0:
406,125,23409,2,0,P|455:102|511:97,1,97.9200005976563,10|0,0:0|1:0,0:0:0:0:
294,55,23709,1,0,1:0:0:0:
381,239,23859,2,0,P|430:262|486:267,1,97.9200005976563,10|0,0:0|1:0,0:0:0:0:
282,87,24159,6,0,P|262:151|257:189,1,97.9200005976563,14|0,0:0|1:0,0:0:0:0:
115,38,24459,1,2,1:0:0:0:
49,187,24609,1,8,0:0:0:0:
194,54,24759,1,2,1:0:0:0:
267,268,24909,1,2,1:0:0:0:
95,74,25059,1,10,0:0:0:0:
3,314,25209,1,2,1:0:0:0:
225,158,25359,6,0,P|274:130|328:118,1,97.9200005976563,14|0,0:0|1:0,0:0:0:0:
109,106,25659,1,0,1:0:0:0:
239,294,25809,2,0,P|288:322|342:334,1,97.9200005976563,10|0,0:0|1:0,0:0:0:0:
448,178,26109,1,0,1:0:0:0:
194,314,26259,2,0,P|183:260|169:210,1,97.9200005976563,10|0,0:0|1:0,0:0:0:0:
336,24,26559,6,0,P|323:71|313:119,1,97.9200005976563,14|0,0:0|1:0,0:0:0:0:
365,342,26859,1,0,1:0:0:0:
466,144,27009,2,0,P|479:191|489:239,1,97.9200005976563,8|2,0:0|1:0,0:0:0:0:
451,44,27309,1,0,1:0:0:0:
313,217,27459,2,0,P|268:243|220:239,1,97.9200005976563,8|0,0:0|1:0,0:0:0:0:
46,77,27759,6,0,P|94:75|135:100,1,97.9200005976563,14|0,0:0|1:0,0:0:0:0:
72,291,28059,1,0,1:0:0:0:
220,113,28209,2,0,P|234:215|256:311,1,195.840001195313,8|0,0:0|1:0,0:0:0:0:
105,192,28659,1,10,0:0:0:0:
298,69,28809,1,2,1:0:0:0:
131,216,28959,6,0,P|121:285|106:350,1,97.9200005976563,14|0,0:0|1:0,0:0:0:0:
220,113,29259,1,0,1:0:0:0:
328,283,29409,2,0,P|337:352|352:417,1,97.9200005976563,8|2,0:0|1:0,0:0:0:0:
375,158,29709,1,0,1:0:0:0:
203,286,29859,2,0,P|193:355|178:420,1,97.9200005976563,8|0,0:0|1:0,0:0:0:0:
246,142,30159,6,0,P|295:106|340:98,1,97.9200005976563,14|0,0:0|1:0,0:0:0:0:
137,161,30459,1,0,1:0:0:0:
304,310,30609,2,0,P|353:346|398:354,1,97.9200005976563,10|0,0:0|1:0,0:0:0:0:
187,382,30909,1,0,1:0:0:0:
342,215,31059,2,0,P|391:179|436:171,1,97.9200005976563,10|0,0:0|1:0,0:0:0:0:
119,129,31359,6,0,P|213:182|222:268,1,195.840001195313,14|0,0:0|1:0,0:0:0:0:
105,378,31809,1,10,3:0:0:0:
35,197,31959,1,8,3:0:0:0:
35,197,32109,1,8,3:0:0:0:
206,360,32259,2,0,P|286:334|324:324,1,118.080001801758,10|0,3:0|0:0,0:0:0:0:
346,306,32559,5,6,1:0:0:0:
121,94,33459,5,2,0:0:0:0:
172,28,33759,1,2,0:0:0:0:
249,58,34059,1,2,0:0:0:0:
237,140,34359,1,2,0:0:0:0:
249,58,34659,1,2,0:0:0:0:
385,157,34959,6,0,B|398:290|318:241|339:387,1,238.079990554688,2|0,0:0|0:0,0:0:0:0:
241,252,35859,1,2,0:0:0:0:
207,328,36159,1,2,0:0:0:0:
159,259,36459,1,2,0:0:0:0:
125,335,36759,1,2,0:0:0:0:
77,266,37059,1,2,0:0:0:0:
187,140,37359,6,0,B|343:124|280:253|414:229,1,238.079990554688,2|2,0:0|0:0,0:0:0:0:
371,131,38259,1,2,0:0:0:0:
229,230,38559,2,0,P|154:206|106:198,1,119.039995277344,2|0,0:0|0:0,0:0:0:0:
35,125,39009,2,0,P|93:113|149:94,1,119.039995277344,2|0,0:0|0:0,0:0:0:0:
220,29,39459,1,2,0:0:0:0:
329,166,39759,6,0,P|349:101|308:71,1,119.039995277344,2|0,0:0|0:0,0:0:0:0:
246,213,40359,2,0,P|286:264|344:261,1,119.039995277344,2|0,0:0|0:0,0:0:0:0:
449,143,40959,2,0,B|455:278|384:221|412:378,1,238.079990554688,2|2,0:0|0:0,0:0:0:0:
410,371,41859,2,0,L|354:361,1,46.08,2|0,0:0|0:0,0:0:0:0:
321,353,42159,5,8,3:0:0:0:
449,143,42309,1,8,3:0:0:0:
453,173,42609,1,8,3:0:0:0:
238,118,42909,1,8,3:0:0:0:
375,35,43209,1,8,3:0:0:0:
263,241,43359,1,8,0:0:0:0:
263,241,44559,5,8,3:0:0:0:
133,23,44709,1,8,3:0:0:0:
157,42,45009,1,8,3:0:0:0:
79,290,45309,1,8,3:0:0:0:
207,139,45609,1,8,3:0:0:0:
328,364,45759,1,8,0:0:0:0:
328,364,46959,5,8,3:0:0:0:
129,211,47109,1,8,3:0:0:0:
155,194,47409,1,8,3:0:0:0:
13,379,47709,1,8,3:0:0:0:
21,181,48009,1,8,3:0:0:0:
258,308,48159,1,8,0:0:0:0:
258,308,49359,5,8,3:0:0:0:
340,66,49509,1,8,3:0:0:0:
350,43,49809,1,8,3:0:0:0:
137,194,50109,1,8,3:0:0:0:
313,145,50409,1,8,3:0:0:0:
392,367,50559,5,8,0:0:0:0:
392,367,50709,1,0,1:0:0:0:
225,172,50859,1,0,1:0:0:0:
225,172,51009,1,8,3:0:0:0:
103,381,51159,1,0,1:0:0:0:
130,177,51309,1,0,1:0:0:0:
242,378,51459,1,10,0:0:0:0:
102,148,51609,6,0,P|117:207|123:246,1,88.3199970351563,4|0,1:0|0:0,0:0:0:0:
204,87,51909,1,2,1:0:0:0:
255,279,52059,1,10,0:0:0:0:
319,156,52209,1,2,0:0:0:0:
147,242,52359,1,2,1:0:0:0:
213,117,52509,1,2,0:0:0:0:
250,310,52659,1,2,1:0:0:0:
289,173,52809,1,10,0:0:0:0:
365,372,52959,5,2,1:0:0:0:
365,372,53109,1,2,0:0:0:0:
175,262,53259,1,10,0:0:0:0:
388,199,53409,2,0,P|408:254|415:290,1,88.3199970351563,2|0,0:0|1:0,0:0:0:0:
497,98,53709,2,0,P|477:153|470:189,1,88.3199970351563,2|8,0:0|0:0,0:0:0:0:
289,329,54009,6,0,P|236:304|198:296,1,88.3199970351563,6|0,1:0|0:0,0:0:0:0:
271,179,54309,1,2,1:0:0:0:
85,249,54459,1,10,0:0:0:0:
170,142,54609,1,2,0:0:0:0:
214,333,54759,1,2,1:0:0:0:
147,171,54909,1,2,0:0:0:0:
82,356,55059,1,10,0:0:0:0:
166,216,55209,1,2,0:0:0:0:
291,375,55359,5,2,1:0:0:0:
291,375,55509,1,2,0:0:0:0:
85,249,55659,1,10,0:0:0:0:
317,266,55809,2,0,P|371:255|402:233,1,88.3199970351563,2|0,0:0|1:0,0:0:0:0:
209,115,56109,2,0,P|155:126|124:148,1,88.3199970351563,2|8,0:0|0:0,0:0:0:0:
352,165,56409,6,0,P|368:112|364:74,1,88.3199970351563,6|0,1:0|0:0,0:0:0:0:
214,23,56709,1,2,1:0:0:0:
201,222,56859,1,10,0:0:0:0:
106,106,57009,1,2,0:0:0:0:
64,295,57159,1,2,1:0:0:0:
176,187,57309,1,2,0:0:0:0:
235,371,57459,1,2,1:0:0:0:
92,270,57609,1,10,0:0:0:0:
313,222,57759,6,0,P|377:203|412:198,1,88.3199970351563,2|0,1:0|0:0,0:0:0:0:
202,168,58059,1,10,0:0:0:0:
354,334,58209,2,0,P|418:353|453:358,1,88.3199970351563,2|0,0:0|1:0,0:0:0:0:
436,96,58509,1,2,1:0:0:0:
286,263,58659,1,10,0:0:0:0:
459,68,58809,6,0,B|488:172|432:133|471:253,1,176.639994070313,4|0,1:0|1:0,0:0:0:0:
313,78,59259,2,0,P|337:125|347:169,1,88.3199970351563,8|0,0:0|0:0,0:0:0:0:
188,28,59559,2,0,P|164:75|154:119,1,88.3199970351563,2|0,1:0|0:0,0:0:0:0:
383,172,59859,2,0,P|371:129|350:90,1,88.3199970351563,8|0,0:0|0:0,0:0:0:0:
189,288,60159,2,0,P|147:308|98:304,1,88.3199970351563,2|0,1:0|0:0,0:0:0:0:
233,159,60459,1,8,0:0:0:0:
314,358,60609,2,0,P|356:378|405:374,1,88.3199970351563,2|0,0:0|1:0,0:0:0:0:
460,223,60909,1,0,1:0:0:0:
228,280,61059,1,10,0:0:0:0:
442,114,61209,6,0,P|462:160|474:203,1,88.3199970351563,6|0,1:0|0:0,0:0:0:0:
334,112,61509,1,2,1:0:0:0:
264,303,61659,1,10,0:0:0:0:
369,205,61809,1,2,0:0:0:0:
442,382,61959,5,2,1:0:0:0:
442,382,62109,1,2,0:0:0:0:
352,162,62259,1,2,1:0:0:0:
243,338,62409,1,10,0:0:0:0:
148,133,62559,2,0,P|127:74|127:31,1,88.3199970351563,2|2,1:0|0:0,0:0:0:0:
80,249,62859,1,10,0:0:0:0:
269,122,63009,2,0,P|290:63|290:20,1,88.3199970351563,2|0,0:0|1:0,0:0:0:0:
109,137,63309,2,0,P|114:180|131:221,1,88.3199970351563,2|8,0:0|0:0,0:0:0:0:
375,158,63609,6,0,P|369:201|352:242,1,88.3199970351563,6|0,1:0|0:0,0:0:0:0:
230,352,63909,1,2,1:0:0:0:
261,157,64059,1,10,0:0:0:0:
326,273,64209,1,2,0:0:0:0:
187,133,64359,5,2,1:0:0:0:
187,133,64509,1,2,0:0:0:0:
82,317,64659,1,10,0:0:0:0:
107,106,64809,1,2,0:0:0:0:
183,340,64959,2,0,P|232:361|277:368,1,88.3199970351563,2|0,1:0|0:0,0:0:0:0:
389,255,65259,1,10,0:0:0:0:
158,234,65409,2,0,P|201:225|241:206,1,88.3199970351563,2|0,0:0|1:0,0:0:0:0:
442,310,65709,2,0,P|398:301|358:282,1,88.3199970351563,2|8,0:0|0:0,0:0:0:0:
448,56,66009,6,0,P|470:101|484:147,1,88.3199970351563,6|0,1:0|0:0,0:0:0:0:
350,45,66309,1,2,1:0:0:0:
419,225,66459,1,10,0:0:0:0:
283,130,66609,1,2,0:0:0:0:
231,328,66759,5,2,1:0:0:0:
231,328,66909,1,2,0:0:0:0:
176,136,67059,1,10,0:0:0:0:
111,360,67209,1,6,1:0:0:0:
271,169,67359,2,0,P|289:218|297:263,1,88.3199970351563,2|2,0:0|1:0,0:0:0:0:
69,345,67659,2,0,P|78:301|93:260,1,88.3199970351563,10|2,0:0|1:0,0:0:0:0:
268,354,67959,1,10,0:0:0:0:
268,354,68034,1,8,0:0:0:0:
268,354,68109,2,0,P|296:369|320:369,1,44.1599985175782,10|8,0:0|0:0,0:0:0:0:
137,168,68259,1,10,3:0:0:0:
137,168,68334,1,8,3:0:0:0:
137,168,68409,1,10,3:0:0:0:
137,168,68484,1,8,3:0:0:0:
137,168,68559,6,0,P|78:146|35:143,1,97.9200005976563,10|0,0:0|1:0,0:0:0:0:
289,53,68859,1,8,0:0:0:0:
289,53,69009,1,0,1:0:0:0:
393,286,69159,6,0,P|380:338|376:388,1,97.9200005976563,10|0,0:0|1:0,0:0:0:0:
422,130,69459,1,8,0:0:0:0:
422,130,69609,1,0,1:0:0:0:
218,280,69759,6,0,P|231:332|235:382,1,97.9200005976563,10|0,0:0|1:0,0:0:0:0:
393,110,70059,2,0,P|380:162|376:212,1,97.9200005976563,8|0,0:0|0:0,0:0:0:0:
150,347,70359,2,0,P|104:328|88:313,2,65.2800003984375,2|8|8,1:0|0:0|0:0,0:0:0:0:
222,191,70659,2,0,P|176:210|160:225,2,65.2800003984375,8|8|8,3:0|3:0|3:0,0:0:0:0:
458,371,70959,6,0,B|586:247|390:179|503:44,1,353.279988140625,6|0,1:0|0:0,0:0:0:0:
406,265,72459,5,2,0:0:0:0:
328,317,72759,5,2,0:0:0:0:
150,186,73059,6,0,P|183:175|201:169,1,46.08,2|0,0:0|0:0,0:0:0:0:
230,185,73359,6,0,P|253:250|260:295,1,107.5200013125,14|0,0:0|1:0,0:0:0:0:
324,92,73659,1,0,1:0:0:0:
184,351,73809,2,0,P|81:316|83:212,1,215.040002625,10|0,0:0|1:0,0:0:0:0:
289,310,74259,2,0,P|350:303|388:276,1,107.5200013125,10|0,0:0|1:0,0:0:0:0:
235,85,74559,6,0,P|296:92|334:119,1,107.5200013125,14|0,0:0|1:0,0:0:0:0:
154,194,74859,1,0,1:0:0:0:
333,19,75009,2,0,P|435:48|456:161,1,215.040002625,10|0,0:0|1:0,0:0:0:0:
385,361,75459,1,10,0:0:0:0:
183,182,75609,1,0,1:0:0:0:
183,182,75684,1,0,1:0:0:0:
183,182,75759,6,0,P|119:150|65:146,1,107.5200013125,14|0,0:0|1:0,0:0:0:0:
264,83,76059,1,0,1:0:0:0:
110,286,76209,2,0,B|285:286|175:227|329:228,1,215.040002625,10|0,0:0|1:0,0:0:0:0:
461,95,76659,2,0,P|440:157|433:216,1,107.5200013125,10|0,0:0|1:0,0:0:0:0:
274,373,76959,6,0,P|265:320|246:269,1,107.5200013125,14|0,0:0|1:0,0:0:0:0:
321,88,77259,1,0,1:0:0:0:
142,284,77409,2,0,P|47:251|38:133,1,215.040002625,8|0,0:0|1:0,0:0:0:0:
207,4,77859,2,0,P|232:60|246:113,1,107.5200013125,8|0,0:0|1:0,0:0:0:0:
481,43,78159,6,0,P|456:99|442:152,1,107.5200013125,14|0,0:0|1:0,0:0:0:0:
328,310,78459,1,0,1:0:0:0:
324,74,78609,2,0,P|346:242|357:298,1,215.040002625,10|0,0:0|1:0,0:0:0:0:
170,214,79059,2,0,P|118:186|56:168,1,107.5200013125,10|0,0:0|1:0,0:0:0:0:
317,39,79359,6,0,P|266:55|219:81,1,107.5200013125,14|0,0:0|1:0,0:0:0:0:
434,14,79659,1,0,1:0:0:0:
434,14,79809,1,8,0:0:0:0:
364,236,79959,2,0,P|374:307|383:351,1,107.5200013125,2|0,0:0|1:0,0:0:0:0:
201,187,80259,2,0,P|211:134|218:80,1,107.5200013125,8|0,0:0|1:0,0:0:0:0:
270,341,80559,6,0,P|213:366|157:371,1,107.5200013125,14|0,0:0|0:0,0:0:0:0:
58,250,80859,1,0,1:0:0:0:
243,57,81009,2,0,P|296:64|344:87,1,107.5200013125,10|0,0:0|1:0,0:0:0:0:
125,128,81309,1,0,1:0:0:0:
331,243,81459,2,0,P|384:235|432:212,1,107.5200013125,10|0,0:0|1:0,0:0:0:0:
159,136,81759,6,0,L|151:193,3,53.76000065625,14|0|0|0,0:0|0:0|1:0|1:0,0:0:0:0:
207,355,82059,1,8,0:0:0:0:
207,355,82134,1,8,0:0:0:0:
207,355,82209,2,0,L|214:301,1,53.76000065625,8|8,0:0|0:0,0:0:0:0:
323,189,82359,1,0,3:0:0:0:
323,189,82434,1,0,3:0:0:0:
323,189,82509,2,0,L|330:242,1,53.76000065625,8|8,0:0|0:0,0:0:0:0:
179,372,82659,2,0,L|186:318,1,53.76000065625,10|8,3:0|3:0,0:0:0:0:
346,160,82809,1,10,3:0:0:0:
346,160,82884,1,8,3:0:0:0:
346,160,82959,6,0,L|362:275,1,107.5200013125,14|0,0:0|1:0,0:0:0:0:
330,64,83259,1,2,1:0:0:0:
192,276,83409,2,0,B|51:243|136:194|1:186,1,215.040002625,10|0,0:0|1:0,0:0:0:0:
196,64,83859,2,0,P|256:37|304:32,1,107.5200013125,10|0,0:0|1:0,0:0:0:0:
96,168,84159,6,0,P|69:228|64:276,1,107.5200013125,14|0,0:0|1:0,0:0:0:0:
208,97,84459,1,2,1:0:0:0:
289,326,84609,2,0,P|407:264|391:191,1,215.040002625,10|0,0:0|1:0,0:0:0:0:
195,181,85059,1,10,0:0:0:0:
382,102,85209,1,2,1:0:0:0:
181,220,85359,6,0,P|159:284|152:333,1,107.5200013125,14|0,0:0|1:0,0:0:0:0:
243,119,85659,1,2,1:0:0:0:
302,365,85809,2,0,P|420:303|404:230,1,215.040002625,10|0,0:0|1:0,0:0:0:0:
170,354,86259,2,0,P|109:339|67:291,1,107.5200013125,10|0,0:0|1:0,0:0:0:0:
219,95,86559,6,0,P|259:60|311:50,1,107.5200013125,14|0,0:0|1:0,0:0:0:0:
88,84,86859,1,0,1:0:0:0:
88,84,87009,1,8,0:0:0:0:
242,254,87159,2,0,P|282:288|334:298,1,107.5200013125,0|0,1:0|1:0,0:0:0:0:
108,222,87459,2,0,P|148:187|200:177,1,107.5200013125,10|0,0:0|1:0,0:0:0:0:
448,250,87759,6,0,P|432:316|423:364,1,107.5200013125,14|0,0:0|1:0,0:0:0:0:
338,140,88059,1,0,1:0:0:0:
225,359,88209,2,0,P|205:247|171:142,1,215.040002625,10|0,0:0|1:0,0:0:0:0:
361,35,88659,2,0,P|345:101|336:149,1,107.5200013125,10|0,0:0|1:0,0:0:0:0:
113,46,88959,6,0,P|129:112|138:160,1,107.5200013125,14|0,0:0|1:0,0:0:0:0:
272,4,89259,1,0,1:0:0:0:
272,4,89409,1,8,0:0:0:0:
152,231,89559,2,0,P|136:297|127:345,1,107.5200013125,2|0,0:0|1:0,0:0:0:0:
312,160,89859,2,0,P|328:226|337:274,1,107.5200013125,8|0,0:0|1:0,0:0:0:0:
98,360,90159,6,0,P|33:337|9:300,1,107.5200013125,14|0,0:0|1:0,0:0:0:0:
127,117,90459,1,0,1:0:0:0:
244,355,90609,2,0,P|309:332|333:295,1,107.5200013125,10|0,0:0|1:0,0:0:0:0:
315,77,90909,1,0,1:0:0:0:
147,269,91059,2,0,P|89:244|38:226,1,107.5200013125,10|0,0:0|1:0,0:0:0:0:
321,111,91359,6,0,P|263:136|212:154,1,107.5200013125,10|0,0:0|1:0,0:0:0:0:
27,28,91659,1,8,0:0:0:0:
249,46,91809,1,0,1:0:0:0:
38,205,91959,1,10,0:0:0:0:
38,205,92034,1,8,0:0:0:0:
38,205,92109,2,0,L|45:145,1,53.76000065625,8|8,0:0|0:0,0:0:0:0:
203,41,92259,2,0,L|209:94,3,53.76000065625,8|8|8|8,3:0|3:0|3:0|3:0,0:0:0:0:
315,253,92559,6,0,P|296:319|290:371,1,107.5200013125,12|0,0:0|1:0,0:0:0:0:
128,118,92859,1,8,0:0:0:0:
128,118,93009,1,0,1:0:0:0:
386,180,93159,6,0,P|433:228|453:278,1,107.5200013125,8|0,0:0|1:0,0:0:0:0:
156,127,93459,2,0,P|109:175|89:225,1,107.5200013125,10|2,0:0|1:0,0:0:0:0:
312,376,93759,5,10,0:0:0:0:
312,376,93909,1,2,1:0:0:0:
366,94,94059,1,8,0:0:0:0:
194,362,94209,1,2,0:0:0:0:
172,38,94359,6,0,P|213:117|235:184,1,143.36000175,0|10,1:0|0:0,0:0:0:0:
311,166,94659,2,0,P|307:221|300:246,1,71.680000875,10|8,0:0|0:0,0:0:0:0:
355,297,94859,1,14,0:0:0:0:
