osu file format v14

[General]
AudioFilename: audio.mp3
AudioLeadIn: 0
PreviewTime: 72309
Countdown: 0
SampleSet: Soft
StackLeniency: 0.7
Mode: 0
LetterboxInBreaks: 0
WidescreenStoryboard: 1

[Editor]
Bookmarks: 48150
DistanceSpacing: 2.6
BeatDivisor: 4
GridSize: 8
TimelineZoom: 1.8

[Metadata]
Title:Shuuen Requiem
TitleUnicode:終焉レクイエム
Artist:MY FIRST STORY
ArtistUnicode:MY FIRST STORY
Creator:A r M i N
Version:Lami's Extra
Source:
Tags:short cut version j-rock rock jp japanese male vocalist mfs Kowari AirinCat MiracleE Spoes SMOKELIND Armin A_r_m_i_n MugiwaraSekai Irohas Stixy Lami intoon
BeatmapID:2332240
BeatmapSetID:1112825

[Difficulty]
HPDrainRate:6
CircleSize:3.8
OverallDifficulty:9
ApproachRate:9.3
SliderMultiplier:1.90000000596047
SliderTickRate:1

[Events]
//Background and Video events
0,0,"o.jpg",0,0
//Break Periods
//Storyboard Layer 0 (Background)
//Storyboard Layer 1 (Fail)
//Storyboard Layer 2 (Pass)
//Storyboard Layer 3 (Foreground)
//Storyboard Layer 4 (Overlay)
//Storyboard Sound Samples

[TimingPoints]
1359,300,4,2,7,77,1,0
13359,-100,4,2,7,87,0,0
31809,-100,4,2,7,87,0,0
32259,-100,4,2,7,57,0,0
32559,-142.857142857143,4,2,7,47,0,0
40959,-200,4,2,7,47,0,0
42159,-117.647058823529,4,2,7,57,0,0
51609,-105.263157894737,4,2,7,77,0,0
68559,-95.2380952380952,4,2,7,87,0,1
70959,-250,4,2,7,87,0,0
72459,-200,4,2,7,87,0,0
73059,-250,4,2,7,87,0,0
73359,-95.2380952380952,4,2,7,87,0,1
91959,-95.2380952380952,4,2,7,87,0,0
92559,-95.2380952380952,4,2,7,87,0,1
94959,-95.2380952380952,4,2,7,87,0,0

[Colours]
Combo1 : 170,255,170
Combo2 : 255,198,170
Combo3 : 255,255,170
Combo4 : 255,170,255

[HitObjects]
293,96,12159,5,8,0:0:0:0:
391,141,12309,1,0,1:0:0:0:
242,194,12459,1,0,1:0:0:0:
387,45,12609,5,8,0:0:0:0:
188,118,12759,1,0,1:0:0:0:
341,234,12909,1,0,1:0:0:0:
276,54,13059,1,10,0:0:0:0:
276,54,13134,1,10,0:0:0:0:
276,54,13209,1,10,0:0:0:0:
262,290,13359,6,0,L|255:391,2,95.0000002980235,14|0|0,0:0|1:0|1:0,0:0:0:0:
90,170,13809,2,0,P|66:108|151:15,1,190.000000596047,10|0,0:0|1:0,0:0:0:0:
342,132,14259,2,0,L|241:125,1,95.0000002980235,10|0,0:0|1:0,0:0:0:0:
184,176,14484,1,0,1:0:0:0:
184,176,14559,2,0,L|89:169,1,95.0000002980235,14|0,0:0|1:0,0:0:0:0:
161,80,14859,5,2,1:0:0:0:
242,266,15009,1,8,0:0:0:0:
163,57,15159,5,2,1:0:0:0:
134,286,15309,1,2,1:0:0:0:
165,35,15459,5,10,0:0:0:0:
349,246,15609,1,2,1:0:0:0:
451,36,15759,6,0,B|382:26|382:26|333:42|333:42|265:33,1,190.000000596047,14|0,0:0|1:0,0:0:0:0:
60,229,16209,2,0,P|135:242|213:161,1,190.000000596047,10|0,0:0|1:0,0:0:0:0:
67,35,16659,2,0,B|45:79|45:79|55:128,1,95.0000002980235,10|0,0:0|1:0,0:0:0:0:
306,182,16959,6,0,P|259:174|212:169,1,95.0000002980235,14|0,0:0|1:0,0:0:0:0:
60,229,17259,1,0,1:0:0:0:
147,88,17409,1,8,0:0:0:0:
250,268,17559,2,0,P|266:324|266:384,1,95.0000002980235,2|0,1:0|1:0,0:0:0:0:
306,182,17859,1,8,0:0:0:0:
172,328,18009,1,0,1:0:0:0:
172,328,18084,1,0,1:0:0:0:
172,328,18159,6,0,L|78:315,2,95.0000002980235,14|0|0,0:0|1:0|1:0,0:0:0:0:
255,102,18609,2,0,B|367:70|335:134|447:102,1,190.000000596047,10|0,0:0|1:0,0:0:0:0:
324,274,19059,2,0,P|309:228|305:181,1,95.0000002980235,10|0,0:0|1:0,0:0:0:0:
396,11,19359,5,14,0:0:0:0:
403,210,19509,1,0,1:0:0:0:
255,102,19659,1,0,1:0:0:0:
440,103,19809,1,8,0:0:0:0:
223,208,19959,2,0,P|176:198|127:194,1,95.0000002980235,2|0,1:0|1:0,0:0:0:0:
358,121,20259,1,8,0:0:0:0:
346,373,20409,1,0,1:0:0:0:
346,373,20484,1,0,1:0:0:0:
346,373,20559,6,0,L|360:277,2,95.0000002980235,14|0|0,0:0|1:0|1:0,0:0:0:0:
207,182,21009,2,0,P|267:113|358:121,1,190.000000596047,10|0,0:0|1:0,0:0:0:0:
439,306,21459,1,10,0:0:0:0:
303,209,21609,1,2,1:0:0:0:
460,120,21759,5,10,0:0:0:0:
346,373,21909,1,0,1:0:0:0:
263,84,22059,1,8,0:0:0:0:
149,337,22209,1,2,1:0:0:0:
251,217,22359,5,8,0:0:0:0:
268,214,22434,1,8,0:0:0:0:
286,212,22509,1,8,3:0:0:0:
303,209,22584,1,8,3:0:0:0:
321,207,22659,1,10,3:0:0:0:
339,204,22734,1,8,3:0:0:0:
356,202,22809,1,8,3:0:0:0:
374,199,22884,1,8,3:0:0:0:
392,197,22959,6,0,P|400:105|331:45,1,190.000000596047,14|0,0:0|1:0,0:0:0:0:
50,222,23409,2,0,B|119:212|119:212|168:228|168:228|236:219,1,190.000000596047,10|0,0:0|1:0,0:0:0:0:
423,295,23859,1,10,0:0:0:0:
309,146,24009,1,0,1:0:0:0:
206,334,24159,2,0,P|159:326|112:321,1,95.0000002980235,14|0,0:0|1:0,0:0:0:0:
187,135,24459,5,2,1:0:0:0:
373,216,24609,1,8,0:0:0:0:
164,137,24759,5,2,1:0:0:0:
393,108,24909,1,2,1:0:0:0:
142,139,25059,5,10,0:0:0:0:
413,0,25209,1,2,1:0:0:0:
287,266,25359,6,0,L|274:172,2,95.0000002980235,14|0|0,0:0|1:0|1:0,0:0:0:0:
56,70,25809,2,0,B|107:18|190:29|190:29|236:70,1,190.000000596047,10|0,0:0|1:0,0:0:0:0:
479,143,26259,2,0,P|428:130|388:103,1,95.0000002980235,10|0,0:0|1:0,0:0:0:0:
164,137,26559,5,14,0:0:0:0:
326,195,26709,1,0,1:0:0:0:
131,262,26859,1,0,1:0:0:0:
345,188,27009,1,8,0:0:0:0:
228,384,27159,2,0,B|203:339|203:339|214:296,1,95.0000002980235,2|0,1:0|1:0,0:0:0:0:
301,104,27459,1,8,0:0:0:0:
443,234,27609,1,0,1:0:0:0:
443,234,27684,1,0,1:0:0:0:
443,234,27759,6,0,L|430:328,2,95.0000002980235,14|0|0,0:0|1:0|1:0,0:0:0:0:
358,32,28209,2,0,P|266:23|206:92,1,190.000000596047,8|0,0:0|1:0,0:0:0:0:
213,296,28659,1,10,0:0:0:0:
301,104,28809,1,2,1:0:0:0:
106,207,28959,6,0,P|159:203|200:194,1,95.0000002980235,14|0,0:0|1:0,0:0:0:0:
388,116,29259,1,0,1:0:0:0:
305,316,29409,2,0,P|259:303|213:296,1,95.0000002980235,8|2,0:0|1:0,0:0:0:0:
111,108,29709,1,0,1:0:0:0:
306,205,29859,1,8,0:0:0:0:
279,17,30009,1,0,1:0:0:0:
279,17,30084,1,0,1:0:0:0:
279,17,30159,6,0,L|265:113,2,95.0000002980235,14|0|0,0:0|1:0|1:0,0:0:0:0:
133,292,30609,2,0,B|115:224|115:224|126:174|126:174|110:107,1,190.000000596047,10|0,0:0|1:0,0:0:0:0:
221,221,31059,1,10,0:0:0:0:
21,177,31209,1,0,1:0:0:0:
265,111,31359,5,14,0:0:0:0:
218,335,31509,1,0,1:0:0:0:
121,186,31659,1,0,1:0:0:0:
310,316,31809,2,0,B|418:284|387:347|496:316,1,190.000000596047,10|8,3:0|3:0,0:0:0:0:
453,150,32259,1,10,3:0:0:0:
453,150,32559,6,0,L|441:224,2,66.4999981791976,6|2|2,1:0|0:0|0:0,0:0:0:0:
306,170,33159,1,2,0:0:0:0:
330,275,33459,1,2,0:0:0:0:
238,336,33759,2,0,P|168:340|107:287,1,132.999996358395,2|2,0:0|0:0,0:0:0:0:
42,196,34359,2,0,P|111:200|172:147,1,132.999996358395,2|2,0:0|0:0,0:0:0:0:
307,24,34959,6,0,L|319:98,1,66.4999981791976,2|2,0:0|0:0,0:0:0:0:
334,195,35259,1,2,0:0:0:0:
317,206,35559,2,0,P|253:193|178:183,1,132.999996358395,2|2,0:0|0:0,0:0:0:0:
144,25,36159,1,2,0:0:0:0:
98,121,36459,1,2,0:0:0:0:
249,59,36759,2,0,P|313:46|387:36,1,132.999996358395,2|2,0:0|0:0,0:0:0:0:
465,267,37359,6,0,P|430:260|395:238,1,66.4999981791976,2|2,0:0|0:0,0:0:0:0:
321,175,37659,1,2,0:0:0:0:
297,278,37959,1,2,0:0:0:0:
273,381,38259,1,2,0:0:0:0:
219,205,38559,2,0,B|155:196|155:196|121:207|121:207|92:187|92:187|29:178,2,199.499994537593,2|2|2,0:0|0:0|0:0,0:0:0:0:
284,27,39759,6,0,P|316:33|345:48,1,66.4999981791976,2|2,0:0|0:0,0:0:0:0:
427,118,40059,1,2,0:0:0:0:
440,223,40359,1,2,0:0:0:0:
385,314,40659,1,2,0:0:0:0:
284,349,40959,2,0,B|175:317|206:380|97:349,1,190.000000596047,2|2,0:0|0:0,0:0:0:0:
98,349,42159,5,8,3:0:0:0:
228,152,42309,1,8,3:0:0:0:
228,152,42609,1,8,3:0:0:0:
231,156,42909,1,8,3:0:0:0:
307,219,43059,1,2,0:0:0:0:
324,121,43209,1,8,3:0:0:0:
214,254,43359,6,0,P|203:285|207:340,1,80.750001793504,10|0,0:0|0:0,0:0:0:0:
384,271,43659,2,0,P|396:232|393:192,1,80.750001793504,2|0,0:0|0:0,0:0:0:0:
248,59,43959,2,0,L|163:48,1,80.750001793504,2|0,0:0|0:0,0:0:0:0:
324,121,44259,2,0,L|404:110,1,80.750001793504,2|0,0:0|0:0,0:0:0:0:
504,97,44559,5,10,3:0:0:0:
307,219,44709,1,8,3:0:0:0:
307,219,45009,1,8,3:0:0:0:
307,219,45309,1,8,3:0:0:0:
214,254,45459,1,2,0:0:0:0:
290,317,45609,1,8,3:0:0:0:
231,156,45759,6,0,L|146:167,1,80.750001793504,10|0,0:0|0:0,0:0:0:0:
40,299,46059,2,0,L|125:288,1,80.750001793504,2|0,0:0|0:0,0:0:0:0:
69,124,46359,2,0,B|52:162|52:162|64:204,1,80.750001793504,2|0,0:0|0:0,0:0:0:0:
207,329,46659,2,0,B|224:291|224:291|212:249,1,80.750001793504,2|0,0:0|0:0,0:0:0:0:
150,166,46959,5,10,3:0:0:0:
388,272,47109,1,10,3:0:0:0:
388,272,47409,1,10,3:0:0:0:
388,272,47709,1,8,3:0:0:0:
305,156,47859,2,0,L|294:241,1,80.750001793504,2|8,0:0|3:0,0:0:0:0:
219,359,48159,6,0,B|356:318|317:398|454:359,2,242.250005380512,10|2|2,0:0|0:0|0:0,0:0:0:0:
219,359,49359,5,10,3:0:0:0:
67,206,49509,1,8,3:0:0:0:
67,206,49809,1,8,3:0:0:0:
67,206,50109,1,8,3:0:0:0:
67,206,50409,1,8,3:0:0:0:
253,276,50559,5,10,0:0:0:0:
84,304,50709,1,0,1:0:0:0:
143,143,50859,1,2,1:0:0:0:
177,339,51009,1,8,3:0:0:0:
67,206,51159,1,2,1:0:0:0:
236,178,51309,1,0,1:0:0:0:
177,339,51459,1,10,0:0:0:0:
143,143,51609,6,0,P|188:93|310:107,1,180.499995746375,4|2,1:0|1:0,0:0:0:0:
393,263,52059,1,10,0:0:0:0:
236,178,52209,1,2,0:0:0:0:
392,111,52359,1,2,1:0:0:0:
300,251,52509,1,2,0:0:0:0:
402,96,52659,1,2,1:0:0:0:
489,294,52809,1,10,0:0:0:0:
326,168,52959,5,2,1:0:0:0:
273,350,53109,1,2,0:0:0:0:
393,263,53259,1,10,0:0:0:0:
236,178,53409,2,0,P|200:157|145:147,1,90.2499978731874,2|0,0:0|1:0,0:0:0:0:
70,333,53709,2,0,P|114:324|153:302,1,90.2499978731874,2|8,0:0|0:0,0:0:0:0:
354,149,54009,6,0,B|344:216|344:216|359:263|359:263|351:330,1,180.499995746375,6|2,1:0|1:0,0:0:0:0:
236,178,54459,1,10,0:0:0:0:
266,354,54609,1,2,0:0:0:0:
231,152,54759,1,2,1:0:0:0:
153,301,54909,1,2,0:0:0:0:
329,226,55059,1,10,0:0:0:0:
120,136,55209,1,2,0:0:0:0:
161,325,55359,5,2,1:0:0:0:
231,152,55509,2,0,L|319:134,1,90.2499978731874,2|10,0:0|0:0,0:0:0:0:
95,227,55809,2,0,L|-9:206,1,90.2499978731874,2|0,0:0|1:0,0:0:0:0:
128,48,56109,1,2,0:0:0:0:
189,243,56259,1,8,0:0:0:0:
400,187,56409,6,0,P|411:100|347:39,1,180.499995746375,6|2,1:0|1:0,0:0:0:0:
137,141,56859,1,10,0:0:0:0:
319,134,57009,1,2,0:0:0:0:
189,243,57159,1,2,1:0:0:0:
235,90,57309,1,2,0:0:0:0:
309,287,57459,1,2,1:0:0:0:
240,105,57609,1,10,0:0:0:0:
102,221,57759,6,0,P|88:264|84:309,1,90.2499978731874,2|0,1:0|0:0,0:0:0:0:
241,370,58059,1,10,0:0:0:0:
320,206,58209,2,0,P|363:193|408:189,1,90.2499978731874,2|0,0:0|1:0,0:0:0:0:
502,263,58509,1,2,1:0:0:0:
431,91,58659,1,10,0:0:0:0:
309,287,58809,6,0,B|242:277|242:277|195:292|195:292|128:284,1,180.499995746375,4|0,1:0|1:0,0:0:0:0:
204,89,59259,2,0,L|186:177,1,90.2499978731874,8|0,0:0|0:0,0:0:0:0:
426,277,59559,2,0,L|408:189,1,90.2499978731874,2|0,1:0|0:0,0:0:0:0:
262,8,59859,1,8,0:0:0:0:
262,8,60009,1,0,0:0:0:0:
315,151,60159,6,0,P|402:162|463:98,1,180.499995746375,2|8,1:0|0:0,0:0:0:0:
367,69,60609,1,2,0:0:0:0:
309,287,60759,1,0,1:0:0:0:
196,141,60909,1,0,1:0:0:0:
396,242,61059,1,10,0:0:0:0:
166,370,61209,6,0,B|120:360|120:360|73:283|127:219,1,180.499995746375,6|2,1:0|1:0,0:0:0:0:
338,157,61659,1,10,0:0:0:0:
196,288,61809,1,2,0:0:0:0:
256,100,61959,1,2,1:0:0:0:
311,255,62109,1,2,0:0:0:0:
346,57,62259,1,2,1:0:0:0:
483,211,62409,1,10,0:0:0:0:
338,157,62559,5,2,1:0:0:0:
431,325,62709,2,0,B|475:331|475:331|512:303,1,90.2499978731874,2|10,0:0|0:0,0:0:0:0:
501,124,63009,2,0,B|457:118|457:118|419:145,1,90.2499978731874,2|0,0:0|1:0,0:0:0:0:
344,352,63309,1,2,0:0:0:0:
248,183,63459,1,8,0:0:0:0:
98,324,63609,6,0,P|184:299|272:279,1,180.499995746375,6|2,1:0|1:0,0:0:0:0:
419,144,64059,1,10,0:0:0:0:
236,96,64209,1,2,0:0:0:0:
365,236,64359,1,2,1:0:0:0:
400,38,64509,1,2,0:0:0:0:
209,83,64659,1,10,0:0:0:0:
364,139,64809,1,2,0:0:0:0:
212,212,64959,6,0,P|167:208|122:183,1,90.2499978731874,2|0,1:0|0:0,0:0:0:0:
129,14,65259,1,10,0:0:0:0:
34,123,65409,2,0,L|16:211,1,90.2499978731874,2|0,0:0|1:0,0:0:0:0:
157,296,65709,2,0,L|175:384,1,90.2499978731874,2|8,0:0|0:0,0:0:0:0:
388,214,66009,6,0,B|321:204|321:204|274:219|274:219|207:211,1,180.499995746375,6|2,1:0|1:0,0:0:0:0:
34,123,66459,1,10,0:0:0:0:
211,211,66609,1,2,0:0:0:0:
35,261,66759,1,2,1:0:0:0:
125,92,66909,1,2,0:0:0:0:
246,223,67059,1,10,0:0:0:0:
206,4,67209,1,6,1:0:0:0:
119,181,67359,5,2,0:0:0:0:
323,131,67509,1,2,1:0:0:0:
144,272,67659,1,10,0:0:0:0:
125,92,67809,1,2,1:0:0:0:
271,246,67959,1,10,0:0:0:0:
306,262,68034,1,8,0:0:0:0:
345,263,68109,1,10,0:0:0:0:
382,249,68184,1,8,0:0:0:0:
410,222,68259,2,0,L|422:168,3,45.1249989365937,10|8|10|8,3:0|3:0|3:0|3:0,0:0:0:0:
412,88,68559,6,0,P|363:77|287:68,1,99.7499972687963,10|0,0:0|1:0,0:0:0:0:
45,289,68859,2,0,P|94:278|144:272,1,99.7499972687963,8|0,0:0|1:0,0:0:0:0:
244,124,69159,1,10,0:0:0:0:
371,302,69309,1,0,1:0:0:0:
226,97,69459,1,8,0:0:0:0:
167,361,69609,1,0,1:0:0:0:
321,168,69759,5,10,0:0:0:0:
77,293,69909,1,0,1:0:0:0:
317,364,70059,2,0,B|393:341|372:385|449:364,1,132.999996358395,8|0,0:0|3:0,0:0:0:0:
415,287,70359,5,2,1:0:0:0:
442,272,70459,2,0,P|446:238|454:202,1,66.4999981791976,8|8,0:0|0:0,0:0:0:0:
281,198,70659,1,8,3:0:0:0:
254,183,70759,2,0,P|249:149|242:113,1,66.4999981791976,8|8,3:0|3:0,0:0:0:0:
314,23,70959,6,0,B|141:-27|190:72|17:23,1,304.000000953675,6|0,1:0|0:0,0:0:0:0:
17,22,72459,6,0,L|32:124,2,95.0000002980235,2|2|2,0:0|0:0|0:0,0:0:0:0:
271,268,73359,6,0,L|368:248,1,99.7499972687963,14|0,0:0|1:0,0:0:0:0:
292,47,73659,1,0,1:0:0:0:
174,204,73809,2,0,L|154:301,1,99.7499972687963,10|0,0:0|0:0,0:0:0:0:
81,89,74109,1,0,1:0:0:0:
279,164,74259,1,10,0:0:0:0:
83,378,74409,1,0,1:0:0:0:
83,378,74484,1,0,1:0:0:0:
83,378,74559,6,0,P|55:322|64:263,1,99.7499972687963,14|0,0:0|1:0,0:0:0:0:
180,89,74859,1,0,1:0:0:0:
271,268,75009,2,0,B|383:234|351:300|465:268,1,199.499994537593,10|0,0:0|1:0,0:0:0:0:
419,45,75459,1,10,0:0:0:0:
291,170,75609,1,0,1:0:0:0:
291,170,75684,1,0,1:0:0:0:
291,170,75759,6,0,L|271:267,2,99.7499972687963,14|0|0,0:0|1:0|1:0,0:0:0:0:
54,163,76209,2,0,P|46:67|119:5,1,199.499994537593,10|0,0:0|1:0,0:0:0:0:
47,269,76659,1,10,0:0:0:0:
141,106,76809,1,0,1:0:0:0:
257,343,76959,6,0,P|305:332|342:300,1,99.7499972687963,14|0,0:0|1:0,0:0:0:0:
375,69,77259,1,0,1:0:0:0:
212,219,77409,2,0,L|115:199,1,99.7499972687963,8|0,0:0|1:0,0:0:0:0:
220,9,77709,1,0,1:0:0:0:
326,185,77859,1,8,0:0:0:0:
43,126,78009,1,0,1:0:0:0:
43,126,78084,1,0,1:0:0:0:
43,126,78159,6,0,L|140:106,1,99.7499972687963,14|0,0:0|1:0,0:0:0:0:
405,151,78459,1,0,1:0:0:0:
264,316,78609,2,0,B|191:305|191:305|140:322|140:322|69:312,1,199.499994537593,10|0,0:0|1:0,0:0:0:0:
188,96,79059,1,10,0:0:0:0:
347,244,79209,1,0,1:0:0:0:
309,48,79359,6,0,B|283:91|283:91|289:145,1,99.7499972687963,14|0,0:0|1:0,0:0:0:0:
432,307,79659,1,0,1:0:0:0:
385,117,79809,1,8,0:0:0:0:
223,265,79959,2,0,L|126:245,1,99.7499972687963,2|0,0:0|1:0,0:0:0:0:
211,68,80259,2,0,L|308:48,1,99.7499972687963,8|0,0:0|1:0,0:0:0:0:
510,267,80559,6,0,B|464:257|412:277|412:277|373:238|328:228,1,199.499994537593,14|0,0:0|1:0,0:0:0:0:
53,134,81009,2,0,P|115:60|211:68,1,199.499994537593,10|0,0:0|1:0,0:0:0:0:
223,265,81459,2,0,L|203:362,1,99.7499972687963,10|0,0:0|1:0,0:0:0:0:
152,154,81759,5,14,0:0:0:0:
327,228,81909,1,0,1:0:0:0:
223,265,82059,2,0,L|232:216,3,49.8749986343982,8|8|8|8,0:0|0:0|0:0|0:0,0:0:0:0:
237,200,82359,1,0,3:0:0:0:
240,184,82434,1,0,3:0:0:0:
243,167,82509,1,8,0:0:0:0:
247,151,82584,1,8,0:0:0:0:
250,135,82659,2,0,L|298:125,1,49.8749986343982,10|8,3:0|3:0,0:0:0:0:
152,154,82809,2,0,L|103:144,1,49.8749986343982,10|8,3:0|3:0,0:0:0:0:
224,48,82959,6,0,P|269:31|321:28,1,99.7499972687963,14|0,0:0|1:0,0:0:0:0:
474,185,83259,1,2,1:0:0:0:
327,357,83409,2,0,B|298:306|298:306|326:168,1,199.499994537593,10|0,0:0|1:0,0:0:0:0:
468,42,83859,1,10,0:0:0:0:
326,167,84009,1,0,1:0:0:0:
326,167,84084,1,0,1:0:0:0:
326,167,84159,6,0,L|229:147,1,99.7499972687963,14|0,0:0|1:0,0:0:0:0:
62,164,84459,1,2,1:0:0:0:
221,14,84609,2,0,P|316:5|379:79,1,199.499994537593,10|0,0:0|1:0,0:0:0:0:
334,299,85059,1,10,0:0:0:0:
282,114,85209,1,2,1:0:0:0:
282,114,85284,1,0,1:0:0:0:
282,114,85359,6,0,L|262:211,1,99.7499972687963,14|0,0:0|1:0,0:0:0:0:
43,247,85659,1,2,1:0:0:0:
206,340,85809,2,0,B|279:329|279:329|330:346|330:346|401:336,1,199.499994537593,10|0,0:0|1:0,0:0:0:0:
467,102,86259,1,10,0:0:0:0:
302,233,86409,1,0,1:0:0:0:
302,233,86484,1,0,1:0:0:0:
302,233,86559,6,0,P|252:226|209:202,1,99.7499972687963,14|0,0:0|1:0,0:0:0:0:
368,46,86859,1,0,1:0:0:0:
421,238,87009,2,0,L|401:335,1,99.7499972687963,8|0,0:0|1:0,0:0:0:0:
287,131,87309,1,0,1:0:0:0:
206,340,87459,1,10,0:0:0:0:
95,130,87609,1,0,1:0:0:0:
95,130,87684,1,0,1:0:0:0:
95,130,87759,6,0,L|192:110,1,99.7499972687963,14|0,0:0|1:0,0:0:0:0:
434,153,88059,1,0,1:0:0:0:
277,359,88209,2,0,P|203:296|212:201,1,199.499994537593,10|0,0:0|1:0,0:0:0:0:
368,46,88659,1,10,0:0:0:0:
401,279,88809,1,0,1:0:0:0:
401,279,88884,1,0,1:0:0:0:
401,279,88959,6,0,L|304:259,1,99.7499972687963,14|0,0:0|1:0,0:0:0:0:
95,130,89259,1,0,1:0:0:0:
176,308,89409,1,8,0:0:0:0:
271,68,89559,2,0,B|293:113|293:113|283:161,1,99.7499972687963,2|0,0:0|1:0,0:0:0:0:
89,367,89859,2,0,B|66:321|66:321|76:273,1,99.7499972687963,8|0,0:0|1:0,0:0:0:0:
271,68,90159,6,0,B|383:34|351:100|465:68,1,199.499994537593,14|0,0:0|1:0,0:0:0:0:
273,343,90609,2,0,P|177:349|115:275,1,199.499994537593,10|0,0:0|1:0,0:0:0:0:
172,27,91059,1,10,0:0:0:0:
218,253,91209,1,0,1:0:0:0:
367,87,91359,6,0,L|464:67,1,99.7499972687963,10|0,0:0|1:0,0:0:0:0:
370,363,91659,2,0,L|273:343,1,99.7499972687963,8|0,0:0|1:0,0:0:0:0:
119,215,91959,1,10,0:0:0:0:
128,191,92034,1,8,0:0:0:0:
141,171,92109,1,8,0:0:0:0:
159,154,92184,1,8,0:0:0:0:
181,141,92259,2,0,L|229:151,3,49.8749986343982,8|8|8|8,3:0|3:0|3:0|3:0,0:0:0:0:
269,160,92559,5,12,0:0:0:0:
241,368,92709,1,0,1:0:0:0:
368,110,92859,5,8,0:0:0:0:
422,331,93009,1,0,1:0:0:0:
273,50,93159,5,8,0:0:0:0:
218,253,93309,1,0,1:0:0:0:
372,0,93459,5,10,0:0:0:0:
450,229,93609,1,2,1:0:0:0:
179,129,93759,5,10,0:0:0:0:
361,211,93909,1,2,1:0:0:0:
150,329,94059,1,8,0:0:0:0:
184,102,94209,1,2,0:0:0:0:
259,324,94359,6,0,L|396:295,1,132.999996358395,0|10,1:0|0:0,0:0:0:0:
480,285,94659,2,0,P|471:254|450:229,1,66.4999981791976,10|8,0:0|0:0,0:0:0:0:
361,211,94859,1,14,0:0:0:0:
