osu file format v14

[General]
AudioFilename: audio.mp3
AudioLeadIn: 0
PreviewTime: 72309
Countdown: 0
SampleSet: Soft
StackLeniency: 0.7
Mode: 0
LetterboxInBreaks: 0
WidescreenStoryboard: 1

[Editor]
DistanceSpacing: 1.1
BeatDivisor: 4
GridSize: 4
TimelineZoom: 1

[Metadata]
Title:Shuuen Requiem
TitleUnicode:終焉レクイエム
Artist:MY FIRST STORY
ArtistUnicode:MY FIRST STORY
Creator:A r M i N
Version:Kowari's Normal
Source:
Tags:short cut version j-rock rock jp japanese male vocalist mfs Kowari AirinCat MiracleE Spoes SMOKELIND Armin A_r_m_i_n MugiwaraSekai Irohas Stixy Lami intoon
BeatmapID:2324861
BeatmapSetID:1112825

[Difficulty]
HPDrainRate:3
CircleSize:3
OverallDifficulty:4
ApproachRate:5
SliderMultiplier:0.87
SliderTickRate:1

[Events]
//Background and Video events
0,0,"o.jpg",0,0
//Break Periods
2,32759,40959
//Storyboard Layer 0 (Background)
//Storyboard Layer 1 (Fail)
//Storyboard Layer 2 (Pass)
//Storyboard Layer 3 (Foreground)
//Storyboard Layer 4 (Overlay)
//Storyboard Sound Samples

[TimingPoints]
1359,300,4,2,7,77,1,0
12159,-111.111111111111,4,2,7,77,0,0
13359,-100,4,2,7,87,0,0
32259,-100,4,2,7,57,0,0
32559,-100,4,2,7,47,0,0
41859,-100,4,2,7,47,0,0
42159,-111.111111111111,4,2,7,57,0,0
51609,-100,4,2,7,77,0,0
68559,-100,4,2,7,87,0,0
70959,-100,4,2,7,87,0,0
73359,-90.9090909090909,4,2,7,87,0,0

[Colours]
Combo1 : 170,255,170
Combo2 : 255,198,170
Combo3 : 255,255,170
Combo4 : 255,170,255

[HitObjects]
41,63,12159,6,0,L|50:154,1,78.2999976104737,8|0,0:0|1:0,0:0:0:0:
63,177,12609,2,0,L|47:268,1,78.2999976104737,8|0,0:0|1:0,0:0:0:0:
41,292,13059,1,10,0:0:0:0:
103,352,13359,6,0,P|163:359|204:307,1,130.5,14|10,0:0|0:0,0:0:0:0:
183,223,14109,1,0,1:0:0:0:
183,223,14259,2,0,L|166:172,1,43.5,10|0,0:0|1:0,0:0:0:0:
182,140,14559,2,0,L|196:37,1,87,14|2,0:0|1:0,0:0:0:0:
274,22,15159,2,0,L|333:32,1,43.5,2|2,1:0|1:0,0:0:0:0:
353,53,15459,2,0,L|395:45,1,43.5,10|2,0:0|1:0,0:0:0:0:
437,31,15759,6,0,P|481:76|441:152,1,130.5,14|10,0:0|0:0,0:0:0:0:
347,190,16659,2,0,L|295:177,1,43.5,10|0,0:0|1:0,0:0:0:0:
261,173,16959,2,0,L|271:279,1,87,14|0,0:0|1:0,0:0:0:0:
302,339,17559,2,0,P|354:352|391:336,1,87,2|8,1:0|0:0,0:0:0:0:
430,267,18159,6,0,L|414:158,1,87,14|0,0:0|1:0,0:0:0:0:
392,144,18609,2,0,L|404:50,1,87,10|0,0:0|1:0,0:0:0:0:
413,15,19059,1,10,0:0:0:0:
326,1,19359,2,0,P|279:27|280:108,1,130.5,14|8,0:0|0:0,0:0:0:0:
284,140,19959,2,0,L|241:148,2,43.5,2|0|8,1:0|1:0|0:0,0:0:0:0:
323,217,20559,6,0,L|331:318,1,87,14|0,0:0|1:0,0:0:0:0:
311,342,21009,2,0,P|266:368|214:353,1,87,10|0,0:0|1:0,0:0:0:0:
204,331,21459,2,0,L|211:272,1,43.5,10|2,0:0|1:0,0:0:0:0:
217,244,21759,1,10,0:0:0:0:
157,180,22059,1,8,0:0:0:0:
77,215,22359,2,0,L|65:128,1,87,8|10,0:0|3:0,0:0:0:0:
89,45,22959,6,0,P|152:39|199:91,1,130.5,14|10,0:0|0:0,0:0:0:0:
171,166,23709,1,0,1:0:0:0:
171,166,23859,2,0,L|242:163,1,43.5,10|0,0:0|1:0,0:0:0:0:
258,162,24159,2,0,L|241:259,1,87,14|2,0:0|1:0,0:0:0:0:
268,330,24759,2,0,L|332:317,1,43.5,2|2,1:0|1:0,0:0:0:0:
349,302,25059,2,0,L|391:310,1,43.5,10|2,0:0|1:0,0:0:0:0:
431,294,25359,6,0,P|442:249|386:188,1,130.5,14|10,0:0|0:0,0:0:0:0:
263,162,26259,2,0,L|201:168,1,43.5,10|0,0:0|1:0,0:0:0:0:
176,172,26559,2,0,L|188:67,1,87,14|0,0:0|1:0,0:0:0:0:
122,26,27159,2,0,P|84:20|36:53,1,87,2|8,1:0|0:0,0:0:0:0:
14,124,27759,6,0,L|32:233,1,87,14|0,0:0|1:0,0:0:0:0:
55,243,28209,2,0,L|40:328,1,87,8|0,0:0|1:0,0:0:0:0:
33,371,28659,1,10,0:0:0:0:
119,379,28959,2,0,P|166:350|164:263,1,130.5,14|8,0:0|0:0,0:0:0:0:
154,240,29559,2,0,L|208:226,1,43.5,2|0,1:0|1:0,0:0:0:0:
237,217,29859,1,8,0:0:0:0:
284,144,30159,6,0,L|266:31,1,87,14|0,0:0|1:0,0:0:0:0:
283,16,30609,2,0,P|330:-5|372:8,1,87,10|0,0:0|1:0,0:0:0:0:
393,33,31059,1,10,0:0:0:0:
433,109,31359,2,0,L|427:204,1,87,14|0,0:0|1:0,0:0:0:0:
417,238,31809,2,0,L|475:257,2,43.5,10|8|8,3:0|3:0|3:0,0:0:0:0:
410,281,32259,1,10,3:0:0:0:
336,327,32559,5,4,1:0:0:0:
106,346,42159,5,8,3:0:0:0:
106,346,42309,2,0,L|209:328,2,78.2999976104737,8|8|8,3:0|3:0|3:0,0:0:0:0:
38,300,43209,1,8,3:0:0:0:
38,300,43359,2,0,P|67:258|13:178,1,156.599995220947,8|0,0:0|0:0,0:0:0:0:
156,104,44559,5,8,3:0:0:0:
156,104,44709,2,0,L|256:89,2,78.2999976104737,8|8|8,3:0|3:0|3:0,0:0:0:0:
141,187,45609,1,8,3:0:0:0:
141,187,45759,2,0,P|170:221|278:198,1,156.599995220947,8|0,0:0|0:0,0:0:0:0:
371,85,46959,5,8,3:0:0:0:
371,85,47109,2,0,P|350:47|351:2,2,78.2999976104737,8|8|8,3:0|3:0|3:0,0:0:0:0:
444,134,48009,1,8,3:0:0:0:
444,134,48159,2,0,L|428:303,1,156.599995220947,8|0,0:0|0:0,0:0:0:0:
278,332,49359,5,8,3:0:0:0:
278,332,49509,2,0,P|225:312|199:318,2,78.2999976104737,8|8|8,3:0|3:0|3:0,0:0:0:0:
337,277,50409,1,8,3:0:0:0:
337,277,50559,2,0,L|341:172,1,78.2999976104737,10|2,0:0|1:0,0:0:0:0:
340,120,51159,2,0,P|299:102|254:109,1,78.2999976104737,2|10,1:0|0:0,0:0:0:0:
236,136,51609,5,4,1:0:0:0:
213,220,51909,1,2,1:0:0:0:
213,220,52059,2,0,L|152:232,1,43.5,10|2,0:0|0:0,0:0:0:0:
127,233,52359,2,0,P|95:181|105:149,1,87,2|2,1:0|1:0,0:0:0:0:
148,87,52959,2,0,L|249:81,1,87,2|10,1:0|0:0,0:0:0:0:
278,82,53409,1,2,0:0:0:0:
347,30,53709,1,2,0:0:0:0:
419,78,54009,5,6,1:0:0:0:
393,161,54309,1,2,1:0:0:0:
393,161,54459,2,0,L|403:225,1,43.5,10|2,0:0|0:0,0:0:0:0:
403,247,54759,2,0,P|351:277|296:261,1,87,2|10,1:0|0:0,0:0:0:0:
246,240,55359,2,0,L|242:335,1,87,2|10,1:0|0:0,0:0:0:0:
240,370,55809,1,2,0:0:0:0:
156,343,56109,1,2,0:0:0:0:
72,318,56409,6,0,L|85:186,1,130.5,6|10,1:0|0:0,0:0:0:0:
99,102,57159,2,0,L|92:54,2,43.5,2|2|2,1:0|0:0|1:0,0:0:0:0:
136,124,57609,1,10,0:0:0:0:
136,124,57759,2,0,P|185:123|213:101,1,87,2|10,1:0|0:0,0:0:0:0:
221,57,58209,1,2,0:0:0:0:
305,35,58509,2,0,L|313:90,1,43.5,2|10,1:0|0:0,0:0:0:0:
340,109,58809,6,0,L|324:213,1,87,4|0,1:0|1:0,0:0:0:0:
319,237,59259,1,8,0:0:0:0:
356,315,59559,2,0,P|407:318|442:296,1,87,2|8,1:0|0:0,0:0:0:0:
466,218,60159,2,0,L|453:122,1,87,2|8,1:0|0:0,0:0:0:0:
406,59,60759,2,0,L|346:75,1,43.5,0|0,1:0|1:0,0:0:0:0:
324,88,61059,1,10,0:0:0:0:
324,88,61209,6,0,P|274:61|181:80,1,130.5,6|10,1:0|0:0,0:0:0:0:
125,107,61959,2,0,L|114:62,2,43.5,2|2|2,1:0|0:0|1:0,0:0:0:0:
147,144,62409,1,10,0:0:0:0:
147,144,62559,2,0,L|134:239,1,87,2|10,1:0|0:0,0:0:0:0:
126,272,63009,1,2,0:0:0:0:
177,342,63309,2,0,L|226:335,1,43.5,2|8,0:0|0:0,0:0:0:0:
262,328,63609,5,6,1:0:0:0:
298,249,63909,1,2,1:0:0:0:
298,249,64059,2,0,L|352:255,1,43.5,10|2,0:0|0:0,0:0:0:0:
383,263,64359,2,0,L|374:167,1,87,2|10,1:0|0:0,0:0:0:0:
372,89,64959,2,0,P|430:67|456:77,1,87,2|10,1:0|0:0,0:0:0:0:
480,106,65409,1,2,0:0:0:0:
486,192,65709,1,2,0:0:0:0:
454,273,66009,6,0,L|312:263,1,130.5,6|10,1:0|0:0,0:0:0:0:
243,229,66759,2,0,L|173:238,2,43.5,2|2|10,1:0|0:0|0:0,0:0:0:0:
273,197,67209,2,0,P|287:150|233:89,1,130.5,6|10,1:0|0:0,0:0:0:0:
155,68,67959,2,0,L|101:78,1,43.5,10|10,0:0|0:0,0:0:0:0:
106,119,68259,2,0,L|63:111,1,43.5,10|10,3:0|3:0,0:0:0:0:
21,97,68559,5,10,0:0:0:0:
1,181,68859,1,8,0:0:0:0:
66,238,69159,1,10,0:0:0:0:
149,215,69459,1,8,0:0:0:0:
227,252,69759,1,10,0:0:0:0:
241,337,70059,2,0,L|339:326,2,87,8|2|8,0:0|1:0|3:0,0:0:0:0:
153,339,70959,5,6,1:0:0:0:
256,192,71109,12,0,72159,0:0:0:0:
61,69,73359,6,0,L|177:63,1,95.7000029205323,14|0,0:0|1:0,0:0:0:0:
203,52,73809,2,0,L|298:56,1,95.7000029205323,10|0,0:0|1:0,0:0:0:0:
346,59,74259,1,10,0:0:0:0:
415,125,74559,2,0,P|394:172|345:185,1,95.7000029205323,14|0,0:0|1:0,0:0:0:0:
331,228,75009,2,0,P|282:246|239:220,1,95.7000029205323,10|0,0:0|1:0,0:0:0:0:
230,182,75459,2,0,L|236:123,1,47.8500014602662,10|0,0:0|1:0,0:0:0:0:
239,86,75759,5,14,0:0:0:0:
149,51,76059,1,0,1:0:0:0:
149,51,76209,2,0,L|136:150,1,95.7000029205323,10|0,0:0|1:0,0:0:0:0:
132,193,76659,1,10,0:0:0:0:
123,288,76959,2,0,P|170:314|215:305,1,95.7000029205323,14|0,0:0|1:0,0:0:0:0:
239,270,77409,2,0,P|286:244|331:253,1,95.7000029205323,8|0,0:0|1:0,0:0:0:0:
359,284,77859,1,8,0:0:0:0:
447,319,78159,6,0,L|456:217,1,95.7000029205323,14|0,0:0|1:0,0:0:0:0:
476,180,78609,2,0,L|467:78,1,95.7000029205323,10|0,0:0|1:0,0:0:0:0:
456,38,79059,1,10,0:0:0:0:
362,16,79359,2,0,P|321:52|320:102,1,95.7000029205323,14|0,0:0|1:0,0:0:0:0:
335,128,79809,1,8,0:0:0:0:
339,132,79959,2,0,L|367:187,2,47.8500014602662,2|0|8,0:0|1:0|0:0,0:0:0:0:
268,197,80559,5,14,0:0:0:0:
300,286,80859,1,0,1:0:0:0:
300,286,81009,2,0,L|199:311,1,95.7000029205323,10|0,0:0|1:0,0:0:0:0:
159,302,81459,2,0,L|92:293,1,47.8500014602662,10|0,0:0|1:0,0:0:0:0:
67,277,81759,2,0,P|44:230|64:182,1,95.7000029205323,14|8,0:0|0:0,0:0:0:0:
145,154,82359,1,0,3:0:0:0:
226,203,82659,2,0,L|288:195,1,47.8500014602662,10|10,3:0|3:0,0:0:0:0:
320,190,82959,6,0,L|306:91,1,95.7000029205323,14|2,0:0|1:0,0:0:0:0:
297,48,83409,2,0,P|351:22|394:28,1,95.7000029205323,10|0,0:0|1:0,0:0:0:0:
426,50,83859,1,10,0:0:0:0:
472,133,84159,2,0,L|466:235,1,95.7000029205323,14|2,0:0|1:0,0:0:0:0:
420,241,84609,2,0,L|426:343,1,95.7000029205323,10|0,0:0|1:0,0:0:0:0:
430,384,85059,2,0,L|364:372,1,47.8500014602662,10|2,0:0|1:0,0:0:0:0:
335,374,85359,5,14,0:0:0:0:
275,291,85659,1,2,1:0:0:0:
279,295,85809,2,0,P|233:272|188:287,1,95.7000029205323,10|0,0:0|1:0,0:0:0:0:
163,321,86259,1,10,0:0:0:0:
67,329,86559,2,0,L|56:222,1,95.7000029205323,14|0,0:0|1:0,0:0:0:0:
35,191,87009,2,0,L|42:88,1,95.7000029205323,8|0,0:0|1:0,0:0:0:0:
53,49,87459,1,10,0:0:0:0:
141,13,87759,6,0,P|194:33|206:78,1,95.7000029205323,14|0,0:0|1:0,0:0:0:0:
252,80,88209,2,0,P|275:131|252:171,1,95.7000029205323,10|0,0:0|1:0,0:0:0:0:
218,188,88659,1,10,0:0:0:0:
236,281,88959,2,0,L|335:289,1,95.7000029205323,14|0,0:0|1:0,0:0:0:0:
374,292,89409,1,8,0:0:0:0:
378,296,89559,2,0,L|358:356,2,47.8500014602662,2|0|8,0:0|1:0|0:0,0:0:0:0:
452,236,90159,5,14,0:0:0:0:
424,144,90459,1,0,1:0:0:0:
424,144,90609,2,0,P|365:127|327:147,1,95.7000029205323,10|0,0:0|1:0,0:0:0:0:
318,184,91059,2,0,L|306:243,1,47.8500014602662,10|0,0:0|1:0,0:0:0:0:
295,276,91359,5,10,0:0:0:0:
218,334,91659,1,8,0:0:0:0:
128,299,91959,1,10,0:0:0:0:
125,203,92259,1,8,3:0:0:0:
159,113,92559,6,0,L|253:131,1,95.7000029205323,12|8,0:0|0:0,0:0:0:0:
347,114,93159,2,0,P|363:58|345:17,1,95.7000029205323,8|10,0:0|0:0,0:0:0:0:
301,4,93609,1,2,1:0:0:0:
305,8,93759,2,0,L|201:15,1,95.7000029205323,10|8,0:0|0:0,0:0:0:0:
114,22,94359,1,0,1:0:0:0:
37,78,94659,2,0,B|24:126|24:126|48:177,1,95.7000029205323,10|0,0:0|0:0,0:0:0:0:
