osu file format v14

[General]
AudioFilename: audio.mp3
AudioLeadIn: 0
PreviewTime: 72309
Countdown: 0
SampleSet: Normal
StackLeniency: 0.7
Mode: 1
LetterboxInBreaks: 0
WidescreenStoryboard: 1

[Editor]
DistanceSpacing: 1.1
BeatDivisor: 4
GridSize: 4
TimelineZoom: 1.6

[Metadata]
Title:Shuuen Requiem
TitleUnicode:終焉レクイエム
Artist:MY FIRST STORY
ArtistUnicode:MY FIRST STORY
Creator:A r M i N
Version:Futsuu
Source:
Tags:short cut version j-rock rock jp japanese male vocalist mfs Kowari AirinCat MiracleE Spoes SMOKELIND Armin A_r_m_i_n MugiwaraSekai Irohas Stixy Lami intoon
BeatmapID:2390696
BeatmapSetID:1112825

[Difficulty]
HPDrainRate:7
CircleSize:3.8
OverallDifficulty:4
ApproachRate:9.3
SliderMultiplier:1.40000000596047
SliderTickRate:1

[Events]
//Background and Video events
0,0,"o.jpg",0,0
//Break Periods
//Storyboard Layer 0 (Background)
//Storyboard Layer 1 (Fail)
//Storyboard Layer 2 (Pass)
//Storyboard Layer 3 (Foreground)
//Storyboard Layer 4 (Overlay)
//Storyboard Sound Samples

[TimingPoints]
1359,300,4,1,0,40,1,0
12121,-100,4,1,0,70,0,0
13321,-100,4,1,0,80,0,0
32859,-100,4,1,0,60,0,0
42084,-100,4,1,0,80,0,0
71071,-100,4,1,0,40,0,0
72159,-100,4,1,0,40,0,0
72309,-100,4,1,0,60,0,0
73359,-100,4,1,0,90,0,1
94859,-100,4,1,0,90,0,0

[Colours]
Combo1 : 170,255,170
Combo2 : 255,198,170
Combo3 : 255,255,170
Combo4 : 255,170,255

[HitObjects]
256,192,8559,12,0,11859,0:0:0:0:
207,132,12159,5,0,0:0:0:0:
318,162,12609,1,8,0:0:0:0:
181,163,13059,1,8,0:0:0:0:
198,224,13359,1,12,0:0:0:0:
288,109,13809,1,0,0:0:0:0:
288,109,14259,1,8,0:0:0:0:
142,174,14559,1,8,0:0:0:0:
271,182,14859,1,0,0:0:0:0:
125,86,15159,1,0,0:0:0:0:
218,158,15309,1,8,0:0:0:0:
125,86,15459,1,8,0:0:0:0:
239,115,15759,1,8,0:0:0:0:
303,157,16209,1,0,0:0:0:0:
303,157,16659,1,0,0:0:0:0:
201,131,16959,1,8,0:0:0:0:
221,141,17559,1,0,0:0:0:0:
322,147,18159,1,8,0:0:0:0:
189,168,18609,1,8,0:0:0:0:
189,168,19059,1,0,0:0:0:0:
189,168,19359,1,8,0:0:0:0:
227,165,19959,1,0,0:0:0:0:
146,172,20559,1,8,0:0:0:0:
151,168,21009,1,0,0:0:0:0:
184,166,21459,1,0,0:0:0:0:
224,181,21609,1,8,0:0:0:0:
184,166,21759,1,8,0:0:0:0:
55,180,22209,1,0,0:0:0:0:
215,182,22659,1,8,0:0:0:0:
198,224,22959,1,12,0:0:0:0:
288,109,23409,1,0,0:0:0:0:
288,109,23859,1,8,0:0:0:0:
194,137,24159,1,8,0:0:0:0:
125,86,24459,1,0,0:0:0:0:
125,86,24759,1,0,0:0:0:0:
202,152,24909,1,8,0:0:0:0:
125,86,25059,1,8,0:0:0:0:
239,115,25359,1,8,0:0:0:0:
303,157,25809,1,0,0:0:0:0:
303,157,26259,1,0,0:0:0:0:
201,131,26559,1,8,0:0:0:0:
221,141,27159,1,0,0:0:0:0:
322,147,27759,1,8,0:0:0:0:
236,83,28209,1,0,0:0:0:0:
189,168,28659,1,0,0:0:0:0:
298,99,28809,1,8,0:0:0:0:
189,168,28959,1,8,0:0:0:0:
227,165,29559,1,0,0:0:0:0:
146,172,30159,1,8,0:0:0:0:
151,168,30609,1,0,0:0:0:0:
184,166,31059,1,0,0:0:0:0:
224,181,31209,1,8,0:0:0:0:
184,166,31359,1,8,0:0:0:0:
55,180,31809,1,0,0:0:0:0:
215,182,32259,1,8,0:0:0:0:
290,127,32559,1,0,0:0:0:0:
219,191,33459,1,8,0:0:0:0:
219,191,33759,1,0,0:0:0:0:
152,187,34059,1,0,0:0:0:0:
136,182,34359,1,8,0:0:0:0:
61,172,34659,1,0,0:0:0:0:
61,172,34959,1,8,0:0:0:0:
266,142,35859,1,0,0:0:0:0:
213,134,36159,1,8,0:0:0:0:
213,134,36459,1,8,0:0:0:0:
138,122,36759,1,0,0:0:0:0:
138,122,37059,1,8,0:0:0:0:
138,122,37359,1,0,0:0:0:0:
266,120,37809,1,0,0:0:0:0:
168,125,38259,1,0,0:0:0:0:
164,77,38559,1,8,0:0:0:0:
196,127,39009,1,0,0:0:0:0:
233,135,39459,1,0,0:0:0:0:
233,135,39759,1,8,0:0:0:0:
304,98,40359,1,8,0:0:0:0:
304,98,40959,1,0,0:0:0:0:
304,98,41559,1,8,0:0:0:0:
196,125,42159,1,0,0:0:0:0:
196,125,42309,1,0,0:0:0:0:
124,138,42609,1,0,0:0:0:0:
124,138,42909,1,0,0:0:0:0:
205,155,43359,1,12,0:0:0:0:
205,120,44559,1,8,0:0:0:0:
205,120,44709,1,8,0:0:0:0:
205,120,45009,1,8,0:0:0:0:
205,120,45309,1,8,0:0:0:0:
205,120,45759,1,4,0:0:0:0:
199,118,46959,1,0,0:0:0:0:
199,118,47109,1,0,0:0:0:0:
199,118,47409,1,0,0:0:0:0:
199,118,47709,1,0,0:0:0:0:
199,118,48159,1,12,0:0:0:0:
196,117,49359,1,8,0:0:0:0:
196,117,49509,1,8,0:0:0:0:
196,117,49809,1,8,0:0:0:0:
196,117,50109,1,8,0:0:0:0:
196,117,50559,1,4,0:0:0:0:
163,62,51159,1,8,0:0:0:0:
241,151,51459,1,0,0:0:0:0:
241,151,51609,1,8,0:0:0:0:
130,118,51909,1,0,0:0:0:0:
130,118,52059,1,8,0:0:0:0:
325,157,52359,1,8,0:0:0:0:
325,157,52659,1,0,0:0:0:0:
197,138,52959,1,8,0:0:0:0:
167,212,53109,1,0,0:0:0:0:
278,152,53259,1,0,0:0:0:0:
278,152,53409,1,8,0:0:0:0:
269,58,54009,1,8,0:0:0:0:
143,59,54309,1,0,0:0:0:0:
143,59,54459,1,8,0:0:0:0:
215,119,54759,1,8,0:0:0:0:
215,119,54909,1,8,0:0:0:0:
231,105,55059,1,0,0:0:0:0:
290,128,55359,1,0,0:0:0:0:
290,128,55509,1,8,0:0:0:0:
248,150,55809,1,8,0:0:0:0:
169,151,56409,1,8,0:0:0:0:
111,159,56709,1,0,0:0:0:0:
118,157,56859,1,8,0:0:0:0:
246,98,57009,1,0,0:0:0:0:
142,167,57159,1,8,0:0:0:0:
326,195,57459,1,0,0:0:0:0:
251,171,57759,1,8,0:0:0:0:
393,120,58059,1,0,0:0:0:0:
327,57,58209,1,8,0:0:0:0:
239,88,58509,1,0,0:0:0:0:
184,157,58659,1,0,0:0:0:0:
160,43,58809,1,8,0:0:0:0:
224,122,59109,1,0,0:0:0:0:
217,210,59259,1,0,0:0:0:0:
153,154,59559,1,8,0:0:0:0:
282,129,59859,1,8,0:0:0:0:
127,198,60159,1,0,0:0:0:0:
162,220,60609,1,8,0:0:0:0:
307,199,61209,1,8,0:0:0:0:
307,199,61509,1,0,0:0:0:0:
307,199,61659,1,8,0:0:0:0:
104,153,61809,1,0,0:0:0:0:
332,89,61959,1,8,0:0:0:0:
274,130,62259,1,0,0:0:0:0:
214,133,62559,1,0,0:0:0:0:
214,133,62709,1,8,0:0:0:0:
214,133,63009,1,8,0:0:0:0:
214,133,63609,1,8,0:0:0:0:
214,133,63909,1,0,0:0:0:0:
220,112,64059,1,8,0:0:0:0:
120,156,64209,1,0,0:0:0:0:
224,150,64359,1,0,0:0:0:0:
223,147,64659,1,8,0:0:0:0:
273,171,64959,1,8,0:0:0:0:
165,167,65259,1,8,0:0:0:0:
273,171,65409,1,0,0:0:0:0:
273,171,66009,1,8,0:0:0:0:
366,127,66309,1,0,0:0:0:0:
414,222,66459,1,8,0:0:0:0:
165,131,66609,1,8,0:0:0:0:
201,212,66759,1,0,0:0:0:0:
114,215,67059,1,0,0:0:0:0:
98,177,67359,1,8,0:0:0:0:
238,177,67509,1,0,0:0:0:0:
213,116,67809,1,8,0:0:0:0:
213,116,68109,1,0,0:0:0:0:
116,149,68559,1,8,0:0:0:0:
181,164,68859,1,8,0:0:0:0:
181,164,69159,1,0,0:0:0:0:
181,164,69459,1,0,0:0:0:0:
181,164,69759,1,8,0:0:0:0:
181,164,70059,1,8,0:0:0:0:
181,164,70359,1,0,0:0:0:0:
181,164,70959,1,12,0:0:0:0:
256,192,71109,12,0,72159,0:0:0:0:
275,143,73359,5,12,0:0:0:0:
240,243,73659,1,0,0:0:0:0:
155,167,73809,1,8,0:0:0:0:
189,182,74109,1,0,0:0:0:0:
85,143,74259,1,8,0:0:0:0:
46,191,74559,1,0,0:0:0:0:
288,172,74859,1,0,0:0:0:0:
245,191,75009,1,8,0:0:0:0:
312,179,75309,1,8,0:0:0:0:
245,191,75459,1,0,0:0:0:0:
192,101,75759,1,8,0:0:0:0:
359,140,76059,1,0,0:0:0:0:
314,146,76209,1,8,0:0:0:0:
417,109,76509,1,0,0:0:0:0:
254,158,76659,1,0,0:0:0:0:
75,131,76959,1,8,0:0:0:0:
147,172,77859,1,0,0:0:0:0:
147,172,78159,1,8,0:0:0:0:
204,95,78459,1,0,0:0:0:0:
147,172,78609,1,8,0:0:0:0:
287,212,78909,1,8,0:0:0:0:
181,155,79059,1,0,0:0:0:0:
221,138,79359,1,8,0:0:0:0:
325,123,79809,1,0,0:0:0:0:
251,142,79959,1,8,0:0:0:0:
131,178,80259,1,8,0:0:0:0:
251,142,80559,1,0,0:0:0:0:
106,193,80859,1,0,0:0:0:0:
251,142,81009,1,8,0:0:0:0:
106,193,81309,1,0,0:0:0:0:
251,142,81459,1,8,0:0:0:0:
251,142,81759,1,12,0:0:0:0:
255,89,82659,1,8,0:0:0:0:
302,122,82809,1,0,0:0:0:0:
275,143,82959,5,12,0:0:0:0:
240,243,83259,1,0,0:0:0:0:
155,167,83409,1,8,0:0:0:0:
189,182,83709,1,0,0:0:0:0:
85,143,83859,1,8,0:0:0:0:
46,191,84159,1,0,0:0:0:0:
288,172,84459,1,0,0:0:0:0:
245,191,84609,1,8,0:0:0:0:
312,179,84909,1,8,0:0:0:0:
245,191,85059,1,0,0:0:0:0:
126,120,85359,1,8,0:0:0:0:
359,140,85659,1,0,0:0:0:0:
247,135,85809,1,8,0:0:0:0:
417,109,86109,1,0,0:0:0:0:
190,136,86259,1,0,0:0:0:0:
104,152,86559,1,8,0:0:0:0:
221,185,87459,5,0,0:0:0:0:
221,185,87759,1,8,0:0:0:0:
317,135,88059,1,8,0:0:0:0:
221,185,88209,1,0,0:0:0:0:
204,97,88509,1,0,0:0:0:0:
221,185,88659,1,8,0:0:0:0:
221,185,88959,1,0,0:0:0:0:
176,101,89409,1,0,0:0:0:0:
221,185,89559,1,8,0:0:0:0:
221,185,90159,1,0,0:0:0:0:
450,243,90459,1,0,0:0:0:0:
308,157,90609,1,8,0:0:0:0:
176,101,90909,1,0,0:0:0:0:
308,157,91059,1,8,0:0:0:0:
308,157,91359,1,8,0:0:0:0:
308,157,91959,1,0,0:0:0:0:
184,165,92259,1,0,0:0:0:0:
241,196,92409,1,0,0:0:0:0:
308,157,92559,1,12,0:0:0:0:
164,103,92859,1,8,0:0:0:0:
164,103,93159,1,8,0:0:0:0:
164,103,93459,1,0,0:0:0:0:
164,103,93759,1,8,0:0:0:0:
164,103,93909,1,8,0:0:0:0:
164,103,94209,1,8,0:0:0:0:
225,98,94509,1,0,0:0:0:0:
164,103,94659,1,8,0:0:0:0:
278,140,94809,1,0,0:0:0:0:
