osu file format v14

[General]
AudioFilename: audio.mp3
AudioLeadIn: 0
PreviewTime: 72309
Countdown: 0
SampleSet: Soft
StackLeniency: 0.7
Mode: 0
LetterboxInBreaks: 0
WidescreenStoryboard: 0

[Editor]
DistanceSpacing: 1.2
BeatDivisor: 4
GridSize: 4
TimelineZoom: 1

[Metadata]
Title:Shuuen Requiem
TitleUnicode:終焉レクイエム
Artist:MY FIRST STORY
ArtistUnicode:MY FIRST STORY
Creator:A r M i N
Version:Extreme
Source:
Tags:short cut version j-rock rock jp japanese male vocalist mfs Kowari AirinCat MiracleE Spoes SMOKELIND Armin A_r_m_i_n MugiwaraSekai Irohas Stixy Lami intoon
BeatmapID:2324859
BeatmapSetID:1112825

[Difficulty]
HPDrainRate:6
CircleSize:3.8
OverallDifficulty:9.2
ApproachRate:9.3
SliderMultiplier:1.90000000596047
SliderTickRate:1

[Events]
//Background and Video events
0,0,"o.jpg",0,0
//Break Periods
//Storyboard Layer 0 (Background)
//Storyboard Layer 1 (Fail)
//Storyboard Layer 2 (Pass)
//Storyboard Layer 3 (Foreground)
//Storyboard Layer 4 (Overlay)
//Storyboard Sound Samples

[TimingPoints]
1359,300,4,2,7,77,1,0
13359,-100,4,2,7,87,0,0
32259,-100,4,2,7,57,0,0
32559,-166.666666666667,4,2,7,47,0,0
42159,-125,4,2,7,57,0,0
51609,-111.111111111111,4,2,7,77,0,0
68559,-100,4,2,7,87,0,1
70959,-250,4,2,7,87,0,0
73059,-250,4,2,7,87,0,0
73359,-90.9090909090909,4,2,7,87,0,1
91959,-90.9090909090909,4,2,7,87,0,0
92559,-90.9090909090909,4,2,7,87,0,1
94959,-90.9090909090909,4,2,7,87,0,0

[Colours]
Combo1 : 170,255,170
Combo2 : 255,198,170
Combo3 : 255,255,170
Combo4 : 255,170,255

[HitObjects]
256,192,8559,12,0,11859,0:0:0:0:
302,290,12159,5,8,0:0:0:0:
108,198,12309,1,0,1:0:0:0:
292,113,12459,1,0,1:0:0:0:
156,288,12609,5,8,0:0:0:0:
347,199,12759,1,0,1:0:0:0:
185,99,12909,1,0,1:0:0:0:
302,290,13059,6,0,L|293:337,1,47.5000001490118,10|10,0:0|0:0,0:0:0:0:
137,188,13209,1,10,0:0:0:0:
411,132,13359,6,0,P|436:174|438:219,1,95.0000002980235,14|0,0:0|1:0,0:0:0:0:
217,131,13659,1,0,1:0:0:0:
341,3,13809,2,0,L|325:98,1,95.0000002980235,10|0,0:0|1:0,0:0:0:0:
165,209,14109,1,0,1:0:0:0:
365,359,14259,2,0,L|271:374,1,95.0000002980235,10|0,0:0|1:0,0:0:0:0:
213,304,14484,1,0,1:0:0:0:
213,304,14559,6,0,B|115:273|132:366|35:335,1,190.000000596047,14|2,0:0|1:0,0:0:0:0:
177,184,15009,1,8,0:0:0:0:
272,375,15159,1,2,1:0:0:0:
161,151,15309,1,2,1:0:0:0:
35,335,15459,1,10,0:0:0:0:
260,224,15609,1,2,1:0:0:0:
98,84,15759,6,0,P|73:126|71:171,1,95.0000002980235,14|0,0:0|1:0,0:0:0:0:
213,304,16059,1,0,1:0:0:0:
282,45,16209,2,0,L|188:62,1,95.0000002980235,10|0,0:0|1:0,0:0:0:0:
260,224,16509,1,0,1:0:0:0:
373,25,16659,2,0,P|398:67|400:112,1,95.0000002980235,10|0,0:0|1:0,0:0:0:0:
168,208,16959,6,0,P|225:138|316:150,1,190.000000596047,14|0,0:0|1:0,0:0:0:0:
181,301,17409,1,8,0:0:0:0:
80,140,17559,2,0,L|63:234,1,95.0000002980235,2|0,1:0|1:0,0:0:0:0:
284,372,17859,2,0,L|268:278,1,95.0000002980235,8|0,0:0|1:0,0:0:0:0:
252,188,18084,1,0,1:0:0:0:
252,188,18159,6,0,B|309:203|309:203|371:172|371:172|429:188,1,190.000000596047,14|0,0:0|1:0,0:0:0:0:
189,121,18609,2,0,P|164:163|162:208,1,95.0000002980235,10|0,0:0|1:0,0:0:0:0:
299,102,18909,1,0,1:0:0:0:
61,39,19059,2,0,L|77:133,1,95.0000002980235,10|0,0:0|1:0,0:0:0:0:
266,15,19359,6,0,B|364:-16|347:77|444:46,1,190.000000596047,14|0,0:0|1:0,0:0:0:0:
277,203,19809,1,8,0:0:0:0:
456,298,19959,2,0,P|453:251|429:210,1,95.0000002980235,2|0,1:0|1:0,0:0:0:0:
191,87,20259,2,0,P|166:127|164:174,1,95.0000002980235,8|0,0:0|1:0,0:0:0:0:
204,263,20484,1,0,1:0:0:0:
204,263,20559,6,0,L|110:247,1,95.0000002980235,14|0,0:0|1:0,0:0:0:0:
304,114,20859,1,0,1:0:0:0:
266,347,21009,2,0,L|172:363,1,95.0000002980235,10|0,0:0|1:0,0:0:0:0:
277,203,21309,1,0,1:0:0:0:
352,380,21459,1,10,0:0:0:0:
214,135,21609,1,2,1:0:0:0:
359,343,21759,6,0,L|375:249,1,95.0000002980235,10|0,0:0|1:0,0:0:0:0:
109,118,22059,2,0,L|125:212,1,95.0000002980235,8|2,0:0|1:0,0:0:0:0:
354,50,22359,1,8,0:0:0:0:
332,21,22434,1,8,0:0:0:0:
302,4,22509,1,8,3:0:0:0:
266,0,22584,1,8,3:0:0:0:
233,11,22659,2,0,L|224:58,3,47.5000001490118,10|8|8|8,3:0|3:0|3:0|3:0,0:0:0:0:
198,146,22959,6,0,P|157:170|110:172,1,95.0000002980235,14|0,0:0|0:0,0:0:0:0:
266,0,23259,1,0,1:0:0:0:
328,256,23409,2,0,P|281:254|241:230,1,95.0000002980235,10|0,0:0|1:0,0:0:0:0:
350,81,23709,1,0,1:0:0:0:
392,343,23859,2,0,L|298:359,1,95.0000002980235,10|0,0:0|1:0,0:0:0:0:
432,123,24159,6,0,B|468:130|493:166|493:166|453:272,1,190.000000596047,14|2,0:0|1:0,0:0:0:0:
250,145,24609,1,8,0:0:0:0:
455,32,24759,1,2,1:0:0:0:
219,162,24909,1,2,1:0:0:0:
453,272,25059,1,10,0:0:0:0:
281,57,25209,1,2,1:0:0:0:
151,279,25359,6,0,P|198:277|239:253,1,95.0000002980235,14|0,0:0|1:0,0:0:0:0:
145,64,25659,1,0,1:0:0:0:
7,218,25809,2,0,L|101:202,1,95.0000002980235,10|0,0:0|1:0,0:0:0:0:
314,176,26109,1,0,1:0:0:0:
178,367,26259,2,0,P|153:326|151:279,1,95.0000002980235,10|0,0:0|1:0,0:0:0:0:
299,77,26559,6,0,B|345:73|376:99|376:99|395:86|395:86|426:111|474:108,1,190.000000596047,14|0,0:0|1:0,0:0:0:0:
273,254,27009,1,8,0:0:0:0:
183,67,27159,2,0,P|207:107|209:154,1,95.0000002980235,2|0,1:0|1:0,0:0:0:0:
360,292,27459,2,0,P|362:245|386:204,1,95.0000002980235,8|0,0:0|1:0,0:0:0:0:
476,172,27684,1,0,1:0:0:0:
476,172,27759,6,0,P|493:265|511:358,1,190.000000596047,14|0,0:0|1:0,0:0:0:0:
273,254,28209,2,0,P|275:207|299:166,1,95.0000002980235,8|0,0:0|1:0,0:0:0:0:
366,377,28509,1,0,1:0:0:0:
190,306,28659,1,10,0:0:0:0:
435,196,28809,1,2,1:0:0:0:
179,341,28959,6,0,B|81:310|98:403|1:372,1,190.000000596047,14|0,0:0|1:0,0:0:0:0:
162,165,29409,1,8,0:0:0:0:
284,289,29559,2,0,L|268:383,1,95.0000002980235,2|0,1:0|1:0,0:0:0:0:
58,282,29859,2,0,L|74:188,1,95.0000002980235,8|0,0:0|1:0,0:0:0:0:
54,103,30084,1,0,1:0:0:0:
54,103,30159,6,0,P|100:100|141:76,1,95.0000002980235,14|0,0:0|1:0,0:0:0:0:
327,207,30459,1,0,1:0:0:0:
268,1,30609,2,0,P|244:42|242:89,1,95.0000002980235,10|0,0:0|1:0,0:0:0:0:
374,11,30909,1,0,1:0:0:0:
141,76,31059,1,10,0:0:0:0:
399,147,31209,1,0,1:0:0:0:
114,100,31359,6,0,P|138:140|140:187,1,95.0000002980235,14|0,0:0|1:0,0:0:0:0:
61,297,31659,1,0,1:0:0:0:
232,161,31809,1,10,3:0:0:0:
250,331,31959,5,8,3:0:0:0:
140,187,32109,1,8,3:0:0:0:
267,353,32259,1,10,3:0:0:0:
60,84,32559,5,6,1:0:0:0:
287,52,33459,6,0,P|315:57|342:62,1,56.9999984393122,2|0,0:0|0:0,0:0:0:0:
448,128,33759,2,0,P|438:72|428:16,1,113.999996878624,2|2,0:0|0:0,0:0:0:0:
295,169,34359,2,0,P|305:225|315:281,1,113.999996878624,2|2,0:0|0:0,0:0:0:0:
343,63,34959,6,0,B|226:24|247:138|131:100,1,227.999993757249,2|0,0:0|0:0,0:0:0:0:
29,250,35859,6,0,P|56:244|84:239,1,56.9999984393122,2|0,0:0|0:0,0:0:0:0:
166,365,36159,2,0,P|112:374|73:336,1,113.999996878624,2|2,0:0|0:0,0:0:0:0:
160,169,36759,2,0,P|195:211|182:265,1,113.999996878624,2|2,0:0|0:0,0:0:0:0:
0,81,37359,6,0,B|38:73|38:73|69:88|69:88|108:81,1,113.999996878624,2|2,0:0|0:0,0:0:0:0:
179,20,37809,2,0,B|231:36|231:36|263:84|263:84|319:60,1,170.999995317937,2|2,0:0|0:0,0:0:0:0:
502,179,38559,6,0,L|481:60,1,113.999996878624,2|0,0:0|0:0,0:0:0:0:
396,109,39009,2,0,L|415:221,1,113.999996878624,2|0,0:0|0:0,0:0:0:0:
329,263,39459,1,2,0:0:0:0:
211,127,39759,6,0,B|268:131|259:169|313:171,1,113.999996878624,2|0,0:0|0:0,0:0:0:0:
212,305,40359,2,0,B|155:309|164:347|109:349,1,113.999996878624,2|0,0:0|0:0,0:0:0:0:
2,196,40959,6,0,P|47:227|47:282,1,113.999996878624,2|0,0:0|0:0,0:0:0:0:
119,133,41559,2,0,P|118:78|163:47,1,113.999996878624,2|0,0:0|0:0,0:0:0:0:
365,239,42159,5,8,3:0:0:0:
282,199,42309,2,0,L|268:273,1,76.0000002384188,8|0,3:0|0:0,0:0:0:0:
358,146,42609,2,0,P|329:119|291:106,1,76.0000002384188,8|0,3:0|0:0,0:0:0:0:
441,186,42909,2,0,P|478:174|509:147,1,76.0000002384188,8|2,3:0|0:0,0:0:0:0:
434,93,43209,1,8,3:0:0:0:
365,239,43359,6,0,L|378:313,1,76.0000002384188,10|0,0:0|0:0,0:0:0:0:
465,276,43659,2,0,L|478:350,1,76.0000002384188,2|0,0:0|0:0,0:0:0:0:
268,273,43959,2,0,L|254:347,1,76.0000002384188,2|0,0:0|0:0,0:0:0:0:
168,310,44259,2,0,L|154:384,1,76.0000002384188,2|0,0:0|0:0,0:0:0:0:
34,238,44559,5,10,3:0:0:0:
91,165,44709,2,0,P|114:194|125:230,1,76.0000002384188,8|0,3:0|0:0,0:0:0:0:
1,151,45009,2,0,P|14:115|40:88,1,76.0000002384188,8|0,3:0|0:0,0:0:0:0:
205,84,45309,2,0,P|167:90|131:81,1,76.0000002384188,8|2,3:0|0:0,0:0:0:0:
80,4,45609,1,8,3:0:0:0:
91,165,45759,6,0,L|104:239,1,76.0000002384188,10|0,0:0|0:0,0:0:0:0:
188,185,46059,2,0,L|201:259,1,76.0000002384188,2|0,0:0|0:0,0:0:0:0:
396,114,46359,2,0,L|383:189,1,76.0000002384188,2|0,0:0|0:0,0:0:0:0:
299,134,46659,2,0,L|286:209,1,76.0000002384188,2|0,0:0|0:0,0:0:0:0:
262,369,46959,5,10,3:0:0:0:
353,361,47109,2,0,P|342:324|318:295,1,76.0000002384188,10|0,3:0|0:0,0:0:0:0:
154,279,47409,2,0,P|190:287|227:281,1,76.0000002384188,10|0,3:0|0:0,0:0:0:0:
325,146,47709,2,0,P|298:173|285:208,1,76.0000002384188,8|2,3:0|0:0,0:0:0:0:
377,222,48009,1,8,3:0:0:0:
273,70,48159,6,0,L|123:96,1,152.000000476838,10|0,0:0|0:0,0:0:0:0:
47,45,48609,2,0,B|80:83|80:83|43:184,1,152.000000476838,2|0,0:0|0:0,0:0:0:0:
6,263,49059,2,0,L|19:337,1,76.0000002384188,2|0,0:0|0:0,0:0:0:0:
137,171,49359,5,10,3:0:0:0:
171,257,49509,2,0,P|134:263|98:254,1,76.0000002384188,8|0,3:0|0:0,0:0:0:0:
229,184,49809,2,0,P|252:213|263:249,1,76.0000002384188,8|2,3:0|0:0,0:0:0:0:
195,98,50109,2,0,P|208:62|234:35,1,76.0000002384188,8|0,3:0|0:0,0:0:0:0:
287,112,50409,1,8,3:0:0:0:
137,171,50559,5,10,0:0:0:0:
195,98,50709,1,0,1:0:0:0:
171,257,50859,1,2,1:0:0:0:
229,184,51009,1,8,3:0:0:0:
104,84,51159,5,2,1:0:0:0:
80,244,51309,1,0,1:0:0:0:
162,11,51459,1,10,0:0:0:0:
262,271,51609,6,0,B|348:246|335:323|422:299,1,170.999995317937,4|2,1:0|1:0,0:0:0:0:
298,156,52059,1,10,0:0:0:0:
205,343,52209,1,2,0:0:0:0:
314,124,52359,1,2,1:0:0:0:
422,298,52509,1,2,0:0:0:0:
210,185,52659,1,2,1:0:0:0:
451,96,52809,1,10,0:0:0:0:
262,271,52959,5,2,1:0:0:0:
202,76,53109,1,2,0:0:0:0:
272,306,53259,1,10,0:0:0:0:
365,139,53409,2,0,L|281:125,1,85.4999976589683,2|0,0:0|1:0,0:0:0:0:
422,298,53709,1,2,0:0:0:0:
326,39,53859,1,8,0:0:0:0:
183,219,54009,6,0,B|129:204|129:204|73:232|73:232|22:218,1,170.999995317937,6|2,1:0|1:0,0:0:0:0:
202,76,54459,1,10,0:0:0:0:
268,271,54609,1,2,0:0:0:0:
107,109,54759,1,2,1:0:0:0:
326,39,54909,1,2,0:0:0:0:
73,120,55059,1,10,0:0:0:0:
254,238,55209,1,2,0:0:0:0:
130,19,55359,5,2,1:0:0:0:
22,218,55509,2,0,L|106:203,1,85.4999976589683,2|10,0:0|0:0,0:0:0:0:
236,367,55809,2,0,L|151:352,1,85.4999976589683,2|0,0:0|1:0,0:0:0:0:
259,146,56109,1,2,0:0:0:0:
327,380,56259,1,8,0:0:0:0:
249,111,56409,6,0,B|301:67|301:67|400:111,1,170.999995317937,6|2,1:0|1:0,0:0:0:0:
235,284,56859,1,10,0:0:0:0:
165,72,57009,1,2,0:0:0:0:
307,222,57159,1,2,1:0:0:0:
100,304,57309,1,2,0:0:0:0:
340,209,57459,1,2,1:0:0:0:
112,148,57609,1,10,0:0:0:0:
321,300,57759,6,0,P|363:299|400:279,1,85.4999976589683,2|0,1:0|0:0,0:0:0:0:
282,67,58059,1,10,0:0:0:0:
205,270,58209,2,0,L|220:354,1,85.4999976589683,2|0,0:0|1:0,0:0:0:0:
340,209,58509,1,2,1:0:0:0:
84,140,58659,1,10,0:0:0:0:
375,218,58809,6,0,P|432:160|415:79,1,170.999995317937,4|0,1:0|1:0,0:0:0:0:
266,264,59259,2,0,L|281:348,1,85.4999976589683,8|0,0:0|0:0,0:0:0:0:
339,132,59559,2,0,L|255:117,1,85.4999976589683,2|0,1:0|0:0,0:0:0:0:
369,313,59859,2,0,L|453:328,1,85.4999976589683,8|0,0:0|0:0,0:0:0:0:
197,204,60159,6,0,P|177:241|176:283,1,85.4999976589683,2|0,1:0|0:0,0:0:0:0:
375,218,60459,1,8,0:0:0:0:
162,118,60609,2,0,P|120:110|79:122,1,85.4999976589683,2|0,0:0|1:0,0:0:0:0:
267,265,60909,1,0,1:0:0:0:
191,30,61059,1,10,0:0:0:0:
46,307,61209,6,0,B|132:282|119:359|206:335,1,170.999995317937,6|2,1:0|1:0,0:0:0:0:
345,131,61659,1,10,0:0:0:0:
298,353,61809,1,2,0:0:0:0:
253,112,61959,1,2,1:0:0:0:
206,334,62109,1,2,0:0:0:0:
345,131,62259,1,2,1:0:0:0:
390,372,62409,1,10,0:0:0:0:
253,112,62559,5,2,1:0:0:0:
360,284,62709,2,0,L|444:269,1,85.4999976589683,2|10,0:0|0:0,0:0:0:0:
214,196,63009,2,0,L|130:211,1,85.4999976589683,2|0,0:0|1:0,0:0:0:0:
298,353,63309,1,2,0:0:0:0:
345,131,63459,1,8,0:0:0:0:
188,312,63609,6,0,L|19:281,1,170.999995317937,6|2,1:0|1:0,0:0:0:0:
166,90,64059,1,10,0:0:0:0:
275,280,64209,1,2,0:0:0:0:
105,160,64359,1,2,1:0:0:0:
298,56,64509,1,2,0:0:0:0:
73,177,64659,1,10,0:0:0:0:
250,306,64809,1,2,0:0:0:0:
166,90,64959,6,0,P|128:70|86:69,1,85.4999976589683,2|0,1:0|0:0,0:0:0:0:
162,278,65259,1,10,0:0:0:0:
298,56,65409,2,0,L|382:41,1,85.4999976589683,2|0,0:0|1:0,0:0:0:0:
308,233,65709,1,2,0:0:0:0:
216,13,65859,1,8,0:0:0:0:
429,164,66009,6,0,B|449:179|468:205|468:205|429:312,1,170.999995317937,6|2,1:0|1:0,0:0:0:0:
209,196,66459,1,10,0:0:0:0:
377,87,66609,1,2,0:0:0:0:
285,286,66759,1,2,1:0:0:0:
204,62,66909,1,2,0:0:0:0:
429,164,67059,1,10,0:0:0:0:
193,288,67209,6,0,B|139:273|139:273|83:301|83:301|32:287,1,170.999995317937,6|2,1:0|1:0,0:0:0:0:
270,126,67659,1,10,0:0:0:0:
328,367,67809,1,2,1:0:0:0:
114,227,67959,5,10,0:0:0:0:
114,227,68034,1,8,0:0:0:0:
114,227,68109,2,0,L|121:185,1,42.7499988294841,10|8,0:0|0:0,0:0:0:0:
315,235,68259,1,10,3:0:0:0:
315,235,68334,1,8,3:0:0:0:
315,235,68409,2,0,L|307:277,1,42.7499988294841,10|8,3:0|3:0,0:0:0:0:
157,82,68559,5,10,0:0:0:0:
240,346,68709,1,0,1:0:0:0:
250,32,68859,5,8,0:0:0:0:
151,299,69009,1,0,1:0:0:0:
327,105,69159,5,10,0:0:0:0:
405,379,69309,1,0,1:0:0:0:
424,62,69459,5,8,0:0:0:0:
312,332,69609,1,0,1:0:0:0:
304,0,69759,5,10,0:0:0:0:
400,272,69909,1,0,1:0:0:0:
238,113,70059,6,0,B|173:94|183:151|118:133,1,126.666667064031,8|0,0:0|3:0,0:0:0:0:
47,62,70359,2,0,P|38:31|20:-8,2,63.3333335320157,2|8|8,1:0|0:0|0:0,0:0:0:0:
22,162,70659,2,0,P|9:191|0:221,2,63.3333335320157,8|8|8,3:0|3:0|3:0,0:0:0:0:
145,36,70959,5,6,1:0:0:0:
256,192,71109,12,0,72159,0:0:0:0:
51,2,73059,6,0,P|58:29|63:57,1,57.0000001788141,2|0,0:0|0:0,0:0:0:0:
140,138,73359,6,0,L|37:156,1,104.500003516913,14|0,0:0|1:0,0:0:0:0:
149,8,73659,1,0,1:0:0:0:
216,256,73809,2,0,L|113:237,1,104.500003516913,10|0,0:0|0:0,0:0:0:0:
211,77,74109,1,0,1:0:0:0:
282,320,74259,2,0,P|236:344|185:342,1,104.500003516913,10|0,0:0|1:0,0:0:0:0:
100,383,74484,1,0,1:0:0:0:
100,383,74559,6,0,P|54:358|3:360,1,104.500003516913,14|0,0:0|1:0,0:0:0:0:
117,147,74859,1,0,1:0:0:0:
279,314,75009,2,0,L|297:211,1,104.500003516913,10|0,0:0|1:0,0:0:0:0:
114,283,75309,1,0,1:0:0:0:
343,380,75459,2,0,L|445:361,1,104.500003516913,10|0,0:0|1:0,0:0:0:0:
512,296,75684,1,0,1:0:0:0:
512,296,75759,6,0,P|466:271|415:273,1,104.500003516913,14|0,0:0|1:0,0:0:0:0:
242,166,76059,1,0,1:0:0:0:
433,31,76209,2,0,L|451:133,1,104.500003516913,10|0,0:0|1:0,0:0:0:0:
324,294,76509,1,0,1:0:0:0:
176,102,76659,2,0,P|221:77|272:79,1,104.500003516913,10|0,0:0|1:0,0:0:0:0:
233,311,76959,6,0,B|125:277|144:378|37:344,1,209.000007033826,14|0,0:0|1:0,0:0:0:0:
268,183,77409,2,0,P|341:259|316:357,1,209.000007033826,8|0,0:0|1:0,0:0:0:0:
144,181,77859,1,8,0:0:0:0:
345,97,78009,1,0,1:0:0:0:
111,195,78159,6,0,B|67:178|52:136|52:136|97:19,1,209.000007033826,14|0,0:0|1:0,0:0:0:0:
177,260,78609,2,0,P|132:285|81:283,1,104.500003516913,10|0,0:0|0:0,0:0:0:0:
168,91,78909,1,0,1:0:0:0:
275,280,79059,2,0,L|257:382,1,104.500003516913,10|0,0:0|1:0,0:0:0:0:
242,147,79359,6,0,B|350:113|331:214|438:180,1,209.000007033826,14|0,0:0|1:0,0:0:0:0:
244,297,79809,1,8,0:0:0:0:
405,384,79959,2,0,L|387:282,1,104.500003516913,2|0,0:0|1:0,0:0:0:0:
140,156,80259,2,0,L|158:258,1,104.500003516913,8|0,0:0|1:0,0:0:0:0:
114,340,80484,1,0,1:0:0:0:
114,340,80559,6,0,L|12:322,1,104.500003516913,14|0,0:0|0:0,0:0:0:0:
123,124,80859,1,0,1:0:0:0:
301,272,81009,2,0,L|252:363,1,104.500003516913,10|0,0:0|1:0,0:0:0:0:
64,246,81309,1,0,1:0:0:0:
294,73,81459,2,0,L|365:147,1,104.500003516913,10|0,0:0|1:0,0:0:0:0:
123,124,81759,6,0,L|105:22,1,104.500003516913,14|0,0:0|1:0,0:0:0:0:
256,183,82059,1,8,0:0:0:0:
256,183,82134,1,8,0:0:0:0:
256,183,82209,2,0,L|206:174,1,52.2500017584564,8|8,0:0|0:0,0:0:0:0:
103,299,82359,2,0,L|153:290,3,52.2500017584564,0|0|8|8,3:0|3:0|0:0|0:0,0:0:0:0:
24,212,82659,6,0,P|10:239|5:268,1,52.2500017584564,10|8,3:0|3:0,0:0:0:0:
123,124,82809,2,0,P|116:98|104:75,1,52.2500017584564,10|8,3:0|3:0,0:0:0:0:
256,286,82959,6,0,L|358:268,1,104.500003516913,14|0,0:0|1:0,0:0:0:0:
239,103,83259,1,2,1:0:0:0:
190,351,83409,2,0,P|235:376|286:374,1,104.500003516913,10|0,0:0|1:0,0:0:0:0:
208,191,83709,1,0,1:0:0:0:
0,307,83859,2,0,L|102:325,1,104.500003516913,10|0,0:0|1:0,0:0:0:0:
128,236,84084,1,0,1:0:0:0:
128,236,84159,6,0,L|26:218,1,104.500003516913,14|0,0:0|1:0,0:0:0:0:
190,351,84459,1,2,1:0:0:0:
239,103,84609,2,0,P|187:100|142:125,1,104.500003516913,10|0,0:0|1:0,0:0:0:0:
256,286,84909,1,0,1:0:0:0:
339,60,85059,2,0,L|321:162,1,104.500003516913,10|2,0:0|1:0,0:0:0:0:
385,229,85284,1,0,1:0:0:0:
385,229,85359,6,0,P|410:183|407:132,1,104.500003516913,14|0,0:0|1:0,0:0:0:0:
208,191,85659,1,2,1:0:0:0:
325,384,85809,2,0,L|307:282,1,104.500003516913,10|0,0:0|1:0,0:0:0:0:
121,147,86109,1,0,1:0:0:0:
36,379,86259,2,0,P|81:353|132:356,1,104.500003516913,10|0,0:0|1:0,0:0:0:0:
212,306,86484,1,0,1:0:0:0:
212,306,86559,6,0,L|248:101,1,209.000007033826,14|0,0:0|1:0,0:0:0:0:
15,47,87009,2,0,P|-14:141|59:206,1,209.000007033826,8|0,0:0|1:0,0:0:0:0:
248,100,87459,2,0,P|196:97|151:122,1,104.500003516913,10|0,0:0|1:0,0:0:0:0:
151,216,87684,1,0,1:0:0:0:
151,216,87759,6,0,B|259:182|240:283|347:249,1,209.000007033826,14|0,0:0|1:0,0:0:0:0:
474,106,88209,2,0,P|428:130|402:175,1,104.500003516913,10|0,0:0|1:0,0:0:0:0:
475,343,88509,1,0,1:0:0:0:
311,163,88659,2,0,P|267:135|215:134,1,104.500003516913,10|0,0:0|1:0,0:0:0:0:
132,182,88884,1,0,1:0:0:0:
132,182,88959,6,0,B|96:301|96:301|119:338|165:362,1,209.000007033826,14|0,0:0|1:0,0:0:0:0:
335,285,89409,1,8,0:0:0:0:
215,134,89559,2,0,L|233:236,1,104.500003516913,2|0,0:0|1:0,0:0:0:0:
450,338,89859,2,0,L|432:236,1,104.500003516913,8|0,0:0|1:0,0:0:0:0:
258,327,90159,6,0,P|206:326|162:298,1,104.500003516913,14|0,0:0|1:0,0:0:0:0:
84,115,90459,1,0,1:0:0:0:
305,169,90609,2,0,P|278:214|233:238,1,104.500003516913,10|0,0:0|1:0,0:0:0:0:
96,81,90909,1,0,1:0:0:0:
370,104,91059,2,0,P|395:149|392:200,1,104.500003516913,10|0,0:0|1:0,0:0:0:0:
174,131,91359,6,0,L|192:29,1,104.500003516913,10|0,0:0|1:0,0:0:0:0:
392,200,91659,2,0,L|374:302,1,104.500003516913,8|0,0:0|1:0,0:0:0:0:
318,113,91959,5,10,0:0:0:0:
318,113,92034,1,8,0:0:0:0:
318,113,92109,2,0,L|369:104,1,52.2500017584564,8|8,0:0|0:0,0:0:0:0:
278,253,92259,1,8,3:0:0:0:
278,253,92334,1,8,3:0:0:0:
278,253,92409,2,0,L|227:244,1,52.2500017584564,8|8,3:0|3:0,0:0:0:0:
5,56,92559,5,12,0:0:0:0:
103,354,92709,1,0,1:0:0:0:
117,21,92859,5,8,0:0:0:0:
6,314,93009,1,0,1:0:0:0:
193,80,93159,5,8,0:0:0:0:
291,378,93309,1,0,1:0:0:0:
305,45,93459,5,10,0:0:0:0:
194,338,93609,1,2,1:0:0:0:
396,74,93759,5,10,0:0:0:0:
494,372,93909,1,2,1:0:0:0:
508,39,94059,5,8,0:0:0:0:
397,332,94209,1,2,0:0:0:0:
247,59,94359,6,0,P|179:54|134:105,1,139.333338022551,0|10,1:0|0:0,0:0:0:0:
76,174,94659,2,0,P|101:243|111:287,2,69.6666690112753,10|8|14,0:0|0:0|0:0,0:0:0:0:
