osu file format v14

[General]
AudioFilename: audio.mp3
AudioLeadIn: 0
PreviewTime: 72309
Countdown: 0
SampleSet: Normal
StackLeniency: 0.7
Mode: 1
LetterboxInBreaks: 0
WidescreenStoryboard: 1

[Editor]
DistanceSpacing: 1.1
BeatDivisor: 8
GridSize: 4
TimelineZoom: 1.6

[Metadata]
Title:Shuuen Requiem
TitleUnicode:終焉レクイエム
Artist:MY FIRST STORY
ArtistUnicode:MY FIRST STORY
Creator:A r M i N
Version:Chromoxx' Oni
Source:
Tags:short cut version j-rock rock jp japanese male vocalist mfs Kowari AirinCat MiracleE Spoes SMOKELIND Armin A_r_m_i_n MugiwaraSekai Irohas Stixy Lami intoon
BeatmapID:2390456
BeatmapSetID:1112825

[Difficulty]
HPDrainRate:6
CircleSize:3.8
OverallDifficulty:6
ApproachRate:9.3
SliderMultiplier:1.40000000596047
SliderTickRate:1

[Events]
//Background and Video events
0,0,"o.jpg",0,0
//Break Periods
//Storyboard Layer 0 (Background)
//Storyboard Layer 1 (Fail)
//Storyboard Layer 2 (Pass)
//Storyboard Layer 3 (Foreground)
//Storyboard Layer 4 (Overlay)
//Storyboard Sound Samples

[TimingPoints]
1359,300,4,1,0,40,1,0
12121,-100,4,1,0,70,0,0
13321,-100,4,1,0,80,0,0
32859,-100,4,1,0,60,0,0
42084,-100,4,1,0,80,0,0
71071,-100,4,1,0,40,0,0
72159,-133.333333333333,4,1,0,40,0,0
72309,-133.333333333333,4,1,0,60,0,0
73284,-100,4,1,0,90,0,0
73359,-100,4,1,0,90,0,1
94859,-100,4,1,0,90,0,0

[Colours]
Combo1 : 170,255,170
Combo2 : 255,198,170
Combo3 : 255,255,170
Combo4 : 255,170,255

[HitObjects]
256,192,8559,12,4,12009,0:0:0:0:
311,159,12159,5,0,0:0:0:0:
317,164,12309,1,0,0:0:0:0:
324,218,12459,1,0,0:0:0:0:
324,218,12609,1,8,0:0:0:0:
324,218,12684,1,8,0:0:0:0:
324,218,12759,1,0,0:0:0:0:
331,217,12909,1,0,0:0:0:0:
281,154,13059,1,8,0:0:0:0:
281,154,13134,1,8,0:0:0:0:
281,154,13209,1,8,0:0:0:0:
281,154,13359,1,4,0:0:0:0:
301,235,13659,1,8,0:0:0:0:
381,154,13809,1,0,0:0:0:0:
174,226,13884,1,0,0:0:0:0:
197,295,13959,1,8,0:0:0:0:
167,80,14034,1,8,0:0:0:0:
167,80,14109,1,0,0:0:0:0:
217,235,14259,1,8,0:0:0:0:
167,80,14409,1,8,0:0:0:0:
167,80,14484,1,8,0:0:0:0:
167,80,14559,1,0,0:0:0:0:
268,268,14709,1,0,0:0:0:0:
220,164,14859,1,8,0:0:0:0:
282,118,15009,1,0,0:0:0:0:
344,149,15084,1,0,0:0:0:0:
344,149,15159,1,0,0:0:0:0:
344,149,15234,1,0,0:0:0:0:
344,149,15309,1,8,0:0:0:0:
284,232,15459,1,0,0:0:0:0:
262,117,15609,1,0,0:0:0:0:
262,117,15684,1,0,0:0:0:0:
232,136,15759,1,8,0:0:0:0:
117,121,16059,1,0,0:0:0:0:
169,193,16209,1,8,0:0:0:0:
169,193,16284,1,8,0:0:0:0:
169,193,16359,1,0,0:0:0:0:
169,193,16509,1,0,0:0:0:0:
169,193,16659,1,8,0:0:0:0:
272,237,16734,1,8,0:0:0:0:
221,249,16809,1,0,0:0:0:0:
201,232,16884,1,0,0:0:0:0:
168,279,16959,1,8,0:0:0:0:
270,222,17109,1,0,0:0:0:0:
242,208,17259,1,0,0:0:0:0:
215,243,17409,1,8,0:0:0:0:
207,232,17559,1,0,0:0:0:0:
274,243,17634,1,0,0:0:0:0:
252,266,17709,1,0,0:0:0:0:
248,189,17784,1,0,0:0:0:0:
201,193,17859,1,8,0:0:0:0:
201,193,18009,1,8,0:0:0:0:
175,236,18084,1,8,0:0:0:0:
124,183,18159,1,0,0:0:0:0:
284,230,18459,1,8,0:0:0:0:
271,262,18609,1,0,0:0:0:0:
369,213,18684,1,0,0:0:0:0:
260,154,18759,1,0,0:0:0:0:
260,154,18834,1,0,0:0:0:0:
260,154,18909,1,8,0:0:0:0:
260,144,19059,1,0,0:0:0:0:
260,144,19209,1,0,0:0:0:0:
260,144,19284,1,0,0:0:0:0:
260,145,19359,1,8,0:0:0:0:
250,226,19509,1,0,0:0:0:0:
250,226,19659,1,0,0:0:0:0:
203,87,19809,1,8,0:0:0:0:
203,87,19884,1,8,0:0:0:0:
203,87,19959,1,0,0:0:0:0:
203,87,20109,1,0,0:0:0:0:
223,239,20259,1,8,0:0:0:0:
258,204,20334,1,8,0:0:0:0:
164,213,20409,1,0,0:0:0:0:
321,167,20484,1,0,0:0:0:0:
160,202,20559,1,0,0:0:0:0:
423,280,20859,1,8,0:0:0:0:
364,244,21009,1,0,0:0:0:0:
337,230,21084,1,0,0:0:0:0:
185,97,21159,1,0,0:0:0:0:
185,97,21309,1,0,0:0:0:0:
426,198,21459,1,8,0:0:0:0:
233,263,21534,1,8,0:0:0:0:
284,262,21609,1,0,0:0:0:0:
218,240,21684,1,0,0:0:0:0:
218,240,21759,1,8,0:0:0:0:
284,151,21909,1,0,0:0:0:0:
239,137,21984,1,0,0:0:0:0:
239,137,22059,1,8,0:0:0:0:
239,137,22209,1,0,0:0:0:0:
407,190,22359,1,8,0:0:0:0:
407,190,22434,1,8,0:0:0:0:
407,190,22509,1,0,0:0:0:0:
407,190,22584,1,0,0:0:0:0:
407,190,22659,1,8,0:0:0:0:
407,190,22734,1,8,0:0:0:0:
407,190,22809,1,8,0:0:0:0:
102,140,22959,1,4,0:0:0:0:
301,235,23259,1,8,0:0:0:0:
381,154,23409,1,0,0:0:0:0:
174,226,23484,1,0,0:0:0:0:
197,295,23559,1,8,0:0:0:0:
167,80,23634,1,8,0:0:0:0:
167,80,23709,1,0,0:0:0:0:
217,235,23859,1,8,0:0:0:0:
167,80,24009,1,8,0:0:0:0:
167,80,24084,1,8,0:0:0:0:
167,80,24159,1,0,0:0:0:0:
268,268,24309,1,0,0:0:0:0:
220,164,24459,1,8,0:0:0:0:
282,118,24609,1,0,0:0:0:0:
344,149,24684,1,0,0:0:0:0:
344,149,24759,1,0,0:0:0:0:
344,149,24834,1,0,0:0:0:0:
344,149,24909,1,8,0:0:0:0:
284,232,25059,1,0,0:0:0:0:
262,117,25209,1,0,0:0:0:0:
262,117,25284,1,0,0:0:0:0:
232,136,25359,1,8,0:0:0:0:
117,121,25659,1,0,0:0:0:0:
169,193,25809,1,8,0:0:0:0:
169,193,25884,1,8,0:0:0:0:
169,193,25959,1,0,0:0:0:0:
169,193,26109,1,0,0:0:0:0:
169,193,26259,1,8,0:0:0:0:
272,237,26334,1,8,0:0:0:0:
221,249,26409,1,0,0:0:0:0:
201,232,26484,1,0,0:0:0:0:
168,279,26559,1,8,0:0:0:0:
270,222,26709,1,0,0:0:0:0:
242,208,26859,1,0,0:0:0:0:
215,243,27009,1,8,0:0:0:0:
207,232,27159,1,0,0:0:0:0:
274,243,27234,1,0,0:0:0:0:
252,266,27309,1,0,0:0:0:0:
248,189,27384,1,0,0:0:0:0:
201,193,27459,1,8,0:0:0:0:
201,193,27609,1,8,0:0:0:0:
175,236,27684,1,8,0:0:0:0:
124,183,27759,1,0,0:0:0:0:
359,232,28059,1,8,0:0:0:0:
356,302,28209,1,0,0:0:0:0:
358,151,28284,1,0,0:0:0:0:
304,127,28359,1,0,0:0:0:0:
316,61,28509,1,8,0:0:0:0:
478,181,28659,1,0,0:0:0:0:
478,181,28734,1,0,0:0:0:0:
478,181,28809,1,0,0:0:0:0:
478,181,28884,1,0,0:0:0:0:
478,181,28959,1,8,0:0:0:0:
416,193,29109,1,0,0:0:0:0:
416,193,29184,1,0,0:0:0:0:
416,193,29259,1,8,0:0:0:0:
416,193,29409,1,0,0:0:0:0:
230,128,29559,1,8,0:0:0:0:
230,128,29634,1,8,0:0:0:0:
230,128,29709,1,0,0:0:0:0:
230,128,29784,1,0,0:0:0:0:
230,128,29859,1,8,0:0:0:0:
253,176,30009,1,0,0:0:0:0:
263,243,30084,1,0,0:0:0:0:
226,230,30159,1,8,0:0:0:0:
219,242,30459,1,0,0:0:0:0:
305,176,30609,1,8,0:0:0:0:
305,176,30684,1,8,0:0:0:0:
305,176,30759,1,8,0:0:0:0:
329,207,30909,1,0,0:0:0:0:
354,168,31059,1,8,0:0:0:0:
354,168,31134,1,8,0:0:0:0:
354,168,31209,1,8,0:0:0:0:
354,168,31284,1,8,0:0:0:0:
354,168,31359,1,0,0:0:0:0:
314,163,31509,1,8,0:0:0:0:
314,163,31584,1,8,0:0:0:0:
314,163,31659,1,0,0:0:0:0:
314,163,31809,1,8,0:0:0:0:
314,163,31959,1,0,0:0:0:0:
314,163,32109,1,0,0:0:0:0:
314,163,32259,1,8,0:0:0:0:
281,198,32559,1,0,0:0:0:0:
224,197,33459,1,0,0:0:0:0:
294,187,33759,1,8,0:0:0:0:
294,187,34059,1,8,0:0:0:0:
294,187,34359,1,0,0:0:0:0:
294,187,34659,1,0,0:0:0:0:
295,174,34959,1,8,0:0:0:0:
309,214,35859,1,8,0:0:0:0:
309,214,36159,1,0,0:0:0:0:
309,214,36459,1,0,0:0:0:0:
267,112,36759,1,8,0:0:0:0:
267,112,37059,1,8,0:0:0:0:
267,112,37359,1,0,0:0:0:0:
283,274,38259,1,0,0:0:0:0:
283,274,38559,1,8,0:0:0:0:
250,159,39009,1,0,0:0:0:0:
250,159,39459,1,0,0:0:0:0:
250,159,39759,1,8,0:0:0:0:
153,158,40359,1,8,0:0:0:0:
153,158,40959,1,0,0:0:0:0:
341,271,42159,5,0,0:0:0:0:
341,271,42309,1,0,0:0:0:0:
325,242,42609,1,0,0:0:0:0:
325,242,42909,1,0,0:0:0:0:
325,242,43209,1,0,0:0:0:0:
325,242,43359,1,8,0:0:0:0:
434,206,44559,1,8,0:0:0:0:
434,206,44709,1,8,0:0:0:0:
434,206,45009,1,8,0:0:0:0:
434,206,45309,1,8,0:0:0:0:
434,206,45609,1,8,0:0:0:0:
247,243,45759,1,0,0:0:0:0:
248,243,46959,1,0,0:0:0:0:
248,243,47109,1,0,0:0:0:0:
248,243,47409,1,0,0:0:0:0:
248,243,47709,1,0,0:0:0:0:
248,243,48009,1,0,0:0:0:0:
248,243,48159,1,8,0:0:0:0:
247,243,49359,1,8,0:0:0:0:
247,243,49509,1,8,0:0:0:0:
247,243,49809,1,8,0:0:0:0:
247,243,50109,1,8,0:0:0:0:
247,243,50409,1,8,0:0:0:0:
247,243,50559,1,0,0:0:0:0:
322,242,50709,1,0,0:0:0:0:
260,145,50859,1,8,0:0:0:0:
260,145,51009,1,0,0:0:0:0:
377,266,51159,1,0,0:0:0:0:
348,195,51459,1,8,0:0:0:0:
354,170,51609,1,4,0:0:0:0:
220,92,51909,1,0,0:0:0:0:
220,92,52059,1,8,0:0:0:0:
259,303,52209,1,8,0:0:0:0:
240,219,52359,1,0,0:0:0:0:
274,300,52509,1,8,0:0:0:0:
196,293,52659,1,0,0:0:0:0:
240,219,52809,1,0,0:0:0:0:
298,122,52959,1,8,0:0:0:0:
298,122,53109,1,8,0:0:0:0:
283,114,53259,1,0,0:0:0:0:
200,142,53409,1,8,0:0:0:0:
198,156,53709,1,8,0:0:0:0:
281,240,53859,1,0,0:0:0:0:
281,240,54009,1,8,0:0:0:0:
342,206,54309,1,8,0:0:0:0:
352,220,54459,1,0,0:0:0:0:
352,220,54609,1,0,0:0:0:0:
347,156,54759,1,8,0:0:0:0:
347,156,54909,1,0,0:0:0:0:
301,207,55059,1,8,0:0:0:0:
191,222,55209,1,8,0:0:0:0:
253,239,55359,1,0,0:0:0:0:
253,239,55509,1,0,0:0:0:0:
213,178,55659,1,8,0:0:0:0:
213,178,55809,1,0,0:0:0:0:
269,248,56109,1,0,0:0:0:0:
269,248,56259,1,8,0:0:0:0:
78,187,56409,1,0,0:0:0:0:
347,159,56709,1,0,0:0:0:0:
312,155,56859,1,8,0:0:0:0:
137,248,57009,1,8,0:0:0:0:
346,303,57159,1,0,0:0:0:0:
346,303,57309,1,0,0:0:0:0:
157,170,57459,1,8,0:0:0:0:
157,170,57609,1,0,0:0:0:0:
207,207,57759,1,8,0:0:0:0:
207,207,57909,1,8,0:0:0:0:
309,173,58059,1,0,0:0:0:0:
237,150,58209,1,8,0:0:0:0:
270,242,58509,1,8,0:0:0:0:
270,242,58659,1,0,0:0:0:0:
153,214,58809,1,8,0:0:0:0:
315,271,59109,1,0,0:0:0:0:
315,271,59259,1,8,0:0:0:0:
279,251,59559,1,0,0:0:0:0:
279,251,59709,1,0,0:0:0:0:
279,251,59859,1,8,0:0:0:0:
248,270,60159,1,0,0:0:0:0:
248,270,60309,1,0,0:0:0:0:
209,272,60459,1,8,0:0:0:0:
238,240,60759,1,0,0:0:0:0:
246,281,60909,1,8,0:0:0:0:
249,283,61059,1,8,0:0:0:0:
307,239,61209,1,4,0:0:0:0:
220,92,61509,1,0,0:0:0:0:
220,92,61659,1,8,0:0:0:0:
259,303,61809,1,8,0:0:0:0:
334,125,61884,1,8,0:0:0:0:
240,219,61959,1,0,0:0:0:0:
274,300,62109,1,8,0:0:0:0:
196,293,62259,1,0,0:0:0:0:
366,232,62409,1,0,0:0:0:0:
298,122,62559,1,8,0:0:0:0:
271,252,62634,1,8,0:0:0:0:
292,244,62709,1,8,0:0:0:0:
283,114,62859,1,0,0:0:0:0:
200,142,63009,1,8,0:0:0:0:
198,156,63309,1,8,0:0:0:0:
281,240,63459,1,0,0:0:0:0:
281,240,63609,1,8,0:0:0:0:
342,206,63909,1,8,0:0:0:0:
352,220,64059,1,0,0:0:0:0:
352,220,64209,1,0,0:0:0:0:
325,299,64284,1,0,0:0:0:0:
347,156,64359,1,8,0:0:0:0:
347,156,64509,1,0,0:0:0:0:
301,207,64659,1,8,0:0:0:0:
191,222,64809,1,8,0:0:0:0:
253,239,64959,1,0,0:0:0:0:
382,252,65034,1,0,0:0:0:0:
253,239,65109,1,0,0:0:0:0:
213,178,65259,1,8,0:0:0:0:
213,178,65409,1,0,0:0:0:0:
269,248,65709,1,0,0:0:0:0:
269,248,65859,1,8,0:0:0:0:
78,187,66009,1,0,0:0:0:0:
347,159,66309,1,0,0:0:0:0:
312,155,66459,1,8,0:0:0:0:
137,248,66609,1,8,0:0:0:0:
364,244,66684,1,8,0:0:0:0:
346,303,66759,1,0,0:0:0:0:
346,303,66909,1,0,0:0:0:0:
157,170,67059,1,8,0:0:0:0:
157,170,67209,1,0,0:0:0:0:
208,274,67284,1,0,0:0:0:0:
250,281,67359,1,8,0:0:0:0:
196,296,67434,1,8,0:0:0:0:
207,207,67509,1,8,0:0:0:0:
309,173,67659,1,0,0:0:0:0:
237,150,67809,1,8,0:0:0:0:
402,147,67959,1,0,0:0:0:0:
402,147,68034,1,0,0:0:0:0:
403,154,68109,1,0,0:0:0:0:
416,180,68184,1,0,0:0:0:0:
416,180,68259,1,8,0:0:0:0:
416,180,68334,1,8,0:0:0:0:
416,180,68409,1,0,0:0:0:0:
282,260,68559,1,8,0:0:0:0:
368,215,68859,1,8,0:0:0:0:
368,215,69009,1,0,0:0:0:0:
368,215,69084,1,0,0:0:0:0:
368,215,69159,1,8,0:0:0:0:
368,215,69309,1,0,0:0:0:0:
368,215,69459,1,8,0:0:0:0:
376,214,69609,1,0,0:0:0:0:
375,213,69759,1,8,0:0:0:0:
199,283,69834,1,8,0:0:0:0:
178,263,69909,1,0,0:0:0:0:
257,237,70059,1,8,0:0:0:0:
271,301,70209,1,0,0:0:0:0:
326,234,70359,1,8,0:0:0:0:
326,234,70459,1,8,0:0:0:0:
326,234,70559,1,8,0:0:0:0:
326,234,70659,1,8,0:0:0:0:
326,234,70759,1,8,0:0:0:0:
326,234,70859,1,8,0:0:0:0:
326,234,70959,1,0,0:0:0:0:
256,192,71109,12,0,72159,0:0:0:0:
272,209,72459,5,0,0:0:0:0:
268,241,72759,1,8,0:0:0:0:
268,241,73059,1,8,0:0:0:0:
133,191,73359,1,4,0:0:0:0:
213,136,73509,1,8,0:0:0:0:
213,136,73584,1,8,0:0:0:0:
213,136,73659,1,8,0:0:0:0:
213,136,73809,1,0,0:0:0:0:
364,192,73959,1,8,0:0:0:0:
364,192,74034,1,8,0:0:0:0:
364,192,74109,1,0,0:0:0:0:
364,192,74259,1,8,0:0:0:0:
335,220,74334,1,8,0:0:0:0:
217,260,74409,1,0,0:0:0:0:
159,258,74484,1,0,0:0:0:0:
159,258,74559,1,8,0:0:0:0:
253,159,74709,1,0,0:0:0:0:
253,159,74784,1,0,0:0:0:0:
253,159,74859,1,0,0:0:0:0:
253,159,75009,1,8,0:0:0:0:
253,159,75159,1,0,0:0:0:0:
253,159,75234,1,0,0:0:0:0:
253,159,75309,1,8,0:0:0:0:
253,159,75459,1,0,0:0:0:0:
311,280,75534,1,0,0:0:0:0:
253,159,75609,1,8,0:0:0:0:
253,159,75684,1,8,0:0:0:0:
253,159,75759,1,0,0:0:0:0:
209,130,75909,1,0,0:0:0:0:
202,165,76059,1,8,0:0:0:0:
373,200,76209,1,0,0:0:0:0:
378,204,76284,1,0,0:0:0:0:
373,200,76359,1,0,0:0:0:0:
373,200,76434,1,0,0:0:0:0:
373,200,76509,1,0,0:0:0:0:
290,238,76659,1,8,0:0:0:0:
261,109,76809,1,0,0:0:0:0:
261,109,76884,1,0,0:0:0:0:
261,109,76959,1,8,0:0:0:0:
261,109,77259,1,0,0:0:0:0:
261,109,77409,1,8,0:0:0:0:
261,109,77484,1,8,0:0:0:0:
261,109,77559,1,8,0:0:0:0:
261,109,77634,1,8,0:0:0:0:
261,109,77709,1,8,0:0:0:0:
188,196,77859,1,0,0:0:0:0:
188,196,78009,1,8,0:0:0:0:
188,196,78084,1,8,0:0:0:0:
188,196,78159,1,0,0:0:0:0:
364,253,78459,1,8,0:0:0:0:
302,110,78609,1,0,0:0:0:0:
302,110,78684,1,0,0:0:0:0:
302,110,78759,1,0,0:0:0:0:
302,110,78909,1,8,0:0:0:0:
302,110,79059,1,0,0:0:0:0:
302,110,79134,1,0,0:0:0:0:
302,110,79209,1,0,0:0:0:0:
259,190,79359,1,8,0:0:0:0:
221,263,79434,1,8,0:0:0:0:
247,309,79509,1,0,0:0:0:0:
263,230,79659,1,0,0:0:0:0:
217,252,79809,1,8,0:0:0:0:
310,290,79884,1,8,0:0:0:0:
213,279,79959,1,0,0:0:0:0:
163,241,80034,1,0,0:0:0:0:
213,279,80109,1,0,0:0:0:0:
226,183,80259,1,8,0:0:0:0:
231,52,80409,1,0,0:0:0:0:
231,52,80484,1,0,0:0:0:0:
231,52,80559,1,8,0:0:0:0:
388,187,80859,1,0,0:0:0:0:
439,182,81009,1,8,0:0:0:0:
297,215,81084,1,8,0:0:0:0:
219,217,81159,1,8,0:0:0:0:
244,272,81309,1,0,0:0:0:0:
282,237,81459,1,8,0:0:0:0:
244,272,81534,1,8,0:0:0:0:
282,237,81609,1,8,0:0:0:0:
392,139,81759,1,0,0:0:0:0:
392,139,81834,1,0,0:0:0:0:
392,139,81909,1,8,0:0:0:0:
392,139,81984,1,8,0:0:0:0:
392,139,82059,1,0,0:0:0:0:
296,281,82134,1,0,0:0:0:0:
236,203,82209,1,0,0:0:0:0:
261,73,82359,1,8,0:0:0:0:
33,109,82434,1,8,0:0:0:0:
261,73,82509,1,0,0:0:0:0:
261,73,82584,1,0,0:0:0:0:
261,73,82659,1,8,0:0:0:0:
261,73,82734,1,8,0:0:0:0:
261,73,82809,1,8,0:0:0:0:
337,178,82959,1,4,0:0:0:0:
213,136,83259,1,8,0:0:0:0:
213,136,83409,1,0,0:0:0:0:
268,80,83484,1,0,0:0:0:0:
364,192,83559,1,8,0:0:0:0:
364,192,83709,1,0,0:0:0:0:
364,192,83859,1,8,0:0:0:0:
374,111,83934,1,8,0:0:0:0:
268,69,84009,1,0,0:0:0:0:
268,69,84159,1,8,0:0:0:0:
268,69,84234,1,8,0:0:0:0:
260,164,84309,1,0,0:0:0:0:
260,164,84384,1,0,0:0:0:0:
253,159,84459,1,0,0:0:0:0:
253,159,84609,1,8,0:0:0:0:
253,159,84759,1,0,0:0:0:0:
253,159,84834,1,0,0:0:0:0:
253,159,84909,1,8,0:0:0:0:
253,159,85059,1,0,0:0:0:0:
311,280,85134,1,0,0:0:0:0:
253,159,85209,1,8,0:0:0:0:
253,159,85284,1,8,0:0:0:0:
253,159,85359,1,0,0:0:0:0:
209,130,85509,1,0,0:0:0:0:
202,165,85659,1,8,0:0:0:0:
373,200,85809,1,0,0:0:0:0:
378,204,85884,1,0,0:0:0:0:
373,200,85959,1,0,0:0:0:0:
373,200,86034,1,0,0:0:0:0:
373,200,86109,1,0,0:0:0:0:
290,238,86259,1,8,0:0:0:0:
347,284,86334,1,8,0:0:0:0:
261,109,86409,1,0,0:0:0:0:
261,109,86484,1,0,0:0:0:0:
261,109,86559,1,8,0:0:0:0:
261,109,86709,1,8,0:0:0:0:
203,234,86784,1,8,0:0:0:0:
261,109,86859,1,0,0:0:0:0:
261,109,87009,1,8,0:0:0:0:
261,109,87159,1,0,0:0:0:0:
261,109,87234,1,0,0:0:0:0:
319,197,87309,1,0,0:0:0:0:
319,197,87384,1,0,0:0:0:0:
188,196,87459,1,8,0:0:0:0:
188,196,87609,1,8,0:0:0:0:
188,196,87684,1,8,0:0:0:0:
188,196,87759,1,0,0:0:0:0:
364,253,88059,1,8,0:0:0:0:
302,110,88209,1,0,0:0:0:0:
302,110,88284,1,0,0:0:0:0:
302,110,88359,1,0,0:0:0:0:
302,110,88509,1,8,0:0:0:0:
302,110,88659,1,0,0:0:0:0:
302,110,88734,1,0,0:0:0:0:
302,110,88809,1,0,0:0:0:0:
259,190,88959,1,8,0:0:0:0:
221,263,89034,1,8,0:0:0:0:
247,309,89109,1,0,0:0:0:0:
399,207,89184,1,0,0:0:0:0:
263,230,89259,1,8,0:0:0:0:
217,252,89409,1,8,0:0:0:0:
310,290,89484,1,8,0:0:0:0:
213,279,89559,1,0,0:0:0:0:
163,241,89634,1,0,0:0:0:0:
145,92,89709,1,0,0:0:0:0:
226,183,89859,1,8,0:0:0:0:
231,52,90009,1,0,0:0:0:0:
231,52,90084,1,0,0:0:0:0:
231,52,90159,1,8,0:0:0:0:
388,187,90459,1,0,0:0:0:0:
439,182,90609,1,8,0:0:0:0:
297,215,90684,1,8,0:0:0:0:
219,217,90759,1,8,0:0:0:0:
244,272,90909,1,0,0:0:0:0:
282,237,91059,1,8,0:0:0:0:
244,272,91134,1,8,0:0:0:0:
282,237,91209,1,8,0:0:0:0:
245,136,91359,1,0,0:0:0:0:
243,88,91509,1,8,0:0:0:0:
243,88,91584,1,8,0:0:0:0:
243,88,91659,1,0,0:0:0:0:
243,88,91809,1,8,0:0:0:0:
243,88,91884,1,8,0:0:0:0:
243,88,91959,1,0,0:0:0:0:
243,88,92034,1,0,0:0:0:0:
243,88,92109,1,8,0:0:0:0:
243,88,92184,1,8,0:0:0:0:
243,88,92259,1,0,0:0:0:0:
252,191,92409,1,8,0:0:0:0:
75,124,92484,1,0,0:0:0:0:
240,181,92559,1,8,0:0:0:0:
387,105,92859,1,8,0:0:0:0:
387,105,93009,1,0,0:0:0:0:
387,105,93084,1,0,0:0:0:0:
387,105,93159,1,8,0:0:0:0:
387,105,93309,1,0,0:0:0:0:
387,105,93459,1,8,0:0:0:0:
387,105,93534,1,8,0:0:0:0:
387,105,93609,1,0,0:0:0:0:
292,171,93759,1,8,0:0:0:0:
298,212,93834,1,8,0:0:0:0:
206,222,93909,1,0,0:0:0:0:
154,185,93984,1,0,0:0:0:0:
154,185,94059,1,8,0:0:0:0:
154,185,94209,1,0,0:0:0:0:
324,266,94284,1,0,0:0:0:0:
324,266,94359,1,0,0:0:0:0:
411,329,94559,1,8,0:0:0:0:
411,329,94659,1,8,0:0:0:0:
411,329,94759,1,8,0:0:0:0:
411,329,94859,1,8,0:0:0:0:
