osu file format v14

[General]
AudioFilename: audio.mp3
AudioLeadIn: 0
PreviewTime: 72309
Countdown: 0
SampleSet: Normal
StackLeniency: 0.7
Mode: 1
LetterboxInBreaks: 0
WidescreenStoryboard: 1

[Editor]
DistanceSpacing: 1.1
BeatDivisor: 4
GridSize: 4
TimelineZoom: 1.6

[Metadata]
Title:Shuuen Requiem
TitleUnicode:終焉レクイエム
Artist:MY FIRST STORY
ArtistUnicode:MY FIRST STORY
Creator:A r M i N
Version:Chromoxx' Muzukashii
Source:
Tags:short cut version j-rock rock jp japanese male vocalist mfs Kowari AirinCat MiracleE Spoes SMOKELIND Armin A_r_m_i_n MugiwaraSekai Irohas Stixy Lami intoon
BeatmapID:2390455
BeatmapSetID:1112825

[Difficulty]
HPDrainRate:6.5
CircleSize:3.8
OverallDifficulty:5
ApproachRate:9.3
SliderMultiplier:1.40000000596047
SliderTickRate:1

[Events]
//Background and Video events
0,0,"o.jpg",0,0
//Break Periods
//Storyboard Layer 0 (Background)
//Storyboard Layer 1 (Fail)
//Storyboard Layer 2 (Pass)
//Storyboard Layer 3 (Foreground)
//Storyboard Layer 4 (Overlay)
//Storyboard Sound Samples

[TimingPoints]
1359,300,4,1,0,40,1,0
12121,-100,4,1,0,70,0,0
13321,-100,4,1,0,80,0,0
32859,-100,4,1,0,60,0,0
42084,-100,4,1,0,80,0,0
71071,-100,4,1,0,40,0,0
72159,-133.333333333333,4,1,0,40,0,0
72309,-133.333333333333,4,1,0,60,0,0
73284,-100,4,1,0,90,0,0
73359,-100,4,1,0,90,0,1
94859,-100,4,1,0,90,0,0

[Colours]
Combo1 : 170,255,170
Combo2 : 255,198,170
Combo3 : 255,255,170
Combo4 : 255,170,255

[HitObjects]
256,192,8559,12,0,11859,0:0:0:0:
266,168,12159,5,0,0:0:0:0:
275,247,12459,1,0,0:0:0:0:
275,247,12609,1,8,0:0:0:0:
285,253,12909,1,0,0:0:0:0:
311,147,13059,1,8,0:0:0:0:
311,147,13134,1,8,0:0:0:0:
279,143,13209,1,8,0:0:0:0:
207,134,13359,1,4,0:0:0:0:
347,283,13809,1,8,0:0:0:0:
351,263,14109,1,0,0:0:0:0:
351,263,14259,1,8,0:0:0:0:
201,213,14559,1,0,0:0:0:0:
348,265,14859,1,8,0:0:0:0:
226,80,15009,1,8,0:0:0:0:
244,85,15159,1,0,0:0:0:0:
105,141,15309,1,8,0:0:0:0:
137,150,15459,1,0,0:0:0:0:
84,120,15609,1,0,0:0:0:0:
244,267,15759,1,8,0:0:0:0:
124,226,16059,1,0,0:0:0:0:
124,226,16209,1,8,0:0:0:0:
219,282,16509,1,8,0:0:0:0:
182,179,16659,1,0,0:0:0:0:
182,179,16959,1,8,0:0:0:0:
312,207,17259,1,0,0:0:0:0:
270,282,17409,1,0,0:0:0:0:
270,282,17559,1,8,0:0:0:0:
270,282,17709,1,0,0:0:0:0:
121,125,17859,1,8,0:0:0:0:
55,110,18009,1,0,0:0:0:0:
55,110,18084,1,0,0:0:0:0:
202,146,18159,1,0,0:0:0:0:
318,170,18609,1,8,0:0:0:0:
287,163,18909,1,0,0:0:0:0:
287,163,19059,1,8,0:0:0:0:
201,236,19359,1,0,0:0:0:0:
269,247,19659,1,8,0:0:0:0:
269,247,19809,1,8,0:0:0:0:
233,201,19959,1,0,0:0:0:0:
253,258,20109,1,0,0:0:0:0:
69,168,20259,1,8,0:0:0:0:
322,209,20559,1,0,0:0:0:0:
347,259,20709,1,8,0:0:0:0:
363,273,20859,1,8,0:0:0:0:
267,288,21009,1,0,0:0:0:0:
311,265,21309,1,0,0:0:0:0:
199,230,21459,1,8,0:0:0:0:
185,116,21609,1,0,0:0:0:0:
202,189,21759,1,8,0:0:0:0:
307,249,21909,1,0,0:0:0:0:
295,186,22059,1,8,0:0:0:0:
115,236,22209,1,8,0:0:0:0:
319,252,22359,1,0,0:0:0:0:
266,227,22434,1,0,0:0:0:0:
217,219,22509,1,0,0:0:0:0:
226,260,22659,1,8,0:0:0:0:
202,255,22734,1,8,0:0:0:0:
226,260,22809,1,8,0:0:0:0:
238,205,22959,1,4,0:0:0:0:
347,283,23409,1,8,0:0:0:0:
351,263,23709,1,0,0:0:0:0:
351,263,23859,1,8,0:0:0:0:
201,213,24159,1,0,0:0:0:0:
348,265,24459,1,8,0:0:0:0:
226,80,24609,1,8,0:0:0:0:
244,85,24759,1,0,0:0:0:0:
105,141,24909,1,8,0:0:0:0:
137,150,25059,1,0,0:0:0:0:
204,206,25209,1,0,0:0:0:0:
244,267,25359,1,8,0:0:0:0:
407,212,25659,1,0,0:0:0:0:
376,222,25809,1,8,0:0:0:0:
219,282,26109,1,8,0:0:0:0:
182,179,26259,1,0,0:0:0:0:
279,95,26409,1,0,0:0:0:0:
182,179,26559,1,8,0:0:0:0:
312,207,26859,1,0,0:0:0:0:
270,282,27009,1,0,0:0:0:0:
270,282,27159,1,8,0:0:0:0:
270,282,27309,1,0,0:0:0:0:
121,125,27459,1,8,0:0:0:0:
134,156,27609,1,0,0:0:0:0:
134,156,27684,1,0,0:0:0:0:
202,146,27759,1,0,0:0:0:0:
318,170,28209,1,8,0:0:0:0:
287,163,28509,1,0,0:0:0:0:
287,163,28659,1,8,0:0:0:0:
52,111,28809,1,8,0:0:0:0:
201,236,28959,1,0,0:0:0:0:
269,247,29259,1,8,0:0:0:0:
269,247,29409,1,8,0:0:0:0:
233,201,29559,1,0,0:0:0:0:
253,258,29709,1,0,0:0:0:0:
69,168,29859,1,8,0:0:0:0:
118,153,30009,1,0,0:0:0:0:
176,153,30084,1,0,0:0:0:0:
176,153,30159,1,0,0:0:0:0:
219,101,30459,1,8,0:0:0:0:
267,288,30609,1,0,0:0:0:0:
407,222,30909,1,0,0:0:0:0:
271,82,31059,1,8,0:0:0:0:
310,118,31209,1,8,0:0:0:0:
357,316,31359,1,0,0:0:0:0:
307,249,31509,1,0,0:0:0:0:
295,186,31659,1,8,0:0:0:0:
133,52,31809,1,8,0:0:0:0:
319,252,31959,1,0,0:0:0:0:
266,227,32034,1,0,0:0:0:0:
217,219,32109,1,0,0:0:0:0:
226,260,32259,1,8,0:0:0:0:
202,255,32334,1,8,0:0:0:0:
226,260,32409,1,8,0:0:0:0:
238,205,32559,1,0,0:0:0:0:
184,133,33459,1,8,0:0:0:0:
134,168,33759,1,0,0:0:0:0:
326,81,34059,1,8,0:0:0:0:
337,225,34359,1,0,0:0:0:0:
337,225,34659,1,0,0:0:0:0:
337,225,34959,1,8,0:0:0:0:
230,229,35859,1,0,0:0:0:0:
181,279,36159,1,8,0:0:0:0:
181,279,36459,1,0,0:0:0:0:
184,196,36759,1,8,0:0:0:0:
184,196,37059,1,8,0:0:0:0:
184,196,37359,1,0,0:0:0:0:
322,186,38259,1,8,0:0:0:0:
284,208,38559,1,8,0:0:0:0:
284,208,39009,1,0,0:0:0:0:
368,207,39459,1,0,0:0:0:0:
284,208,39759,1,8,0:0:0:0:
284,208,40359,1,8,0:0:0:0:
278,203,40959,1,0,0:0:0:0:
204,145,42159,1,0,0:0:0:0:
204,145,42309,1,0,0:0:0:0:
413,190,42609,1,0,0:0:0:0:
413,190,42909,1,0,0:0:0:0:
413,190,43209,1,0,0:0:0:0:
413,190,43359,1,8,0:0:0:0:
257,175,44559,1,8,0:0:0:0:
257,175,44709,1,8,0:0:0:0:
257,175,45009,1,8,0:0:0:0:
257,175,45309,1,8,0:0:0:0:
257,175,45609,1,8,0:0:0:0:
257,175,45759,1,0,0:0:0:0:
217,198,46959,1,0,0:0:0:0:
217,198,47109,1,0,0:0:0:0:
217,198,47409,1,0,0:0:0:0:
217,198,47709,1,0,0:0:0:0:
217,198,48009,1,0,0:0:0:0:
217,198,48159,1,8,0:0:0:0:
303,166,49359,1,8,0:0:0:0:
303,166,49509,1,8,0:0:0:0:
303,166,49809,1,8,0:0:0:0:
303,166,50109,1,8,0:0:0:0:
303,166,50409,1,8,0:0:0:0:
303,166,50559,1,0,0:0:0:0:
155,80,50859,1,0,0:0:0:0:
180,181,51009,1,0,0:0:0:0:
155,80,51159,1,8,0:0:0:0:
155,80,51459,1,8,0:0:0:0:
155,80,51609,1,4,0:0:0:0:
285,150,52059,1,8,0:0:0:0:
285,150,52359,1,0,0:0:0:0:
102,155,52509,1,0,0:0:0:0:
285,150,52659,1,8,0:0:0:0:
126,235,52809,1,0,0:0:0:0:
126,235,52959,1,8,0:0:0:0:
202,265,53259,1,8,0:0:0:0:
231,259,53409,1,0,0:0:0:0:
353,237,53709,1,0,0:0:0:0:
241,252,54009,1,8,0:0:0:0:
321,178,54459,1,0,0:0:0:0:
330,312,54609,1,0,0:0:0:0:
330,133,54759,1,8,0:0:0:0:
90,159,54909,1,8,0:0:0:0:
90,159,55059,1,0,0:0:0:0:
121,167,55359,1,8,0:0:0:0:
330,133,55509,1,8,0:0:0:0:
256,179,55809,1,0,0:0:0:0:
241,162,56109,1,8,0:0:0:0:
241,162,56409,1,0,0:0:0:0:
177,193,56859,1,8,0:0:0:0:
277,250,57159,1,0,0:0:0:0:
202,124,57309,1,0,0:0:0:0:
198,242,57459,1,8,0:0:0:0:
277,250,57609,1,0,0:0:0:0:
198,242,57759,1,0,0:0:0:0:
179,145,58059,1,0,0:0:0:0:
179,145,58209,1,8,0:0:0:0:
181,164,58509,1,8,0:0:0:0:
329,262,58659,1,8,0:0:0:0:
180,167,58809,1,0,0:0:0:0:
133,179,59109,1,0,0:0:0:0:
273,208,59259,1,8,0:0:0:0:
271,200,59559,1,0,0:0:0:0:
250,207,60159,1,8,0:0:0:0:
235,282,60459,1,0,0:0:0:0:
235,282,60759,1,8,0:0:0:0:
175,94,60909,1,0,0:0:0:0:
253,191,61059,1,8,0:0:0:0:
319,265,61209,1,4,0:0:0:0:
285,150,61659,1,8,0:0:0:0:
285,150,61959,1,0,0:0:0:0:
285,150,62109,1,0,0:0:0:0:
285,150,62259,1,8,0:0:0:0:
348,216,62409,1,0,0:0:0:0:
333,242,62559,1,8,0:0:0:0:
195,244,62859,1,8,0:0:0:0:
195,244,63009,1,0,0:0:0:0:
353,237,63309,1,0,0:0:0:0:
241,252,63609,1,8,0:0:0:0:
321,178,64059,1,0,0:0:0:0:
408,261,64209,1,0,0:0:0:0:
330,133,64359,1,8,0:0:0:0:
148,93,64509,1,8,0:0:0:0:
330,133,64659,1,0,0:0:0:0:
252,109,64959,1,8,0:0:0:0:
256,179,65259,1,0,0:0:0:0:
256,179,65409,1,8,0:0:0:0:
241,162,65709,1,8,0:0:0:0:
241,162,66009,1,0,0:0:0:0:
177,193,66459,1,8,0:0:0:0:
200,200,66759,1,0,0:0:0:0:
357,98,66909,1,0,0:0:0:0:
333,184,67059,1,8,0:0:0:0:
239,216,67209,1,8,0:0:0:0:
260,230,67359,1,0,0:0:0:0:
179,145,67659,1,0,0:0:0:0:
179,145,67809,1,8,0:0:0:0:
356,213,67959,1,0,0:0:0:0:
344,275,68034,1,0,0:0:0:0:
281,302,68109,1,0,0:0:0:0:
260,281,68259,1,8,0:0:0:0:
239,285,68334,1,8,0:0:0:0:
180,268,68409,1,8,0:0:0:0:
173,258,68559,1,0,0:0:0:0:
258,125,68859,1,8,0:0:0:0:
258,125,69159,1,8,0:0:0:0:
258,125,69309,1,0,0:0:0:0:
258,125,69459,1,8,0:0:0:0:
258,125,69759,1,8,0:0:0:0:
300,184,69909,1,0,0:0:0:0:
300,184,70059,1,8,0:0:0:0:
300,184,70209,1,0,0:0:0:0:
362,155,70359,1,8,0:0:0:0:
362,155,70459,1,8,0:0:0:0:
362,155,70559,1,8,0:0:0:0:
362,155,70659,1,8,0:0:0:0:
254,231,70959,1,4,0:0:0:0:
256,192,71109,12,0,72159,0:0:0:0:
292,284,72459,5,0,0:0:0:0:
192,185,72759,1,8,0:0:0:0:
192,185,73059,1,8,0:0:0:0:
308,207,73359,1,4,0:0:0:0:
288,158,73659,1,8,0:0:0:0:
288,158,73809,1,0,0:0:0:0:
202,184,73884,1,0,0:0:0:0:
433,255,73959,1,0,0:0:0:0:
344,230,74109,1,8,0:0:0:0:
344,230,74259,1,0,0:0:0:0:
286,286,74559,1,8,0:0:0:0:
250,297,74709,1,0,0:0:0:0:
250,297,74859,1,0,0:0:0:0:
206,256,75009,1,8,0:0:0:0:
135,135,75084,1,8,0:0:0:0:
179,176,75159,1,8,0:0:0:0:
179,176,75309,1,8,0:0:0:0:
303,202,75459,1,0,0:0:0:0:
260,189,75759,1,8,0:0:0:0:
160,165,75909,1,8,0:0:0:0:
303,202,76059,1,0,0:0:0:0:
303,202,76209,1,8,0:0:0:0:
108,190,76359,1,0,0:0:0:0:
127,224,76434,1,0,0:0:0:0:
127,243,76509,1,0,0:0:0:0:
247,191,76659,1,0,0:0:0:0:
399,226,76959,1,8,0:0:0:0:
245,212,77109,1,0,0:0:0:0:
298,274,77259,1,0,0:0:0:0:
298,274,77409,1,8,0:0:0:0:
109,244,77559,1,0,0:0:0:0:
290,260,77709,1,0,0:0:0:0:
290,260,77859,1,8,0:0:0:0:
139,223,78009,1,0,0:0:0:0:
98,192,78084,1,0,0:0:0:0:
290,260,78159,1,0,0:0:0:0:
130,249,78459,1,0,0:0:0:0:
256,162,78609,1,8,0:0:0:0:
256,162,79059,1,8,0:0:0:0:
252,143,79359,1,0,0:0:0:0:
274,248,79659,1,8,0:0:0:0:
274,248,79809,1,8,0:0:0:0:
190,238,79959,1,0,0:0:0:0:
203,74,80109,1,0,0:0:0:0:
190,238,80259,1,8,0:0:0:0:
259,202,80559,1,0,0:0:0:0:
315,219,80709,1,0,0:0:0:0:
237,260,80859,1,8,0:0:0:0:
237,260,81009,1,0,0:0:0:0:
237,260,81309,1,0,0:0:0:0:
237,260,81459,1,8,0:0:0:0:
222,83,81759,1,8,0:0:0:0:
234,136,81909,1,0,0:0:0:0:
381,133,82059,1,8,0:0:0:0:
381,133,82134,1,8,0:0:0:0:
381,133,82209,1,8,0:0:0:0:
381,133,82359,1,0,0:0:0:0:
381,133,82434,1,0,0:0:0:0:
381,133,82509,1,0,0:0:0:0:
364,221,82659,1,8,0:0:0:0:
223,241,82734,1,8,0:0:0:0:
253,202,82809,1,8,0:0:0:0:
283,246,82959,1,4,0:0:0:0:
288,158,83259,1,8,0:0:0:0:
288,158,83409,1,0,0:0:0:0:
162,241,83484,1,0,0:0:0:0:
120,97,83559,1,0,0:0:0:0:
128,124,83709,1,8,0:0:0:0:
128,124,83859,1,0,0:0:0:0:
286,286,84159,1,8,0:0:0:0:
250,297,84309,1,0,0:0:0:0:
250,297,84459,1,0,0:0:0:0:
206,256,84609,1,8,0:0:0:0:
159,237,84684,1,8,0:0:0:0:
130,173,84759,1,8,0:0:0:0:
303,202,84909,1,8,0:0:0:0:
303,202,85059,1,0,0:0:0:0:
164,130,85209,1,8,0:0:0:0:
260,189,85359,1,8,0:0:0:0:
303,202,85659,1,0,0:0:0:0:
303,202,85809,1,8,0:0:0:0:
138,187,85959,1,8,0:0:0:0:
247,191,86109,1,0,0:0:0:0:
247,191,86259,1,8,0:0:0:0:
152,187,86409,1,0,0:0:0:0:
149,202,86484,1,0,0:0:0:0:
250,179,86559,1,0,0:0:0:0:
173,145,86709,1,8,0:0:0:0:
158,165,86859,1,8,0:0:0:0:
194,228,87009,1,0,0:0:0:0:
362,297,87159,1,8,0:0:0:0:
362,297,87309,1,8,0:0:0:0:
290,260,87459,1,0,0:0:0:0:
297,94,87609,1,8,0:0:0:0:
133,113,87684,1,8,0:0:0:0:
290,260,87759,1,8,0:0:0:0:
157,198,88059,1,8,0:0:0:0:
320,145,88209,1,0,0:0:0:0:
320,156,88659,1,0,0:0:0:0:
320,158,88959,1,8,0:0:0:0:
396,214,89259,1,0,0:0:0:0:
397,220,89409,1,0,0:0:0:0:
392,234,89559,1,8,0:0:0:0:
130,107,89709,1,8,0:0:0:0:
315,246,89859,1,0,0:0:0:0:
246,267,90159,1,8,0:0:0:0:
246,267,90309,1,8,0:0:0:0:
401,194,90459,1,0,0:0:0:0:
306,230,90609,1,8,0:0:0:0:
326,272,90909,1,8,0:0:0:0:
326,272,91059,1,0,0:0:0:0:
222,83,91359,1,8,0:0:0:0:
234,136,91509,1,0,0:0:0:0:
361,143,91659,1,8,0:0:0:0:
361,143,91809,1,8,0:0:0:0:
332,170,91959,1,0,0:0:0:0:
214,129,92034,1,0,0:0:0:0:
214,128,92109,1,0,0:0:0:0:
229,150,92259,1,8,0:0:0:0:
250,199,92334,1,8,0:0:0:0:
250,199,92409,1,8,0:0:0:0:
283,246,92559,1,4,0:0:0:0:
347,153,92859,1,8,0:0:0:0:
100,214,93009,1,0,0:0:0:0:
347,153,93159,1,8,0:0:0:0:
347,153,93309,1,0,0:0:0:0:
196,132,93459,1,8,0:0:0:0:
192,44,93609,1,8,0:0:0:0:
82,97,93684,1,8,0:0:0:0:
345,254,93759,1,8,0:0:0:0:
345,254,93909,1,0,0:0:0:0:
180,117,94059,1,8,0:0:0:0:
235,267,94209,1,8,0:0:0:0:
246,184,94359,1,0,0:0:0:0:
391,162,94559,1,8,0:0:0:0:
391,162,94659,1,8,0:0:0:0:
391,162,94759,1,8,0:0:0:0:
391,162,94859,1,8,0:0:0:0:
