osu file format v14

[General]
AudioFilename: audio.mp3
AudioLeadIn: 0
PreviewTime: 57142
Countdown: 0
SampleSet: Normal
StackLeniency: 0.7
Mode: 0
LetterboxInBreaks: 0
WidescreenStoryboard: 1

[Editor]
Bookmarks: 14428,21285,48714,57856,76142,78428,105856,117284,135570,149284
DistanceSpacing: 2
BeatDivisor: 4
GridSize: 8
TimelineZoom: 1.9

[Metadata]
Title:Shissou Flame
TitleUnicode:失踪FLAME
Artist:MY FIRST STORY
ArtistUnicode:MY FIRST STORY
Creator:rybergy
Version:420 BLAZE IT
Source:
Tags:j-rock japanese rock post-hardcore antithese
BeatmapID:968085
BeatmapSetID:451259

[Difficulty]
HPDrainRate:6.5
CircleSize:4
OverallDifficulty:8
ApproachRate:9.4
SliderMultiplier:1.8
SliderTickRate:1

[Events]
//Background and Video events
0,0,"YOO.jpg",0,0
//Break Periods
//Storyboard Layer 0 (Background)
//Storyboard Layer 1 (Fail)
//Storyboard Layer 2 (Pass)
//Storyboard Layer 3 (Foreground)
//Storyboard Sound Samples

[TimingPoints]
700,285.714285714286,3,2,0,100,1,0
14414,-125,4,2,1,70,0,0
21271,-125,4,2,1,70,0,0
21842,-125,4,2,1,70,0,0
34985,-125,4,1,2,100,0,0
35271,-125,4,1,4,100,0,0
37985,-125,4,3,2,60,0,0
38414,-125,4,1,2,100,0,0
38700,-125,4,1,4,100,0,0
40985,-125,4,3,2,60,0,0
41842,-125,4,1,2,100,0,0
42128,-125,4,1,4,100,0,0
43128,-125,4,3,2,60,0,0
43557,-125,4,1,2,100,0,0
43842,-125,4,1,4,100,0,0
44985,-125,4,3,2,60,0,0
45271,-125,4,1,2,100,0,0
45557,-125,4,1,4,100,0,0
48680,285.714285714286,4,2,0,100,1,0
48680,-90.9090909090909,4,1,3,100,0,0
50394,-90.9090909090909,4,1,1,100,0,0
50822,-90.9090909090909,4,1,3,100,0,0
51251,-90.9090909090909,4,1,1,100,0,0
53251,-90.9090909090909,4,1,3,100,0,0
55822,-90.9090909090909,4,1,1,100,0,0
55965,-90.9090909090909,4,3,2,60,0,0
56537,-90.9090909090909,4,1,2,100,0,0
57680,-100,4,1,2,100,0,1
57965,-100,4,1,1,100,0,1
59965,-100,4,1,2,100,0,1
60251,-100,4,1,1,100,0,1
62251,-100,4,1,2,100,0,1
62537,-100,4,1,1,100,0,1
64537,-100,4,1,2,100,0,1
64822,-100,4,3,2,80,0,1
65251,-100,4,1,1,100,0,1
65680,-100,4,1,2,100,0,1
65965,-125,4,3,2,80,0,1
66394,-100,4,1,1,100,0,0
66537,-100,4,3,2,80,0,0
66822,-100,4,1,2,100,0,1
67108,-100,4,1,1,100,0,1
69108,-100,4,1,2,100,0,1
69394,-100,4,1,1,100,0,1
71394,-100,4,1,2,100,0,1
71680,-100,4,1,1,100,0,1
73680,-100,4,1,2,100,0,1
73965,-100,4,1,1,100,0,1
74537,-100,4,3,2,80,0,1
74965,-100,4,1,1,100,0,1
75108,-100,4,3,2,80,0,1
75537,-100,4,1,1,100,0,1
76108,-125,4,2,1,70,0,0
77822,-125,4,1,1,70,0,0
78108,-125,4,2,1,70,0,0
78394,285.714285714286,3,2,0,100,1,0
78394,-100,4,3,1,100,0,0
84536,-100,4,3,2,60,0,0
84965,-100,4,3,1,100,0,0
90965,-100,4,1,4,100,0,0
92108,-100,4,1,2,100,0,0
92394,-100,4,1,1,100,0,0
98679,-100,4,1,2,100,0,0
98965,-100,4,1,1,100,0,0
100679,-100,4,1,2,100,0,0
100965,-100,4,1,1,100,0,0
102394,-100,4,1,2,100,0,0
105822,285.714285714286,4,2,0,100,1,0
105822,-90.9090909090909,4,1,2,100,0,0
108393,-90.9090909090909,4,1,1,100,0,0
110393,-90.9090909090909,4,1,4,100,0,0
110822,-90.9090909090909,4,3,2,60,0,0
110964,-90.9090909090909,4,1,4,100,0,0
111250,-90.9090909090909,4,1,2,100,0,0
111536,-90.9090909090909,4,1,4,100,0,0
111679,-90.9090909090909,4,3,2,60,0,0
111822,-90.9090909090909,4,1,4,100,0,0
112536,-90.9090909090909,4,1,2,100,0,0
112822,-90.9090909090909,4,1,1,100,0,0
115393,-90.9090909090909,4,3,2,60,0,0
115822,-90.9090909090909,4,1,1,100,0,0
116822,-90.9090909090909,4,3,2,60,0,0
117107,-100,4,1,2,100,0,1
117393,-100,4,1,1,100,0,1
119393,-100,4,1,2,100,0,1
119679,-100,4,1,1,100,0,1
121679,-100,4,1,2,100,0,1
121964,-100,4,1,1,100,0,1
123964,-100,4,1,2,100,0,1
124250,-125,4,3,2,80,0,1
124679,-100,4,1,1,100,0,1
125107,-100,4,1,2,100,0,1
125393,-100,4,3,2,80,0,1
125822,-100,4,1,1,100,0,0
125964,-100,4,3,2,80,0,0
126250,-100,4,1,2,100,0,1
126536,-100,4,1,1,100,0,1
128536,-100,4,1,2,100,0,1
128822,-100,4,1,1,100,0,1
130822,-100,4,1,2,100,0,1
131107,-100,4,1,1,100,0,1
133107,-100,4,1,2,100,0,1
133964,-100,4,3,2,80,0,1
134250,-100,4,1,2,100,0,1
134964,-100,4,1,2,100,0,0
135036,-100,4,3,2,80,0,0
135536,285.714285714286,3,2,0,100,1,0
135536,-100,4,1,2,100,0,0
135678,-100,4,1,4,100,0,0
136393,-100,4,1,2,100,0,0
136536,-100,4,1,4,100,0,0
137250,-100,4,1,2,100,0,0
137393,-100,4,1,4,100,0,0
138107,-100,4,1,2,100,0,0
138536,-100,4,3,2,60,0,0
138964,-100,4,1,2,100,0,0
139250,-100,4,1,4,100,0,0
142393,-100,4,1,2,100,0,0
142536,-100,4,1,4,100,0,0
143250,-100,4,1,2,100,0,0
143393,-100,4,1,4,100,0,0
144107,-100,4,1,2,100,0,0
144250,-100,4,1,4,100,0,0
145393,-100,4,3,2,60,0,0
145821,-100,4,1,2,100,0,0
146107,-100,4,1,4,100,0,0
147536,-100,4,1,2,100,0,0
147964,-100,4,2,4,100,0,0
148250,-100,4,1,1,100,0,0
148821,-100,4,3,2,60,0,0
149107,-100,4,1,4,100,0,0
149250,-100,4,1,2,100,0,0

[HitObjects]
96,152,14414,6,4,P|147:154|196:147,1,72,4|4,0:0|0:0,0:0:0:0:
342,127,14700,1,8,0:0:0:0:
161,235,14985,1,0,0:0:0:0:
171,253,15128,2,0,L|266:258,1,72,4|4,0:0|0:0,0:0:0:0:
264,187,15414,2,0,P|317:256|280:318,1,144,8|0,0:0|0:0,3:0:0:0:
240,343,15842,2,0,L|103:311,1,108,8|0,0:0|0:0,0:0:0:0:
87,299,16128,6,4,B|97:262|97:262|97:221|97:221,1,72,4|4,0:0|0:0,0:0:0:0:
89,76,16414,1,8,0:0:0:0:
187,54,16700,1,4,0:0:0:0:
207,47,16842,2,0,L|217:146,1,72,4|0,0:0|0:0,0:0:0:0:
176,198,17128,2,0,B|260:187|260:187|312:116,1,144,8|4,0:0|0:0,0:0:0:0:
361,53,17557,2,0,L|377:188,1,108,8|0,0:0|0:0,0:0:0:0:
377,213,17842,6,0,P|371:260|335:294,1,72,4|4,0:0|0:0,0:0:0:0:
230,364,18128,1,8,0:0:0:0:
160,301,18414,1,4,0:0:0:0:
180,295,18557,2,0,L|208:198,1,72,4|0,0:0|0:0,0:0:0:0:
268,246,18842,2,0,B|283:178|223:150|157:140,1,144,8|4,0:0|0:0,0:0:0:0:
81,125,19271,2,0,P|140:89|189:51,1,108,8|0,0:0|0:0,0:0:0:0:
217,36,19557,6,0,L|303:42,1,72,4|4,0:0|0:0,0:0:0:0:
440,37,19842,1,8,0:0:0:0:
432,159,20128,1,4,0:0:0:0:
426,179,20271,2,0,B|385:195|385:195|325:194,1,72,4|0,0:0|0:0,0:0:0:0:
351,122,20557,2,0,B|273:122|273:122|198:181,1,144,8|4,0:0|0:0,0:0:0:0:
174,217,20985,2,0,P|109:165|112:115,1,108,8|0,0:0|0:0,0:0:0:0:
108,109,21271,6,4,B|154:103|154:103|199:111,1,72,4|4,0:0|0:0,0:0:0:0:
39,68,21557,2,0,B|10:31|10:31|-4:-11,1,72,8|0,0:0|0:0,0:0:0:0:
37,146,21842,2,4,B|19:188|19:188|-10:223,1,72,0|4,3:0|0:0,0:0:0:0:
94,267,22128,2,0,P|127:204|199:200,1,144,0|0,0:0|0:0,0:0:0:0:
301,227,22557,1,4,0:0:0:0:
409,256,22700,2,0,P|415:209|430:166,1,72,8|0,0:0|0:0,0:0:0:0:
400,80,22985,6,0,L|315:43,1,72,4|0,0:0|0:0,0:0:0:0:
282,146,23271,2,0,L|197:109,1,72,8|0,0:0|0:0,0:0:0:0:
170,216,23557,2,0,L|85:179,1,72,4|4,0:0|0:0,0:0:0:0:
74,83,23842,2,0,P|149:93|188:159,1,144,0|0,0:0|0:0,0:0:0:0:
136,280,24271,1,4,0:0:0:0:
248,192,24414,2,0,L|304:128,1,72,8|0,0:0|0:0,0:0:0:0:
204,45,24700,6,0,P|135:57|94:117,1,144,4|8,0:0|0:0,0:0:0:0:
172,316,25271,2,4,L|264:337,1,72,4|4,0:0|0:0,0:0:0:0:
318,245,25557,2,0,B|233:221|233:221|192:232|192:232|152:224|152:224|112:175,1,216,0|4,0:0|0:0,0:0:0:0:
221,79,26128,5,8,0:0:0:0:
87,133,26271,1,0,0:0:0:0:
121,0,26414,2,0,P|203:17|269:13,1,144,4|8,0:0|0:0,0:0:0:0:
235,177,26842,1,0,0:0:0:0:
355,69,26985,2,4,P|311:69|263:78,1,72,0|0,0:0|0:0,0:0:0:0:
306,216,27271,2,0,P|324:268|359:289,1,72,0|8,0:0|0:0,0:0:0:0:
255,157,27557,2,0,P|200:146|165:166,1,72,0|4,0:0|0:0,0:0:0:0:
329,138,27842,2,0,P|365:96|365:55,1,72,8|0,0:0|0:0,0:0:0:0:
228,40,28128,6,0,L|153:22,1,72,4|0,0:0|0:0,0:0:0:0:
99,156,28414,2,0,P|91:195|74:238,1,72,8|0,0:0|0:0,0:0:0:0:
218,272,28700,2,4,P|222:229|241:185,1,72,4|4,0:0|0:0,0:0:0:0:
305,77,28985,2,0,B|216:90|268:63|162:74,1,144,0|0,0:0|0:0,0:0:0:0:
204,174,29414,1,4,0:0:0:0:
347,189,29557,2,0,P|332:237|322:278,1,72,8|0,0:0|0:0,0:0:0:0:
184,257,29842,6,0,P|143:238|116:203,1,72,4|0,0:0|0:0,0:0:0:0:
126,325,30128,2,0,P|110:282|119:238,1,72,8|0,0:0|0:0,0:0:0:0:
43,338,30414,2,4,P|62:297|101:271,1,72,4|4,0:0|0:0,0:0:0:0:
182,237,30700,2,0,P|256:234|290:158,1,144,0|0,0:0|0:0,0:0:0:0:
189,142,31128,1,4,0:0:0:0:
164,36,31271,2,0,L|247:58,1,72,8|0,0:0|0:0,0:0:0:0:
338,83,31557,6,0,B|379:95|379:95|352:142|377:208,1,144,4|8,0:0|0:0,0:0:0:0:
391,299,31985,1,0,0:0:0:0:
285,152,32128,2,4,L|298:246,1,72,4|4,0:0|0:0,0:0:0:0:
192,259,32414,2,0,B|138:262|138:262|179:226|165:175,1,144,0|0,0:0|0:0,0:0:0:0:
125,81,32842,1,4,0:0:0:0:
94,200,32985,2,0,P|60:175|50:127,1,72,8|0,0:0|0:0,0:0:0:0:
164,134,33271,6,0,B|207:105|207:105|239:143|239:143|284:118|336:129|336:129|363:94|363:94|316:51,1,288,4|4,0:0|0:0,0:0:0:0:
260,54,33985,1,4,0:0:0:0:
151,56,34128,2,0,L|65:52,1,72,0|8,0:0|0:0,0:0:0:0:
126,212,34414,2,0,L|216:205,1,72,0|4,0:0|0:0,0:0:0:0:
121,57,34700,2,0,L|34:60,1,72,8|0,0:0|0:0,0:0:0:0:
26,128,34985,2,0,B|52:196|80:184|111:247,1,144,6|10,0:0|0:0,0:0:0:0:
152,301,35414,6,0,B|190:348|190:348|222:236,1,144,4|4,0:0|0:0,0:0:0:0:
229,206,35842,2,0,P|224:157|284:84,1,144,6|2,0:0|0:0,0:0:0:0:
331,182,36271,1,4,0:0:0:0:
431,50,36414,1,10,0:0:0:0:
462,212,36557,1,4,0:0:0:0:
341,97,36700,6,0,B|289:91|289:91|251:64|251:64|198:57,1,144,6|10,0:0|0:0,0:0:0:0:
194,201,37128,2,0,B|246:258|246:258|328:267,1,144,4|4,0:0|0:0,0:0:0:0:
421,169,37557,2,0,B|392:153|392:153|377:131|377:131|332:119|347:100|293:71,1,144,6|2,0:0|0:0,0:0:0:0:
90,117,37985,1,8,0:0:0:0:
244,179,38128,1,6,0:0:0:0:
185,23,38271,1,2,0:0:0:0:
162,212,38414,6,0,P|163:148|233:97,1,144,6|8,0:0|0:0,0:0:0:0:
369,346,38985,2,4,L|449:324,1,72,6|4,0:0|0:0,0:0:0:0:
469,185,39271,2,0,B|372:180|405:154|320:151,1,144,6|2,0:0|0:0,0:0:0:0:
326,238,39700,1,4,0:0:0:0:
319,73,39842,1,10,0:0:0:0:
259,188,39985,1,4,0:0:0:0:
390,65,40128,2,8,P|371:25|268:23,1,144,6|10,0:0|0:0,0:0:0:0:
175,282,40700,5,6,0:0:0:0:
67,188,40842,1,4,0:0:0:0:
207,156,40985,2,0,B|247:138|247:138|299:159,1,72,8|4,0:0|0:0,0:0:0:0:
95,113,41271,2,0,B|59:87|59:87|51:31,1,72,8|2,0:0|0:0,0:0:0:0:
122,227,41557,2,0,B|117:270|117:270|73:305,1,72,8|4,0:0|0:0,0:0:0:0:
230,338,41842,6,0,B|250:294|279:274|279:274|246:253|234:230,1,144,6|10,0:0|0:0,0:0:0:0:
145,159,42271,2,0,P|191:105|268:113,1,144,0|4,0:0|0:0,0:0:0:0:
300,242,42700,2,0,B|310:171|356:178|375:90,1,144,2|2,0:0|0:0,0:0:0:0:
269,114,43128,1,2,0:0:0:0:
117,47,43271,1,4,0:0:0:0:
176,201,43414,1,8,0:0:0:0:
222,42,43557,6,0,P|304:41|357:95,1,144,6|10,0:0|0:0,0:0:0:0:
160,351,44128,1,6,0:0:0:0:
18,264,44271,1,4,0:0:0:0:
182,247,44414,2,0,L|260:240,1,72,2|8,0:0|0:0,0:0:0:0:
272,133,44700,2,0,L|170:122,1,72,2|4,0:0|0:0,0:0:0:0:
235,22,44985,2,0,L|312:23,1,72,4|8,0:0|0:0,0:0:0:0:
413,45,45271,6,0,P|453:101|417:176,1,144,6|10,0:0|0:0,0:0:0:0:
308,302,45700,1,0,0:0:0:0:
380,111,45842,1,6,0:0:0:0:
447,221,45985,1,4,0:0:0:0:
285,142,46128,2,0,P|201:135|161:189,1,144,2|2,0:0|0:0,0:0:0:0:
239,198,46557,1,4,0:0:0:0:
175,29,46700,1,10,0:0:0:0:
74,177,46842,1,4,0:0:0:0:
256,192,46985,12,0,48414,0:0:0:0:
87,99,48700,6,0,B|173:88|173:88|228:95|228:95|294:88,1,198.000006042481,10|4,0:0|0:0,0:0:0:0:
299,236,49108,2,0,P|269:295|197:219,1,198.000006042481,10|4,0:0|0:0,0:0:0:0:
195,80,49537,2,0,B|295:53|308:83|403:51,1,198.000006042481,10|4,0:0|0:0,0:0:0:0:
364,201,49965,2,4,P|382:149|434:233,1,198.000006042481,10|4,0:0|0:0,0:0:0:0:
333,350,50394,1,10,0:0:0:0:
244,139,50537,1,4,0:0:0:0:
348,275,50680,1,8,0:0:0:0:
183,209,50822,6,0,P|86:193|78:189,1,99.0000030212403,2|0,0:0|0:0,0:0:0:0:
1,351,51108,2,0,P|99:358|107:361,1,99.0000030212403,4|10,0:0|0:0,0:0:0:0:
246,381,51394,1,4,0:0:0:0:
276,205,51537,1,6,0:0:0:0:
51,164,51680,1,8,0:0:0:0:
225,308,51822,1,6,0:0:0:0:
50,269,51965,1,4,0:0:0:0:
136,112,52108,6,10,P|218:91|262:97,1,99.0000030212403,10|4,0:0|0:0,0:0:0:0:
394,252,52394,2,0,P|314:280|269:277,1,99.0000030212403,10|4,0:0|0:0,0:0:0:0:
344,70,52680,1,10,0:0:0:0:
344,70,52822,1,8,0:0:0:0:
166,47,52965,1,8,0:0:0:0:
166,47,53037,1,8,0:0:0:0:
166,47,53108,1,4,0:0:0:0:
166,47,53180,1,4,0:0:0:0:
166,47,53251,6,0,P|79:67|83:163,1,198.000006042481,10|4,0:0|0:0,0:0:0:0:
241,79,53680,2,0,P|267:164|182:208,1,198.000006042481,10|4,0:0|0:0,0:0:0:0:
62,293,54108,1,8,0:0:0:0:
158,130,54251,1,4,0:0:0:0:
243,286,54394,2,0,P|315:240|354:126,1,198.000006042481,10|4,0:0|0:0,0:0:0:0:
153,30,54822,2,0,P|72:84|39:175,1,198.000006042481,8|4,0:0|0:0,0:0:0:0:
136,340,55251,5,8,0:0:0:0:
227,152,55394,2,0,P|285:138|350:154,1,99.0000030212403,2|0,0:0|0:0,0:0:0:0:
416,317,55680,1,4,0:0:0:0:
240,292,55822,5,8,0:0:0:0:
200,285,55894,1,8,0:0:0:0:
166,265,55965,1,2,0:0:0:0:
148,229,56037,1,2,0:0:0:0:
151,189,56108,1,4,0:0:0:0:
170,154,56180,1,4,0:0:0:0:
205,136,56251,1,8,0:0:0:0:
243,129,56322,1,8,0:0:0:0:
277,109,56394,1,8,0:0:0:0:
297,75,56465,1,8,0:0:0:0:
297,35,56537,6,4,L|166:63,1,99.0000030212403,6|0,0:0|0:0,0:0:0:0:
89,266,56822,1,6,0:0:0:0:
51,91,56965,1,6,0:0:0:0:
248,64,57680,6,0,P|275:23|328:97,1,180,2|4,0:0|0:0,0:0:0:0:
241,255,58108,2,0,L|142:262,1,90,10|4,0:0|0:0,0:0:0:0:
161,73,58394,1,6,0:0:0:0:
348,198,58537,2,0,L|325:309,1,90,4|10,0:0|0:0,0:0:0:0:
153,147,58822,6,0,P|225:115|236:86,1,90,4|6,0:0|0:0,0:0:0:0:
74,12,59108,2,0,P|2:44|-9:73,1,90,4|10,0:0|0:0,0:0:0:0:
35,227,59394,1,4,0:0:0:0:
233,168,59537,1,6,0:0:0:0:
93,85,59680,1,4,0:0:0:0:
154,281,59822,1,10,0:0:0:0:
219,84,59965,6,0,P|301:115|308:208,1,180,6|4,0:0|0:0,0:0:0:0:
262,353,60394,2,0,L|155:321,1,90,10|4,0:0|0:0,0:0:0:0:
166,164,60680,1,6,0:0:0:0:
325,245,60822,1,4,0:0:0:0:
121,282,60965,2,2,B|91:235|91:235|85:175,1,90,10|4,0:0|0:0,0:0:0:0:
188,66,61251,5,6,0:0:0:0:
207,46,61394,2,0,P|288:44|334:33,1,90,4|10,0:0|0:0,0:0:0:0:
302,205,61680,2,0,P|383:207|429:218,1,90,4|6,0:0|0:0,0:0:0:0:
365,75,61965,1,4,0:0:0:0:
369,309,62108,1,10,0:0:0:0:
441,136,62251,6,0,P|340:164|270:89,1,180,6|4,0:0|0:0,0:0:0:0:
187,254,62680,2,0,L|212:133,1,90,10|4,0:0|0:0,0:0:0:0:
238,0,62965,1,6,0:0:0:0:
370,181,63108,1,4,0:0:0:0:
161,96,63251,2,0,L|58:56,1,90,10|4,0:0|0:0,0:0:0:0:
55,239,63537,5,6,0:0:0:0:
63,264,63680,2,0,L|179:283,1,90,4|10,0:0|0:0,0:0:0:0:
238,141,63965,2,6,L|129:98,1,90,4|6,0:0|0:0,0:0:0:0:
293,286,64251,2,0,L|419:250,1,90,4|8,0:0|0:0,0:0:0:0:
361,10,64537,6,0,B|305:11|261:30|261:30,1,90,6|0,0:0|0:0,0:0:0:0:
149,59,64822,1,2,0:0:0:0:
120,80,64894,1,2,0:0:0:0:
96,107,64965,1,4,0:0:0:0:
83,140,65037,1,4,0:0:0:0:
79,175,65108,1,8,0:0:0:0:
89,209,65180,1,8,0:0:0:0:
116,232,65251,2,0,L|223:255,1,90,8|4,0:0|0:0,0:0:0:0:
406,29,65680,6,0,B|436:32|469:16|469:16|470:49,1,90,6|0,0:0|0:0,0:0:0:0:
436,129,65965,1,2,0:0:0:0:
401,120,66037,1,2,0:0:0:0:
365,119,66108,1,4,0:0:0:0:
331,133,66180,1,4,0:0:0:0:
306,159,66251,1,8,0:0:0:0:
296,193,66322,1,8,0:0:0:0:
292,229,66394,2,10,L|184:244,1,90,10|4,0:0|0:0,0:0:0:0:
175,225,66608,5,4,0:0:0:0:
147,208,66680,1,8,0:0:0:0:
119,192,66751,1,8,0:0:0:0:
90,176,66822,2,0,B|110:97|110:97|199:26,1,180,2|4,0:0|0:0,0:0:0:0:
253,126,67251,6,0,P|328:122|367:103,1,90,10|4,0:0|0:0,0:0:0:0:
382,312,67537,1,6,0:0:0:0:
366,291,67680,2,0,L|258:302,1,90,4|10,0:0|0:0,0:0:0:0:
136,123,67965,2,0,L|241:135,1,90,4|6,0:0|0:0,0:0:0:0:
426,27,68251,2,0,P|340:34|313:22,1,90,4|10,0:0|0:0,0:0:0:0:
176,40,68537,1,4,0:0:0:0:
42,243,68680,1,6,0:0:0:0:
246,221,68822,1,4,0:0:0:0:
66,117,68965,1,10,0:0:0:0:
294,102,69108,6,0,B|339:104|378:96|378:96|370:141|366:220,1,180,6|4,0:0|0:0,0:0:0:0:
349,363,69537,2,0,P|294:378|218:375,1,90,10|4,0:0|0:0,0:0:0:0:
179,219,69822,2,4,P|237:208|261:168,1,90,6|4,0:0|0:0,0:0:0:0:
73,289,70108,2,0,P|53:344|76:385,1,90,10|4,0:0|0:0,0:0:0:0:
87,164,70394,5,6,0:0:0:0:
64,149,70537,2,0,P|70:88|92:56,1,90,4|10,0:0|0:0,0:0:0:0:
255,122,70822,2,4,P|312:107|332:60,1,90,4|6,0:0|0:0,0:0:0:0:
134,33,71108,1,4,0:0:0:0:
180,234,71251,1,10,0:0:0:0:
250,39,71394,6,0,P|308:55|316:182,1,180,6|4,0:0|0:0,0:0:0:0:
204,313,71822,2,0,L|315:291,1,90,10|4,0:0|0:0,0:0:0:0:
424,200,72108,1,6,0:0:0:0:
222,150,72251,1,4,0:0:0:0:
385,73,72394,2,0,L|277:23,1,90,10|4,0:0|0:0,0:0:0:0:
104,98,72680,5,6,0:0:0:0:
124,82,72822,2,0,B|139:69|139:69|164:156,1,90,4|10,0:0|0:0,0:0:0:0:
290,297,73108,2,4,P|237:336|195:331,1,90,4|6,0:0|0:0,0:0:0:0:
254,62,73394,1,4,0:0:0:0:
372,253,73537,1,10,0:0:0:0:
167,158,73680,6,0,L|63:142,1,90,6|0,0:0|0:0,0:0:0:0:
389,98,73965,1,8,0:0:0:0:
389,98,74108,1,8,0:0:0:0:
181,335,74251,1,4,0:0:0:0:
219,85,74394,5,8,0:0:0:0:
257,97,74465,1,8,0:0:0:0:
278,131,74537,1,2,0:0:0:0:
280,171,74608,1,2,0:0:0:0:
257,204,74680,1,4,0:0:0:0:
218,215,74751,1,4,0:0:0:0:
177,211,74822,1,8,0:0:0:0:
138,196,74894,1,8,0:0:0:0:
97,192,74965,5,8,0:0:0:0:
58,204,75037,1,8,0:0:0:0:
34,236,75108,1,2,0:0:0:0:
34,276,75180,1,2,0:0:0:0:
49,313,75251,1,4,0:0:0:0:
84,332,75322,1,4,0:0:0:0:
120,343,75394,1,8,0:0:0:0:
159,336,75465,1,8,0:0:0:0:
194,315,75537,6,8,L|257:351,3,45
247,247,75822,2,4,L|175:205,3,45
147,117,76108,6,4,P|207:118|232:109,1,72,4|4,0:0|0:0,0:0:0:0:
357,73,76394,1,8,0:0:0:0:
464,240,76680,1,4,0:0:0:0:
448,254,76822,2,0,L|442:358,1,72,4|0,0:0|0:0,0:0:0:0:
336,280,77108,2,0,P|254:293|187:251,1,144,8|4,0:0|0:0,0:0:0:0:
145,180,77537,1,8,0:0:0:0:
319,53,77822,1,6,0:0:0:0:
311,269,78108,1,8,0:0:0:0:
183,142,78394,6,0,P|166:91|157:37,1,90,6|0,0:0|0:0,0:0:0:0:
275,193,78679,2,0,P|282:246|282:300,1,90,8|0,0:0|0:0,0:0:0:0:
350,113,78965,2,0,P|351:59|361:5,1,90,2|0,0:0|0:0,0:0:0:0:
487,149,79251,2,0,P|422:155|369:264,1,180,2|4,0:0|0:0,0:0:0:0:
44,283,79822,5,14,0:0:0:0:
198,331,79965,1,4,0:0:0:0:
84,191,80108,2,0,B|111:140|111:140|106:97,1,90,6|4,0:0|0:0,0:0:0:0:
266,71,80394,2,0,B|295:120|295:120|335:138,1,90,8|4,0:0|0:0,0:0:0:0:
271,286,80679,2,4,B|213:286|213:286|178:312,1,90,2|4,0:0|0:0,0:0:0:0:
32,253,80965,2,0,B|74:240|100:215|100:215|109:248|123:267|123:267|138:250|161:239,1,180,2|4,0:0|0:0,0:0:0:0:
397,116,81536,1,10,0:0:0:0:
128,145,81822,2,0,P|94:115|179:117,1,180,6|8,0:0|0:0,0:0:0:0:
254,334,82394,5,6,0:0:0:0:
378,284,82536,1,4,0:0:0:0:
268,155,82679,2,6,P|265:109|323:171,1,180
85,123,83108,1,4,0:0:0:0:
202,281,83251,1,10,0:0:0:0:
81,220,83394,1,4,0:0:0:0:
229,91,83536,2,0,P|280:79|341:175,1,180,2|8,0:0|0:0,0:0:0:0:
96,296,84108,5,6,0:0:0:0:
133,111,84251,1,4,0:0:0:0:
270,253,84394,2,0,L|228:173,1,90,2|4,0:0|0:0,0:0:0:0:
355,127,84679,2,0,L|308:36,1,90,8|4,0:0|0:0,0:0:0:0:
177,50,84965,2,0,P|208:99|187:166,1,90,10|4,0:0|0:0,0:0:0:0:
140,247,85251,6,4,L|244:199,1,90,6|4,0:0|0:0,0:0:0:0:
354,330,85536,2,0,L|240:355,1,90,10|4,0:0|0:0,0:0:0:0:
441,310,85822,2,0,L|327:335,1,90,2|0,0:0|0:0,0:0:0:0:
245,246,86108,2,0,P|282:187|257:84,1,180,6|2,0:0|0:0,0:0:0:0:
170,162,86536,1,4,0:0:0:0:
373,125,86679,1,10,0:0:0:0:
347,266,86822,1,4,0:0:0:0:
477,204,86965,6,0,L|468:85,1,90,6|4,0:0|0:0,0:0:0:0:
362,313,87251,2,0,L|469:364,1,90,10|4,3:0|3:0,3:0:0:0:
331,156,87536,2,0,L|232:223,1,90,2|4,3:0|3:0,3:0:0:0:
129,308,87822,2,0,P|43:282|46:173,1,180,6|2,0:0|0:0,0:0:0:0:
207,134,88251,1,4,0:0:0:0:
63,51,88394,1,10,0:0:0:0:
106,228,88536,1,4,0:0:0:0:
165,60,88679,2,0,P|256:68|293:159,1,180,2|8,0:0|0:0,0:0:0:0:
128,362,89251,6,0,L|196:299,1,90,6|4,0:0|0:0,0:0:0:0:
385,143,89536,2,0,B|337:193|337:193|313:245|313:245|271:286,1,180,6|6,0:0|0:0,0:0:0:0:
401,234,89965,1,4,0:0:0:0:
296,53,90108,1,10,0:0:0:0:
253,200,90251,1,4,0:0:0:0:
174,90,90394,2,0,B|34:128|34:128|99:159,1,180,6|8,0:0|0:0,0:0:0:0:
299,315,90965,5,6,0:0:0:0:
424,265,91108,1,0,0:0:0:0:
222,216,91251,2,0,L|254:117,1,90,6|8,0:0|0:0,0:0:0:0:
368,96,91536,2,0,L|440:120,2,60,4|8|8,0:0|0:0|0:0,0:0:0:0:
208,88,91822,2,8,L|136:64,2,60
65,298,92108,6,0,P|147:277|180:184,1,180,6|10,0:0|0:0,0:0:0:0:
282,67,92536,2,0,P|259:148|323:223,1,180,0|4,0:0|0:0,0:0:0:0:
456,298,92965,2,0,B|403:207|403:207|426:128,1,180,2|2,0:0|0:0,0:0:0:0:
356,33,93394,1,4,0:0:0:0:
341,41,93536,2,0,L|338:147,1,90,10|4,0:0|0:0,0:0:0:0:
253,278,93822,6,0,B|170:233|170:233|162:138,1,180,6|10,0:0|0:0,0:0:0:0:
327,224,94251,2,0,B|329:318|329:318|251:372,1,180,4|4,0:0|0:0,0:0:0:0:
82,332,94679,2,0,P|35:284|38:138,1,180,6|2,0:0|0:0,0:0:0:0:
105,68,95108,1,4,0:0:0:0:
145,243,95251,1,10,0:0:0:0:
105,68,95394,1,4,0:0:0:0:
275,123,95536,6,0,P|223:122|186:12,1,180,6|10,0:0|0:0,0:0:0:0:
332,57,95965,1,0,0:0:0:0:
225,268,96108,1,6,0:0:0:0:
248,53,96251,1,4,0:0:0:0:
339,172,96394,2,0,P|259:202|169:181,1,180,6|2,0:0|0:0,0:0:0:0:
101,298,96822,1,4,0:0:0:0:
101,90,96965,1,10,0:0:0:0:
37,209,97108,1,4,0:0:0:0:
232,141,97251,2,0,B|280:136|304:112|304:112|325:143|325:143|352:120|408:118,1,180,6|10,0:0|0:0,0:0:0:0:
32,345,97822,5,6,0:0:0:0:
193,359,97965,1,4,0:0:0:0:
126,210,98108,2,0,L|238:193,1,90,6|8,0:0|0:0,0:0:0:0:
265,322,98394,2,0,L|387:327,1,90,2|4,0:0|0:0,0:0:0:0:
368,191,98679,2,0,L|482:173,1,90,10|4,0:0|0:0,0:0:0:0:
394,55,98965,6,0,P|321:8|242:57,1,180,6|10,0:0|0:0,0:0:0:0:
319,93,99394,2,0,P|246:140|167:91,1,180,0|4,0:0|0:0,0:0:0:0:
65,23,99822,2,0,L|85:219,1,180,6|2,0:0|0:0,0:0:0:0:
96,337,100251,1,4,0:0:0:0:
183,179,100394,1,10,0:0:0:0:
209,355,100536,1,4,0:0:0:0:
250,134,100679,6,0,B|182:94|182:94|98:151,1,180,6|10,0:0|0:0,0:0:0:0:
208,271,101108,1,4,0:0:0:0:
366,237,101251,2,4,L|326:144,1,90,6|4,0:0|0:0,0:0:0:0:
211,43,101536,2,0,P|306:44|381:112,1,180,6|2,0:0|0:0,0:0:0:0:
462,229,101965,1,4,0:0:0:0:
243,194,102108,1,10,0:0:0:0:
366,299,102251,1,4,0:0:0:0:
319,161,102394,6,0,B|299:117|240:89|193:112|167:158|167:158|145:198|94:219|-8:188|23:88|75:55,1,450,2|4,0:0|0:0,0:0:0:0:
157,18,103251,2,0,B|263:-4|321:60|321:60|372:60|413:86|413:86|415:138|392:168|392:168|430:220|418:288,1,450,10|4,0:0|0:0,0:0:0:0:
256,192,104108,12,0,105536,0:0:0:0:
81,172,105822,6,0,B|141:118|141:118|214:149|273:109,1,198.000006042481,10|4,0:0|0:0,0:0:0:0:
336,296,106250,2,0,B|342:357|342:357|285:360|253:350|230:317|230:276,1,198.000006042481,10|4,0:0|0:0,0:0:0:0:
326,119,106679,2,0,B|296:14|296:14|254:46|196:66,1,198.000006042481,10|4,0:0|0:0,0:0:0:0:
171,212,107107,2,0,B|210:214|299:276|299:276|281:226,1,198.000006042481,10|4,0:0|0:0,0:0:0:0:
276,201,107536,1,8,0:0:0:0:
168,89,107679,1,4,0:0:0:0:
379,164,107822,1,8,0:0:0:0:
248,43,107964,6,0,P|168:5|77:73,1,198.000006042481,6|4,0:0|0:0,0:0:0:0:
48,235,108393,2,0,L|152:213,1,99.0000030212403,10|4,0:0|0:0,0:0:0:0:
270,85,108679,1,6,0:0:0:0:
263,263,108822,1,8,0:0:0:0:
194,166,108964,1,6,0:0:0:0:
384,291,109107,1,4,0:0:0:0:
464,77,109250,6,0,P|377:62|331:45,1,99.0000030212403,10|4,0:0|0:0,0:0:0:0:
94,227,109536,2,0,P|181:242|227:259,1,99.0000030212403,10|4,0:0|0:0,0:0:0:0:
350,164,109822,1,10,0:0:0:0:
146,108,109964,1,8,0:0:0:0:
319,66,110107,5,8,0:0:0:0:
319,66,110179,1,8,0:0:0:0:
319,66,110250,1,4,0:0:0:0:
319,66,110322,1,4,0:0:0:0:
319,66,110393,2,0,B|410:108|410:108|449:220,1,198.000006042481,10|6,0:0|0:0,0:0:0:0:
462,348,110822,2,0,L|357:327,1,99.0000030212403,4|2,0:0|0:0,0:0:0:0:
355,158,111107,5,4,0:0:0:0:
355,158,111179,1,4,0:0:0:0:
355,158,111250,2,0,B|255:112|255:112|157:163,1,198.000006042481,10|6,0:0|0:0,0:0:0:0:
129,294,111679,2,0,P|199:288|243:298,1,99.0000030212403,4|2,0:0|0:0,0:0:0:0:
399,336,111964,1,4,0:0:0:0:
399,336,112036,1,4,0:0:0:0:
399,336,112107,2,0,B|408:339|408:339|417:218,1,99.0000030212403,10|4,0:0|0:0,0:0:0:0:
424,76,112393,1,8,0:0:0:0:
301,191,112536,2,0,P|267:133|260:71,1,99.0000030212403,6|0,0:0|0:0,0:0:0:0:
139,0,112822,5,4,0:0:0:0:
96,156,112964,1,10,0:0:0:0:
219,54,113107,1,4,0:0:0:0:
155,273,113250,1,10,0:0:0:0:
64,61,113393,1,4,0:0:0:0:
272,123,113536,1,10,0:0:0:0:
79,283,113679,2,0,P|113:337|164:352,1,99.0000030212403,4|10,0:0|0:0,0:0:0:0:
346,206,113964,5,4,0:0:0:0:
316,372,114107,1,10,0:0:0:0:
467,240,114250,2,0,L|405:136,1,99.0000030212403,4|10,0:0|0:0,0:0:0:0:
203,193,114536,2,0,L|234:313,1,99.0000030212403,4|10,0:0|0:0,0:0:0:0:
123,344,114822,1,4,0:0:0:0:
92,318,114893,1,4,0:0:0:0:
71,284,114964,5,8,0:0:0:0:
65,244,115036,1,8,0:0:0:0:
78,206,115107,1,8,0:0:0:0:
103,175,115179,1,8,0:0:0:0:
138,157,115250,1,8,0:0:0:0:
177,161,115322,1,8,0:0:0:0:
212,177,115393,1,2,0:0:0:0:
243,200,115464,1,2,0:0:0:0:
276,220,115536,5,4,0:0:0:0:
314,226,115607,1,4,0:0:0:0:
353,221,115679,1,8,0:0:0:0:
389,205,115750,1,8,0:0:0:0:
407,169,115822,1,8,0:0:0:0:
407,129,115893,1,8,0:0:0:0:
388,94,115964,1,8,0:0:0:0:
353,73,116036,1,8,0:0:0:0:
315,62,116107,6,4,L|263:52,3,49.5000015106202
249,140,116393,2,4,L|306:148,3,49.5000015106202
334,163,116679,5,8,0:0:0:0:
364,188,116750,1,8,0:0:0:0:
374,226,116822,1,2,0:0:0:0:
377,265,116893,1,2,0:0:0:0:
361,301,116964,1,4,0:0:0:0:
334,331,117036,1,4,0:0:0:0:
297,346,117107,6,0,B|206:303|237:270|144:228,1,180,6|0,0:0|0:0,0:0:0:0:
27,360,117536,2,0,P|90:347|143:311,1,90,10|4,0:0|0:0,0:0:0:0:
94,127,117822,1,6,0:0:0:0:
295,167,117964,2,0,P|341:183|370:223,1,90,4|10,0:0|0:0,0:0:0:0:
178,96,118250,6,0,P|168:48|188:3,1,90,4|6,0:0|0:0,0:0:0:0:
278,61,118536,2,4,P|305:20|351:3,1,90,4|10,0:0|0:0,0:0:0:0:
373,182,118822,1,4,0:0:0:0:
431,74,118964,1,6,0:0:0:0:
230,126,119107,1,4,0:0:0:0:
386,288,119250,1,10,0:0:0:0:
304,77,119393,6,0,P|214:32|190:32,2,90,6|0|4,0:0|0:0|0:0,0:0:0:0:
443,232,119822,2,0,P|439:305|396:333,1,90,10|4,0:0|0:0,0:0:0:0:
258,262,120107,1,6,0:0:0:0:
435,155,120250,1,4,0:0:0:0:
324,330,120393,2,0,L|217:344,1,90,10|4,0:0|0:0,0:0:0:0:
107,176,120679,5,6,0:0:0:0:
111,158,120822,2,0,P|172:154|229:140,1,90,4|10,0:0|0:0,0:0:0:0:
222,281,121107,1,4,0:0:0:0:
359,164,121250,1,6,0:0:0:0:
179,59,121393,1,4,0:0:0:0:
241,178,121536,1,10,0:0:0:0:
294,24,121679,6,0,B|363:43|399:12|399:12|434:31|445:62,1,180,6|4,0:0|0:0,0:0:0:0:
421,214,122107,2,0,B|370:227|370:227|293:219,1,90,10|4,0:0|3:0,0:0:0:0:
155,138,122393,1,6,0:0:0:0:
376,99,122536,1,4,0:0:0:0:
271,298,122679,2,0,P|233:314|178:284,1,90,10|4,0:0|0:0,0:0:0:0:
56,174,122964,5,6,0:0:0:0:
41,151,123107,2,0,B|37:142|37:142|113:119,1,90,4|10,0:0|0:0,0:0:0:0:
178,267,123393,1,4,0:0:0:0:
350,152,123536,1,6,0:0:0:0:
177,37,123679,1,4,0:0:0:0:
274,262,123822,1,10,0:0:0:0:
266,83,123964,2,0,L|363:71,1,90,6|0,0:0|0:0,0:0:0:0:
454,163,124250,5,2,0:0:0:0:
455,199,124322,1,2,0:0:0:0:
441,232,124393,1,4,0:0:0:0:
414,256,124464,1,4,0:0:0:0:
377,260,124536,1,8,0:0:0:0:
342,249,124607,1,8,0:0:0:0:
312,227,124679,2,0,B|265:196|288:189|232:157,1,90,8|6,0:0|0:0,0:0:0:0:
260,0,125107,6,0,B|295:5|295:5|344:27,1,90,6|0,0:0|0:0,0:0:0:0:
434,130,125393,1,2,0:0:0:0:
453,160,125464,1,2,0:0:0:0:
456,196,125536,1,4,0:0:0:0:
447,230,125607,1,4,0:0:0:0:
423,257,125679,1,8,0:0:0:0:
389,270,125750,1,8,0:0:0:0:
353,274,125822,5,8,0:0:0:0:
318,264,125893,1,8,0:0:0:0:
283,255,125964,1,4,0:0:0:0:
246,253,126036,1,4,0:0:0:0:
210,260,126107,1,8,0:0:0:0:
179,279,126179,1,8,0:0:0:0:
151,301,126250,2,0,B|113:332|93:352|93:352|84:294|58:238,1,180,6|4,0:0|0:0,0:0:0:0:
209,169,126679,2,0,B|198:117|198:117|163:76,1,90,10|4,0:0|0:0,0:0:0:0:
333,57,126964,5,6,0:0:0:0:
358,65,127107,2,0,L|375:168,1,90,4|10,0:0|0:0,0:0:0:0:
194,261,127393,2,0,L|275:183,1,90,4|6,0:0|0:0,0:0:0:0:
422,327,127679,2,10,L|345:239,1,90,4|10,0:0|0:0,0:0:0:0:
244,123,127964,1,4,0:0:0:0:
471,175,128107,1,6,0:0:0:0:
272,298,128250,1,4,0:0:0:0:
328,61,128393,1,10,0:0:0:0:
167,40,128536,6,0,P|89:53|43:157,1,180,6|4,0:0|0:0,0:0:0:0:
119,297,128964,2,0,L|205:223,1,90,10|4,0:0|0:0,0:0:0:0:
350,96,129250,1,6,0:0:0:0:
143,56,129393,1,4,0:0:0:0:
276,226,129536,2,0,L|279:352,1,90,10|4,0:0|0:0,0:0:0:0:
106,196,129822,5,6,0:0:0:0:
83,181,129964,2,0,L|118:60,1,90,4|10,0:0|0:0,0:0:0:0:
262,187,130250,1,4,0:0:0:0:
439,71,130393,1,6,0:0:0:0:
465,190,130536,1,4,0:0:0:0:
289,67,130679,1,10,0:0:0:0:
134,116,130822,6,4,B|141:175|141:175|174:238|174:238|185:303,1,180,6|4,0:0|0:0,0:0:0:0:
341,316,131250,2,0,L|315:222,1,90,10|4,0:0|0:0,0:0:0:0:
419,139,131536,1,6,0:0:0:0:
195,110,131679,1,4,0:0:0:0:
250,308,131822,2,0,P|249:222|260:205,1,90,10|4,0:0|0:0,0:0:0:0:
308,70,132107,5,6,0:0:0:0:
127,62,132250,2,0,L|40:16,1,90,4|10,0:0|0:0,0:0:0:0:
236,0,132536,2,4,L|251:99,1,90,4|6,0:0|0:0,0:0:0:0:
124,193,132822,2,0,L|137:281,1,90,4|10,0:0|0:0,0:0:0:0:
252,147,133107,2,0,L|341:88,1,90,6|0,0:0|0:0,0:0:0:0:
440,21,133393,5,8,0:0:0:0:
468,262,133536,1,8,0:0:0:0:
341,215,133679,1,4,0:0:0:0:
400,73,133822,5,8,3:0:0:0:
397,316,133964,1,2,3:0:0:0:
278,254,134107,1,4,3:0:0:0:
352,119,134250,6,0,P|284:104|256:86,1,90,6|0,0:0|0:0,0:0:0:0:
117,56,134536,1,8,0:0:0:0:
90,261,134679,2,0,P|152:227|223:220,1,135,8|4,0:0|0:0,0:0:0:0:
249,227,134964,5,8,0:0:0:0:
294,243,135060,5,0,0:0:0:0:
341,244,135155,5,0,0:0:0:0:
383,222,135250,5,0,0:0:0:0:
412,185,135345,5,0,0:0:0:0:
418,137,135441,5,0,0:0:0:0:
405,90,135536,5,6,0:0:0:0:
216,33,135678,2,0,P|162:23|111:21,1,90,4|2,0:0|0:0,0:0:0:0:
284,83,135964,2,0,P|234:59|185:44,1,90,8|2,0:0|0:0,0:0:0:0:
141,234,136250,1,8,0:0:0:0:
279,318,136393,5,6,0:0:0:0:
180,146,136536,2,0,L|121:32,1,90,4|2,0:0|0:0,0:0:0:0:
290,193,136821,2,0,L|267:85,1,90,8|2,0:0|0:0,0:0:0:0:
404,253,137107,1,8,0:0:0:0:
389,62,137250,5,6,0:0:0:0:
371,41,137393,2,0,B|322:48|322:48|264:37,1,90,4|2,0:0|0:0,0:0:0:0:
147,198,137678,2,0,B|196:191|196:191|254:202,1,90,8|2,0:0|0:0,0:0:0:0:
388,255,137964,1,8,0:0:0:0:
231,297,138107,5,6,0:0:0:0:
204,107,138250,2,0,P|172:51|134:47,1,90,4|8,0:0|0:0,0:0:0:0:
324,162,138536,2,2,P|388:162|410:131,1,90,2|4,3:0|3:0,3:0:0:0:
457,30,138821,1,8,0:0:0:0:
467,242,138964,6,0,B|438:245|438:245|411:262|411:262|395:245|395:245|358:266|283:287,1,180,6|2,0:0|0:0,0:0:0:0:
171,300,139393,2,0,B|163:229|206:198|255:183|255:183|307:169,1,180,4|4,0:0|0:0,0:0:0:0:
384,98,139821,2,0,B|423:67|423:67|434:22,1,90,10|0,0:0|0:0,0:0:0:0:
329,209,140107,2,0,B|336:258|336:258|369:290,1,90,6|0,0:0|0:0,0:0:0:0:
257,107,140393,2,0,B|210:88|210:88|166:101,1,90,6|0,0:0|0:0,0:0:0:0:
37,190,140678,6,0,B|67:241|118:249|118:249|154:204|217:209,1,180,2|2,0:0|0:0,0:0:0:0:
335,154,141107,2,0,B|300:166|271:157|271:157|290:201|294:278,1,180,4|4,0:0|0:0,0:0:0:0:
175,336,141536,2,0,P|95:324|64:326,1,90,10|0,0:0|0:0,0:0:0:0:
57,192,141821,1,8,0:0:0:0:
276,109,141964,1,8,0:0:0:0:
209,220,142107,1,4,0:0:0:0:
64,75,142250,5,4,0:0:0:0:
64,75,142321,1,4,0:0:0:0:
64,75,142393,2,0,B|145:14,1,90,14|4,0:0|0:0,0:0:0:0:
270,25,142678,1,2,0:0:0:0:
416,195,142821,1,8,0:0:0:0:
270,25,142964,1,2,0:0:0:0:
326,215,143107,5,4,0:0:0:0:
326,215,143178,1,4,0:0:0:0:
326,215,143250,2,0,P|306:284|270:322,1,90,10|4,0:0|0:0,0:0:0:0:
135,327,143536,1,2,0:0:0:0:
0,170,143678,1,8,0:0:0:0:
187,224,143821,1,2,0:0:0:0:
90,51,143964,5,4,0:0:0:0:
90,51,144036,1,4,0:0:0:0:
90,51,144107,2,0,B|141:29|141:29|211:22,1,90,14|4,0:0|0:0,0:0:0:0:
374,26,144393,1,2,0:0:0:0:
159,141,144536,1,8,0:0:0:0:
273,27,144678,1,2,0:0:0:0:
344,211,144821,1,4,0:0:0:0:
168,303,144964,6,8,B|136:314|136:314|80:315,2,90
302,155,145393,1,2,0:0:0:0:
119,77,145536,1,4,0:0:0:0:
203,254,145678,1,8,0:0:0:0:
263,46,145821,6,0,P|339:45|414:137,1,180,6|2,0:0|0:0,0:0:0:0:
420,250,146250,2,0,B|426:262|426:275|426:275|349:243|250:231,1,180,4|4,0:0|0:0,0:0:0:0:
168,58,146678,1,10,0:0:0:0:
53,343,146964,1,2,0:0:0:0:
415,141,147250,1,2,0:0:0:0:
3,95,147536,6,0,P|88:77|186:84,1,180,6|4,0:0|0:0,0:0:0:0:
310,117,147964,1,0,0:0:0:0:
69,334,148250,1,4,0:0:0:0:
69,334,148321,1,4,0:0:0:0:
69,334,148393,1,8,0:0:0:0:
312,199,148678,5,8,0:0:0:0:
80,146,148821,1,2,0:0:0:0:
355,118,148964,1,4,0:0:0:0:
149,326,149107,1,2,0:0:0:0:
251,23,149250,1,2,0:0:0:0:
