osu file format v14

[General]
AudioFilename: audio.mp3
AudioLeadIn: 0
PreviewTime: 116572
Countdown: 0
SampleSet: Soft
StackLeniency: 0.2
Mode: 0
LetterboxInBreaks: 0
WidescreenStoryboard: 1

[Editor]
Bookmarks: 57786,98929,156042,236643,240072
DistanceSpacing: 1.2
BeatDivisor: 4
GridSize: 4
TimelineZoom: 1.8

[Metadata]
Title:Shissou FLAME
TitleUnicode:失踪FLAME
Artist:MY FIRST STORY
ArtistUnicode:MY FIRST STORY
Creator:A r M i N
Version:Sylvarus' Hard
Source:
Tags:Armin A_r_M_i_N Saut FuJu Sylvarus japanese rock jrock j-rock MFS ALONE
BeatmapID:2708665
BeatmapSetID:749327

[Difficulty]
HPDrainRate:4
CircleSize:3.5
OverallDifficulty:7
ApproachRate:8
SliderMultiplier:1.2
SliderTickRate:1

[Events]
//Background and Video events
0,0,"bg.jpg",0,0
//Break Periods
2,149380,169001
//Storyboard Layer 0 (Background)
//Storyboard Layer 1 (Fail)
//Storyboard Layer 2 (Pass)
//Storyboard Layer 3 (Foreground)
//Storyboard Layer 4 (Overlay)
//Storyboard Sound Samples

[TimingPoints]
609,285.714285714286,4,2,2,35,1,0
14323,-100,4,2,1,30,0,0
14537,-100,4,2,1,5,0,0
14609,-100,4,2,1,30,0,0
17966,-100,4,2,1,5,0,0
18037,-100,4,2,1,30,0,0
19680,-100,4,2,1,5,0,0
19751,-100,4,2,1,30,0,0
21180,-125,4,2,1,30,0,0
21680,-125,4,2,1,5,0,0
21751,-125,4,2,1,30,0,0
23394,-125,4,2,1,5,0,0
23466,-125,4,2,1,30,0,0
24823,-125,4,2,1,5,0,0
24894,-125,4,2,1,30,0,0
26537,-125,4,2,1,5,0,0
26609,-125,4,2,1,30,0,0
28251,-125,4,2,1,5,0,0
28323,-125,4,2,1,30,0,0
28537,-125,4,2,1,5,0,0
28609,-125,4,2,1,30,0,0
29966,-125,4,2,1,5,0,0
30037,-125,4,2,1,30,0,0
30251,-125,4,2,1,5,0,0
30323,-125,4,2,1,30,0,0
31680,-125,4,2,1,5,0,0
31751,-125,4,2,1,30,0,0
33394,-125,4,2,1,5,0,0
33466,-125,4,2,1,30,0,0
34894,-111.111111111111,4,2,1,30,0,0
37966,-111.111111111111,4,2,1,5,0,0
38037,-111.111111111111,4,2,1,30,0,0
38109,-111.111111111111,4,2,1,5,0,0
38180,-111.111111111111,4,2,1,30,0,0
38251,-111.111111111111,4,2,1,5,0,0
38323,-111.111111111111,4,2,1,30,0,0
38537,-111.111111111111,4,2,1,5,0,0
38609,-111.111111111111,4,2,1,30,0,0
39966,-111.111111111111,4,2,1,5,0,0
40037,-111.111111111111,4,2,1,30,0,0
40251,-111.111111111111,4,2,1,5,0,0
40323,-111.111111111111,4,2,1,30,0,0
41394,-111.111111111111,4,2,1,5,0,0
41466,-111.111111111111,4,2,1,30,0,0
41537,-111.111111111111,4,2,1,5,0,0
41609,-111.111111111111,4,2,1,30,0,0
41680,-111.111111111111,4,2,1,5,0,0
41751,-111.111111111111,4,2,1,30,0,0
43394,-111.111111111111,4,2,1,5,0,0
43466,-111.111111111111,4,2,1,30,0,0
43680,-111.111111111111,4,2,1,5,0,0
43751,-111.111111111111,4,2,1,30,0,0
44823,-111.111111111111,4,2,1,5,0,0
44894,-111.111111111111,4,2,1,30,0,0
44966,-111.111111111111,4,2,1,5,0,0
45037,-111.111111111111,4,2,1,30,0,0
45109,-111.111111111111,4,2,1,5,0,0
45180,-111.111111111111,4,2,1,30,0,0
45394,-111.111111111111,4,2,1,5,0,0
45466,-111.111111111111,4,2,1,30,0,0
46823,-111.111111111111,4,2,1,5,0,0
46894,-111.111111111111,4,2,1,30,0,0
48609,-100,4,2,1,60,0,0
55680,-100,4,2,1,5,0,0
55751,-100,4,2,1,40,0,0
56036,-100,4,2,1,55,0,0
56466,-100,4,2,1,60,0,0
57180,-100,4,2,1,60,0,0
57609,-83.3333333333333,4,2,1,60,0,1
65966,-83.3333333333333,4,2,1,40,0,1
66323,-83.3333333333333,4,2,1,60,0,1
66394,-83.3333333333333,4,2,1,25,0,1
66466,-83.3333333333333,4,2,1,60,0,1
66608,-83.3333333333333,4,2,1,45,0,1
66751,-83.3333333333333,4,2,1,60,0,1
74394,-83.3333333333333,4,2,1,40,0,1
74465,-83.3333333333333,4,2,1,40,0,1
74609,-83.3333333333333,4,2,1,45,0,1
74893,-83.3333333333333,4,2,1,60,0,1
74966,-83.3333333333333,4,2,1,45,0,1
75037,-83.3333333333333,4,2,1,45,0,1
75180,-83.3333333333333,4,2,1,50,0,1
76037,-125,4,2,1,60,0,0
76323,-125,4,2,1,30,0,0
78323,-125,4,2,1,30,0,0
79893,-125,4,2,1,30,0,0
80037,-125,4,2,1,30,0,0
86751,-125,4,2,1,30,0,0
86894,-125,4,2,1,30,0,0
92037,-111.111111111111,4,2,1,30,0,0
102465,-111.111111111111,4,2,1,30,0,0
102751,-111.111111111111,4,2,1,30,0,0
103322,-111.111111111111,4,2,1,30,0,0
103608,-111.111111111111,4,2,1,30,0,0
104179,-111.111111111111,4,2,1,30,0,0
104322,-111.111111111111,4,2,1,30,0,0
105751,-99.9999999999999,4,2,1,60,0,0
114966,-99.9999999999999,4,2,1,45,0,0
115179,-99.9999999999999,4,2,1,40,0,0
115466,-99.9999999999999,4,2,1,30,0,0
115608,-99.9999999999999,4,2,1,30,0,0
115751,-99.9999999999999,4,2,1,60,0,0
115823,-99.9999999999999,4,2,1,45,0,0
116036,-99.9999999999999,4,2,1,40,0,0
116323,-99.9999999999999,4,2,1,30,0,0
116465,-99.9999999999999,4,2,1,30,0,0
116609,-99.9999999999999,4,2,1,60,0,0
117037,-83.3333333333333,4,2,1,60,0,1
119394,-83.3333333333333,4,2,1,5,0,1
119466,-83.3333333333333,4,2,1,60,0,1
119537,-83.3333333333333,4,2,1,5,0,1
119609,-83.3333333333333,4,2,1,60,0,1
119680,-83.3333333333333,4,2,1,5,0,1
119751,-83.3333333333333,4,2,1,60,0,1
125394,-83.3333333333333,4,2,1,35,0,1
125751,-83.3333333333333,4,2,1,60,0,1
125823,-83.3333333333333,4,2,1,25,0,1
125894,-83.3333333333333,4,2,1,60,0,1
126036,-83.3333333333333,4,2,1,45,0,1
126180,-83.3333333333333,4,2,1,60,0,1
135466,-125,4,2,1,60,0,0
138894,-125,4,2,1,40,0,0
141466,-125,4,2,1,60,0,0
141751,-111.111111111111,4,2,1,60,0,0
145751,-125,4,2,1,40,0,0
149180,-125,4,2,1,25,0,0
149468,-125,4,2,1,25,0,0
152609,-125,4,2,1,15,0,0
156037,-125,4,2,1,35,0,0
156180,-125,4,2,1,35,0,0
169751,-125,4,2,1,40,0,0
170894,-125,4,2,1,40,0,0
171180,-125,4,2,1,40,0,0
174322,-125,4,2,1,40,0,0
174608,-125,4,2,1,40,0,0
177751,-125,4,2,1,40,0,0
178037,-125,4,2,1,40,0,0
179465,-125,4,2,1,40,0,0
179751,-125,4,2,1,40,0,0
181179,-125,4,2,1,40,0,0
181466,-125,4,2,1,40,0,0
182180,-125,4,2,1,40,0,0
182323,-125,4,2,1,60,0,0
182465,-125,4,2,1,60,0,0
182751,-125,4,2,1,40,0,0
182894,-125,4,2,1,60,0,0
183609,-111.111111111111,4,2,1,60,0,0
183894,-111.111111111111,4,2,1,60,0,0
185323,-111.111111111111,4,2,1,60,0,0
185608,-111.111111111111,4,2,1,60,0,0
186251,-111.111111111111,4,2,1,5,0,0
186323,-111.111111111111,4,2,1,60,0,0
187037,-111.111111111111,4,2,1,60,0,0
187322,-111.111111111111,4,2,1,60,0,0
188751,-111.111111111111,4,2,1,60,0,0
189036,-111.111111111111,4,2,1,60,0,0
195466,285.714285714286,4,2,1,60,1,0
195751,-100,4,2,1,40,0,0
199037,-100,4,2,1,40,0,0
200037,-83.3333333333333,4,2,1,60,0,0
208680,-83.3333333333333,4,2,1,5,0,0
208751,-83.3333333333333,4,2,1,60,0,0
208823,-83.3333333333333,4,2,1,5,0,0
208894,-83.3333333333333,4,2,1,60,0,0
208966,-83.3333333333333,4,2,1,5,0,0
209037,-83.3333333333333,4,2,1,60,0,0
209109,-83.3333333333333,4,2,1,5,0,0
209180,-83.3333333333333,4,2,1,60,0,0
217251,-83.3333333333333,4,2,1,5,0,0
217323,-83.3333333333333,4,2,1,60,0,0
217394,-83.3333333333333,4,2,1,5,0,0
217466,-83.3333333333333,4,2,1,60,0,0
217537,-83.3333333333333,4,2,1,5,0,0
217609,-83.3333333333333,4,2,1,60,0,0
217680,-83.3333333333333,4,2,1,5,0,0
217751,-83.3333333333333,4,2,1,60,0,0
217823,-83.3333333333333,4,2,1,5,0,0
217894,-83.3333333333333,4,2,1,60,0,0
217966,-83.3333333333333,4,2,1,5,0,0
218037,-83.3333333333333,4,2,1,60,0,0
218109,-83.3333333333333,4,2,1,5,0,0
218180,-83.3333333333333,4,2,1,60,0,0
218251,-83.3333333333333,4,2,1,5,0,0
218323,-83.3333333333333,4,2,1,60,0,0
234394,-83.3333333333333,4,2,1,5,0,0
234466,-83.3333333333333,4,2,1,60,0,0
234537,-83.3333333333333,4,2,1,5,0,0
234609,-83.3333333333333,4,2,1,60,0,0
234680,-83.3333333333333,4,2,1,5,0,0
234751,-83.3333333333333,4,2,1,60,0,0
234823,-83.3333333333333,4,2,1,5,0,0
234894,-83.3333333333333,4,2,1,60,0,0
234966,-83.3333333333333,4,2,1,5,0,0
235037,-83.3333333333333,4,2,1,60,0,0
235109,-83.3333333333333,4,2,1,5,0,0
235180,-83.3333333333333,4,2,1,60,0,0
235466,-83.3333333333333,4,2,1,55,0,0
235561,-83.3333333333333,4,2,1,35,0,0
235751,-83.3333333333333,4,2,1,55,0,0
235846,-83.3333333333333,4,2,1,35,0,0
236037,-83.3333333333333,4,2,1,60,0,0
236608,-147.058823529412,4,2,1,60,0,1
236751,-147.058823529412,4,2,1,60,0,0
239966,-147.058823529412,4,2,1,5,0,0
240037,-147.058823529412,4,2,1,40,0,0
243466,-147.058823529412,4,2,1,25,0,0
246894,-147.058823529412,4,2,1,15,0,0
250323,-147.058823529412,4,2,1,25,0,0

[Colours]
Combo1 : 217,213,157
Combo2 : 192,196,189

[HitObjects]
309,157,21180,6,0,P|337:128|409:112,2,96,4|8|0,1:2|0:0|1:0,0:0:0:0:
221,231,22037,2,0,B|165:209|191:192|124:168,1,96,2|0,0:0|0:0,0:0:0:0:
93,146,22466,1,0,1:0:0:0:
35,153,22609,1,8,0:0:0:0:
0,276,22894,6,0,P|53:270|88:232,2,96,4|8|0,1:2|0:0|1:0,0:0:0:0:
98,336,23751,2,0,B|149:350|193:386,1,96,2|0,0:0|0:0,0:0:0:0:
241,382,24180,1,0,1:0:0:0:
280,340,24323,1,8,0:0:0:0:
402,373,24609,6,0,P|406:328|439:282,1,96,4|8,1:2|0:0,0:0:0:0:
362,195,25180,2,0,P|324:181|298:182,1,48,0|0,1:0|1:0,0:0:0:0:
252,193,25466,6,0,P|292:173|349:179,1,96,2|2,0:0|0:0,0:0:0:0:
453,145,26037,1,10,0:0:0:0:
393,46,26323,6,0,P|429:71|453:123,2,96,4|8|0,1:2|0:0|1:0,0:0:0:0:
278,31,27180,5,2,0:0:0:0:
166,60,27466,1,2,0:0:0:0:
61,12,27751,1,10,0:0:0:0:
39,125,28037,6,0,P|80:131|126:189,2,96,6|8|0,1:2|0:0|1:0,0:0:0:0:
143,75,28894,2,0,P|181:70|247:51,1,96,2|0,0:0|0:0,0:0:0:0:
294,59,29323,1,0,1:0:0:0:
323,9,29466,1,8,0:0:0:0:
415,102,29751,6,0,P|447:56|491:26,2,96,6|8|0,1:2|0:0|1:0,0:0:0:0:
324,173,30609,2,0,B|388:185|362:206|418:216,1,96,2|0,0:0|0:0,0:0:0:0:
466,219,31037,1,0,1:0:0:0:
481,274,31180,1,8,2:0:0:0:
402,354,31466,6,0,P|347:345|291:369,1,96,6|8,1:2|0:0,0:0:0:0:
251,256,32037,2,0,P|256:215|268:190,1,48,0|0,1:0|1:0,0:0:0:0:
285,151,32323,6,0,P|249:194|242:254,1,96,2|2,0:0|0:0,0:0:0:0:
154,308,32894,1,10,0:0:0:0:
86,214,33180,6,0,P|105:266|154:302,1,96,6|8,1:2|0:0,0:0:0:0:
218,372,33751,1,0,1:0:0:0:
286,279,34037,6,0,L|277:220,1,48,2|8,0:0|0:0,0:0:0:0:
344,192,34323,2,0,L|351:144,1,48,2|0,0:0|0:0,0:0:0:0:
417,104,34609,2,0,L|408:45,1,48,10|0,0:0|0:0,0:0:0:0:
348,15,34894,6,0,L|239:4,1,107.999996704102,4|8,1:2|0:0,0:0:0:0:
211,73,35323,2,0,L|34:59,1,161.999995056153,2|2,0:0|3:0,0:0:0:0:
141,151,36037,1,0,0:0:0:0:
65,256,36323,1,8,0:0:0:0:
178,319,36609,6,0,L|287:308,1,107.999996704102,4|8,1:2|0:0,0:0:0:0:
315,377,37038,2,0,L|492:363,1,161.999995056153,2|2,0:0|3:0,0:0:0:0:
408,254,37751,2,0,L|338:260,1,53.9999983520508,0|8,0:0|3:0,0:0:0:0:
325,188,38037,2,0,L|378:183,1,53.9999983520508,4|12,3:0|3:0,0:0:0:0:
411,113,38323,6,0,P|349:99|302:74,1,107.999996704102,4|8,1:2|0:0,0:0:0:0:
205,2,38894,1,2,0:0:0:0:
226,129,39180,6,0,P|164:143|117:168,1,107.999996704102,2|0,0:0|0:0,0:0:0:0:
34,255,39751,1,8,0:0:0:0:
115,356,40037,6,0,P|171:348|104:257,1,215.999993408203,4|0,1:2|1:0,0:0:0:0:
21,164,40894,2,0,L|84:153,1,53.9999983520508,2|8,3:0|3:0,0:0:0:0:
116,93,41180,2,0,L|179:104,1,53.9999983520508,0|8,0:0|3:0,0:0:0:0:
229,147,41466,2,0,L|292:136,1,53.9999983520508,4|4,3:0|3:0,0:0:0:0:
330,81,41751,6,0,L|319:190,1,107.999996704102,4|8,1:2|0:0,0:0:0:0:
388,218,42180,2,0,L|374:395,1,161.999995056153,2|0,0:0|1:2,0:0:0:0:
475,297,42894,1,0,0:0:0:0:
389,199,43180,1,8,0:0:0:0:
481,108,43466,6,0,L|371:99,1,107.999996704102,4|8,1:2|0:0,0:0:0:0:
264,28,44037,2,0,L|334:31,2,53.9999983520508,0|0|2,1:0|1:0|3:0,0:0:0:0:
210,84,44466,2,0,P|178:66|96:42,1,107.999996704102,8|8,3:0|3:0,0:0:0:0:
44,9,44894,2,0,L|54:67,1,53.9999983520508,4|4,3:0|3:0,0:0:0:0:
92,128,45180,6,0,L|70:256,1,107.999996704102,4|8,1:2|0:0,0:0:0:0:
140,345,45751,1,0,1:0:0:0:
258,291,46037,6,0,L|239:184,1,107.999996704102,2|0,0:0|0:0,0:0:0:0:
345,109,46608,1,8,0:0:0:0:
440,196,46894,6,0,L|421:302,1,107.999996704102,4|12,1:2|0:0,0:0:0:0:
318,381,47465,1,4,3:0:0:0:
359,258,47751,1,2,0:0:0:0:
292,146,48037,1,0,0:0:0:0:
375,47,48323,1,8,0:0:0:0:
308,13,48466,1,0,1:0:0:0:
300,18,48538,1,0,1:2:0:0:
293,25,48609,6,4,B|233:13|233:13|161:44,1,120,12|0,0:0|1:0,0:0:0:0:
130,96,49037,2,4,B|75:119|75:119|15:107,1,120,12|0,0:0|1:0,0:0:0:0:
16,30,49466,2,4,B|22:96|22:96|28:105|28:105|34:159,1,120,12|0,0:0|1:0,0:0:0:0:
98,194,49894,2,4,B|92:260|92:260|86:269|86:269|80:323,1,120,12|0,0:0|1:0,0:0:0:0:
19,368,50323,2,0,L|93:356,1,60,8|0,0:0|0:0,0:0:0:0:
154,376,50609,1,8,0:0:0:0:
215,326,50751,1,6,1:2:0:0:
370,337,51037,6,0,L|346:266,1,60,2|8,1:2|0:0,2:0:0:0:
436,291,51323,2,0,L|386:347,1,60,2|0,1:2|1:0,0:0:0:0:
366,256,51609,2,0,L|439:270,1,60,10|0,0:2|0:0,0:0:0:0:
499,242,51894,1,0,1:0:0:0:
457,179,52037,5,12,0:0:0:0:
349,274,52323,1,12,0:0:0:0:
223,202,52609,1,12,0:0:0:0:
179,263,52751,1,0,1:0:0:0:
110,232,52894,1,8,0:0:0:0:
70,297,53037,1,4,3:0:0:0:
60,296,53109,1,4,3:0:0:0:
50,296,53180,6,4,L|74:160,1,120,12|0,0:0|1:0,0:0:0:0:
35,111,53609,1,12,0:0:0:0:
225,9,54037,1,12,0:0:0:0:
176,69,54180,1,4,0:3:0:0:
235,120,54323,6,4,L|259:256,1,120,12|0,0:0|1:0,0:0:0:0:
220,305,54752,1,12,0:0:0:0:
424,372,55180,1,8,0:0:0:0:
485,322,55323,5,4,1:2:0:0:
408,199,55609,1,8,3:0:0:0:
446,134,55751,2,0,L|449:102,4,30,8|8|8|8|8,0:0|0:0|0:0|0:0|3:0,0:0:0:0:
369,114,56180,2,0,L|293:105,1,60,4|8,3:0|0:0,0:0:0:0:
264,44,56466,6,0,L|125:72,1,120,4|4,1:2|1:2,0:0:0:0:
74,37,56894,1,4,1:2:0:0:
53,179,57180,5,2,0:0:0:0:
119,139,57323,1,2,0:0:0:0:
280,195,57609,6,0,L|447:179,1,143.999995605469,6|0,1:2|1:0,0:0:0:0:
509,173,58037,1,10,0:0:0:0:
338,145,58323,1,2,3:2:0:0:
275,204,58466,2,0,L|184:212,1,71.9999978027344,4|8,0:3|0:0,0:0:0:0:
150,141,58751,6,0,L|158:232,1,71.9999978027344,2|0,0:0|1:0,0:0:0:0:
80,256,59037,2,0,L|86:327,1,71.9999978027344,2|8,0:0|0:0,0:0:0:0:
171,365,59323,6,0,L|163:274,1,71.9999978027344,2|0,0:0|1:0,0:0:0:0:
247,265,59609,2,0,L|240:193,1,71.9999978027344,2|8,0:0|0:0,0:0:0:0:
320,113,59894,6,0,B|281:73|281:73|186:95,1,143.999995605469,6|0,1:2|1:0,0:0:0:0:
111,117,60323,2,0,L|31:136,1,71.9999978027344,10|4,0:0|3:0,0:0:0:0:
53,47,60609,2,0,L|123:30,1,71.9999978027344,4|4,3:0|3:0,0:0:0:0:
207,11,60894,1,10,0:0:0:0:
353,103,61180,5,2,0:0:0:0:
322,22,61323,2,0,L|313:99,1,71.9999978027344,2|8,1:2|0:0,0:0:0:0:
233,126,61609,2,0,L|224:203,1,71.9999978027344,2|4,1:2|3:0,0:0:0:0:
298,243,61894,2,0,L|289:320,1,71.9999978027344,2|8,1:2|0:0,0:0:0:0:
204,372,62180,6,0,B|232:339|232:339|343:356,1,143.999995605469,4|4,1:2|3:0,0:0:0:0:
416,373,62609,1,12,0:0:0:0:
509,228,62894,2,0,B|481:261|481:261|370:244,1,143.999995605469,4|10,3:0|0:0,0:0:0:0:
209,220,63466,5,2,0:0:0:0:
142,275,63609,2,0,L|213:264,1,71.9999978027344,4|8,3:0|0:0,0:0:0:0:
267,331,63894,2,0,L|338:320,1,71.9999978027344,2|4,1:2|3:0,0:0:0:0:
381,245,64180,1,2,1:2:0:0:
185,346,64466,5,4,1:2:0:0:
29,271,64751,1,4,3:0:0:0:
39,263,64823,1,4,3:0:0:0:
49,255,64894,2,0,L|40:176,2,71.9999978027344,6|6|10,3:0|3:0|0:0,0:0:0:0:
61,341,65323,1,10,0:0:0:0:
77,168,65609,6,0,B|86:95|86:95|85:88|85:88|94:23,1,143.999995605469,4|12,1:2|3:0,0:0:0:0:
82,22,65966,1,8,3:0:0:0:
72,16,66037,1,4,3:0:0:0:
14,80,66180,1,12,3:0:0:0:
24,87,66251,1,12,3:0:0:0:
36,94,66323,1,4,0:0:0:0:
77,168,66466,2,0,L|114:189,2,35.9999989013672,4|0|4,3:0|1:0|3:0,0:0:0:0:
142,111,66751,6,0,B|149:195|149:195|152:199|152:199|158:278,1,143.999995605469,4|0,1:2|1:0,0:0:0:0:
164,340,67179,1,8,0:0:0:0:
192,169,67465,1,4,3:0:0:0:
133,106,67608,2,0,L|125:15,1,71.9999978027344,4|8,3:0|0:0,0:0:0:0:
40,25,67894,6,0,L|124:18,1,71.9999978027344,2|0,0:0|1:0,0:0:0:0:
192,52,68180,2,0,L|276:45,1,71.9999978027344,2|8,1:2|0:0,0:0:0:0:
273,132,68466,6,0,L|189:139,1,71.9999978027344,2|0,0:0|1:0,0:0:0:0:
128,185,68752,2,0,L|44:192,1,71.9999978027344,2|8,0:0|0:0,0:0:0:0:
10,296,69037,6,0,B|49:270|49:270|59:386,1,143.999995605469,4|0,1:2|1:0,0:0:0:0:
142,382,69466,2,0,L|133:304,1,71.9999978027344,8|4,0:0|3:0,0:0:0:0:
212,274,69751,2,0,L|220:345,1,71.9999978027344,4|4,3:0|3:0,0:0:0:0:
307,352,70037,1,10,0:0:0:0:
470,296,70323,5,2,0:0:0:0:
419,366,70466,2,0,L|430:289,1,71.9999978027344,4|8,3:0|0:0,0:0:0:0:
360,243,70752,2,0,L|371:166,1,71.9999978027344,2|4,1:2|3:0,0:0:0:0:
453,146,71037,2,0,L|464:69,1,71.9999978027344,2|8,1:2|0:0,0:0:0:0:
385,16,71323,6,0,B|354:34|354:34|241:16,1,143.999995605469,4|4,1:2|3:0,0:0:0:0:
162,0,71751,1,12,0:0:0:0:
25,106,72037,2,0,B|56:88|56:88|169:106,1,143.999995605469,4|10,3:0|0:0,0:0:0:0:
258,249,72609,5,2,0:0:0:0:
187,298,72751,2,0,L|273:289,1,71.9999978027344,4|8,3:0|0:0,0:0:0:0:
316,355,73037,2,0,L|402:346,1,71.9999978027344,2|4,1:2|3:0,0:0:0:0:
441,278,73323,2,0,L|527:269,1,71.9999978027344,2|8,1:2|0:0,0:0:0:0:
500,155,73609,6,0,B|448:177|448:177|338:137,1,143.999995605469,4|12,1:2|0:0,0:0:0:0:
285,115,74037,1,12,0:0:0:0:
229,48,74180,1,4,3:0:0:0:
237,41,74251,1,0,1:2:0:0:
244,34,74323,2,0,L|325:28,1,71.9999978027344,12|8,0:0|0:3,0:0:0:0:
419,26,74609,5,8,0:3:0:0:
419,26,74751,2,0,L|422:121,1,71.9999978027344,8|12,0:3|0:0,0:0:0:0:
512,186,75037,5,8,0:3:0:0:
512,186,75180,2,0,L|423:189,1,71.9999978027344,8|8,0:3|0:3,0:0:0:0:
361,250,75466,5,12,0:0:0:0:
361,238,75537,1,8,0:0:0:0:
361,225,75609,1,8,0:0:0:0:
348,146,75751,6,0,L|312:146,2,35.9999989013672,8|8|4,3:0|3:0|3:0,0:0:0:0:
424,179,76037,5,4,1:2:0:0:
328,85,78323,6,0,B|274:105|291:125|224:139,2,96,4|8|8,1:2|0:0|3:0,0:0:0:0:
406,112,79037,1,4,3:0:0:0:
406,112,79180,2,0,L|456:102,2,48,4|8|4,3:0|3:0|3:0,0:0:0:0:
365,220,79751,2,0,P|370:257|383:278,1,48,8|0,0:0|0:0,0:0:0:0:
444,309,80037,6,0,P|406:306|371:351,2,96,4|8|8,1:2|0:0|3:0,0:0:0:0:
504,210,80894,2,0,L|451:204,2,48,4|8|4,3:0|3:0|3:0,0:0:0:0:
415,135,81466,1,8,0:0:0:0:
321,68,81751,6,0,B|271:70|284:95|226:95,1,96,4|8,1:2|0:0,0:0:0:0:
125,45,82323,1,8,3:0:0:0:
98,101,82466,1,4,3:0:0:0:
117,155,82608,6,0,B|143:197|158:173|188:222,1,96,4|4,3:0|3:0,0:0:0:0:
214,331,83180,1,8,0:0:0:0:
319,283,83465,6,0,B|342:238|314:237|341:187,1,96,4|8,1:2|0:0,0:0:0:0:
254,113,84037,2,0,L|242:66,2,48,8|8|4,3:0|3:0|3:0,0:0:0:0:
173,29,84609,1,12,3:0:0:0:
115,25,84751,1,12,3:0:0:0:
58,18,84894,1,8,0:0:0:0:
108,121,85180,6,0,B|162:141|145:161|212:175,2,96,4|8|8,1:2|0:0|3:0,0:0:0:0:
31,101,85894,1,4,3:0:0:0:
31,101,86037,2,0,L|21:151,2,48,4|8|4,3:0|3:0|3:0,0:0:0:0:
113,182,86609,2,0,P|126:209|132:230,1,48,8|0,0:0|0:0,0:0:0:0:
118,301,86894,2,0,P|153:269|199:257,2,96,4|8|8,1:2|0:0|3:0,0:0:0:0:
31,377,87751,2,0,L|87:385,2,48,4|8|4,3:0|3:0|3:0,0:0:0:0:
3,264,88323,1,8,0:0:0:0:
108,217,88609,6,0,P|155:214|199:232,1,96,4|8,1:2|0:0,0:0:0:0:
197,245,89037,2,0,P|153:226|105:229,1,96,0|4,0:0|3:0,0:0:0:0:
35,193,89466,2,0,L|26:145,2,48,4|8|4,3:0|3:0|3:0,0:0:0:0:
117,112,90037,1,8,0:0:0:0:
219,164,90323,6,0,P|266:166|310:148,1,96,4|8,1:2|0:0,0:0:0:0:
308,136,90751,2,0,P|264:154|216:151,1,96,0|0,0:0|1:0,0:0:0:0:
185,77,91180,1,2,0:0:0:0:
130,178,91466,6,0,P|144:217|146:246,1,64,8|8,0:0|0:0,0:0:0:0:
215,274,91751,2,0,P|219:309|217:330,2,32,8|8|8,0:0|0:0|0:0,0:0:0:0:
264,215,92037,6,0,L|319:201,2,53.9999983520508,4|0|8,1:2|0:0|0:0,0:0:0:0:
216,151,92466,2,0,L|383:107,1,161.999995056153,2|2,0:0|0:0,0:0:0:0:
479,183,93180,1,0,0:0:0:0:
384,271,93466,1,8,0:0:0:0:
458,376,93751,6,0,L|403:362,2,53.9999983520508,4|0|8,1:2|0:0|0:0,0:0:0:0:
506,312,94180,2,0,L|339:268,1,161.999995056153,2|2,0:0|0:0,0:0:0:0:
279,299,94751,2,0,P|229:303|172:322,1,107.999996704102,8|8,0:0|0:0,0:0:0:0:
109,366,95180,1,8,0:0:0:0:
33,350,95323,1,8,0:0:0:0:
7,273,95466,6,0,P|16:211|37:157,1,107.999996704102,4|8,1:2|0:0,0:0:0:0:
132,87,96037,1,2,1:2:0:0:
172,210,96323,6,0,P|230:186|287:177,1,107.999996704102,2|4,1:2|1:2,0:0:0:0:
396,223,96894,2,0,L|429:219,3,26.9999991760254,8|8|8|8,0:0|0:0|0:0|0:0,0:0:0:0:
446,197,97180,6,0,P|466:164|351:114,1,215.999993408203,4|0,1:2|1:0,0:0:0:0:
223,94,98037,1,2,0:0:0:0:
135,190,98323,1,2,0:0:0:0:
205,225,98466,1,0,1:0:0:0:
215,220,98537,1,0,1:0:0:0:
226,216,98609,1,8,0:0:0:0:
348,258,98894,6,0,L|362:313,2,53.9999983520508,4|0|8,1:2|0:0|0:0,0:0:0:0:
412,210,99323,2,0,L|456:376,1,161.999995056153,2|2,0:0|0:0,0:0:0:0:
379,384,99894,2,0,B|316:366|350:345|268:325,1,107.999996704102,8|0,0:0|1:0,0:0:0:0:
211,336,100323,1,8,0:0:0:0:
118,245,100609,6,0,L|104:190,2,53.9999983520508,4|0|8,1:2|0:0|0:0,0:0:0:0:
54,293,101038,2,0,L|10:126,1,161.999995056153,2|2,0:0|0:0,0:0:0:0:
27,62,101609,2,0,B|83:25|89:56|139:16,1,107.999996704102,8|0,0:0|1:0,0:0:0:0:
197,0,102037,1,8,0:0:0:0:
175,127,102323,6,0,L|190:186,2,53.9999983520508,4|0|0,1:2|0:0|0:0,0:0:0:0:
110,90,102751,1,8,0:0:0:0:
98,218,103037,5,0,1:0:0:0:
110,218,103109,1,0,1:0:0:0:
122,217,103180,2,0,L|107:276,2,53.9999983520508,12|0|0,0:0|0:0|0:0,0:0:0:0:
188,179,103608,1,8,3:0:0:0:
199,307,103894,5,0,1:0:0:0:
187,307,103966,1,0,1:0:0:0:
175,307,104037,2,0,L|190:366,2,53.9999983520508,12|0|2,0:0|0:0|0:0,0:0:0:0:
109,268,104465,1,0,1:0:0:0:
29,165,104751,5,0,1:0:0:0:
39,160,104823,1,0,1:0:0:0:
50,155,104894,2,0,L|123:166,1,53.9999983520508,10|8,0:0|3:0,0:0:0:0:
169,202,105180,2,0,L|242:191,1,53.9999983520508,6|4,3:0|3:0,0:0:0:0:
278,139,105466,2,0,L|351:150,1,53.9999983520508,14|12,3:0|3:0,0:0:0:0:
394,224,105751,6,4,B|384:222|384:222|421:119,1,120,12|0,0:0|1:0,0:0:0:0:
500,134,106180,2,4,B|509:132|509:132|472:29,1,120,12|0,0:0|1:0,0:0:0:0:
394,12,106609,2,4,B|321:21|321:21|324:24|324:24|258:32,1,120,12|0,0:0|1:0,0:0:0:0:
221,101,107037,2,4,B|294:110|294:110|291:113|291:113|357:121,1,120,12|0,0:0|1:0,0:0:0:0:
404,171,107466,6,0,L|418:247,1,60,8|0,0:0|1:0,0:0:0:0:
427,306,107751,1,8,0:0:0:0:
358,340,107894,1,6,1:2:0:0:
197,349,108180,6,0,L|183:270,1,60,2|8,1:2|0:0,2:0:0:0:
204,219,108466,2,0,L|142:270,1,60,2|0,1:2|1:0,0:0:0:0:
87,272,108751,2,0,L|162:299,1,60,10|0,0:0|0:0,0:0:0:0:
197,349,109037,1,0,1:0:0:0:
115,380,109180,5,12,0:0:0:0:
23,225,109466,1,12,0:0:0:0:
119,75,109751,1,12,0:0:0:0:
46,98,109894,1,0,1:0:0:0:
11,30,110037,1,8,0:0:0:0:
84,4,110180,5,0,1:0:0:0:
95,1,110251,1,0,1:0:0:0:
107,0,110323,2,0,B|242:20,1,120,4|0,1:2|0:0,0:0:0:0:
287,63,110751,1,8,3:0:0:0:
191,171,111037,5,0,1:0:0:0:
202,174,111108,1,0,1:0:0:0:
214,175,111180,2,0,B|349:155,1,120,12|2,0:0|0:0,0:0:0:0:
394,112,111608,1,8,3:0:0:0:
428,266,111894,5,0,1:0:0:0:
439,263,111965,1,0,1:0:0:0:
451,262,112037,2,0,B|527:273,2,60,12|0|8,0:0|1:0|0:0,0:0:0:0:
407,193,112466,1,4,1:2:0:0:
336,318,112751,5,2,1:2:0:0:
268,285,112894,1,10,0:0:0:0:
223,344,113037,1,6,1:2:0:0:
122,240,113323,5,2,1:2:0:0:
56,275,113466,1,10,0:0:0:0:
11,214,113609,1,6,1:2:0:0:
32,355,113894,5,2,1:2:0:0:
105,335,114037,1,10,0:0:0:0:
179,311,114180,2,0,L|241:324,1,60,6|8,1:2|0:0,0:0:0:0:
288,255,114466,2,0,L|229:242,1,60,2|8,1:2|0:0,0:0:0:0:
189,179,114751,1,0,1:0:0:0:
185,170,114823,1,0,1:0:0:0:
181,161,114894,6,0,B|167:133|167:133|221:160|221:160|272:151,1,120,8|8,0:0|0:0,0:0:0:0:
303,95,115323,2,0,B|289:123|289:123|343:96|343:96|394:105,1,120,4|12,3:0|3:0,0:0:0:0:
435,150,115751,1,8,0:0:0:0:
442,139,115823,1,8,0:0:0:0:
450,129,115894,2,0,L|484:119,2,30,8|8|8,0:0|0:0|0:0,0:0:0:0:
429,52,116180,2,0,B|462:35|462:35|378:25,1,120,4|12,3:0|3:0,0:0:0:0:
324,77,116609,5,8,0:0:0:0:
270,22,116751,1,4,3:0:0:0:
207,70,116894,1,12,3:0:0:0:
204,80,116966,1,4,3:0:0:0:
201,90,117037,6,0,L|40:71,1,143.999995605469,4|0,1:2|1:0,0:0:0:0:
0,3,117466,1,8,0:0:0:0:
110,135,117751,1,4,3:0:0:0:
192,108,117894,2,0,L|280:117,1,71.9999978027344,4|8,0:3|0:0,0:0:0:0:
313,44,118180,6,0,L|305:135,1,71.9999978027344,2|0,0:0|1:0,0:0:0:0:
378,164,118466,2,0,L|372:235,1,71.9999978027344,2|8,0:0|0:0,0:0:0:0:
291,273,118752,6,0,L|299:182,1,71.9999978027344,2|0,0:0|1:0,0:0:0:0:
222,171,119038,2,0,L|229:99,1,71.9999978027344,2|8,0:0|0:0,0:0:0:0:
181,3,119323,6,0,B|236:-1|236:-1|334:55,1,143.999995605469,4|8,1:2|3:0,0:0:0:0:
389,3,119751,2,0,L|454:35,1,71.9999978027344,8|4,0:0|3:0,0:0:0:0:
451,121,120037,2,0,L|386:89,1,71.9999978027344,4|4,3:0|3:0,0:0:0:0:
313,43,120323,1,10,0:0:0:0:
292,214,120609,5,2,0:0:0:0:
371,182,120751,2,0,L|297:170,1,71.9999978027344,0|8,1:0|0:0,0:0:0:0:
238,109,121037,2,0,L|164:97,1,71.9999978027344,2|4,1:2|3:0,0:0:0:0:
103,156,121323,2,0,L|29:144,1,71.9999978027344,2|8,1:2|0:0,0:0:0:0:
0,63,121609,6,0,B|7:123|7:123|26:140|26:140|36:212,1,143.999995605469,4|4,1:2|3:0,0:0:0:0:
46,283,122037,1,12,0:0:0:0:
171,383,122323,2,0,B|178:323|178:323|197:306|197:306|207:234,1,143.999995605469,4|10,3:0|0:0,0:0:0:0:
361,175,122894,5,2,0:0:0:0:
315,101,123037,2,0,L|326:185,1,71.9999978027344,4|8,3:0|0:0,0:0:0:0:
279,247,123323,2,0,L|290:331,1,71.9999978027344,2|8,1:2|3:0,0:0:0:0:
357,370,123609,1,2,1:2:0:0:
493,264,123894,5,4,1:2:0:0:
325,300,124180,1,8,3:0:0:0:
335,292,124252,1,4,3:0:0:0:
345,284,124323,2,0,L|336:205,2,71.9999978027344,6|6|10,3:0|3:0|0:0,0:0:0:0:
357,370,124752,1,10,0:0:0:0:
373,197,125038,6,0,B|382:124|382:124|381:117|381:117|390:52,1,143.999995605469,4|12,1:2|3:0,0:0:0:0:
405,43,125394,1,8,3:0:0:0:
416,36,125466,1,4,3:0:0:0:
496,77,125609,1,12,3:0:0:0:
483,84,125680,1,12,3:0:0:0:
469,91,125751,1,12,0:0:0:0:
463,171,125894,2,0,L|509:168,2,35.9999989013672,12|0|4,3:0|1:0|3:0,0:0:0:0:
379,212,126180,6,0,B|302:198|302:198|296:199|296:199|213:184,1,143.999995605469,4|0,1:2|1:0,0:0:0:0:
155,217,126609,1,8,0:0:0:0:
316,157,126894,1,4,3:0:0:0:
390,200,127037,2,0,L|471:188,1,71.9999978027344,0|8,1:0|0:0,0:0:0:0:
487,281,127323,6,0,L|396:292,1,71.9999978027344,2|0,0:0|1:0,0:0:0:0:
379,212,127609,2,0,L|308:220,1,71.9999978027344,2|8,0:0|0:0,0:0:0:0:
264,308,127894,6,0,L|354:296,1,71.9999978027344,2|0,0:0|1:0,0:0:0:0:
372,377,128180,2,0,L|442:368,1,71.9999978027344,2|8,0:0|0:0,0:0:0:0:
502,288,128466,6,0,B|467:272|467:272|461:154,1,143.999995605469,4|0,1:2|1:0,0:0:0:0:
376,153,128894,2,0,L|405:82,1,71.9999978027344,8|4,0:0|3:0,0:0:0:0:
321,56,129180,2,0,L|293:123,1,71.9999978027344,4|4,3:0|3:0,0:0:0:0:
209,147,129466,1,10,0:0:0:0:
63,54,129751,5,2,0:0:0:0:
1,114,129894,2,0,L|101:93,1,71.9999978027344,4|8,3:0|0:0,0:0:0:0:
155,76,130180,2,0,L|255:55,1,71.9999978027344,2|4,1:2|3:0,0:0:0:0:
310,44,130466,2,0,L|410:23,1,71.9999978027344,2|8,1:2|0:0,0:0:0:0:
489,58,130751,6,0,B|478:46|478:46|434:176,1,143.999995605469,4|4,1:2|3:0,0:0:0:0:
404,247,131180,1,12,0:0:0:0:
239,299,131466,2,0,B|228:311|228:311|184:181,1,143.999995605469,4|10,3:0|0:0,0:0:0:0:
54,78,132037,5,2,1:2:0:0:
100,4,132180,2,0,L|87:86,1,71.9999978027344,4|8,3:0|0:0,0:0:0:0:
163,119,132466,2,0,L|150:201,1,71.9999978027344,2|8,1:2|3:0,0:0:0:0:
70,220,132751,2,0,L|57:302,1,71.9999978027344,2|8,1:2|0:0,0:0:0:0:
5,359,133037,6,0,B|45:344|45:344|111:365|111:365|159:339,1,143.999995605469,4|10,1:2|0:0,0:0:0:0:
206,294,133466,1,8,3:0:0:0:
288,266,133609,1,12,3:0:0:0:
330,340,133751,6,0,L|339:248,1,71.9999978027344,10|0,0:0|2:0,0:0:0:0:
365,186,134037,5,10,0:0:0:0:
279,178,134180,1,10,0:0:0:0:
192,28,134466,5,10,0:0:0:0:
278,36,134609,1,10,0:0:0:0:
154,156,134894,6,0,P|186:145|212:129,2,47.9999985351563,8|8|4,0:0|3:0|3:0,0:0:0:0:
109,219,135180,2,0,P|141:230|167:246,2,47.9999985351563,8|4|12,0:3|0:3|0:3,0:0:0:0:
35,237,135466,5,6,1:2:0:0:
193,304,135894,1,8,0:0:0:0:
88,352,136180,1,8,0:0:0:0:
108,297,136323,5,6,1:2:0:0:
271,351,136751,1,8,0:0:0:0:
358,275,137037,1,8,0:0:0:0:
347,331,137180,5,6,1:2:0:0:
213,225,137609,1,8,0:0:0:0:
321,186,137894,1,8,0:0:0:0:
272,155,138037,5,6,1:2:0:0:
387,149,138323,2,0,P|416:160|432:170,1,48,8|8,0:0|3:0,0:0:0:0:
475,205,138609,1,4,3:0:0:0:
504,333,138894,6,0,P|465:290|424:356,1,144,4|4,1:2|3:0,0:0:0:0:
307,345,139609,1,4,3:0:0:0:
307,345,139751,2,0,P|241:355|209:369,2,96,8|4|4,0:0|3:0|3:0,0:0:0:0:
116,289,140609,6,0,P|163:330|200:274,1,144,4|4,1:2|3:0,0:0:0:0:
117,207,141324,1,4,3:0:0:0:
117,207,141466,1,8,0:0:0:0:
44,333,141751,6,0,L|34:257,2,53.9999983520508,8|8|8,0:0|0:0|3:0,0:0:0:0:
117,377,142180,1,4,3:0:0:0:
127,374,142251,1,4,3:0:0:0:
136,371,142323,1,14,1:2:0:0:
329,356,142751,1,8,0:0:0:0:
205,316,143037,1,4,3:0:0:0:
209,305,143109,1,4,3:0:0:0:
213,294,143180,5,14,1:2:0:0:
37,210,143608,1,8,0:0:0:0:
161,170,143894,1,4,3:0:0:0:
157,159,143966,1,4,3:0:0:0:
153,148,144037,5,14,1:2:0:0:
327,61,144466,1,8,0:0:0:0:
203,21,144752,1,4,3:0:0:0:
207,10,144824,1,4,3:0:0:0:
210,0,144894,6,0,L|84:14,1,107.999996704102,14|8,1:2|0:0,0:0:0:0:
53,68,145323,2,0,L|-4:59,1,53.9999983520508,8|4,3:0|3:0,0:0:0:0:
69,192,145751,6,0,P|78:156|162:182,1,144,4|4,1:2|3:0,0:0:0:0:
138,290,146466,1,4,3:0:0:0:
138,290,146609,2,0,P|214:278|255:277,2,96,8|4|4,0:0|3:0|3:0,0:0:0:0:
270,207,147466,6,0,P|279:243|363:217,1,144,4|4,1:2|3:0,0:0:0:0:
332,118,148181,1,4,3:0:0:0:
341,122,148251,1,4,3:0:0:0:
350,126,148323,1,8,0:0:0:0:
438,73,148609,5,8,0:0:0:0:
424,0,148751,1,8,3:0:0:0:
494,22,148894,1,4,3:0:0:0:
363,47,149180,5,6,0:0:0:0:
56,108,169751,6,0,P|115:89|161:99,1,96,4|8,1:0|0:0,0:0:0:0:
252,143,170323,1,0,1:0:0:0:
216,33,170609,6,0,P|261:74|276:119,1,96,2|0,0:0|0:0,0:0:0:0:
304,216,171180,1,8,0:0:0:0:
381,130,171466,6,0,P|367:190|336:225,1,96,0|8,1:0|0:0,0:0:0:0:
254,284,172037,1,0,1:0:0:0:
151,231,172323,6,0,P|185:225|199:221,1,48,2|8,0:0|0:0,0:0:0:0:
111,298,172751,2,0,P|87:291|64:288,1,48,0|8,1:0|0:0,0:0:0:0:
144,371,173180,6,0,P|195:362|254:357,1,96,4|8,1:0|0:0,0:0:0:0:
332,290,173751,1,0,1:0:0:0:
440,327,174037,6,0,P|389:318|330:313,1,96,2|0,0:0|0:0,0:0:0:0:
252,246,174608,1,8,0:0:0:0:
136,243,174894,6,0,P|187:234|246:229,1,96,0|8,1:0|0:0,0:0:0:0:
324,162,175465,1,0,1:0:0:0:
433,124,175751,6,0,P|405:114|386:104,1,48,2|8,0:0|0:0,0:0:0:0:
449,203,176180,2,0,P|470:192|493:184,1,48,0|8,1:0|0:0,0:0:0:0:
445,289,176609,6,0,P|404:310|378:365,2,96,4|8|0,1:0|0:0|1:0,0:0:0:0:
336,250,177466,2,0,P|297:224|236:229,2,96,2|0|8,0:0|0:0|0:0,0:0:0:0:
323,135,178323,2,0,P|325:88|290:38,2,96,0|8|0,1:0|0:0|1:0,0:0:0:0:
427,87,179180,2,0,P|468:66|494:11,2,96,2|0|8,0:0|0:0|0:0,0:0:0:0:
314,111,180037,6,0,P|270:108|217:74,1,96,4|8,1:0|0:0,0:0:0:0:
331,130,180609,1,0,1:0:0:0:
246,207,180894,6,0,P|202:210|149:244,1,96,2|0,0:0|0:0,0:0:0:0:
263,188,181466,1,8,0:0:0:0:
177,111,181751,6,0,P|133:108|80:74,1,96,0|8,1:0|0:0,0:0:0:0:
92,67,182180,2,0,P|133:91|180:95,1,96,0|0,0:0|1:0,0:0:0:0:
245,55,182609,2,0,L|294:24,1,48,2|8,0:0|0:0,0:0:0:0:
342,80,182894,1,4,3:0:0:0:
352,76,182966,1,0,1:2:0:0:
361,72,183037,2,0,L|422:81,1,48,4|8,3:0|0:0,0:0:0:0:
485,80,183323,1,8,0:0:0:0:
490,91,183394,1,8,0:0:0:0:
496,102,183466,6,0,B|479:129|479:129|483:230|483:230|466:255,1,144,4|0,1:2|1:0,0:0:0:0:
464,314,184037,1,2,3:0:0:0:
337,339,184323,6,0,L|217:365,1,107.999996704102,8|0,0:0|0:0,0:0:0:0:
158,353,184751,2,0,L|144:285,1,53.9999983520508,0|8,1:0|0:0,0:0:0:0:
39,371,185180,5,4,3:0:0:0:
39,371,185323,2,0,L|13:251,1,107.999996704102,0|0,1:0|1:0,0:0:0:0:
49,197,185751,2,0,L|56:141,1,53.9999983520508,2|0,3:0|1:0,0:0:0:0:
127,106,186037,2,0,B|190:124|171:141|230:159,2,107.999996704102,8|4|8,0:0|3:0|0:0,0:0:0:0:
25,24,186894,5,4,1:2:0:0:
25,24,187037,2,0,L|152:8,1,107.999996704102,0|0,1:0|1:0,0:0:0:0:
205,28,187466,1,2,3:0:0:0:
308,114,187751,6,0,L|435:130,1,107.999996704102,8|0,0:0|1:0,0:0:0:0:
453,56,188180,2,0,L|394:48,1,53.9999983520508,0|8,1:0|0:0,0:0:0:0:
277,1,188609,5,4,3:0:0:0:
277,1,188751,2,0,L|267:124,1,107.999996704102,0|0,1:0|1:0,0:0:0:0:
205,151,189180,2,0,L|200:205,1,53.9999983520508,2|0,3:0|1:0,0:0:0:0:
224,274,189466,2,0,P|162:241|111:243,2,107.999996704102,8|4|8,0:0|3:0|0:0,0:0:0:0:
324,355,190323,6,0,L|439:339,1,107.999996704102,4|8,1:2|0:0,0:0:0:0:
483,285,190751,1,0,1:0:0:0:
390,194,191037,1,0,1:0:0:0:
357,261,191180,2,0,L|341:138,1,107.999996704102,8|0,0:0|1:0,0:0:0:0:
288,103,191609,2,0,L|223:113,1,53.9999983520508,0|8,1:0|0:0,0:0:0:0:
119,51,192037,6,0,L|243:33,1,107.999996704102,4|8,3:0|0:0,3:0:0:0:
353,60,192609,1,2,3:0:0:0:
479,32,192894,2,0,B|432:69|458:86|416:129,1,107.999996704102,8|4,0:0|3:0,0:0:0:0:
393,191,193323,2,0,P|362:186|319:168,1,53.9999983520508,0|8,1:0|0:0,0:0:0:0:
230,110,193751,5,4,1:2:0:0:
134,197,194037,1,8,0:0:0:0:
229,285,194323,1,2,3:0:0:0:
320,193,194609,2,2,P|328:123|343:66,1,107.999996704102,8|4,0:0|3:0,0:0:0:0:
439,7,195180,1,8,0:0:0:0:
488,63,195323,1,0,1:0:0:0:
492,74,195394,1,0,1:0:0:0:
496,85,195466,5,6,1:2:0:0:
435,215,195751,1,10,3:0:0:0:
294,184,196037,1,10,3:0:0:0:
282,40,196323,1,10,3:0:0:0:
421,4,196608,5,6,3:0:0:0:
340,123,196894,1,6,3:0:0:0:
195,129,197180,1,6,3:0:0:0:
80,40,197466,1,6,3:0:0:0:
32,175,197751,5,14,3:0:0:0:
174,156,198037,1,14,3:0:0:0:
280,252,198323,5,14,3:0:0:0:
138,227,198608,1,14,3:0:0:0:
67,352,198894,5,8,0:0:0:0:
4,316,199037,2,0,L|145:302,1,120,0|0,1:0|1:0,0:0:0:0:
190,338,199466,2,0,P|161:344|137:356,2,40,8|8|8,0:0|0:0|0:0,0:0:0:0:
252,297,199751,2,0,P|223:291|199:279,2,40,8|8|8,0:0|0:0|0:0,0:0:0:0:
313,343,200037,6,0,B|390:352|390:291|426:250|491:277|514:318,1,215.999993408203,4|0,1:2|1:0,0:0:0:0:
428,257,200608,2,0,P|394:276|371:300,1,71.9999978027344,10|0,0:0|1:0,0:0:0:0:
466,154,201037,5,8,0:0:0:0:
428,76,201180,2,0,B|411:22|369:16|334:36|334:36|297:59|258:56|223:11,1,215.999993408203,4|0,1:2|1:0,0:0:0:0:
185,95,201751,2,0,P|225:79|255:50,1,71.9999978027344,10|0,0:0|1:0,0:0:0:0:
301,224,202180,5,8,0:0:0:0:
224,183,202323,2,0,B|197:162|166:169|145:190|145:190|49:284,1,215.999993408203,4|0,1:2|1:0,0:0:0:0:
32,363,202894,2,0,L|101:297,1,71.9999978027344,10|0,0:0|1:0,0:0:0:0:
248,368,203323,5,8,0:0:0:0:
212,289,203466,2,0,P|210:241|213:211,1,71.9999978027344,4|0,1:2|0:0,0:0:0:0:
261,145,203751,2,0,P|263:97|260:67,1,71.9999978027344,2|0,0:0|1:0,0:0:0:0:
182,35,204037,2,0,P|227:42|259:57,1,71.9999978027344,10|0,0:0|1:0,0:0:0:0:
84,100,204466,5,8,0:0:0:0:
44,176,204608,2,0,B|-5:237|51:307|133:282|176:242,1,215.999993408203,4|0,1:2|1:0,0:0:0:0:
90,306,205180,2,0,P|42:289|25:265,1,71.9999978027344,10|0,0:0|1:0,0:0:0:0:
174,180,205608,5,8,0:0:0:0:
254,149,205751,2,0,B|379:140|335:224|464:211,1,215.999993408203,4|0,1:2|1:0,0:0:0:0:
502,140,206323,2,0,P|460:165|431:169,1,71.9999978027344,10|0,0:0|1:0,0:0:0:0:
281,242,206751,5,8,0:0:0:0:
341,303,206894,2,0,P|404:339|483:244,1,215.999993408203,4|0,1:2|1:0,0:0:0:0:
501,330,207466,2,0,P|463:364|428:371,1,71.9999978027344,10|0,0:0|1:0,0:0:0:0:
270,369,207894,5,8,0:0:0:0:
224,295,208037,2,0,P|180:295|154:307,1,71.9999978027344,4|0,1:2|0:0,0:0:0:0:
92,366,208323,2,0,P|48:366|22:354,1,71.9999978027344,2|0,0:0|1:0,0:0:0:0:
1,270,208608,2,0,L|15:194,1,71.9999978027344,8|8,0:0|3:0,0:0:0:0:
85,248,208894,2,0,L|99:172,1,71.9999978027344,4|12,3:0|3:0,0:0:0:0:
167,259,209180,6,0,B|250:249|229:210|310:199,1,143.999995605469,4|0,1:2|0:0,0:0:0:0:
380,221,209608,1,2,1:2:0:0:
301,185,209751,2,0,P|253:174|217:158,1,71.9999978027344,8|0,0:0|1:0,0:0:0:0:
230,339,210180,1,8,0:0:0:0:
299,286,210323,1,0,1:0:0:0:
454,361,210608,5,2,0:0:0:0:
380,204,210894,1,10,0:0:0:0:
473,58,211180,1,2,0:0:0:0:
305,16,211466,6,0,B|218:28|244:62|163:76,1,143.999995605469,4|0,1:2|0:0,0:0:0:0:
98,34,211894,1,2,1:2:0:0:
160,93,212037,2,0,P|176:141|182:180,1,71.9999978027344,8|0,1:2|1:0,0:0:0:0:
33,255,212466,1,8,0:0:0:0:
71,178,212608,1,0,1:0:0:0:
224,256,212894,6,0,P|296:264|380:291,1,143.999995605469,2|8,0:0|0:0,0:0:0:0:
499,175,213466,2,0,P|447:133|422:278,1,287.999991210938,2|2,0:0|0:0,0:0:0:0:
327,233,214180,2,0,P|324:185|339:154,2,71.9999978027344,0|10|0,1:0|0:0|1:0,0:0:0:0:
448,355,214751,5,8,0:0:0:0:
367,322,214894,2,0,B|265:286|265:377|153:333,1,215.999993408203,4|0,1:2|1:0,0:0:0:0:
105,266,215466,2,0,P|151:299|174:303,1,71.9999978027344,10|0,0:0|1:0,0:0:0:0:
0,354,215894,5,8,0:0:0:0:
16,269,216037,2,0,B|25:205|81:186|81:186|32:162|23:98,1,215.999993408203,4|0,1:2|1:0,0:0:0:0:
84,164,216608,2,0,P|132:190|179:199,1,71.9999978027344,10|0,0:0|1:0,0:0:0:0:
377,318,217180,5,4,0:0:0:0:
327,246,217323,1,8,0:0:0:0:
348,162,217466,2,0,P|343:119|336:86,1,71.9999978027344,8|4,3:0|3:0,0:0:0:0:
270,36,217751,2,0,L|194:48,1,71.9999978027344,8|0,0:0|3:0,0:0:0:0:
247,119,218037,2,0,L|171:131,1,71.9999978027344,4|12,3:0|3:0,0:0:0:0:
108,221,218323,6,0,P|129:185|28:63,1,215.999993408203,4|0,1:2|1:0,0:0:0:0:
128,56,218894,2,0,P|158:88|168:122,1,71.9999978027344,10|0,0:0|1:0,0:0:0:0:
128,300,219323,5,8,0:0:0:0:
186,240,219466,2,0,B|235:232|273:243|292:294|294:342|322:357|353:363,1,215.999993408203,4|0,1:2|1:0,0:0:0:0:
427,334,220037,2,0,P|379:337|348:331,1,71.9999978027344,10|0,0:0|1:0,0:0:0:0:
306,166,220466,5,8,0:0:0:0:
380,209,220608,2,0,B|432:232|462:190|462:190|458:117|396:73,1,215.999993408203,4|0,1:2|1:0,0:0:0:0:
488,117,221180,2,0,P|499:157|503:192,1,71.9999978027344,10|0,0:0|1:0,0:0:0:0:
504,14,221608,5,8,0:0:0:0:
419,31,221751,2,0,P|370:27|327:19,1,71.9999978027344,4|0,1:2|0:0,0:0:0:0:
280,78,222037,2,0,P|231:82|188:90,1,71.9999978027344,2|0,0:0|1:0,0:0:0:0:
129,121,222323,2,0,L|118:41,1,71.9999978027344,8|0,0:0|1:0,0:0:0:0:
39,16,222608,1,8,0:0:0:0:
46,102,222751,1,8,0:0:0:0:
55,188,222894,6,0,P|112:162|234:242,1,215.999993408203,4|0,1:2|1:0,0:0:0:0:
289,300,223466,2,0,P|275:255|253:217,1,71.9999978027344,10|0,0:0|1:0,0:0:0:0:
106,305,223894,5,8,0:0:0:0:
22,327,224037,2,0,B|79:363|136:338|136:338|185:334|229:378,1,215.999993408203,4|0,1:2|1:0,0:0:0:0:
309,363,224608,2,0,P|260:352|226:330,1,71.9999978027344,10|0,0:0|1:0,0:0:0:0:
399,269,225037,5,8,0:0:0:0:
480,297,225180,2,0,B|480:236|453:196|453:196|484:160|481:84,1,215.999993408203,4|0,1:2|1:0,0:0:0:0:
431,162,225751,2,0,P|371:177|342:174,1,71.9999978027344,10|0,0:0|1:0,0:0:0:0:
206,99,226180,5,8,0:0:0:0:
270,41,226323,2,0,L|244:111,1,71.9999978027344,4|0,1:2|0:0,0:0:0:0:
201,183,226608,1,8,0:0:0:0:
123,145,226751,1,4,1:2:0:0:
27,288,227037,1,8,0:0:0:0:
103,248,227180,1,4,1:2:0:0:
31,90,227466,6,0,B|119:78|89:50|167:38,1,143.999995605469,4|0,1:2|0:0,0:0:0:0:
247,56,227894,1,2,1:2:0:0:
166,24,228037,2,0,P|121:13|83:-1,1,71.9999978027344,8|0,0:0|1:0,0:0:0:0:
158,166,228466,1,8,0:0:0:0:
237,133,228608,1,0,1:0:0:0:
358,10,228894,5,2,0:0:0:0:
486,126,229180,1,10,0:0:0:0:
324,189,229466,1,2,0:0:0:0:
359,357,229751,6,0,B|276:333|313:306|235:284,1,143.999995605469,4|0,1:2|0:0,0:0:0:0:
150,294,230180,1,2,1:2:0:0:
231,264,230323,2,0,P|240:218|239:184,1,71.9999978027344,8|0,0:0|1:0,0:0:0:0:
68,172,230751,1,8,0:0:0:0:
145,209,230894,1,0,1:0:0:0:
28,337,231180,6,0,L|187:357,1,143.999995605469,2|8,0:0|0:0,0:0:0:0:
251,324,231608,2,0,P|334:316|395:291,1,143.999995605469,0|8,1:0|0:0,0:0:0:0:
453,353,232037,6,0,B|434:280|434:280|438:277|438:277|419:195,1,143.999995605469,4|2,1:2|0:0,0:0:0:0:
351,167,232466,1,0,1:0:0:0:
431,197,232608,1,10,0:0:0:0:
474,122,232751,2,0,P|480:76|437:-11,1,143.999995605469,0|8,1:0|0:0,0:0:0:0:
355,15,233180,6,0,B|274:28|274:28|279:32|279:32|192:46,1,143.999995605469,4|2,1:2|0:0,0:0:0:0:
140,17,233608,1,0,1:0:0:0:
90,87,233751,1,10,0:0:0:0:
174,104,233894,2,0,B|264:128|233:156|319:180,1,143.999995605469,0|8,1:0|3:0,0:0:0:0:
347,245,234323,6,0,P|288:261|258:273,2,71.9999978027344,8|8|4,0:0|3:0|3:0,0:0:0:0:
418,194,234751,1,8,0:0:0:0:
418,194,234894,2,0,L|465:275,1,71.9999978027344,8|4,3:0|3:0,0:0:0:0:
495,333,235180,1,8,0:0:0:0:
325,366,235466,6,0,P|289:353|265:336,2,47.9999985351563,8|8|8,0:0|0:0|0:0,0:0:0:0:
380,314,235751,2,0,P|373:276|375:247,2,47.9999985351563,8|8|8,0:0|0:0|0:0,0:0:0:0:
438,365,236037,1,8,0:0:0:0:
293,259,236323,5,12,3:0:0:0:
264,242,236418,1,4,3:0:0:0:
232,239,236513,1,8,3:0:0:0:
200,241,236608,6,0,B|124:257|117:345|117:345|74:272|-1:256|-1:256|62:222|59:139|59:139|115:196|181:162|181:162|252:117|225:66|280:18|416:46|420:144|372:222|260:197|266:126,1,979.200005976563,4|2,1:2|0:0,0:0:0:0:
