osu file format v14

[General]
AudioFilename: audio.mp3
AudioLeadIn: 0
PreviewTime: 116572
Countdown: 0
SampleSet: Soft
StackLeniency: 0.2
Mode: 0
LetterboxInBreaks: 0
WidescreenStoryboard: 0

[Editor]
Bookmarks: 156042
DistanceSpacing: 1
BeatDivisor: 4
GridSize: 4
TimelineZoom: 1

[Metadata]
Title:Shissou FLAME
TitleUnicode:失踪FLAME
Artist:MY FIRST STORY
ArtistUnicode:MY FIRST STORY
Creator:A r M i N
Version:Saut's Afterlife
Source:
Tags:Armin A_r_M_i_N Saut FuJu Sylvarus japanese rock jrock j-rock MFS ALONE
BeatmapID:2688311
BeatmapSetID:749327

[Difficulty]
HPDrainRate:4.4
CircleSize:4.2
OverallDifficulty:9
ApproachRate:9.4
SliderMultiplier:1.5
SliderTickRate:1

[Events]
//Background and Video events
0,0,"bg.jpg",0,0
//Break Periods
2,156237,169211
//Storyboard Layer 0 (Background)
//Storyboard Layer 1 (Fail)
//Storyboard Layer 2 (Pass)
//Storyboard Layer 3 (Foreground)
//Storyboard Layer 4 (Overlay)
//Storyboard Sound Samples

[TimingPoints]
609,285.714285714286,4,2,2,35,1,0
609,-100,4,2,2,35,0,0
14323,-84.7457627118644,4,2,1,30,0,0
14537,-84.7457627118644,4,2,1,5,0,0
14609,-166.666666666667,4,2,1,30,0,0
16037,-78.125,4,2,1,30,0,0
16323,-133.333333333333,4,2,1,30,0,0
17751,-72.463768115942,4,2,1,30,0,0
17966,-72.463768115942,4,2,1,5,0,0
18037,-111.111111111111,4,2,1,30,0,0
19466,-72.463768115942,4,2,1,30,0,0
19680,-72.463768115942,4,2,1,5,0,0
19751,-89.2857142857143,4,2,1,30,0,0
21180,-73.5294117647059,4,2,1,30,0,0
21394,-73.5294117647059,4,2,1,30,0,0
21466,-106.382978723404,4,2,1,30,0,0
21680,-106.382978723404,4,2,1,5,0,0
21751,-106.382978723404,4,2,1,30,0,0
22180,-144.927536231884,4,2,1,30,0,0
22894,-73.5294117647059,4,2,1,30,0,0
23180,-106.382978723404,4,2,1,30,0,0
23394,-106.382978723404,4,2,1,5,0,0
23466,-106.382978723404,4,2,1,30,0,0
23894,-144.927536231884,4,2,1,30,0,0
24609,-66.6666666666667,4,2,1,30,0,0
24823,-66.6666666666667,4,2,1,5,0,0
24894,-66.6666666666667,4,2,1,30,0,0
25180,-144.927536231884,4,2,1,30,0,0
25466,-200,4,2,1,30,0,0
26323,-66.6666666666667,4,2,1,30,0,0
26537,-66.6666666666667,4,2,1,5,0,0
26609,-66.6666666666667,4,2,1,30,0,0
26894,-144.927536231884,4,2,1,30,0,0
27180,-200,4,2,1,30,0,0
28037,-73.5294117647059,4,2,1,30,0,0
28251,-73.5294117647059,4,2,1,5,0,0
28323,-106.382978723404,4,2,1,30,0,0
28537,-106.382978723404,4,2,1,5,0,0
28609,-106.382978723404,4,2,1,30,0,0
28894,-144.927536231884,4,2,1,30,0,0
29751,-73.5294117647059,4,2,1,30,0,0
29966,-73.5294117647059,4,2,1,5,0,0
30037,-106.382978723404,4,2,1,30,0,0
30251,-106.382978723404,4,2,1,5,0,0
30323,-106.382978723404,4,2,1,30,0,0
30609,-144.927536231884,4,2,1,30,0,0
31466,-66.6666666666667,4,2,1,30,0,0
31680,-66.6666666666667,4,2,1,5,0,0
31751,-66.6666666666667,4,2,1,30,0,0
32037,-144.927536231884,4,2,1,30,0,0
32323,-200,4,2,1,30,0,0
33180,-66.6666666666667,4,2,1,30,0,0
33394,-66.6666666666667,4,2,1,5,0,0
33466,-66.6666666666667,4,2,1,30,0,0
33751,-144.927536231884,4,2,1,30,0,0
34037,-144.927536231884,4,2,1,30,0,0
34894,-68.4931506849315,4,2,1,30,0,0
35323,-83.3333333333333,4,2,1,30,0,0
36180,-166.666666666666,4,2,1,30,0,0
36537,-111.111111111111,4,2,1,30,0,0
36609,-68.4931506849315,4,2,1,30,0,0
37037,-83.3333333333333,4,2,1,30,0,0
37466,-50,4,2,1,30,0,0
37894,-200,4,2,1,30,0,0
37966,-200,4,2,1,5,0,0
38037,-200,4,2,1,30,0,0
38109,-200,4,2,1,5,0,0
38180,-200,4,2,1,30,0,0
38251,-200,4,2,1,5,0,0
38323,-53.763440860215,4,2,1,30,0,0
38537,-60.2409638554217,4,2,1,5,0,0
38609,-60.2409638554217,4,2,1,30,0,0
39751,-166.666666666666,4,2,1,30,0,0
39966,-111.111111111111,4,2,1,5,0,0
40037,-68.4931506849315,4,2,1,30,0,0
40251,-68.4931506849315,4,2,1,5,0,0
40323,-68.4931506849315,4,2,1,30,0,0
40609,-111.111111111111,4,2,1,30,0,0
40894,-83.3333333333333,4,2,1,30,0,0
41323,-200,4,2,1,30,0,0
41394,-200,4,2,1,5,0,0
41466,-200,4,2,1,30,0,0
41537,-200,4,2,1,5,0,0
41609,-200,4,2,1,30,0,0
41680,-200,4,2,1,5,0,0
41751,-68.4931506849315,4,2,1,30,0,0
42180,-83.3333333333333,4,2,1,30,0,0
43037,-166.666666666666,4,2,1,30,0,0
43394,-111.111111111111,4,2,1,5,0,0
43466,-53.763440860215,4,2,1,30,0,0
43680,-68.4931506849315,4,2,1,5,0,0
43751,-68.4931506849315,4,2,1,30,0,0
44037,-68.4931506849315,4,2,1,30,0,0
44323,-83.3333333333333,4,2,1,30,0,0
44751,-200,4,2,1,30,0,0
44823,-200,4,2,1,5,0,0
44894,-200,4,2,1,30,0,0
44966,-200,4,2,1,5,0,0
45037,-200,4,2,1,30,0,0
45109,-200,4,2,1,5,0,0
45180,-53.763440860215,4,2,1,30,0,0
45394,-68.4931506849315,4,2,1,5,0,0
45466,-68.4931506849315,4,2,1,30,0,0
46037,-83.3333333333333,4,2,1,30,0,0
46609,-166.666666666666,4,2,1,30,0,0
46823,-111.111111111111,4,2,1,5,0,0
46894,-60.2409638554217,4,2,1,30,0,0
47751,-47.8659217877095,4,2,1,30,0,0
48180,-36,4,2,1,30,0,0
48609,-52.9100529100529,4,2,1,60,0,0
50323,-142.857142857143,4,2,1,60,0,0
50751,-90.9090909090909,4,2,1,60,0,0
51037,-83.3333333333333,4,2,1,60,0,0
51323,-76.9230769230769,4,2,1,60,0,0
51609,-71.4285714285714,4,2,1,60,0,0
52037,-142.857142857143,4,2,1,60,0,0
53180,-52.9100529100529,4,2,1,60,0,0
55180,-59.5238095238095,4,2,1,60,0,0
55680,-59.5238095238095,4,2,1,5,0,0
55751,-59.5238095238095,4,2,1,40,0,0
56037,-59.5238095238095,4,2,1,55,0,0
56466,-39.5238095238095,4,2,1,60,0,0
57609,-54.9450549450549,4,2,1,60,0,1
58037,-111.111111111111,4,2,1,60,0,1
58751,-55.2486187845304,4,2,1,60,0,1
59037,-66.2251655629139,4,2,1,60,0,1
59323,-76.3358778625954,4,2,1,60,0,1
59609,-99.009900990099,4,2,1,60,0,1
59894,-42,4,2,1,60,0,1
60894,-64.1025641025641,4,2,1,60,0,1
62180,-50,4,2,1,60,0,1
62466,-71.4285714285714,4,2,1,60,0,1
62609,-50,4,2,1,60,0,1
62894,-80,4,2,1,60,0,1
63180,-80,4,2,1,60,0,1
63466,-64.1025641025641,4,2,1,60,0,1
64466,-40,4,2,1,60,0,0
64751,-55.8659217877095,4,2,1,60,0,0
65180,-55.8659217877095,4,2,1,60,0,0
65609,-32.8659217877095,4,2,1,60,0,0
65966,-40.8659217877095,4,2,1,40,0,0
66323,-50,4,2,1,60,0,0
66394,-50,4,2,1,25,0,0
66466,-50,4,2,1,60,0,0
66537,-50,4,2,1,25,0,0
66609,-50,4,2,1,45,0,0
66751,-50,4,2,1,60,0,1
67180,-111.111111111111,4,2,1,60,0,1
67894,-55.2486187845304,4,2,1,60,0,1
68180,-66.2251655629139,4,2,1,60,0,1
68466,-76.3358778625954,4,2,1,60,0,1
68751,-99.009900990099,4,2,1,60,0,1
69037,-42,4,2,1,60,0,1
70037,-64.1025641025641,4,2,1,60,0,1
71323,-50,4,2,1,60,0,1
71609,-71.4285714285714,4,2,1,60,0,1
71751,-50,4,2,1,60,0,1
72037,-80,4,2,1,60,0,1
72609,-64.1025641025641,4,2,1,60,0,1
73609,-40.1025641025641,4,2,1,60,0,1
74323,-40.1025641025641,4,2,1,60,0,1
74394,-50,4,2,1,40,0,1
74609,-40.1025641025641,4,2,1,45,0,1
74894,-50,4,2,1,60,0,1
74966,-50,4,2,1,45,0,1
75180,-40.1025641025641,4,2,1,50,0,1
75466,-40.1025641025641,4,2,1,50,0,1
76037,-125,4,2,1,60,0,0
76323,-125,4,2,1,30,0,0
77751,-166.666666666667,4,2,1,30,0,0
78323,-73.5294117647059,4,2,1,30,0,0
78609,-106.382978723404,4,2,1,30,0,0
79751,-166.666666666667,4,2,1,30,0,0
80037,-73.5294117647059,4,2,1,30,0,0
80323,-106.382978723404,4,2,1,30,0,0
81466,-166.666666666667,4,2,1,30,0,0
81751,-73.5294117647059,4,2,1,30,0,0
82037,-106.382978723404,4,2,1,30,0,0
83180,-166.666666666667,4,2,1,30,0,0
83466,-73.5294117647059,4,2,1,30,0,0
83751,-106.382978723404,4,2,1,30,0,0
84894,-166.666666666667,4,2,1,30,0,0
85180,-73.5294117647059,4,2,1,30,0,0
85466,-106.382978723404,4,2,1,30,0,0
86609,-166.666666666667,4,2,1,30,0,0
86894,-73.5294117647059,4,2,1,30,0,0
87180,-106.382978723404,4,2,1,30,0,0
88323,-166.666666666667,4,2,1,30,0,0
88609,-73.5294117647059,4,2,1,30,0,0
88894,-106.382978723404,4,2,1,30,0,0
90037,-166.666666666667,4,2,1,30,0,0
90323,-73.5294117647059,4,2,1,30,0,0
90609,-106.382978723404,4,2,1,30,0,0
90894,-77.5193798449612,4,2,1,30,0,0
92037,-64.1025641025641,4,2,1,30,0,0
92466,-76.3358778625954,4,2,1,30,0,0
92894,-55.5555555555556,4,2,1,30,0,0
92966,-55.5555555555556,4,2,1,30,0,0
93037,-76.3358778625954,4,2,1,30,0,0
93751,-64.1025641025641,4,2,1,30,0,0
94180,-76.3358778625954,4,2,1,30,0,0
94609,-55.5555555555556,4,2,1,30,0,0
94680,-55.5555555555556,4,2,1,30,0,0
94751,-76.3358778625954,4,2,1,30,0,0
95466,-64.1025641025641,4,2,1,30,0,0
95680,-64.1025641025641,4,2,1,30,0,0
95751,-76.3358778625954,4,2,1,30,0,0
97180,-64.1025641025641,4,2,1,30,0,0
97394,-64.1025641025641,4,2,1,30,0,0
97466,-76.3358778625954,4,2,1,30,0,0
98609,-60.6060606060606,4,2,1,30,0,0
98823,-60.6060606060606,4,2,1,30,0,0
98894,-64.1025641025641,4,2,1,30,0,0
99323,-76.3358778625954,4,2,1,30,0,0
99751,-55.5555555555556,4,2,1,30,0,0
99823,-55.5555555555556,4,2,1,30,0,0
99894,-76.3358778625954,4,2,1,30,0,0
100609,-64.1025641025641,4,2,1,30,0,0
101037,-76.3358778625954,4,2,1,30,0,0
101466,-55.5555555555556,4,2,1,30,0,0
101537,-55.5555555555556,4,2,1,30,0,0
101609,-76.3358778625954,4,2,1,30,0,0
102037,-60.6060606060606,4,2,1,30,0,0
102251,-60.6060606060606,4,2,1,30,0,0
102323,-138.888888888889,4,2,1,30,0,0
103180,-90.9090909090909,4,2,1,30,0,0
104037,-60.6060606060606,4,2,1,30,0,0
104251,-60.6060606060606,4,2,1,30,0,0
104323,-68.9655172413793,4,2,1,30,0,0
105751,-52.9100529100529,4,2,1,60,0,0
107466,-142.857142857143,4,2,1,60,0,0
107894,-90.9090909090909,4,2,1,60,0,0
108180,-83.3333333333333,4,2,1,60,0,0
108466,-76.9230769230769,4,2,1,60,0,0
108751,-71.4285714285714,4,2,1,60,0,0
109180,-166.666666666667,4,2,1,60,0,0
110323,-105.263157894737,4,2,1,60,0,0
112037,-68.4931506849315,4,2,1,60,0,0
112466,-52.9100529100529,4,2,1,60,0,0
112751,-52.9100529100529,4,2,1,60,0,0
113323,-47.9100529100529,4,2,1,60,0,0
113894,-42.9100529100529,4,2,1,60,0,0
114466,-42.9100529100529,4,2,1,60,0,0
114966,-42.9100529100529,4,2,1,45,0,0
115180,-42.9100529100529,4,2,1,40,0,0
115466,-42.9100529100529,4,2,1,30,0,0
115751,-42.9100529100529,4,2,1,60,0,0
115823,-42.9100529100529,4,2,1,45,0,0
116037,-42.9100529100529,4,2,1,40,0,0
116323,-42.9100529100529,4,2,1,30,0,0
116609,-100,4,2,1,60,0,0
116680,-100,4,2,1,60,0,0
117037,-54.9450549450549,4,2,1,60,0,1
117466,-111.111111111111,4,2,1,60,0,1
118180,-55.2486187845304,4,2,1,60,0,1
118466,-66.2251655629139,4,2,1,60,0,1
118751,-76.3358778625954,4,2,1,60,0,1
119037,-99.009900990099,4,2,1,60,0,1
119323,-54.9450549450549,4,2,1,60,0,1
119394,-54.9450549450549,4,2,1,5,0,1
119466,-125,4,2,1,60,0,1
119537,-125,4,2,1,5,0,1
119609,-125,4,2,1,60,0,1
119680,-125,4,2,1,5,0,1
119751,-125,4,2,1,60,0,1
120323,-64.1025641025641,4,2,1,60,0,1
121609,-50,4,2,1,60,0,1
121894,-71.4285714285714,4,2,1,60,0,1
122037,-50,4,2,1,60,0,1
122323,-80,4,2,1,60,0,1
122894,-64.1025641025641,4,2,1,60,0,1
123894,-40,4,2,1,60,0,0
124323,-55.8659217877095,4,2,1,60,0,0
125037,-32.8163265306122,4,2,1,60,0,0
125394,-32.8163265306122,4,2,1,35,0,0
125751,-50,4,2,1,60,0,0
125823,-50,4,2,1,25,0,0
125894,-50,4,2,1,60,0,0
125966,-50,4,2,1,25,0,0
126037,-50,4,2,1,45,0,0
126180,-50,4,2,1,60,0,1
126609,-111.111111111111,4,2,1,60,0,1
127323,-55.2486187845304,4,2,1,60,0,1
127609,-66.2251655629139,4,2,1,60,0,1
127894,-76.3358778625954,4,2,1,60,0,1
128180,-99.009900990099,4,2,1,60,0,1
128466,-42,4,2,1,60,0,1
129466,-64.1025641025641,4,2,1,60,0,1
130751,-50,4,2,1,60,0,1
131037,-71.4285714285714,4,2,1,60,0,1
131180,-50,4,2,1,60,0,1
131466,-80,4,2,1,60,0,1
131751,-200,4,2,1,60,0,1
132037,-64.1025641025641,4,2,1,60,0,1
133037,-40,4,2,1,60,0,1
133323,-100,4,2,1,60,0,1
134823,-64.1025641025641,4,2,1,60,0,1
135466,-76.3358778625954,4,2,1,60,0,0
138894,-131.578947368421,4,2,1,40,0,0
141466,-83.3333333333333,4,2,1,60,0,0
145751,-131.578947368421,4,2,1,40,0,0
149180,-100,4,2,1,25,0,0
149468,-100,4,2,1,25,0,0
152609,-100,4,2,1,15,0,0
156037,-100,4,2,1,35,0,0
156180,-100,4,2,1,35,0,0
169751,-142.857142857143,4,2,1,40,0,0
182323,-90.9090909090909,4,2,1,60,0,0
182751,-90.9090909090909,4,2,1,40,0,0
182894,-166.666666666667,4,2,1,60,0,0
183466,-93.4579439252336,4,2,1,60,0,0
186251,-93.4579439252336,4,2,1,5,0,0
186323,-142.857142857143,4,2,1,60,0,0
186894,-93.4579439252336,4,2,1,60,0,0
189751,-142.857142857143,4,2,1,60,0,0
190323,-93.4579439252336,4,2,1,60,0,0
193180,-142.857142857143,4,2,1,60,0,0
193751,-93.4579439252336,4,2,1,60,0,0
195466,285.714285714286,4,2,1,60,1,0
195751,-93.4579439252336,4,2,1,40,0,0
199466,-63.6942675159236,4,2,1,40,0,0
199751,-93.4579439252336,4,2,1,40,0,0
200037,-100,4,2,1,60,0,1
201180,-117.647058823529,4,2,1,60,0,1
201751,-100,4,2,1,60,0,1
202323,-142.857142857143,4,2,1,60,0,1
202894,-100,4,2,1,60,0,1
203323,-200,4,2,1,60,0,1
204609,-100,4,2,1,60,0,1
205751,-117.647058823529,4,2,1,60,0,1
206323,-100,4,2,1,60,0,1
206894,-142.857142857143,4,2,1,60,0,1
207466,-100,4,2,1,60,0,1
208037,-200,4,2,1,60,0,1
208608,-105.263157894737,4,2,1,60,0,0
208680,-105.263157894737,4,2,1,5,0,0
208751,-86.9565217391304,4,2,1,60,0,0
208823,-86.9565217391304,4,2,1,5,0,0
208894,-74.0740740740741,4,2,1,60,0,0
208966,-74.0740740740741,4,2,1,5,0,0
209037,-64.5161290322581,4,2,1,60,0,0
209109,-64.5161290322581,4,2,1,5,0,0
209180,-100,4,2,1,60,0,1
210609,-200,4,2,1,60,0,1
211466,-100,4,2,1,60,0,1
212323,-144.927536231884,4,2,1,60,0,1
213751,-100,4,2,1,60,0,1
217180,-142.857142857143,4,2,1,60,0,0
217251,-142.857142857143,4,2,1,5,0,0
217323,-142.857142857143,4,2,1,60,0,0
217394,-142.857142857143,4,2,1,5,0,0
217466,-142.857142857143,4,2,1,60,0,0
217537,-142.857142857143,4,2,1,5,0,0
217609,-142.857142857143,4,2,1,60,0,0
217680,-142.857142857143,4,2,1,5,0,0
217751,-105.263157894737,4,2,1,60,0,0
217823,-105.263157894737,4,2,1,5,0,0
217894,-86.9565217391304,4,2,1,60,0,0
217966,-86.9565217391304,4,2,1,5,0,0
218037,-74.0740740740741,4,2,1,60,0,0
218109,-74.0740740740741,4,2,1,5,0,0
218180,-64.5161290322581,4,2,1,60,0,0
218251,-64.5161290322581,4,2,1,5,0,0
218323,-100,4,2,1,60,0,1
219466,-117.647058823529,4,2,1,60,0,1
220037,-100,4,2,1,60,0,1
220609,-142.857142857143,4,2,1,60,0,1
221180,-100,4,2,1,60,0,1
221609,-200,4,2,1,60,0,1
222894,-100,4,2,1,60,0,1
224037,-117.647058823529,4,2,1,60,0,1
224609,-100,4,2,1,60,0,1
225180,-142.857142857143,4,2,1,60,0,1
225751,-100,4,2,1,60,0,1
226180,-142.857142857143,4,2,1,60,0,0
227466,-100,4,2,1,60,0,1
228894,-200,4,2,1,60,0,1
229751,-100,4,2,1,60,0,1
230609,-142.857142857143,4,2,1,60,0,1
232037,-100,4,2,1,60,0,1
234323,-100,4,2,1,60,0,0
234394,-100,4,2,1,5,0,0
234466,-100,4,2,1,60,0,0
234537,-100,4,2,1,5,0,0
234609,-100,4,2,1,60,0,0
234680,-100,4,2,1,5,0,0
234751,-100,4,2,1,60,0,0
234823,-100,4,2,1,5,0,0
234894,-100,4,2,1,60,0,0
234966,-100,4,2,1,5,0,0
235037,-100,4,2,1,60,0,0
235109,-100,4,2,1,5,0,0
235180,-400,4,2,1,60,0,0
235466,-100,4,2,1,55,0,0
235561,-100,4,2,1,35,0,0
235751,-100,4,2,1,55,0,0
235847,-100,4,2,1,35,0,0
236037,-100,4,2,1,60,0,0
236608,-128.205128205128,4,2,1,60,0,1
236751,-128.205128205128,4,2,1,60,0,0
239966,-119.047619047619,4,2,1,5,0,0
240037,-300,4,2,1,40,0,0
243466,-400,4,2,1,25,0,0
246894,-400,4,2,1,15,0,0
250323,-400,4,2,1,25,0,0

[Colours]
Combo1 : 217,213,157
Combo2 : 192,196,189

[HitObjects]
500,103,609,5,0,0:0:0:0:
512,92,894,1,0,0:0:0:0:
355,42,1466,5,0,0:0:0:0:
357,25,1751,1,0,0:0:0:0:
206,87,2323,5,0,0:0:0:0:
196,74,2608,1,0,0:0:0:0:
121,214,3180,5,0,0:0:0:0:
105,209,3465,1,0,0:0:0:0:
229,246,4038,5,0,0:0:0:0:
238,248,4323,1,0,0:0:0:0:
272,178,4895,5,0,0:0:0:0:
278,186,5180,1,0,0:0:0:0:
348,153,5752,5,0,0:0:0:0:
349,163,6037,1,0,0:0:0:0:
424,183,6609,5,0,0:0:0:0:
417,191,6894,1,0,0:0:0:0:
48,366,7466,5,2,0:0:0:0:
67,351,7751,1,0,0:0:0:0:
67,351,8037,1,0,0:0:0:0:
38,270,8323,5,2,0:0:0:0:
90,270,8608,1,0,0:0:0:0:
90,270,8894,1,0,0:0:0:0:
103,193,9180,5,2,0:0:0:0:
168,248,9465,1,0,0:0:0:0:
168,248,9751,1,0,0:0:0:0:
226,174,10037,5,2,0:0:0:0:
247,297,10322,1,0,0:0:0:0:
247,297,10608,1,0,0:0:0:0:
486,248,10894,5,2,0:0:0:0:
333,200,11179,1,0,0:0:0:0:
333,200,11465,1,0,0:0:0:0:
382,95,11751,5,2,0:0:0:0:
212,165,12036,1,0,0:0:0:0:
212,165,12322,1,0,0:0:0:0:
208,44,12609,5,2,0:0:0:0:
104,241,12894,1,0,0:0:0:0:
104,241,13180,1,0,0:0:0:0:
28,120,13466,5,2,0:0:0:0:
82,379,13751,1,0,0:0:0:0:
82,379,14037,1,0,0:0:0:0:
184,10,14323,6,0,P|206:70|184:131,1,132.74999534111,6|0,1:0|0:0,0:0:0:0:
181,143,14609,6,0,P|154:154|138:155,1,44.999998626709,8|0,0:0|0:0,0:0:0:0:
65,123,14894,1,0,1:0:0:0:
65,123,15037,1,0,1:0:0:0:
65,123,15323,6,0,P|68:97|55:65,1,44.999998626709,8|0,0:0|0:0,0:0:0:0:
20,188,15609,1,0,1:0:0:0:
57,70,15751,2,0,P|40:50|8:37,1,44.999998626709,8|0,0:0|0:0,0:0:0:0:
323,318,16037,6,0,P|331:248|284:195,1,144,2|0,1:0|0:0,0:0:0:0:
279,179,16323,6,0,P|253:173|227:178,1,56.2500021457673,8|0,0:0|0:0,0:0:0:0:
163,235,16609,1,0,1:0:0:0:
163,235,16751,1,0,1:0:0:0:
163,235,17037,6,0,P|175:261|175:289,1,56.2500021457673,8|0,0:0|0:0,0:0:0:0:
98,180,17323,1,0,1:0:0:0:
172,309,17466,2,0,P|156:341|136:357,1,56.2500021457673,8|0,0:0|0:0,0:0:0:0:
390,71,17751,6,0,P|408:146|369:210,1,155.250000236893,2|0,1:0|3:0,0:0:0:0:
369,242,18037,6,0,P|335:252|299:242,1,67.4999979400635,8|0,0:0|0:0,3:0:0:0:
242,193,18323,1,0,1:0:0:0:
242,193,18466,1,0,1:0:0:0:
242,193,18751,6,0,P|250:150|236:110,1,67.4999979400635,8|0,0:0|0:0,0:0:0:0:
181,255,19037,1,0,1:0:0:0:
233,102,19180,2,0,P|203:69|163:56,1,67.4999979400635,8|0,0:0|0:0,0:0:0:0:
482,239,19466,6,0,P|454:313|378:342,1,155.250000236893,2|0,1:0|0:3,0:3:0:0:
362,384,19751,6,0,P|317:373|286:339,1,84.0000010253906,8|0,0:0|0:0,0:0:0:0:
266,268,20037,1,0,1:0:0:0:
266,268,20180,1,0,1:0:0:0:
266,268,20466,6,0,P|305:244|323:201,1,84.0000010253906,8|0,0:0|0:0,0:0:0:0:
173,274,20751,1,0,1:0:0:0:
338,161,20894,2,0,P|335:115|308:79,1,84.0000010253906,8|0,0:0|0:0,0:0:0:0:
5,31,21180,6,0,P|77:38|128:98,1,153.000000933838,4|0,1:2|0:0,0:0:0:0:
168,121,21466,6,0,P|173:172|147:217,1,105.749998386383,8|0,0:0|0:0,0:0:0:0:
132,229,21751,2,0,P|101:244|52:237,1,70.4999989242554,0|0,1:0|1:2,0:0:0:0:
57,241,22037,5,2,0:0:0:0:
57,241,22180,2,0,P|101:269|127:313,1,103.500000157928,8|0,0:0|1:0,0:0:0:0:
218,321,22609,2,0,P|212:345|201:368,1,51.7500000789642,8|0,0:0|0:0,0:0:0:0:
440,295,22894,6,0,P|370:300|307:247,1,153.000000933838,4|0,1:2|0:0,0:0:0:0:
261,230,23180,6,0,P|249:179|268:131,1,105.749998386383,8|0,0:0|0:0,0:0:0:0:
281,118,23466,2,0,P|310:100|356:98,1,70.4999989242554,0|0,1:0|1:0,0:0:0:0:
352,99,23751,5,2,0:0:0:0:
352,99,23894,2,0,P|311:68|285:24,1,103.500000157928,8|0,0:0|1:0,0:0:0:0:
180,50,24323,2,0,P|182:25|191:-1,1,51.7500000789642,8|0,0:0|0:0,0:0:0:0:
34,281,24609,6,0,P|116:273|171:202,1,168.750006437302,4|0,1:2|0:0,0:0:0:0:
211,182,24894,5,8,0:0:0:0:
211,182,25180,2,0,P|210:151|200:132,1,51.7500000789642,0|0,1:0|1:0,0:0:0:0:
25,179,25466,6,0,P|40:189|58:195,1,37.5,2|8,0:0|0:0,0:0:0:0:
126,321,25751,2,0,P|140:309|158:302,1,37.5,2|0,0:0|1:2,0:0:0:0:
285,245,26037,2,0,P|298:257|316:264,1,37.5,10|0,0:0|0:0,0:0:0:0:
491,377,26323,6,0,P|419:335|399:247,1,168.750006437302,4|0,1:2|0:0,0:0:0:0:
372,212,26609,5,8,0:0:0:0:
372,212,26895,2,0,P|386:184|403:171,1,51.7500000789642,0|0,1:0|1:0,0:0:0:0:
512,96,27180,6,0,P|494:90|479:78,1,37.5,2|8,0:0|0:0,0:0:0:0:
350,31,27466,2,0,P|337:44|320:53,1,37.5,2|0,0:0|0:0,0:0:0:0:
223,151,27751,2,0,P|229:168|230:187,1,37.5,10|0,0:0|0:0,0:0:0:0:
66,367,28037,6,0,P|24:310|36:228,1,153.000000933838,6|0,1:2|0:0,0:0:0:0:
26,180,28323,6,0,P|62:142|113:133,1,105.749998386383,8|0,0:0|0:0,0:0:0:0:
130,137,28608,2,0,P|164:149|193:181,1,70.4999989242554,0|0,1:0|1:0,0:0:0:0:
190,178,28894,5,2,0:0:0:0:
190,178,29037,2,0,P|202:127|230:84,1,103.500000157928,8|0,0:0|1:0,0:0:0:0:
331,87,29466,2,0,P|317:64|309:40,1,51.7500000789642,8|0,0:0|0:0,0:0:0:0:
512,168,29751,6,0,P|520:237|469:303,1,153.000000933838,6|0,1:2|0:0,0:0:0:0:
450,350,30037,6,0,P|400:364|350:346,1,105.749998386383,8|0,0:0|0:0,0:0:0:0:
336,336,30323,2,0,P|314:309|310:274,1,70.4999989242554,0|0,1:0|1:0,0:0:0:0:
309,270,30608,5,2,0:0:0:0:
309,270,30751,2,0,P|281:337|242:371,1,103.500000157928,8|0,0:0|1:0,0:0:0:0:
160,295,31180,2,0,P|174:317|181:342,1,51.7500000789642,8|0,2:0|2:0,2:0:0:0:
12,56,31466,6,0,P|94:64|155:120,1,168.750006437302,6|0,1:2|0:0,0:0:0:0:
197,148,31751,5,8,0:0:0:0:
197,148,32037,2,0,P|200:173|193:198,1,51.7500000789642,0|0,1:0|1:0,0:0:0:0:
0,160,32323,6,0,P|23:144|42:139,1,37.5,2|8,0:0|0:0,0:0:0:0:
105,17,32609,2,0,P|128:33|147:38,1,37.5,2|0,0:0|0:0,0:0:0:0:
260,93,32894,2,0,P|283:77|302:72,1,37.5,10|0,0:0|0:0,0:0:0:0:
467,0,33180,6,0,P|399:50|381:133,1,168.750006437302,6|0,1:2|0:0,0:0:0:0:
356,170,33465,5,8,0:0:0:0:
356,170,33751,2,0,P|362:194|376:216,1,51.7500000789642,0|0,1:0|1:0,0:0:0:0:
473,372,34037,6,0,P|480:347|496:327,1,51.7500000789642,2|8,0:0|0:0,0:0:0:0:
284,275,34323,2,0,P|276:250|260:230,1,51.7500000789642,2|0,0:0|0:0,0:0:0:0:
464,159,34609,2,0,P|471:134|487:114,1,51.7500000789642,10|0,0:0|0:0,0:0:0:0:
244,0,34894,6,0,P|318:78|350:182,1,219.000006015015,4|8,1:2|0:0,0:0:0:0:
107,145,35323,2,0,P|191:172|260:230,1,179.999994506836,2|0,0:0|1:0,0:0:0:0:
110,330,35751,1,2,3:0:0:0:
204,315,35894,1,8,3:0:0:0:
204,315,36180,5,0,1:0:0:0:
343,294,36323,2,0,P|321:320|308:351,1,67.4999979400635,8|0,0:0|0:0,0:0:0:0:
307,363,36609,6,0,P|248:271|237:163,1,219.000006015015,4|8,1:2|0:0,0:0:0:0:
81,298,37037,2,0,P|94:209|140:132,1,179.999994506836,2|0,0:0|1:0,0:0:0:0:
1,92,37466,1,2,3:0:0:0:
84,48,37609,1,8,3:0:0:0:
84,48,37894,6,0,L|115:56,1,18.75,8|0,3:0|0:0,0:0:0:0:
140,133,38037,2,0,L|169:118,1,18.75,4|0,3:0|0:0,0:0:0:0:
237,164,38180,2,0,L|250:133,1,18.75,12|0,3:0|0:0,0:0:0:0:
377,5,38323,6,0,P|341:100|379:195,1,209.250006545449,4|0,1:2|0:0,0:0:0:0:
487,274,38609,5,8,0:0:0:0:
487,274,38894,2,0,P|454:230|391:203,1,124.500001804733,2|0,0:0|1:0,0:0:0:0:
242,381,39180,2,0,P|266:332|262:264,1,124.500001804733,2|8,0:0|0:3,0:0:0:0:
262,263,39609,5,0,1:0:0:0:
106,237,39751,2,0,P|129:262|142:294,1,67.4999979400635,8|0,0:0|0:0,0:0:0:0:
147,307,40037,6,0,P|149:225|190:155,1,164.250004511261,4|0,1:2|0:0,0:0:0:0:
203,67,40323,6,0,P|250:39|303:33,1,109.500003007507,8|0,0:0|0:0,0:0:0:0:
425,112,40609,2,0,P|458:122|485:142,1,67.4999979400635,0|0,1:0|1:0,0:0:0:0:
395,291,40895,1,2,3:0:0:0:
485,234,41038,1,8,3:0:0:0:
485,234,41323,6,0,L|468:243,1,18.75,8|0,3:0|0:0,0:0:0:0:
395,291,41466,2,0,L|378:284,1,18.75,4|0,3:0|0:0,0:0:0:0:
294,256,41608,2,0,L|290:238,1,18.75,4|0,3:0|0:0,0:0:0:0:
314,96,41751,6,0,P|277:199|200:275,1,219.000006015015,4|8,1:2|0:0,0:0:0:0:
16,86,42180,2,0,P|73:155|97:241,1,179.999994506836,2|0,0:0|1:0,0:0:0:0:
29,374,42609,1,0,1:2:0:0:
120,341,42751,1,4,3:0:0:0:
120,341,43037,5,0,1:0:0:0:
267,277,43180,2,0,P|244:302|231:333,1,67.4999979400635,8|0,0:0|0:0,0:0:0:0:
228,350,43466,6,0,P|197:273|231:145,1,209.250006545449,4|0,1:2|0:0,0:0:0:0:
318,78,43751,5,8,0:0:0:0:
318,78,44037,2,0,P|288:123|239:147,1,109.500003007507,0|0,1:0|1:0,0:0:0:0:
105,32,44323,1,2,3:0:0:0:
129,120,44466,1,8,3:0:0:0:
129,120,44751,6,0,L|121:153,1,18.75,8|0,3:0|0:0,0:0:0:0:
58,194,44894,2,0,L|73:224,1,18.75,4|0,3:0|0:0,0:0:0:0:
72,295,45037,2,0,L|105:301,1,18.75,4|0,3:0|0:0,0:0:0:0:
205,384,45180,6,0,P|249:317|375:290,1,209.250006545449,4|0,1:2|0:0,0:0:0:0:
468,356,45466,5,8,0:0:0:0:
468,356,45751,2,0,P|416:339|379:299,1,109.500003007507,0|0,1:0|1:0,0:0:0:0:
487,176,46037,1,2,0:0:0:0:
395,204,46180,1,8,0:0:0:0:
395,204,46466,5,0,1:0:0:0:
256,156,46609,2,0,P|290:183|309:210,1,67.4999979400635,8|0,0:0|0:0,0:0:0:0:
310,217,46894,6,0,P|255:194|182:199,1,124.500001804733,4|0,1:2|0:0,0:0:0:0:
28,347,47180,2,0,P|74:310|106:245,1,124.500001804733,12|0,0:0|0:0,0:0:0:0:
56,38,47466,2,0,P|64:96|104:156,1,124.500001804733,4|0,3:0|1:0,0:0:0:0:
241,268,47751,5,2,0:0:0:0:
272,0,47894,2,0,P|213:51|185:123,1,156.68767758144,8|0,0:0|0:0,0:0:0:0:
260,346,48180,5,4,3:0:0:0:
472,156,48323,2,0,P|371:128|271:151,1,208.333333333333,8|0,0:0|1:0,0:0:0:0:
366,354,48609,6,4,P|371:284|330:229,2,141.749999080753,12|0|0,0:0|1:0|1:0,0:0:0:0:
33,299,49037,2,4,P|48:231|105:192,2,141.749999080753,12|0|0,0:0|1:0|1:0,0:0:0:0:
504,239,49466,6,4,P|469:179|403:157,2,141.749999080753,12|0|0,0:0|1:0|1:0,0:0:0:0:
199,384,49894,2,4,P|172:319|197:255,2,141.749999080753,12|0|0,0:0|1:0|1:0,0:0:0:0:
207,114,50323,6,0,P|202:88|189:65,1,52.4999983978272,8|0,0:0|0:0,0:0:0:0:
138,180,50609,1,8,0:0:0:0:
472,92,50751,6,0,P|497:122|506:162,1,82.5000025177003,6|0,1:2|0:0,0:0:0:0:
387,31,51037,2,0,P|430:26|471:46,1,89.9999972534181,2|8,1:2|0:0,2:0:0:0:
283,74,51323,2,0,P|304:30|346:7,1,97.4999955368044,2|0,1:2|1:0,0:0:0:0:
272,196,51609,2,0,P|244:151|246:100,1,104.999996795654,10|0,0:2|0:0,0:0:0:0:
395,132,51894,1,0,1:0:0:0:
115,56,52037,6,0,P|79:64|50:88,1,52.4999983978272,12|0,0:0|1:0,0:0:0:0:
344,252,52323,2,0,P|351:226|351:200,1,52.4999983978272,12|0,0:0|1:0,0:0:0:0:
60,351,52609,2,0,P|77:370|99:384,1,52.4999983978272,12|0,0:0|1:0,0:0:0:0:
446,233,52894,5,8,0:0:0:0:
344,123,53037,1,4,3:0:0:0:
334,89,53109,1,4,3:0:0:0:
325,56,53180,6,4,P|350:21|447:2,2,141.749999080753,12|0|0,0:0|1:0|1:0,0:0:0:0:
382,300,53609,2,4,P|419:321|515:297,2,141.749999080753,12|0|0,0:0|1:0|1:0,0:0:0:0:
136,136,54037,5,12,0:0:0:0:
102,280,54180,1,4,0:3:0:0:
224,102,54323,6,4,P|199:67|102:48,2,141.749999080753,12|0|0,0:0|1:0|1:0,0:0:0:0:
167,346,54752,2,4,P|129:367|33:343,2,141.749999080753,12|0|0,0:0|1:0|1:0,0:0:0:0:
303,39,55180,5,8,0:0:0:0:
369,277,55323,2,0,P|459:253|513:178,1,188.999994232178,4|0,1:2|0:0,0:0:0:0:
436,101,55609,6,0,P|438:135|428:164,1,62.9999980773926,8|0,3:0|0:0,0:0:0:0:
283,82,55751,1,8,0:0:0:0:
303,39,55823,1,8,0:0:0:0:
340,14,55894,1,8,0:0:0:0:
351,58,55966,1,8,0:0:0:0:
354,103,56036,1,8,3:0:0:0:
344,149,56108,1,8,3:0:0:0:
327,191,56180,1,4,3:0:0:0:
300,227,56251,1,4,3:0:0:0:
267,259,56322,1,8,0:0:0:0:
66,351,56466,6,0,P|186:282|319:322,1,284.638541134821,4|0,1:2|0:0,0:0:0:0:
409,364,56751,2,0,P|451:344|482:308,1,94.879513711607,4|0,1:2|0:0,0:0:0:0:
511,219,56894,2,0,P|513:171|494:128,1,94.879513711607,4|0,1:2|0:0,0:0:0:0:
495,129,57609,6,0,B|550:145|560:101|485:37|355:90|348:208,1,273.000009164429,6|0,1:2|1:0,0:0:0:0:
471,272,58037,2,0,P|447:253|408:246,1,67.4999979400635,10|0,0:0|1:0,0:0:0:0:
270,339,58323,1,2,3:2:0:0:
345,382,58466,2,0,P|358:351|353:318,1,67.4999979400635,4|8,0:3|0:0,0:0:0:0:
82,60,58751,6,0,P|77:126|111:183,1,135.749999275017,2|0,0:0|1:0,0:0:0:0:
253,25,59037,2,0,P|206:55|181:106,1,113.249998703957,2|8,0:0|0:0,0:0:0:0:
376,145,59323,2,0,P|330:128|281:133,1,98.2500017990113,2|0,0:0|1:0,0:0:0:0:
343,299,59609,2,0,P|332:262|307:234,1,75.7499984973908,2|8,0:0|0:0,0:0:0:0:
59,266,59894,6,0,B|21:313|64:402|233:379|134:222|261:206|299:229,1,357.142857142857,6|0,1:2|1:0,0:0:0:0:
408,382,60323,1,10,0:0:0:0:
379,295,60466,1,4,3:0:0:0:
400,208,60609,1,4,3:0:0:0:
464,145,60751,1,4,3:0:0:0:
367,4,60894,6,0,P|352:60|371:115,1,117.000003927612,10|0,0:0|1:0,0:0:0:0:
500,352,61180,1,2,0:0:0:0:
500,352,61323,2,0,P|515:296|496:241,1,117.000003927612,2|8,1:2|0:0,0:0:0:0:
237,89,61609,5,2,1:2:0:0:
296,219,61751,1,4,3:0:0:0:
294,27,61894,5,2,1:2:0:0:
381,225,62037,1,8,0:0:0:0:
92,206,62180,6,0,B|42:159|-4:242|127:295|206:220,1,225,4|0,1:2|0:0,0:0:0:0:
282,207,62466,2,0,P|293:183|297:157,1,52.4999983978272,4|0,3:0|0:0,0:0:0:0:
106,17,62609,6,0,P|113:89|165:142,1,150,12|0,0:0|1:0,0:0:0:0:
216,367,62894,2,0,P|247:331|258:286,1,93.75,4|0,3:0|1:0,0:0:0:0:
423,38,63180,5,10,0:0:0:0:
345,88,63323,1,12,1:3:0:0:
507,71,63466,5,2,0:0:0:0:
311,0,63609,2,0,P|266:37|250:94,1,117.000003927612,4|8,3:0|0:0,0:0:0:0:
368,374,63894,5,2,1:2:0:0:
287,168,64037,1,4,3:0:0:0:
425,308,64180,5,2,1:2:0:0:
372,206,64323,1,8,0:0:0:0:
163,256,64466,6,0,B|102:290|134:362|301:322|242:111|94:136,1,281.25,4|0,1:2|2:0,0:0:0:0:
113,81,64751,5,4,3:0:0:0:
74,84,64823,1,4,3:0:0:0:
41,104,64894,2,0,P|18:129|0:179,1,67.1250009218216,6|0,3:0|0:0,0:0:0:0:
301,213,65037,2,0,P|293:181|260:138,1,67.1250009218216,6|0,3:0|0:0,0:0:0:0:
34,285,65180,5,10,0:0:0:0:
249,64,65323,1,10,0:0:0:0:
249,64,65609,6,0,B|228:120|97:122|185:-81|465:11|411:194,1,342.299855007264,4|0,1:2|2:0,0:0:0:0:
475,151,65894,5,12,3:0:0:0:
482,199,65966,1,8,3:0:0:0:
468,243,66037,1,4,3:0:0:0:
439,278,66109,1,4,3:0:0:0:
398,297,66180,1,12,3:0:0:0:
353,297,66251,1,12,3:0:0:0:
312,276,66323,6,0,P|272:255|233:253,1,75,4|0,0:0|0:0,0:0:0:0:
393,384,66466,2,0,P|431:379|465:363,1,75,4|0,3:0|0:0,0:0:0:0:
259,175,66609,1,4,3:0:0:0:
209,179,66680,1,4,3:0:0:0:
175,213,66751,6,0,B|127:273|225:313|261:226|250:94|130:67,1,300,4|0,1:2|1:0,0:0:0:0:
32,178,67180,2,0,P|63:175|95:154,1,67.4999979400635,8|0,0:0|1:0,0:0:0:0:
71,0,67466,1,4,3:0:0:0:
71,0,67609,2,0,P|56:28|59:66,1,67.4999979400635,4|8,3:0|0:0,0:0:0:0:
378,365,67894,6,0,P|361:300|310:258,1,135.749999275017,2|0,0:0|1:0,0:0:0:0:
186,384,68180,2,0,P|214:335|213:279,1,113.249998703957,2|8,1:2|0:0,0:0:0:0:
51,256,68466,2,0,P|98:245|137:214,1,98.2500017990113,2|0,0:0|1:0,0:0:0:0:
79,76,68752,2,0,P|106:103|141:115,1,75.7499984973908,2|8,0:0|0:0,0:0:0:0:
442,50,69037,6,0,B|479:37|518:77|475:165|326:141|398:8|312:-30|212:8|220:83,1,357.142857142857,4|0,1:2|1:0,0:0:0:0:
269,229,69466,1,8,0:0:0:0:
223,152,69609,1,4,3:0:0:0:
141,115,69752,1,4,3:0:0:0:
52,122,69894,1,4,3:0:0:0:
30,301,70037,6,0,P|85:283|130:245,1,117.000003927612,10|0,0:0|1:0,0:0:0:0:
239,31,70323,1,2,0:0:0:0:
239,31,70466,2,0,P|294:48|339:86,1,117.000003927612,4|8,3:0|0:0,0:0:0:0:
402,371,70751,5,2,1:2:0:0:
455,234,70894,1,4,3:0:0:0:
310,384,71037,5,2,1:2:0:0:
409,156,71180,1,8,0:0:0:0:
135,261,71323,6,0,B|74:308|51:210|179:181|257:276,1,225,4|0,1:2|0:0,0:0:0:0:
323,263,71609,2,0,P|338:284|347:308,1,52.4999983978272,4|0,3:0|0:0,0:0:0:0:
131,139,71751,6,0,P|187:89|260:80,1,150,12|0,0:0|1:0,0:0:0:0:
512,271,72037,2,0,P|465:270|425:246,1,93.75,4|0,3:0|1:0,0:0:0:0:
366,87,72323,6,0,P|382:103|392:130,1,46.875,10|0,0:0|0:0,0:0:0:0:
377,172,72466,1,4,3:0:0:0:
416,10,72609,5,2,0:0:0:0:
349,256,72751,2,0,P|299:287|241:293,1,117.000003927612,4|8,3:0|0:0,0:0:0:0:
38,130,73037,5,2,1:2:0:0:
290,183,73180,1,4,3:0:0:0:
87,64,73323,5,2,1:2:0:0:
267,101,73466,1,8,0:0:0:0:
177,331,73609,6,0,B|134:375|216:488|332:300|96:123|61:251,1,280.530678905132,4|0,1:2|0:0,0:0:0:0:
83,143,73894,2,0,P|38:152|0:178,1,93.5102263017107,12|0,0:0|0:0,0:0:0:0:
283,269,74037,2,0,P|337:253|374:215,1,93.5102263017107,12|0,0:0|0:0,0:0:0:0:
161,77,74180,2,0,P|109:54|56:59,1,93.5102263017107,4|0,3:0|1:2,0:0:0:0:
406,151,74323,5,12,0:0:0:0:
420,115,74394,1,8,0:3:0:0:
431,78,74466,2,0,P|417:44|392:16,5,75,8|8|8|8|8|8,0:3|0:3|0:3|0:3|0:3|0:3,0:3:0:0:
346,346,74894,2,0,P|314:364|278:372,7,75,12|8|8|8|8|8|8|8,0:0|0:3|0:3|0:3|0:3|0:3|0:3|0:3,0:0:0:0:
506,264,75466,5,12,0:0:0:0:
462,221,75537,1,8,0:0:0:0:
405,198,75609,1,8,0:0:0:0:
345,203,75680,1,8,0:0:0:0:
290,228,75751,1,8,3:0:0:0:
253,273,75823,1,8,3:0:0:0:
199,297,75894,1,4,3:0:0:0:
145,283,75965,1,4,3:0:0:0:
105,245,76037,5,4,1:2:0:0:
31,117,76323,1,8,0:0:0:0:
115,153,76608,1,0,1:0:0:0:
115,153,76751,1,0,1:0:0:0:
204,30,77037,1,8,0:0:0:0:
272,175,77323,5,0,1:0:0:0:
204,30,77466,1,8,0:0:0:0:
419,75,77751,6,0,P|437:61|451:32,1,44.999998626709,4|0,1:2|0:0,0:0:0:0:
510,179,78037,1,8,0:0:0:0:
369,3,78323,6,0,P|299:7|244:69,1,153.000000933838,4|0,1:2|0:0,0:0:0:0:
207,99,78609,6,0,P|205:135|226:173,1,70.4999989242554,8|0,0:0|0:0,0:0:0:0:
373,299,78894,1,8,3:0:0:0:
389,222,79037,1,4,3:0:0:0:
332,168,79180,1,4,3:0:0:0:
378,227,79323,5,8,3:0:0:0:
317,177,79466,1,4,3:0:0:0:
238,190,79609,1,4,3:0:0:0:
216,267,79751,2,0,P|192:282|137:283,1,67.4999979400635,8|0,0:0|0:0,0:0:0:0:
154,287,80037,6,0,P|88:261|55:185,1,153.000000933838,4|0,1:2|0:0,0:0:0:0:
17,148,80323,6,0,P|23:115|47:85,1,70.4999989242554,8|0,0:0|0:0,0:0:0:0:
225,179,80609,1,8,3:0:0:0:
152,151,80751,1,4,3:0:0:0:
133,75,80894,1,4,3:0:0:0:
159,144,81037,5,8,3:0:0:0:
142,67,81180,1,4,3:0:0:0:
207,25,81323,1,4,3:0:0:0:
272,66,81466,2,0,P|306:73|340:66,1,67.4999979400635,8|0,0:0|0:0,0:0:0:0:
338,67,81751,6,0,P|282:107|270:190,1,153.000000933838,4|0,1:2|0:0,0:0:0:0:
251,239,82037,6,0,P|276:268|306:284,1,70.4999989242554,8|0,0:0|0:0,0:0:0:0:
509,203,82323,1,8,3:0:0:0:
432,196,82465,1,4,3:0:0:0:
376,250,82608,1,4,3:0:0:0:
422,381,82751,5,8,3:0:0:0:
364,327,82893,1,4,3:0:0:0:
287,335,83036,1,4,3:0:0:0:
221,380,83180,2,0,P|185:372|155:349,1,67.4999979400635,8|0,0:0|0:0,0:0:0:0:
160,354,83466,6,0,P|116:298|125:216,1,153.000000933838,4|0,1:2|0:0,0:0:0:0:
106,173,83751,6,0,P|125:142|155:124,1,70.4999989242554,8|0,0:0|0:0,0:0:0:0:
11,37,84038,1,8,3:0:0:0:
75,79,84180,1,8,3:0:0:0:
145,11,84323,1,4,3:0:0:0:
166,107,84466,1,4,3:0:0:0:
259,42,84609,1,12,3:0:0:0:
238,160,84752,1,12,3:0:0:0:
361,102,84894,2,0,P|394:99|425:112,1,67.4999979400635,8|0,0:0|0:0,0:0:0:0:
425,112,85180,6,0,P|421:181|367:240,1,153.000000933838,4|0,1:2|0:0,0:0:0:0:
353,291,85466,6,0,P|318:300|284:292,1,70.4999989242554,8|0,0:0|0:0,0:0:0:0:
181,107,85751,1,8,3:0:0:0:
238,160,85894,1,4,3:0:0:0:
222,237,86037,1,4,3:0:0:0:
226,163,86180,5,8,3:0:0:0:
205,239,86323,1,4,3:0:0:0:
132,273,86466,1,4,3:0:0:0:
70,223,86609,2,0,P|41:224|-3:255,1,67.4999979400635,8|0,0:0|0:0,0:0:0:0:
7,242,86894,6,0,P|55:190|53:107,1,153.000000933838,4|0,1:2|0:0,0:0:0:0:
70,63,87180,6,0,P|50:35|16:18,1,70.4999989242554,8|0,0:0|0:0,0:0:0:0:
144,173,87466,1,8,3:0:0:0:
216,201,87608,1,4,3:0:0:0:
281,156,87751,1,4,3:0:0:0:
215,190,87894,5,8,3:0:0:0:
279,144,88037,1,4,3:0:0:0:
259,70,88180,1,4,3:0:0:0:
184,56,88323,2,0,P|154:38|133:10,1,67.4999979400635,8|0,0:0|0:0,0:0:0:0:
134,12,88609,6,0,P|87:63|92:145,1,153.000000933838,4|0,1:2|0:0,0:0:0:0:
74,193,88894,6,0,P|94:223|123:242,1,70.4999989242554,8|0,0:0|0:0,0:0:0:0:
280,205,89181,1,8,3:0:0:0:
209,234,89322,1,4,3:0:0:0:
180,307,89465,1,4,3:0:0:0:
363,189,89609,5,8,3:0:0:0:
339,263,89750,1,4,3:0:0:0:
376,332,89893,1,4,3:0:0:0:
448,376,90037,2,0,P|462:345|458:312,1,67.4999979400635,8|0,0:0|0:0,0:0:0:0:
458,312,90323,6,0,P|426:245|449:174,1,153.000000933838,4|0,1:2|0:0,0:0:0:0:
443,126,90609,6,0,P|470:104|506:99,1,70.4999989242554,8|0,0:0|0:0,0:0:0:0:
340,25,90895,1,0,1:0:0:0:
368,101,91037,1,0,1:0:0:0:
263,0,91180,2,0,P|210:2|176:34,1,96.7500014762879,2|8,0:0|0:0,0:0:0:0:
86,114,91466,5,8,0:0:0:0:
126,114,91561,2,0,P|152:131|172:156,1,64.5000009841919,8|8,0:0|0:0,0:0:0:0:
0,218,91751,5,8,0:0:0:0:
30,192,91846,2,0,P|61:188|93:194,1,64.5000009841919,8|8,0:0|0:0,0:0:0:0:
11,381,92037,6,0,P|22:324|58:279,2,117.000003927612,4|0|8,1:2|0:0|0:0,0:0:0:0:
203,266,92466,6,0,P|177:226|173:174,2,98.2500017990113,2|0|0,0:0|1:0|1:0,0:0:0:0:
268,59,92894,6,0,P|235:53|208:32,1,67.4999979400635,2|0,0:0|0:0,0:0:0:0:
185,0,93037,2,0,P|214:55|213:91,1,98.2500017990113,8|0,0:0|0:0,0:0:0:0:
9,139,93323,5,0,1:0:0:0:
172,176,93466,2,0,P|122:213|87:218,1,98.2500017990113,8|0,0:0|0:0,0:0:0:0:
369,108,93751,6,0,P|432:109|490:139,2,117.000003927612,4|0|8,1:2|0:0|0:0,0:0:0:0:
321,245,94180,6,0,P|357:212|402:193,2,98.2500017990113,2|0|0,0:0|1:0|1:0,0:0:0:0:
372,380,94609,6,0,P|376:341|390:307,1,67.4999979400635,2|0,0:0|0:0,0:0:0:0:
405,295,94751,2,0,P|368:327|323:346,1,98.2500017990113,8|0,0:0|0:0,0:0:0:0:
122,354,95037,5,8,0:0:0:0:
155,249,95180,1,8,0:0:0:0:
119,367,95323,1,8,0:0:0:0:
91,190,95466,6,0,P|85:104|142:41,1,175.500005891419,4|0,1:2|0:0,0:0:0:0:
171,0,95751,2,0,P|219:1|261:26,1,98.2500017990113,8|0,0:0|1:0,0:0:0:0:
324,188,96037,5,2,1:2:0:0:
299,102,96180,1,0,1:0:0:0:
440,133,96323,1,2,1:2:0:0:
459,46,96466,1,8,0:0:0:0:
512,244,96609,6,0,P|416:237|366:296,1,147.375002698517,4|0,1:2|0:0,0:0:0:0:
350,358,96894,1,8,0:0:0:0:
309,377,96966,1,8,0:0:0:0:
266,366,97037,1,8,0:0:0:0:
241,328,97109,1,8,0:0:0:0:
247,284,97180,6,0,P|204:215|104:196,1,175.500005891419,4|0,1:2|0:0,0:0:0:0:
73,161,97466,2,0,P|30:181|2:221,1,98.2500017990113,8|0,0:0|0:0,0:0:0:0:
91,384,97751,5,0,1:0:0:0:
65,294,97894,1,0,1:0:0:0:
226,370,98037,6,0,P|274:367|317:344,1,98.2500017990113,2|8,0:0|0:0,0:0:0:0:
160,247,98323,2,0,P|203:269|252:270,1,98.2500017990113,2|0,0:0|1:0,0:0:0:0:
288,251,98537,1,0,1:0:0:0:
322,227,98609,2,0,P|411:245|464:320,1,185.625001770258,8|0,0:0|0:0,0:0:0:0:
463,318,98894,6,0,P|474:261|510:216,2,117.000003927612,4|0|8,1:2|0:0|0:0,0:0:0:0:
398,192,99323,6,0,P|372:152|368:100,2,98.2500017990113,2|0|0,0:0|1:0|1:0,0:0:0:0:
265,136,99751,6,0,P|231:131|204:111,1,67.4999979400635,2|0,0:0|0:0,0:0:0:0:
181,79,99894,2,0,P|211:133|212:169,1,98.2500017990113,8|0,0:0|1:0,0:0:0:0:
90,54,100180,5,0,1:0:0:0:
190,248,100323,2,0,P|151:296|118:310,1,98.2500017990113,8|0,0:0|0:0,0:0:0:0:
269,52,100609,6,0,P|321:16|385:7,2,117.000003927612,4|0|8,1:2|0:0|0:0,0:0:0:0:
368,117,101037,6,0,P|416:119|460:140,2,98.2500017990113,2|0|0,0:0|1:0|1:0,0:0:0:0:
402,230,101466,6,0,P|428:250|446:278,1,67.4999979400635,2|0,0:0|0:0,0:0:0:0:
457,306,101609,2,0,P|464:258|490:217,1,98.2500017990113,8|0,0:0|0:0,0:0:0:0:
499,384,101894,5,0,1:0:0:0:
357,366,102037,2,0,P|312:286|315:194,1,185.625001770258,8|0,0:0|0:0,0:0:0:0:
315,194,102323,6,0,P|263:253|184:266,1,162.000003955078,4|8,1:2|0:0,0:0:0:0:
184,266,103037,1,0,1:0:0:0:
195,290,103108,1,0,1:0:0:0:
206,314,103180,6,0,P|126:312|59:177,1,247.500007553101,12|8,0:0|3:0,0:0:0:0:
59,176,103894,1,0,1:0:0:0:
39,191,103966,1,0,1:0:0:0:
15,208,104037,6,0,P|18:118|91:66,1,185.625001770258,12|0,0:0|0:0,0:0:0:0:
126,28,104323,2,0,P|181:35|225:68,1,108.750003318787,2|0,0:0|1:0,0:0:0:0:
304,190,104609,2,0,P|350:218|405:219,1,108.750003318787,2|0,0:0|1:0,0:0:0:0:
429,205,104823,1,0,1:0:0:0:
454,187,104894,5,10,0:0:0:0:
441,287,105037,1,8,3:0:0:0:
378,114,105180,1,6,3:0:0:0:
316,313,105323,1,4,3:0:0:0:
234,82,105466,1,14,3:0:0:0:
148,334,105609,1,12,3:0:0:0:
0,151,105752,6,4,P|26:214|89:243,2,141.749999080753,12|0|0,0:0|1:0|1:0,0:0:0:0:
321,24,106180,2,4,P|340:90|310:152,2,141.749999080753,12|0|0,0:0|1:0|1:0,0:0:0:0:
68,24,106609,6,4,P|24:78|27:147,2,141.749999080753,12|0|0,0:0|1:0|1:0,0:0:0:0:
328,254,107037,2,4,P|277:301|208:302,2,141.749999080753,12|0|0,0:0|1:0|1:0,0:0:0:0:
92,214,107466,6,0,P|70:228|45:236,1,52.4999983978272,8|0,0:0|1:0,0:0:0:0:
114,128,107751,1,8,0:0:0:0:
330,341,107894,6,0,P|367:330|398:303,1,82.5000025177003,6|0,1:2|0:0,0:0:0:0:
250,219,108180,2,0,P|282:247|327:254,1,89.9999972534181,2|8,1:2|0:0,2:0:0:0:
307,83,108466,2,0,P|298:131|320:174,1,97.4999955368044,2|0,1:2|1:0,0:0:0:0:
459,51,108752,2,0,P|410:71|382:114,1,104.999996795654,10|0,0:0|0:0,0:0:0:0:
501,184,109037,1,0,1:0:0:0:
136,325,109180,6,0,P|121:352|117:375,1,44.999998626709,12|0,0:0|1:0,0:0:0:0:
169,40,109466,2,0,P|152:11|135:-2,1,44.999998626709,12|0,0:0|0:0,0:0:0:0:
399,212,109751,2,0,P|430:210|454:203,1,44.999998626709,12|0,0:0|1:0,0:0:0:0:
79,238,110036,5,8,0:0:0:0:
239,151,110179,1,0,1:0:0:0:
276,163,110251,1,0,1:0:0:0:
311,177,110323,6,0,P|355:233|369:302,1,142.49999619484,4|0,1:2|0:0,0:0:0:0:
265,384,110751,2,0,P|272:349|290:318,1,71.2499980974198,8|0,3:0|1:0,0:0:0:0:
506,141,111037,1,0,1:0:0:0:
479,167,111109,1,0,1:0:0:0:
448,190,111180,6,0,P|379:200|312:177,1,142.49999619484,12|2,0:0|0:0,0:0:0:0:
283,50,111609,2,0,P|310:73|328:104,1,71.2499980974198,8|0,3:0|1:0,0:0:0:0:
154,141,111894,1,0,1:0:0:0:
189,135,111966,1,0,1:0:0:0:
229,129,112037,5,12,0:0:0:0:
101,226,112180,1,0,1:0:0:0:
157,50,112323,1,8,0:0:0:0:
283,295,112466,6,0,P|179:295|102:226,1,212.62499862113,4|0,1:2|0:0,0:0:0:0:
66,159,112751,5,2,1:2:0:0:
22,286,112894,1,10,0:0:0:0:
0,102,113037,2,0,P|51:54|119:40,1,141.749999080753,6|8,1:2|0:0,0:0:0:0:
199,258,113323,5,2,1:2:0:0:
152,124,113466,1,10,0:0:0:0:
128,316,113609,2,0,P|185:368|262:379,1,156.543345096431,6|8,1:2|0:0,0:0:0:0:
327,156,113894,5,2,1:2:0:0:
276,301,114037,1,10,0:0:0:0:
250,90,114180,2,0,P|313:32|398:18,1,174.784215618406,6|8,1:2|0:0,0:0:0:0:
512,226,114466,6,0,P|477:147|404:102,1,174.784215618406,2|8,1:2|0:0,0:0:0:0:
299,384,114751,2,0,P|343:382|383:364,1,87.3921078092028,0|0,1:0|0:0,0:0:0:0:
445,315,114894,5,8,0:0:0:0:
418,260,114966,1,8,0:0:0:0:
372,222,115037,1,8,0:0:0:0:
314,200,115109,1,8,0:0:0:0:
256,203,115180,5,8,0:0:0:0:
282,213,115251,1,8,3:0:0:0:
311,209,115323,1,4,3:0:0:0:
337,196,115394,1,4,3:0:0:0:
357,176,115466,1,4,3:0:0:0:
368,155,115537,1,4,3:0:0:0:
373,140,115609,1,12,3:0:0:0:
376,125,115680,1,12,3:0:0:0:
373,109,115751,5,8,0:0:0:0:
316,84,115823,1,8,0:0:0:0:
256,84,115894,1,8,0:0:0:0:
199,105,115966,1,8,0:0:0:0:
164,149,116037,5,8,0:0:0:0:
191,138,116109,1,8,3:0:0:0:
212,117,116181,1,4,3:0:0:0:
223,90,116252,1,4,3:0:0:0:
225,62,116323,1,4,3:0:0:0:
220,38,116394,1,4,3:0:0:0:
215,25,116466,1,12,3:0:0:0:
207,12,116537,1,12,3:0:0:0:
196,0,116609,6,0,P|175:6|145:27,1,37.5,8|8,0:0|3:0,0:0:0:0:
77,40,116751,2,0,P|65:57|55:92,1,37.5,4|8,3:0|3:0,3:0:0:0:
14,149,116894,2,0,P|17:168|31:203,1,37.5,12|4,3:0|3:0,0:0:0:0:
72,329,117037,6,0,B|64:385|19:376|-8:282|93:185|203:226,1,273.000009164429,4|0,1:2|1:0,0:0:0:0:
213,365,117466,2,0,P|205:335|214:296,1,67.4999979400635,8|0,0:0|1:0,0:0:0:0:
361,206,117751,1,4,3:0:0:0:
365,295,117894,2,0,P|331:294|303:276,1,67.4999979400635,4|8,0:3|0:0,0:0:0:0:
458,30,118180,6,0,P|465:95|433:153,1,135.749999275017,2|0,0:0|1:0,0:0:0:0:
285,0,118466,2,0,P|333:28|359:78,1,113.249998703957,2|8,0:0|0:0,0:0:0:0:
166,122,118752,2,0,P|211:103|260:106,1,98.2500017990113,2|0,0:0|1:0,0:0:0:0:
204,275,119038,2,0,P|213:237|237:208,1,75.7499984973908,2|8,0:0|0:0,0:0:0:0:
512,348,119323,6,0,P|499:315|479:288,1,68.2500022911073,4|0,1:2|0:0,0:0:0:0:
381,238,119466,2,0,P|395:239|410:237,1,30,8|0,3:0|0:0,0:0:0:0:
491,203,119609,2,0,P|499:191|507:178,1,30,8|0,3:0|0:0,0:0:0:0:
478,25,119751,5,8,0:0:0:0:
447,110,119894,1,4,3:0:0:0:
367,153,120037,1,4,3:0:0:0:
279,142,120180,1,4,3:0:0:0:
135,15,120323,6,0,P|192:21|238:58,1,117.000003927612,10|0,0:0|1:0,0:0:0:0:
111,303,120608,1,2,0:0:0:0:
111,303,120751,2,0,P|53:297|8:260,1,117.000003927612,0|8,1:0|0:0,0:0:0:0:
338,110,121037,5,2,1:2:0:0:
198,139,121179,1,4,3:0:0:0:
406,173,121322,5,2,1:2:0:0:
156,220,121465,1,8,0:0:0:0:
408,342,121609,6,0,B|484:335|452:431|320:390|306:271,1,225,4|0,1:2|0:0,0:0:0:0:
250,245,121894,2,0,P|247:219|254:194,1,52.4999983978272,4|0,3:0|0:0,0:0:0:0:
511,165,122037,6,0,P|473:228|406:260,1,150,12|0,0:0|1:0,0:0:0:0:
161,68,122323,2,0,P|205:79|237:113,1,93.75,4|0,3:0|1:0,0:0:0:0:
40,289,122609,5,10,0:0:0:0:
90,211,122752,1,12,1:3:0:0:
73,373,122895,5,2,0:0:0:0:
2,177,123038,2,0,P|39:132|96:116,1,117.000003927612,4|8,3:0|0:0,0:0:0:0:
405,86,123323,5,2,1:2:0:0:
155,39,123466,1,8,3:0:0:0:
337,149,123609,5,2,1:2:0:0:
197,120,123751,1,8,0:0:0:0:
239,295,123894,6,0,B|230:365|146:361|151:181|370:179|386:323,1,281.25,4|0,1:2|2:0,0:0:0:0:
439,238,124180,5,8,3:0:0:0:
469,268,124251,1,4,3:0:0:0:
481,309,124323,2,0,P|470:339|436:381,1,67.1250009218216,6|0,3:0|0:0,0:0:0:0:
301,152,124466,2,0,P|320:126|366:95,1,67.1250009218216,6|0,3:0|0:0,0:0:0:0:
343,368,124608,5,10,0:0:0:0:
436,61,124751,1,10,0:0:0:0:
436,61,125037,6,0,B|431:126|568:142|541:-57|246:-56|241:134,1,342.817168245472,4|0,1:2|2:0,0:0:0:0:
190,49,125323,5,12,3:0:0:0:
162,84,125394,1,8,3:0:0:0:
150,128,125466,1,4,3:0:0:0:
157,172,125537,1,4,3:0:0:0:
182,209,125608,1,12,3:0:0:0:
220,233,125679,1,12,3:0:0:0:
267,243,125751,6,0,P|291:282|297:330,1,75,12|0,0:0|0:0,0:0:0:0:
81,68,125894,2,0,P|103:27|142:-1,1,75,12|0,3:0|0:0,0:0:0:0:
116,275,126037,1,4,3:0:0:0:
66,261,126108,1,4,3:0:0:0:
43,222,126180,6,0,B|0:154|107:130|125:224|92:352|-30:357,1,300,4|0,1:2|1:0,0:0:0:0:
191,306,126609,2,0,P|206:335|205:368,1,67.4999979400635,8|0,0:0|1:0,0:0:0:0:
297,221,126894,1,4,3:0:0:0:
297,221,127037,2,0,P|329:226|355:248,1,67.4999979400635,0|8,1:0|0:0,0:0:0:0:
437,19,127323,6,0,P|420:84|369:126,1,135.749999275017,2|0,0:0|1:0,0:0:0:0:
245,0,127609,2,0,P|273:49|272:105,1,113.249998703957,2|8,0:0|0:0,0:0:0:0:
110,128,127895,2,0,P|157:139|196:170,1,98.2500017990113,2|0,0:0|1:0,0:0:0:0:
138,308,128181,2,0,P|165:281|200:269,1,75.7499984973908,2|8,0:0|0:0,0:0:0:0:
498,332,128466,6,0,B|535:344|573:303|528:216|380:243|454:374|369:414|268:378|275:302,1,357.142857142857,4|0,1:2|1:0,0:0:0:0:
387,111,128894,1,8,0:0:0:0:
354,194,129037,1,4,3:0:0:0:
275,238,129180,1,4,3:0:0:0:
188,217,129323,1,4,3:0:0:0:
55,73,129466,6,0,P|110:91|155:129,1,117.000003927612,10|0,0:0|1:0,0:0:0:0:
303,321,129752,1,2,0:0:0:0:
303,321,129895,2,0,P|358:304|403:266,1,117.000003927612,4|8,3:0|0:0,0:0:0:0:
416,46,130180,5,2,1:2:0:0:
276,75,130322,1,4,3:0:0:0:
484,109,130465,5,2,1:2:0:0:
234,156,130608,1,8,0:0:0:0:
420,329,130751,6,0,B|495:360|409:427|325:338|380:216,1,225,4|0,1:2|0:0,0:0:0:0:
340,167,131037,2,0,P|352:144|370:126,1,52.4999983978272,4|0,3:0|0:0,0:0:0:0:
299,382,131180,6,0,P|233:349|199:284,1,150,12|0,0:0|1:0,0:0:0:0:
260,0,131466,2,0,P|282:40|280:86,1,93.75,4|0,3:0|1:0,0:0:0:0:
60,260,131751,6,0,P|49:234|29:215,1,56.25,10|0,0:0|0:0,0:0:0:0:
37,343,132037,5,2,1:2:0:0:
95,158,132180,2,0,P|135:116|190:100,1,117.000003927612,4|8,3:0|0:0,0:0:0:0:
422,288,132466,5,2,1:2:0:0:
172,241,132609,1,8,3:0:0:0:
354,351,132752,5,2,1:2:0:0:
215,320,132894,1,8,0:0:0:0:
491,223,133037,6,0,B|555:202|601:313|408:358|328:101|455:86,1,281.25,4|0,1:2|0:0,0:0:0:0:
429,63,133323,5,10,0:0:0:0:
334,261,133466,1,8,3:0:0:0:
191,19,133609,1,12,3:0:0:0:
56,312,133751,2,0,P|26:289|10:255,1,75,10|0,0:0|2:0,0:0:0:0:
354,351,134037,5,10,0:0:0:0:
0,175,134180,1,10,0:0:0:0:
131,355,134466,5,10,0:0:0:0:
485,179,134609,1,10,0:0:0:0:
419,233,134823,5,0,1:0:0:0:
438,260,134894,2,0,P|472:273|532:262,2,78.0000026184083,8|8|4,0:0|3:0|3:0,0:0:0:0:
341,288,135180,2,0,P|312:310|292:368,2,78.0000026184083,8|4|12,0:3|0:3|0:3,0:0:0:0:
485,179,135466,5,6,1:2:0:0:
407,153,135609,1,2,0:0:0:0:
485,179,135751,1,2,0:0:0:0:
337,202,135894,5,8,0:0:0:0:
337,202,136180,1,8,0:0:0:0:
361,48,136323,5,6,1:2:0:0:
284,78,136466,1,2,0:0:0:0:
361,48,136608,1,2,0:0:0:0:
262,160,136751,5,8,0:0:0:0:
262,160,137037,1,8,0:0:0:0:
181,26,137180,5,6,1:2:0:0:
141,99,137323,1,2,0:0:0:0:
181,26,137465,1,2,0:0:0:0:
177,176,137608,5,8,0:0:0:0:
177,176,137894,1,8,0:0:0:0:
28,125,138037,5,6,1:2:0:0:
45,207,138180,1,2,0:0:0:0:
121,66,138322,5,8,0:0:0:0:
115,104,138465,1,8,3:0:0:0:
109,143,138609,1,4,3:0:0:0:
109,143,138894,6,0,P|154:109|209:95,1,113.999998608398,4|0,1:2|0:0,0:0:0:0:
281,51,139323,2,0,P|316:62|344:84,1,56.9999993041992,4|0,3:0|0:0,0:0:0:0:
421,80,139609,1,4,3:0:0:0:
421,80,139751,2,0,P|440:110|448:145,1,56.9999993041992,8|0,0:0|0:0,0:0:0:0:
509,193,140037,5,4,3:0:0:0:
509,193,140323,1,4,3:0:0:0:
144,384,140609,6,0,P|157:328|190:282,1,113.999998608398,4|0,1:2|0:0,0:0:0:0:
217,202,141038,2,0,P|250:187|286:186,1,56.9999993041992,4|0,3:0|0:0,0:0:0:0:
343,134,141324,1,4,3:0:0:0:
128,172,141466,6,0,P|93:143|75:103,1,89.9999972534181,8|0,0:0|0:0,0:0:0:0:
22,242,141752,1,8,0:0:0:0:
105,30,141894,1,8,0:0:0:0:
212,181,142037,1,8,3:0:0:0:
257,71,142180,1,4,3:0:0:0:
247,41,142251,1,4,3:0:0:0:
235,13,142323,5,14,1:2:0:0:
345,29,142466,1,2,0:0:0:0:
235,13,142609,1,2,0:0:0:0:
340,154,142751,5,8,0:0:0:0:
340,154,143037,1,4,3:0:0:0:
364,134,143108,1,4,3:0:0:0:
388,114,143180,5,14,1:2:0:0:
406,224,143323,1,2,0:0:0:0:
388,114,143466,1,2,0:0:0:0:
318,275,143609,5,8,0:0:0:0:
318,275,143894,1,4,3:0:0:0:
344,291,143965,1,4,3:0:0:0:
370,308,144037,5,14,1:2:0:0:
271,359,144180,1,2,0:0:0:0:
370,308,144323,1,2,0:0:0:0:
196,291,144466,5,8,0:0:0:0:
196,291,144751,1,4,3:0:0:0:
188,321,144822,1,4,3:0:0:0:
148,350,144894,5,14,1:2:0:0:
100,117,145037,1,8,0:0:0:0:
325,194,145180,1,8,0:0:0:0:
154,183,145323,5,8,3:0:0:0:
244,218,145466,1,4,3:0:0:0:
244,218,145751,6,0,P|207:261|189:314,1,113.999998608398,4|0,1:2|0:0,0:0:0:0:
108,327,146180,2,0,P|119:362|141:390,1,56.9999993041992,4|0,3:0|0:0,0:0:0:0:
0,239,146466,1,4,3:0:0:0:
0,239,146608,2,0,P|27:263|60:277,1,56.9999993041992,8|0,0:0|0:0,0:0:0:0:
119,245,146894,5,4,3:0:0:0:
119,245,147180,1,4,3:0:0:0:
424,299,147466,6,0,P|391:252|344:221,1,113.999998608398,4|0,1:2|0:0,0:0:0:0:
355,139,147895,2,0,P|318:140|285:154,1,56.9999993041992,4|0,3:0|0:0,0:0:0:0:
508,64,148181,1,4,3:0:0:0:
488,60,148251,1,4,3:0:0:0:
468,57,148323,2,0,P|437:76|415:105,1,56.9999993041992,8|0,0:0|0:0,0:0:0:0:
512,301,148609,5,8,0:0:0:0:
382,258,148751,1,8,3:0:0:0:
287,357,148894,1,4,3:0:0:0:
36,94,149180,5,6,0:0:0:0:
31,78,149465,1,2,0:0:0:0:
192,108,150037,5,2,0:0:0:0:
199,92,150322,1,2,0:0:0:0:
303,218,150894,5,2,0:0:0:0:
318,211,151179,1,2,0:0:0:0:
318,369,151751,5,2,0:0:0:0:
335,373,152036,1,2,0:0:0:0:
65,200,152609,5,2,0:0:0:0:
68,210,152894,1,2,0:0:0:0:
146,209,153465,5,2,0:0:0:0:
141,218,153750,1,2,0:0:0:0:
202,267,154323,5,2,0:0:0:0:
193,271,154608,1,2,0:0:0:0:
208,347,155180,5,2,0:0:0:0:
199,345,155466,1,2,0:0:0:0:
96,315,156037,5,4,1:2:0:0:
37,37,169751,6,0,P|85:56|114:99,1,104.999996795654,4|8,1:0|0:0,0:0:0:0:
114,99,170323,2,0,P|136:85|162:82,1,52.4999983978272,0|0,1:0|1:0,0:0:0:0:
162,161,170609,1,2,0:0:0:0:
162,161,170751,2,0,P|217:185|251:228,1,104.999996795654,8|0,0:0|1:0,0:0:0:0:
260,296,171180,1,8,0:0:0:0:
260,296,171466,6,0,P|214:319|182:360,1,104.999996795654,0|8,1:0|0:0,0:0:0:0:
182,361,172037,2,0,P|160:340|132:329,1,52.4999983978272,0|0,1:0|1:0,0:0:0:0:
101,247,172323,5,2,0:0:0:0:
14,276,172466,1,8,0:0:0:0:
101,247,172751,5,0,1:0:0:0:
14,276,172894,1,8,0:0:0:0:
330,384,173180,6,0,P|333:332|306:288,1,104.999996795654,4|8,1:0|0:0,0:0:0:0:
306,288,173751,2,0,P|331:284|354:270,1,52.4999983978272,0|0,1:0|1:0,0:0:0:0:
304,208,174038,1,2,0:0:0:0:
304,208,174180,2,0,P|333:165|340:114,1,104.999996795654,8|0,0:0|1:0,0:0:0:0:
315,42,174609,1,8,0:0:0:0:
315,42,174894,6,0,P|365:32|406:1,1,104.999996795654,0|8,1:0|0:0,0:0:0:0:
407,0,175466,2,0,P|425:23|449:35,1,52.4999983978272,0|0,1:0|1:0,0:0:0:0:
410,117,175752,5,2,0:0:0:0:
512,87,175895,1,8,0:0:0:0:
410,117,176180,5,0,1:0:0:0:
512,87,176323,1,8,0:0:0:0:
268,373,176609,6,0,P|263:321|286:277,1,104.999996795654,4|8,1:0|0:0,0:0:0:0:
287,276,177181,2,0,P|269:255|243:243,1,52.4999983978272,0|0,1:0|1:0,0:0:0:0:
209,171,177466,1,2,0:0:0:0:
209,171,177609,2,0,P|157:179|114:208,1,104.999996795654,8|0,0:0|1:0,0:0:0:0:
82,281,178038,1,8,0:0:0:0:
82,281,178323,6,0,P|73:229|44:186,1,104.999996795654,0|8,1:0|0:0,0:0:0:0:
44,186,178895,2,0,P|55:162|75:145,1,52.4999983978272,0|0,1:0|1:0,0:0:0:0:
143,84,179181,5,2,0:0:0:0:
48,63,179324,1,8,0:0:0:0:
143,84,179609,5,0,1:0:0:0:
48,63,179752,1,8,0:0:0:0:
337,12,180037,6,0,P|341:63|318:107,1,104.999996795654,4|8,1:0|0:0,0:0:0:0:
316,109,180609,2,0,P|318:136|333:161,1,52.4999983978272,0|0,1:0|1:0,0:0:0:0:
321,237,180894,1,2,0:0:0:0:
321,237,181037,2,0,P|357:274|406:292,1,104.999996795654,8|0,0:0|1:0,0:0:0:0:
489,282,181466,1,8,0:0:0:0:
489,282,181751,6,0,P|437:290|394:319,1,104.999996795654,0|8,1:0|0:0,0:0:0:0:
394,319,182323,6,0,P|354:306|324:278,1,82.5000025177003,0|0,1:0|1:0,0:0:0:0:
214,256,182609,2,0,P|199:217|203:176,1,82.5000025177003,2|8,0:0|0:0,0:0:0:0:
268,61,182894,6,0,L|290:64,1,22.4999993133545,4|0,3:0|1:2,0:0:0:0:
301,201,183037,2,0,L|278:204,1,22.4999993133545,4|0,3:0|1:2,0:0:0:0:
385,117,183180,2,0,L|407:120,1,22.4999993133545,8|0,0:0|0:0,0:0:0:0:
422,258,183323,1,8,0:0:0:0:
416,236,183394,1,8,0:0:0:0:
410,220,183466,6,0,P|359:280|357:359,1,160.499995101929,4|8,1:2|0:0,0:0:0:0:
505,351,183894,1,0,1:0:0:0:
512,270,184037,2,0,P|469:277|439:306,1,80.2499975509644,2|0,3:0|1:0,0:0:0:0:
503,154,184323,2,0,P|475:80|408:38,1,160.499995101929,8|0,0:0|0:0,0:0:0:0:
207,120,184751,1,0,1:0:0:0:
281,139,184894,2,0,P|319:128|349:102,1,80.2499975509644,8|0,0:0|0:0,0:0:0:0:
349,101,185180,6,0,P|280:140|251:213,1,160.499995101929,4|8,3:0|0:0,3:0:0:0:
405,271,185609,1,0,1:0:0:0:
405,271,185751,2,0,P|367:251|326:255,1,80.2499975509644,2|0,3:0|1:0,0:0:0:0:
152,372,186037,2,0,P|230:369|279:328,1,120.374996326447,8|0,0:0|0:0,0:0:0:0:
278,328,186323,6,0,P|278:354|287:378,1,52.4999983978272,4|0,3:0|1:0,0:0:0:0:
225,221,186609,2,0,P|209:241|205:267,1,52.4999983978272,8|0,0:0|1:0,0:0:0:0:
11,164,186894,6,0,P|80:127|158:143,1,160.499995101929,4|8,1:2|0:0,0:0:0:0:
131,277,187323,1,0,1:0:0:0:
48,279,187466,2,0,P|59:237|91:210,1,80.2499975509644,2|0,3:0|1:0,0:0:0:0:
293,333,187751,2,0,P|239:274|232:195,1,160.499995101929,8|0,0:0|1:0,0:0:0:0:
409,66,188179,1,0,1:0:0:0:
381,138,188323,2,0,P|349:162|311:171,1,80.2499975509644,8|0,0:0|0:0,0:0:0:0:
310,171,188609,6,0,P|380:136|457:154,1,160.499995101929,4|8,3:0|0:0,3:0:0:0:
378,288,189037,1,0,1:0:0:0:
378,288,189180,2,0,P|406:256|445:242,1,80.2499975509644,2|0,3:0|1:0,0:0:0:0:
303,372,189466,2,0,P|224:369|176:328,1,120.374996326447,8|0,0:0|0:0,0:0:0:0:
170,325,189751,6,0,P|179:346|181:376,1,52.4999983978272,4|0,3:0|1:0,0:0:0:0:
255,200,190037,2,0,P|248:227|233:248,1,52.4999983978272,8|0,0:0|1:0,0:0:0:0:
23,110,190323,6,0,P|83:161|162:163,1,160.499995101929,4|8,1:2|0:0,0:0:0:0:
173,23,190751,1,0,1:0:0:0:
93,2,190894,2,0,P|91:44|112:79,1,80.2499975509644,2|0,3:0|1:0,0:0:0:0:
361,12,191180,2,0,P|287:40|245:107,1,160.499995101929,8|0,0:0|1:0,0:0:0:0:
270,314,191608,1,0,1:0:0:0:
307,245,191751,2,0,P|306:205|288:170,1,80.2499975509644,8|0,0:0|0:0,0:0:0:0:
288,170,192037,6,0,P|308:246|371:293,1,160.499995101929,4|8,3:0|0:0,3:0:0:0:
512,225,192466,1,0,1:0:0:0:
512,225,192608,2,0,P|469:230|438:257,1,80.2499975509644,2|0,3:0|1:0,0:0:0:0:
512,136,192894,2,0,P|496:59|448:17,1,120.374996326447,8|0,0:0|0:0,0:0:0:0:
437,19,193180,6,0,P|462:18|488:7,1,52.4999983978272,4|0,3:0|1:0,0:0:0:0:
317,71,193466,2,0,P|339:84|365:90,1,52.4999983978272,8|0,0:0|1:0,0:0:0:0:
142,0,193751,6,0,P|188:35|216:88,1,120.374996326447,4|0,1:2|0:0,0:0:0:0:
246,124,194037,2,0,P|234:162|210:193,1,80.2499975509644,8|0,0:0|1:0,0:0:0:0:
55,159,194323,2,2,P|90:175|113:207,1,80.2499975509644,2|0,3:0|1:0,0:0:0:0:
28,361,194609,2,2,P|75:323|133:315,1,120.374996326447,8|0,0:0|0:0,0:0:0:0:
171,279,194894,6,2,P|207:293|232:324,1,80.2499975509644,4|0,3:0|1:0,0:0:0:0:
333,203,195180,1,8,0:0:0:0:
435,298,195323,1,0,1:0:0:0:
414,302,195394,1,0,1:0:0:0:
391,307,195466,5,6,1:2:0:0:
435,169,195751,1,10,3:0:0:0:
511,288,196037,1,10,3:0:0:0:
435,169,196322,1,10,3:0:0:0:
200,338,196609,5,6,3:0:0:0:
270,117,196894,1,6,3:0:0:0:
391,307,197180,1,6,3:0:0:0:
270,117,197465,1,6,3:0:0:0:
22,371,197751,5,14,3:0:0:0:
125,52,198036,1,14,3:0:0:0:
306,324,198322,1,14,3:0:0:0:
125,52,198609,1,14,3:0:0:0:
311,139,198894,5,8,0:0:0:0:
369,64,199037,1,0,1:0:0:0:
369,64,199323,1,0,1:0:0:0:
400,160,199466,6,0,B|437:172|437:172|472:150,2,78.5000002994537,8|8|8,0:0|0:0|0:0,0:0:0:0:
311,139,199751,5,8,0:0:0:0:
325,228,199846,5,8,0:0:0:0:
411,254,199941,5,8,0:0:0:0:
386,339,200037,6,0,P|311:343|250:384,1,150,4|0,1:2|0:0,0:0:0:0:
250,384,200466,1,0,1:0:0:0:
117,187,200608,5,10,0:0:0:0:
138,271,200751,2,0,P|170:292|206:302,1,75,0|0,1:0|0:0,0:0:0:0:
69,323,201036,1,8,0:0:0:0:
419,215,201180,6,0,P|361:240|321:289,1,127.50000243187,4|0,1:2|0:0,0:0:0:0:
321,289,201609,1,0,1:0:0:0:
101,186,201751,5,10,0:0:0:0:
140,264,201894,2,0,P|175:278|212:280,1,75,0|0,1:0|0:0,0:0:0:0:
83,329,202179,1,8,0:0:0:0:
399,88,202323,6,0,P|362:124|343:172,1,104.999996795654,4|0,1:2|0:0,0:0:0:0:
343,173,202752,1,0,1:0:0:0:
85,189,202894,5,10,0:0:0:0:
140,257,203037,2,0,P|177:263|213:257,1,75,0|0,1:0|0:0,0:0:0:0:
97,332,203322,1,8,0:0:0:0:
292,0,203466,6,0,P|284:36|290:73,1,75,4|2,1:2|0:0,0:0:0:0:
290,73,203894,1,0,1:0:0:0:
71,195,204037,5,10,0:0:0:0:
138,250,204180,1,0,1:0:0:0:
138,250,204466,1,8,0:0:0:0:
95,0,204609,6,0,P|119:74|171:125,1,150,4|0,1:2|0:0,0:0:0:0:
169,124,205038,1,0,1:0:0:0:
451,116,205180,5,10,0:0:0:0:
367,110,205324,2,0,P|330:121|299:141,1,75,0|0,1:0|0:0,0:0:0:0:
415,41,205609,1,8,0:0:0:0:
37,198,205751,6,0,P|98:212|161:206,1,127.50000243187,4|0,1:2|0:0,0:0:0:0:
162,206,206180,1,0,1:0:0:0:
455,107,206323,5,10,0:0:0:0:
372,118,206466,2,0,P|338:137|312:163,1,75,0|0,1:0|0:0,0:0:0:0:
404,41,206750,1,8,0:0:0:0:
137,361,206894,6,0,P|177:328|203:283,1,104.999996795654,4|0,1:2|0:0,0:0:0:0:
203,283,207323,1,0,1:0:0:0:
458,97,207466,5,10,0:0:0:0:
379,126,207608,2,0,P|350:151|329:182,1,75,0|0,1:0|0:0,0:0:0:0:
395,43,207893,1,8,0:0:0:0:
293,384,208037,6,0,P|294:346|285:310,1,75,4|2,1:2|0:0,0:0:0:0:
285,310,208466,1,0,1:0:0:0:
243,23,208609,6,0,P|258:35|277:57,1,35.6249990487099,8|0,0:0|0:0,0:0:0:0:
262,142,208751,2,0,P|269:166|271:210,1,43.1250008225441,8|0,3:0|0:0,0:0:0:0:
201,240,208894,2,0,P|188:268|160:305,1,50.6250001931191,4|0,3:0|0:0,0:0:0:0:
92,278,209037,2,0,P|65:290|37:295,1,58.1250004434586,12|0,3:0|0:0,0:0:0:0:
0,120,209180,6,0,P|73:134|121:189,1,150,4|0,1:2|0:0,0:0:0:0:
153,45,209609,2,0,P|173:76|180:113,1,75,2|8,1:2|0:0,0:0:0:0:
283,0,209894,1,0,1:0:0:0:
283,0,210037,2,0,P|281:37|266:71,1,75,2|8,0:0|0:0,0:0:0:0:
342,135,210323,2,0,P|374:116|435:110,1,75,0|0,1:0|0:0,0:0:0:0:
438,384,210609,6,0,P|432:366|422:350,1,37.5,2|0,0:0|1:0,0:0:0:0:
292,323,210894,2,0,P|299:305|301:286,1,37.5,10|0,0:0|1:0,0:0:0:0:
220,182,211180,2,0,P|237:172|250:160,1,37.5,2|8,0:0|0:0,0:0:0:0:
505,267,211466,6,0,P|432:256|368:217,1,150,4|0,1:2|0:0,0:0:0:0:
119,135,211894,2,0,P|159:122|189:100,1,75,2|8,1:2|0:0,0:0:0:0:
503,146,212180,1,0,1:0:0:0:
503,146,212323,6,0,P|477:141|453:128,1,51.7500000789642,2|8,0:0|0:0,0:0:0:0:
337,30,212609,2,0,P|362:25|387:12,1,51.7500000789642,0|0,1:0|0:0,0:0:0:0:
324,248,212894,2,0,P|298:243|274:230,1,51.7500000789642,2|0,0:0|1:0,0:0:0:0:
158,132,213180,2,0,P|183:127|208:114,1,51.7500000789642,8|0,0:0|1:0,0:0:0:0:
145,350,213466,2,0,P|119:345|95:332,1,51.7500000789642,2|8,0:0|0:0,0:0:0:0:
0,239,213751,6,0,P|41:203|96:198,1,112.5,4|0,1:2|0:0,0:0:0:0:
107,209,214037,2,0,P|136:236|182:247,1,75,2|0,0:0|1:0,0:0:0:0:
226,309,214323,1,10,0:0:0:0:
226,309,214466,2,0,P|267:298|301:268,1,75,0|0,1:0|0:0,0:0:0:0:
169,246,214751,1,8,0:0:0:0:
275,0,214894,6,0,P|285:53|262:103,1,112.5,4|0,1:2|0:0,0:0:0:0:
247,107,215180,2,0,P|208:119|176:153,1,75,2|0,0:0|1:0,0:0:0:0:
101,160,215466,1,10,0:0:0:0:
101,160,215609,2,0,P|89:200|98:245,1,75,0|0,1:0|0:0,0:0:0:0:
183,142,215894,1,8,0:0:0:0:
363,369,216037,6,0,P|311:351|279:306,1,112.5,4|0,1:2|0:0,0:0:0:0:
284,291,216323,2,0,P|292:251|279:206,1,75,2|0,0:0|1:0,0:0:0:0:
311,138,216609,1,10,0:0:0:0:
311,138,216752,2,0,P|281:107|238:92,1,75,0|0,1:0|0:0,0:0:0:0:
285,218,217037,1,8,0:0:0:0:
195,37,217180,6,0,L|164:68,1,26.2499991989136,4|0,0:0|0:0,0:0:0:0:
95,45,217323,2,0,L|91:87,1,26.2499991989136,8|0,0:0|0:0,0:0:0:0:
29,114,217466,2,0,L|54:148,1,26.2499991989136,8|0,3:0|0:0,0:0:0:0:
21,212,217609,2,0,L|62:220,1,26.2499991989136,4|0,3:0|0:0,0:0:0:0:
56,340,217751,6,0,P|52:319|55:291,1,35.6249990487099,8|0,0:0|0:0,0:0:0:0:
127,242,217894,2,0,P|138:219|167:186,1,43.1250008225441,0|0,3:0|0:0,0:0:0:0:
240,215,218037,2,0,P|268:203|313:197,1,50.6250001931191,4|0,3:0|0:0,0:0:0:0:
344,265,218180,2,0,P|370:274|393:290,1,58.1250004434586,12|0,3:0|0:0,0:0:0:0:
463,377,218323,6,0,P|439:305|456:233,1,150,4|0,1:2|0:0,0:0:0:0:
455,234,218751,1,0,1:0:0:0:
402,15,218894,5,10,0:0:0:0:
378,92,219037,2,0,P|388:128|408:160,1,75,0|0,1:0|0:0,0:0:0:0:
402,15,219322,1,8,0:0:0:0:
298,379,219466,6,0,P|307:316|344:265,1,127.50000243187,4|0,1:2|0:0,0:0:0:0:
344,265,219895,1,0,1:0:0:0:
254,12,220037,5,10,0:0:0:0:
257,91,220180,2,0,P|279:122|309:144,1,75,0|0,1:0|0:0,0:0:0:0:
254,12,220465,1,8,0:0:0:0:
150,324,220609,6,0,P|179:281|222:254,1,104.999996795654,4|0,1:2|0:0,0:0:0:0:
223,253,221038,1,0,1:0:0:0:
102,58,221180,5,10,0:0:0:0:
131,131,221323,2,0,P|162:152|198:163,1,75,0|0,1:0|0:0,0:0:0:0:
102,58,221608,1,8,0:0:0:0:
23,269,221751,6,0,P|54:248|90:238,1,75,4|2,1:2|0:0,0:0:0:0:
90,239,222180,1,0,1:0:0:0:
283,215,222323,5,8,0:0:0:0:
198,190,222466,1,0,1:0:0:0:
272,94,222609,5,8,0:0:0:0:
218,275,222752,1,8,0:0:0:0:
49,7,222894,6,0,P|73:79|56:151,1,150,4|0,1:2|0:0,0:0:0:0:
57,149,223322,1,0,1:0:0:0:
110,369,223465,5,10,0:0:0:0:
134,292,223609,2,0,P|124:256|104:224,1,75,0|0,1:0|0:0,0:0:0:0:
110,369,223894,1,8,0:0:0:0:
214,5,224037,6,0,P|205:68|168:119,1,127.50000243187,4|0,1:2|0:0,0:0:0:0:
169,119,224466,1,0,1:0:0:0:
258,372,224608,5,10,0:0:0:0:
255,293,224751,2,0,P|233:262|203:240,1,75,0|0,1:0|0:0,0:0:0:0:
258,372,225036,1,8,0:0:0:0:
362,60,225180,6,0,P|333:103|290:130,1,104.999996795654,4|0,1:2|0:0,0:0:0:0:
289,131,225609,1,0,1:0:0:0:
410,326,225751,5,10,0:0:0:0:
381,253,225894,2,0,P|350:232|314:221,1,75,0|0,1:0|0:0,0:0:0:0:
410,326,226180,1,8,0:0:0:0:
489,115,226323,6,0,P|458:136|422:146,1,52.4999983978272,4|0,1:2|0:0,0:0:0:0:
510,202,226609,1,8,0:0:0:0:
269,91,226751,6,0,P|238:70|202:60,1,52.4999983978272,4|0,1:2|0:0,0:0:0:0:
290,4,227037,1,8,0:0:0:0:
158,238,227180,6,0,P|127:259|82:270,1,78.7499975967408,4|0,1:2|0:0,0:0:0:0:
87,269,227466,6,0,P|160:283|208:338,1,150,4|0,1:2|0:0,0:0:0:0:
240,194,227895,2,0,P|260:225|267:262,1,75,2|8,1:2|0:0,0:0:0:0:
370,149,228180,1,0,1:0:0:0:
370,149,228323,2,0,P|368:186|353:220,1,75,2|8,0:0|0:0,0:0:0:0:
512,164,228609,2,0,P|480:143|459:113,1,75,0|0,1:0|0:0,0:0:0:0:
103,39,228895,6,0,P|121:45|137:55,1,37.5,2|0,0:0|1:0,0:0:0:0:
228,150,229180,2,0,P|237:166|243:184,1,37.5,10|0,0:0|1:0,0:0:0:0:
252,315,229466,2,0,P|249:333|242:351,1,37.5,2|8,0:0|0:0,0:0:0:0:
7,117,229751,6,0,P|80:128|144:167,1,150,4|0,1:2|0:0,0:0:0:0:
393,249,230180,2,0,P|353:262|323:284,1,75,2|8,1:2|0:0,0:0:0:0:
9,238,230465,1,0,1:0:0:0:
9,238,230609,6,0,P|35:243|59:258,1,52.4999983978272,2|8,0:0|0:0,0:0:0:0:
175,354,230894,2,0,P|150:359|124:373,1,52.4999983978272,0|0,1:0|0:0,0:0:0:0:
173,135,231180,2,0,P|199:140|225:155,1,52.4999983978272,2|0,0:0|1:0,0:0:0:0:
339,251,231466,2,0,P|314:256|288:270,1,52.4999983978272,8|0,0:0|1:0,0:0:0:0:
347,30,231751,2,0,P|373:35|398:48,1,52.4999983978272,2|8,0:0|0:0,0:0:0:0:
512,146,232037,6,0,P|448:151|413:181,1,112.5,4|0,1:2|0:0,0:0:0:0:
405,193,232323,2,0,P|371:170|322:168,1,75,2|0,0:0|1:0,0:0:0:0:
270,100,232609,1,10,0:0:0:0:
270,100,232752,2,0,P|234:108|203:129,1,75,0|0,1:0|0:0,0:0:0:0:
338,165,233037,1,8,0:0:0:0:
26,233,233180,6,0,P|90:228|125:198,1,112.5,4|0,1:2|0:0,0:0:0:0:
133,186,233466,2,0,P|167:209|216:211,1,75,2|0,0:0|1:0,0:0:0:0:
268,279,233752,1,10,0:0:0:0:
268,279,233895,2,0,P|304:271|335:250,1,75,0|0,1:0|0:0,0:0:0:0:
200,214,234180,1,8,3:0:0:0:
465,45,234323,6,0,P|448:27|436:19,1,37.5,8|0,0:0|0:0,0:0:0:0:
357,47,234466,2,0,P|335:42|318:45,1,37.5,8|0,3:0|0:0,0:0:0:0:
277,119,234609,2,0,P|260:127|246:142,1,37.5,4|0,3:0|0:0,0:0:0:0:
289,224,234751,6,0,P|293:243|293:261,1,37.5,8|0,0:0|0:0,0:0:0:0:
225,311,234894,2,0,P|217:329|204:343,1,37.5,8|0,3:0|0:0,0:0:0:0:
120,334,235037,2,0,P|97:344|82:345,1,37.5,4|0,3:0|0:0,0:0:0:0:
4,268,235180,6,0,L|11:296,1,28.125,8|0,0:0|0:0,0:0:0:0:
9,174,235466,6,0,P|27:161|56:152,2,50,8|8|8,0:0|0:0|0:0,0:0:0:0:
130,52,235751,2,0,P|131:74|124:104,2,50,8|8|8,0:0|0:0|0:0,0:0:0:0:
135,189,236037,2,0,P|155:208|224:230,1,100,8|8,0:0|0:0,0:0:0:0:
292,274,236322,5,12,3:0:0:0:
326,200,236417,5,4,3:0:0:0:
399,165,236513,5,8,3:0:0:0:
472,154,236609,6,0,B|478:139|596:84|512:-47|401:-71|300:3|332:124|332:124|278:32|120:5|181:190|128:221|-3:164|-13:102|0:67|24:46|24:46|90:21|165:95|164:170|39:212|20:288|68:358|178:355|227:320|205:238|177:203,1,1374.75004614945,4|0,1:2|0:0,0:0:0:0:
178,197,240037,6,0,P|205:201|225:211,2,50,2|0|0,0:0|0:0|0:0,0:0:0:0:
267,101,240894,2,0,P|284:122|293:142,2,50,2|0|0,0:0|0:0|0:0,0:0:0:0:
396,84,241751,2,0,P|396:111|390:133,2,50,2|0|0,0:0|0:0|0:0,0:0:0:0:
505,153,242609,2,0,P|487:174|468:186,2,50,2|0|0,0:0|0:0|0:0,0:0:0:0:
471,321,243466,6,0,P|466:303|457:287,2,37.5,2|0|0,0:0|0:0|0:0,0:0:0:0:
395,224,244323,2,0,P|380:213|363:206,2,37.5,2|0|0,0:0|0:0|0:0,0:0:0:0:
274,198,245180,2,0,P|255:199|238:205,2,37.5,2|0|0,0:0|0:0|0:0,0:0:0:0:
164,255,246037,2,0,P|150:267|141:283,2,37.5,2|0|0,0:0|0:0|0:0,0:0:0:0:
199,356,246895,5,2,0:0:0:0:
209,356,247180,1,0,0:0:0:0:
243,287,247751,5,2,0:0:0:0:
249,296,248036,1,0,0:0:0:0:
320,264,248609,5,2,0:0:0:0:
320,273,248894,1,0,0:0:0:0:
394,294,249466,5,2,0:0:0:0:
387,302,249751,1,0,0:0:0:0:
315,380,250323,5,2,0:0:0:0:
315,380,250609,1,2,0:0:0:0:
