osu file format v14

[General]
AudioFilename: audio.mp3
AudioLeadIn: 0
PreviewTime: 55095
Countdown: 0
SampleSet: Soft
StackLeniency: 0.7
Mode: 0
LetterboxInBreaks: 0
WidescreenStoryboard: 0

[Editor]
Bookmarks: 63622
DistanceSpacing: 0.8
BeatDivisor: 4
GridSize: 4
TimelineZoom: 2.3

[Metadata]
Title:Second Limit
TitleUnicode:Second Limit
Artist:MY FIRST STORY
ArtistUnicode:MY FIRST STORY
Creator:HabiHolic
Version:Hard
Source:
Tags:最終回STORY Kisses
BeatmapID:1215384
BeatmapSetID:566406

[Difficulty]
HPDrainRate:6
CircleSize:4
OverallDifficulty:6
ApproachRate:8
SliderMultiplier:1.42
SliderTickRate:1

[Events]
//Background and Video events
0,0,"BG.jpg",0,0
//Break Periods
//Storyboard Layer 0 (Background)
//Storyboard Layer 1 (Fail)
//Storyboard Layer 2 (Pass)
//Storyboard Layer 3 (Foreground)
//Storyboard Sound Samples

[TimingPoints]
701,315.789473684211,4,2,2,50,1,0
701,-133.333333333333,4,2,2,50,0,0
18701,-133.333333333333,4,2,2,40,0,0
19016,-133.333333333333,4,2,2,70,0,0
19490,-100,4,2,2,50,0,0
20279,-100,4,2,1,75,0,0
51227,-200,4,2,1,50,0,0
55016,-200,4,2,1,20,0,0
55174,-100,4,2,1,70,0,0
56122,-100,4,2,1,70,0,1
75227,-200,4,2,1,70,0,0
84701,-100,4,2,1,10,0,0

[Colours]
Combo1 : 70,83,242
Combo2 : 237,54,54
Combo3 : 145,150,172

[HitObjects]
16,156,543,5,2,0:0:0:0:
16,156,858,1,2,0:0:0:0:
99,204,1016,2,0,P|112:152|99:101,2,106.500004062653,8|8|8,0:0|0:0|0:0,0:0:0:0:
16,256,1806,1,0,0:0:0:0:
104,308,1964,6,0,L|160:300,1,53.2500020313264,8|0,0:0|0:0,0:0:0:0:
232,244,2279,2,0,L|288:252,1,53.2500020313264,8|0,0:0|0:0,0:0:0:0:
356,324,2595,2,0,P|380:276|376:220,1,106.500004062653,8|8,0:0|0:0,0:0:0:0:
332,144,3069,6,0,P|336:116|348:92,1,53.2500020313264,2|8,0:0|0:0,0:0:0:0:
424,144,3385,1,2,0:0:0:0:
332,144,3543,2,0,L|216:132,1,106.500004062653,8|8,0:0|0:0,0:0:0:0:
152,68,4016,1,0,0:0:0:0:
76,131,4174,2,0,P|71:158|76:184,1,53.2500020313264,8|0,0:0|0:0,0:0:0:0:
148,260,4490,6,0,L|260:248,2,106.500004062653,8|8|8,0:0|0:0|0:0,0:0:0:0:
80,328,5279,2,0,L|24:316,1,53.2500020313264,0|8,0:0|0:0,0:0:0:0:
156,376,5595,1,0,0:0:0:0:
156,376,5753,6,0,L|212:364,1,53.2500020313264,10|2,0:0|0:0,0:0:0:0:
288,316,6069,2,0,P|340:304|392:328,1,106.500004062653,8|8,0:0|0:0,0:0:0:0:
468,280,6543,1,0,0:0:0:0:
468,280,6701,2,0,P|464:253|466:227,1,53.2500020313264,8|0,0:0|0:0,0:0:0:0:
400,152,7016,6,0,L|292:160,1,106.500004062653,8|8,0:0|0:0,0:0:0:0:
220,220,7490,1,0,0:0:0:0:
156,152,7648,2,0,P|152:124|156:96,2,53.2500020313264,8|0|8,0:0|0:0|0:0,0:0:0:0:
128,244,8122,6,0,L|68:232,1,53.2500020313264,2|8,0:0|0:0,0:0:0:0:
200,312,8437,1,2,0:0:0:0:
200,312,8595,2,0,L|256:304,1,53.2500020313264,8|0,0:0|0:0,0:0:0:0:
332,348,8911,2,0,P|343:297|320:244,1,106.500004062653,8|8,0:0|0:0,0:0:0:0:
288,160,9385,1,0,0:0:0:0:
364,104,9543,6,0,L|476:116,2,106.500004062653,8|8|8,0:0|0:0|0:0,0:0:0:0:
296,36,10332,2,0,L|240:44,1,53.2500020313264,0|8,0:0|0:0,0:0:0:0:
176,108,10648,6,0,P|144:104|124:96,1,53.2500020313264,2|8,0:0|0:0,0:0:0:0:
56,32,10964,1,2,0:0:0:0:
12,120,11122,2,0,L|24:232,1,106.500004062653,8|8,0:0|0:0,0:0:0:0:
88,288,11595,1,0,0:0:0:0:
160,228,11753,2,0,P|192:224|220:232,1,53.2500020313264,8|0,0:0|0:0,0:0:0:0:
292,292,12069,6,0,L|308:184,1,106.500004062653,8|8,0:0|0:0,0:0:0:0:
264,100,12543,1,0,0:0:0:0:
324,32,12701,2,0,P|352:32|380:40,1,53.2500020313264,8|0,0:0|0:0,0:0:0:0:
448,104,13016,1,8,0:0:0:0:
448,104,13174,6,0,L|436:168,1,53.2500020313264,2|8,0:0|0:0,0:0:0:0:
380,232,13490,1,2,0:0:0:0:
380,232,13648,2,0,L|388:292,1,53.2500020313264,8|0,0:0|0:0,0:0:0:0:
323,359,13964,2,0,P|276:336|224:343,1,106.500004062653,8|8,0:0|0:0,0:0:0:0:
144,384,14437,1,0,0:0:0:0:
80,324,14595,6,0,P|76:296|80:272,1,53.2500020313264,8|0,0:0|0:0,0:0:0:0:
144,208,14911,2,0,P|148:181|143:155,1,53.2500020313264,8|0,0:0|0:0,0:0:0:0:
60,76,15227,2,0,P|44:132|56:184,1,106.500004062653,8|8,0:0|0:0,0:0:0:0:
144,208,15701,6,0,L|208:200,1,53.2500020313264,10|0,0:0|0:0,0:0:0:0:
256,128,16016,1,8,0:0:0:0:
312,204,16174,2,0,L|364:210,1,53.2500020313264,10|0,0:0|0:0,0:0:0:0:
456,160,16490,2,0,P|448:216|456:264,1,106.500004062653,8|8,0:0|0:0,0:0:0:0:
400,348,16964,1,0,0:0:0:0:
400,348,17122,6,0,L|288:336,1,106.500004062653,8|8,0:0|0:0,0:0:0:0:
224,272,17595,1,0,0:0:0:0:
152,332,17753,2,0,L|160:388,2,53.2500020313264,8|0|8,0:0|0:0|0:0,0:0:0:0:
224,272,18227,6,0,L|216:216,1,53.2500020313264,2|0,0:0|0:0,0:0:0:0:
276,136,18543,1,2,0:0:0:0:
356,192,18701,2,0,P|407:200|454:177,2,106.500004062653,4|8|8,0:0|0:0|0:0,0:0:0:0:
395,115,19490,1,0,0:0:0:0:
216,64,20279,6,0,P|180:68|144:56,1,71,8|2,0:0|0:0,0:0:0:0:
68,12,20595,1,8,0:0:0:0:
24,96,20753,6,0,L|40:240,1,142,4|2,0:0|0:0,0:0:0:0:
104,312,21227,1,8,0:0:0:0:
176,248,21385,1,0,0:0:0:0:
192,344,21543,2,0,L|264:336,1,71,2|2,0:0|0:0,0:0:0:0:
328,264,21858,2,0,L|404:276,1,71,8|0,0:0|0:0,0:0:0:0:
479,228,22174,6,0,P|487:193|481:159,1,71,2|2,0:0|0:0,0:0:0:0:
420,84,22490,2,0,L|348:92,1,71,8|0,0:0|0:0,0:0:0:0:
260,52,22806,2,0,L|272:16,4,35.5,2|2|2|2|8,0:0|0:0|0:0|0:0|0:0,0:0:0:0:
192,120,23279,6,0,L|216:268,1,142,2|2,0:0|0:0,0:0:0:0:
284,336,23753,2,0,P|320:344|356:336,1,71,8|0,0:0|0:0,0:0:0:0:
424,276,24069,2,0,L|416:204,1,71,2|2,0:0|0:0,0:0:0:0:
344,144,24385,2,0,L|352:72,1,71,8|0,0:0|0:0,0:0:0:0:
276,16,24701,5,2,0:0:0:0:
204,84,24858,1,2,0:0:0:0:
120,36,25016,2,0,P|84:36|52:48,1,71,8|2,0:0|0:0,0:0:0:0:
28,72,25253,1,2,0:0:0:0:
28,72,25332,2,0,L|40:152,1,71,8|2,3:0|0:0,0:0:0:0:
8,236,25648,1,8,0:0:0:0:
64,320,25806,6,0,P|132:329|185:285,1,142,4|2,0:0|0:0,0:0:0:0:
180,192,26279,2,0,P|172:157|180:120,1,71,8|0,0:0|0:0,0:0:0:0:
271,23,26595,2,0,P|279:58|273:92,1,71,2|2,0:0|0:0,0:0:0:0:
316,180,26911,2,0,L|392:172,1,71,8|0,0:0|0:0,0:0:0:0:
480,132,27227,6,0,L|488:208,1,71,2|2,0:0|0:0,0:0:0:0:
436,288,27543,2,0,P|400:288|360:276,1,71,8|0,0:0|0:0,0:0:0:0:
280,328,27858,2,0,L|296:368,4,35.5,2|2|2|2|8,0:0|0:0|0:0|0:0|0:0,0:0:0:0:
192,280,28332,6,0,L|216:136,1,142,2|2,0:0|0:0,0:0:0:0:
204,48,28806,2,0,P|244:48|272:64,1,71,8|0,0:0|0:0,0:0:0:0:
336,136,29122,2,0,L|408:128,1,71,2|2,0:0|0:0,0:0:0:0:
504,92,29437,2,0,P|500:128|504:164,1,71,8|0,0:0|0:0,0:0:0:0:
468,256,29753,5,2,0:0:0:0:
376,224,29911,1,8,0:0:0:0:
316,300,30069,2,0,L|228:288,1,71,8|2,0:0|0:0,0:0:0:0:
151,251,30385,2,0,P|156:287|148:321,2,71,8|2|8,0:0|0:0|3:0,0:0:0:0:
56,216,30858,6,0,P|31:150|52:84,1,142,4|2,0:0|0:0,0:0:0:0:
128,28,31332,2,0,P|164:32|200:48,1,71,8|0,0:0|0:0,0:0:0:0:
288,48,31648,2,0,P|320:34|355:30,1,71,8|0,0:0|0:0,0:0:0:0:
428,88,31964,2,0,L|416:164,1,71,8|0,0:0|0:0,0:0:0:0:
344,212,32279,6,0,P|402:249|469:233,2,142,8|8|8,0:0|0:0|0:0,0:0:0:0:
280,136,33069,1,0,0:0:0:0:
208,196,33227,2,0,L|220:272,1,71,8|2,0:0|0:0,0:0:0:0:
240,288,33464,1,2,0:0:0:0:
240,288,33543,6,0,P|168:276|116:324,2,142,8|8|8,0:0|0:0|0:0,0:0:0:0:
316,356,34332,1,0,0:0:0:0:
403,312,34490,2,0,P|412:277|405:243,1,71,8|2,0:0|0:0,0:0:0:0:
344,176,34806,2,0,P|335:141|339:106,1,71,8|2,0:0|0:0,0:0:0:0:
436,62,35122,2,0,P|444:97|439:134,1,71,8|2,0:0|0:0,0:0:0:0:
344,176,35437,2,0,L|264:176,1,71,8|2,0:0|0:0,0:0:0:0:
216,96,35753,1,8,0:0:0:0:
144,159,35911,6,0,P|76:173|26:127,1,142,4|2,0:0|0:0,0:0:0:0:
144,160,36385,2,0,L|128:308,1,142,8|2,0:0|0:0,0:0:0:0:
200,372,36858,1,2,0:0:0:0:
280,316,37016,2,0,P|320:316|352:328,1,71,8|2,0:0|0:0,0:0:0:0:
448,364,37332,6,0,L|456:320,3,35.5,8|2|2|2,0:0|0:0|0:0|0:0,0:0:0:0:
472,304,37648,2,0,L|456:224,1,71,8|2,0:0|0:0,0:0:0:0:
408,152,37964,2,0,L|416:112,4,35.5,8|2|2|2|8,3:0|0:0|0:0|0:0|0:0,0:0:0:0:
324,212,38437,6,0,P|256:196|195:229,1,142,4|2,0:0|0:0,0:0:0:0:
124,296,38911,2,0,L|44:280,1,71,8|0,0:0|0:0,0:0:0:0:
0,192,39227,2,0,L|76:184,1,71,8|0,0:0|0:0,0:0:0:0:
156,96,39543,2,0,L|76:84,1,71,8|0,0:0|0:0,0:0:0:0:
224,28,39858,5,2,0:0:0:0:
248,120,40016,2,0,L|256:160,2,35.5,8|2|8,0:0|0:0|0:0,0:0:0:0:
335,84,40332,2,0,P|370:75|403:85,1,71,2|0,0:0|0:0,0:0:0:0:
472,156,40648,2,0,L|460:232,1,71,2|0,0:0|0:0,0:0:0:0:
372,280,40964,6,0,B|296:264|316:324|228:296,1,142,4|2,0:0|0:0,0:0:0:0:
180,228,41437,2,0,P|204:292|174:354,1,142,8|2,0:0|0:0,0:0:0:0:
116,288,41911,1,2,0:0:0:0:
44,240,42069,2,0,L|28:168,1,71,8|0,0:0|0:0,0:0:0:0:
87,88,42385,6,0,P|153:68|208:110,1,142,2|8,0:0|0:0,0:0:0:0:
296,160,42858,2,0,P|308:124|308:88,2,71,0|2|2,0:0|0:0|0:0,0:0:0:0:
212,208,43332,2,0,L|228:280,1,71,8|0,0:0|0:0,0:0:0:0:
179,356,43648,6,0,P|234:316|296:344,1,142,2|8,0:0|0:0,0:0:0:0:
396,384,44122,2,0,P|404:352|396:312,1,71,0|2,0:0|0:0,0:0:0:0:
336,244,44437,1,2,0:0:0:0:
400,172,44595,2,0,L|488:180,1,71,8|0,0:0|0:0,0:0:0:0:
496,88,44911,6,0,L|348:76,1,142,2|8,0:0|0:0,0:0:0:0:
260,40,45385,2,0,P|256:76|264:112,1,71,0|2,0:0|0:0,0:0:0:0:
332,176,45701,2,0,P|336:211|328:245,1,71,2|8,0:0|0:0,0:0:0:0:
252,304,46016,6,0,L|104:288,1,142,4|2,0:0|0:0,0:0:0:0:
24,232,46490,2,0,P|16:196|24:160,1,71,8|0,0:0|0:0,0:0:0:0:
92,100,46806,2,0,L|164:112,1,71,2|2,0:0|0:0,0:0:0:0:
236,172,47122,2,0,L|308:164,1,71,8|0,0:0|0:0,0:0:0:0:
370,104,47437,6,0,P|437:86|494:124,1,142,2|8,0:0|0:0,0:0:0:0:
428,240,47911,2,0,P|416:206|421:172,1,71,0|2,0:0|0:0,0:0:0:0:
500,296,48227,1,2,0:0:0:0:
416,328,48385,2,0,L|336:320,1,71,8|0,0:0|0:0,0:0:0:0:
272,256,48701,6,0,P|206:235|150:275,1,142,2|12,0:0|0:0,0:0:0:0:
80,344,49174,1,0,0:0:0:0:
20,268,49332,2,0,L|8:192,1,71,2|2,0:0|0:0,0:0:0:0:
96,156,49648,2,0,L|84:85,1,71,8|0,0:0|0:0,0:0:0:0:
156,16,49964,5,2,0:0:0:0:
232,84,50122,2,0,P|267:85|300:74,1,71,8|2,0:0|0:0,0:0:0:0:
376,16,50437,1,2,0:0:0:0:
448,80,50595,1,8,0:0:0:0:
448,80,50753,2,0,L|440:160,1,71,2|8,0:0|3:0,0:0:0:0:
488,240,51069,1,4,3:0:0:0:
412,295,51227,6,0,P|361:305|319:274,1,106.5,6|8,0:0|0:0,0:0:0:0:
312,264,52174,2,0,L|332:112,1,142,2|2,0:0|0:0,0:0:0:0:
324,108,53122,1,8,0:0:0:0:
184,32,53437,1,0,0:0:0:0:
136,192,53753,5,2,0:0:0:0:
24,80,55174,5,8,0:0:0:0:
136,164,55332,1,8,0:0:0:0:
16,92,55648,5,8,0:0:0:0:
188,76,55806,1,8,0:0:0:0:
188,76,56122,6,0,P|256:92|320:52,1,142,4|0,0:0|0:0,0:0:0:0:
400,16,56595,2,0,L|412:88,1,71,8|0,0:0|0:0,0:0:0:0:
484,148,56911,2,0,L|472:224,1,71,2|2,0:0|0:0,0:0:0:0:
408,287,57227,2,0,P|372:289|340:275,1,71,8|0,0:0|0:0,0:0:0:0:
272,208,57543,6,0,P|205:190|151:232,1,142,2|8,0:0|0:0,0:0:0:0:
96,308,58016,1,0,0:0:0:0:
96,308,58174,2,0,L|104:356,4,35.5,2|2|2|2|8,0:0|0:0|0:0|0:0|0:0,0:0:0:0:
16,248,58648,6,0,L|32:104,1,142,2|2,0:0|0:0,0:0:0:0:
99,40,59122,2,0,P|134:31|168:40,1,71,8|0,0:0|0:0,0:0:0:0:
296,108,59437,2,0,P|261:116|227:107,1,71,2|2,0:0|0:0,0:0:0:0:
144,136,59753,2,0,L|155:206,1,71,8|0,0:0|0:0,0:0:0:0:
107,283,60069,6,0,P|174:297|229:256,1,142,2|8,0:0|0:0,0:0:0:0:
296,192,60543,1,0,0:0:0:0:
356,260,60701,2,0,L|344:332,2,71,2|2|8,0:0|0:0|0:0,0:0:0:0:
448,224,61174,6,0,L|432:72,1,142,4|2,0:0|0:0,0:0:0:0:
344,20,61648,2,0,L|328:96,1,71,8|0,0:0|0:0,0:0:0:0:
240,140,61964,2,0,L|224:64,1,71,2|2,0:0|0:0,0:0:0:0:
136,8,62279,2,0,L|120:84,1,71,8|0,0:0|0:0,0:0:0:0:
56,148,62595,6,0,P|24:144|-8:120,2,71,2|2|8,0:0|0:0|0:0,0:0:0:0:
108,228,63069,2,0,L|92:300,1,71,0|2,0:0|0:0,0:0:0:0:
196,360,63385,2,0,L|184:288,1,71,2|8,0:0|0:0,0:0:0:0:
247,224,63701,6,0,P|315:210|370:252,1,142,4|2,0:0|0:0,0:0:0:0:
452,312,64174,2,0,L|472:168,1,142,8|2,0:0|0:0,0:0:0:0:
428,84,64648,1,2,0:0:0:0:
428,84,64806,2,0,P|392:83|358:94,1,71,8|0,0:0|0:0,0:0:0:0:
296,164,65122,6,0,L|312:236,2,71,2|8|8,0:0|0:0|0:0,0:0:0:0:
224,104,65595,1,2,0:0:0:0:
224,104,65753,2,0,L|232:60,4,35.5,8|2|2|2|8,0:0|0:0|0:0|0:0|0:0,0:0:0:0:
152,171,66227,6,0,P|86:192|33:150,1,142,4|2,0:0|0:0,0:0:0:0:
0,80,66701,2,0,L|8:232,1,142,8|2,0:0|0:0,0:0:0:0:
60,304,67174,1,2,0:0:0:0:
143,252,67332,2,0,P|179:250|211:264,1,71,8|0,0:0|0:0,0:0:0:0:
276,328,67648,6,0,L|352:320,1,71,2|2,0:0|0:0,0:0:0:0:
424,268,67964,2,0,P|428:232|420:192,1,71,8|0,0:0|0:0,0:0:0:0:
452,104,68279,2,0,L|492:116,4,35.5,2|2|2|2|8,0:0|0:0|0:0|0:0|0:0,0:0:0:0:
384,28,68753,6,0,L|240:40,1,142,2|2,0:0|0:0,0:0:0:0:
168,103,69227,2,0,P|159:138|169:172,1,71,8|0,0:0|0:0,0:0:0:0:
256,216,69543,2,0,P|265:182|257:147,1,71,2|2,0:0|0:0,0:0:0:0:
168,172,69858,2,0,L|88:164,1,71,8|0,0:0|0:0,0:0:0:0:
44,92,70174,6,0,P|64:158|34:221,1,142,2|8,0:0|0:0,0:0:0:0:
88,304,70648,2,0,L|160:292,1,71,0|2,0:0|0:0,0:0:0:0:
248,296,70964,2,0,L|318:307,1,71,2|8,0:0|0:0,0:0:0:0:
416,364,71279,6,0,P|396:304|412:224,1,142,4|2,0:0|0:0,0:0:0:0:
472,152,71753,2,0,L|396:136,1,71,8|0,0:0|0:0,0:0:0:0:
320,60,72069,2,0,L|392:48,1,71,2|2,0:0|0:0,0:0:0:0:
252,124,72385,2,0,L|180:112,1,71,8|0,0:0|0:0,0:0:0:0:
116,52,72701,5,2,0:0:0:0:
39,111,72858,2,0,P|44:147|38:181,1,71,2|8,0:0|0:0,0:0:0:0:
96,256,73174,2,0,L|240:248,1,142,2|2,0:0|0:0,0:0:0:0:
304,316,73648,1,8,0:0:0:0:
384,264,73806,6,0,P|404:192|384:124,1,142,4|2,0:0|0:0,0:0:0:0:
320,56,74279,2,0,L|248:72,1,71,8|2,0:0|0:0,0:0:0:0:
172,136,74595,2,0,L|100:128,1,71,8|2,0:0|0:0,0:0:0:0:
40,60,74911,1,8,0:0:0:0:
19,251,75227,6,0,P|85:270|133:222,2,142,6|2|4,0:0|0:0|0:0,0:0:0:0:
256,192,76569,12,0,84701,0:0:0:0:
