osu file format v14

[General]
AudioFilename: audio.mp3
AudioLeadIn: 0
PreviewTime: 55095
Countdown: 0
SampleSet: Soft
StackLeniency: 0.7
Mode: 0
LetterboxInBreaks: 0
WidescreenStoryboard: 0

[Editor]
DistanceSpacing: 0.8
BeatDivisor: 4
GridSize: 4
TimelineZoom: 2.2

[Metadata]
Title:Second Limit
TitleUnicode:Second Limit
Artist:MY FIRST STORY
ArtistUnicode:MY FIRST STORY
Creator:HabiHolic
Version:Extra
Source:
Tags:最終回STORY Kisses
BeatmapID:1199852
BeatmapSetID:566406

[Difficulty]
HPDrainRate:7
CircleSize:4
OverallDifficulty:8
ApproachRate:9.3
SliderMultiplier:1.8
SliderTickRate:1

[Events]
//Background and Video events
0,0,"BG.jpg",0,0
//Break Periods
//Storyboard Layer 0 (Background)
//Storyboard Layer 1 (Fail)
//Storyboard Layer 2 (Pass)
//Storyboard Layer 3 (Foreground)
//Storyboard Sound Samples

[TimingPoints]
701,315.789473684211,4,2,2,50,1,0
701,-133.333333333333,4,2,2,50,0,0
18701,-133.333333333333,4,2,2,40,0,0
19016,-133.333333333333,4,2,2,70,0,0
19490,-100,4,2,2,50,0,0
20279,-100,4,2,1,75,0,0
51227,-200,4,2,1,50,0,0
55016,-200,4,2,1,5,0,0
55174,-100,4,2,1,70,0,0
56122,-100,4,2,1,70,0,1
75227,-200,4,2,1,70,0,0
84701,-100,4,2,1,10,0,0

[Colours]
Combo1 : 70,83,242
Combo2 : 237,54,54
Combo3 : 145,150,172

[HitObjects]
48,132,543,5,2,0:0:0:0:
48,132,858,1,2,0:0:0:0:
132,192,1016,2,0,P|152:129|127:67,2,135.000005149842,8|8|8,0:0|0:0|0:0,0:0:0:0:
56,252,1806,1,0,0:0:0:0:
216,336,1964,6,0,L|288:324,1,67.5000025749208,8|0,0:0|0:0,0:0:0:0:
384,200,2279,2,0,L|312:192,1,67.5000025749208,8|0,0:0|0:0,0:0:0:0:
192,112,2595,2,0,L|208:256,1,135.000005149842,8|8,0:0|0:0,0:0:0:0:
112,184,3069,5,2,0:0:0:0:
40,64,3227,2,0,L|116:72,1,67.5000025749208,8|2,0:0|0:0,0:0:0:0:
304,36,3543,2,0,L|292:176,1,135.000005149842,8|8,0:0|0:0,0:0:0:0:
372,304,4016,1,0,0:0:0:0:
472,204,4174,2,0,L|396:196,1,67.5000025749208,8|0,0:0|0:0,0:0:0:0:
232,276,4490,6,0,P|168:284|116:236,1,135.000005149842,8|8,0:0|0:0,0:0:0:0:
196,192,4964,1,0,0:0:0:0:
296,80,5122,2,0,L|284:146,2,67.5000025749208,8|0|8,0:0|0:0|0:0,0:0:0:0:
388,12,5595,6,0,L|404:84,1,67.5000025749208,0|10,0:0|0:0,0:0:0:0:
296,80,5911,1,2,0:0:0:0:
472,232,6069,2,0,L|500:88,2,135.000005149842,8|8|8,0:0|0:0|0:0,0:0:0:0:
388,308,6858,1,0,0:0:0:0:
288,199,7016,6,0,P|320:191|353:198,1,67.5000025749208,8|0,0:0|0:0,0:0:0:0:
192,256,7332,2,0,L|168:184,1,67.5000025749208,8|0,0:0|0:0,0:0:0:0:
252,0,7648,2,0,L|236:136,1,135.000005149842,8|8,0:0|0:0,0:0:0:0:
192,256,8122,1,2,0:0:0:0:
80,168,8279,5,8,0:0:0:0:
36,324,8437,2,0,L|112:316,1,67.5000025749208,2|8,0:0|0:0,0:0:0:0:
192,256,8753,1,0,0:0:0:0:
263,331,8911,2,0,P|327:347|382:310,1,135.000005149842,8|8,0:0|0:0,0:0:0:0:
312,176,9385,1,0,0:0:0:0:
312,176,9543,6,0,P|308:212|312:244,1,67.5000025749208,8|0,0:0|0:0,0:0:0:0:
480,136,9858,2,0,L|408:128,1,67.5000025749208,8|0,0:0|0:0,0:0:0:0:
231,59,10174,2,0,P|297:71|355:39,1,135.000005149842,8|8,0:0|0:0,0:0:0:0:
136,8,10648,1,2,0:0:0:0:
52,76,10806,6,0,L|64:144,1,67.5000025749208,8|2,0:0|0:0,0:0:0:0:
160,260,11122,2,0,L|184:120,2,135.000005149842,8|8|8,0:0|0:0|0:0,0:0:0:0:
224,336,11911,1,0,0:0:0:0:
340,220,12069,6,0,P|304:216|272:224,1,67.5000025749208,8|0,0:0|0:0,0:0:0:0:
424,284,12385,2,0,L|444:216,1,67.5000025749208,8|0,0:0|0:0,0:0:0:0:
368,8,12701,2,0,L|392:148,1,135.000005149842,8|8,0:0|0:0,0:0:0:0:
472,72,13174,1,2,0:0:0:0:
288,152,13332,6,0,L|220:144,1,67.5000025749208,8|2,0:0|0:0,0:0:0:0:
164,72,13648,2,0,P|184:136|160:200,1,135.000005149842,8|8,0:0|0:0,0:0:0:0:
20,140,14122,1,0,0:0:0:0:
20,140,14279,2,0,L|92:136,1,67.5000025749208,8|0,0:0|0:0,0:0:0:0:
200,283,14595,6,0,P|136:297|85:255,2,135.000005149842,8|8|8,0:0|0:0|0:0,0:0:0:0:
284,160,15385,1,0,0:0:0:0:
256,352,15543,1,8,0:0:0:0:
396,224,15701,6,0,L|376:84,1,135.000005149842,10|8,0:0|0:0,0:0:0:0:
440,16,16174,1,10,0:0:0:0:
280,84,16332,1,0,0:0:0:0:
496,132,16490,2,0,L|484:204,1,67.5000025749208,8|0,0:0|0:0,0:0:0:0:
407,290,16806,2,0,L|395:223,1,67.5000025749208,8|0,0:0|0:0,0:0:0:0:
200,164,17122,6,0,P|135:151|81:188,2,135.000005149842,8|8|8,0:0|0:0|0:0,0:0:0:0:
292,124,17911,2,0,P|292:88|280:56,1,67.5000025749208,0|8,0:0|0:0,0:0:0:0:
240,280,18227,6,0,L|380:272,1,135.000005149842,2|2,0:0|0:0,0:0:0:0:
488,188,18701,2,0,P|492:148|488:112,1,67.5000025749208,4|0,0:0|0:0,0:0:0:0:
344,7,19016,2,0,P|336:40|335:74,1,67.5000025749208,8|0,0:0|0:0,0:0:0:0:
324,200,19332,1,8,0:0:0:0:
160,160,19490,1,0,0:0:0:0:
160,160,20279,5,8,0:0:0:0:
48,96,20437,1,2,0:0:0:0:
252,112,20595,1,8,0:0:0:0:
104,16,20753,6,0,L|76:196,1,180,4|2,0:0|0:0,0:0:0:0:
256,228,21227,1,8,0:0:0:0:
112,320,21385,1,0,0:0:0:0:
196,148,21543,1,2,0:0:0:0:
220,368,21701,2,0,L|312:356,1,90,2|8,0:0|0:0,0:0:0:0:
456,268,22016,1,0,0:0:0:0:
336,152,22174,6,0,P|328:196|340:240,1,90,2|2,0:0|0:0,0:0:0:0:
472,100,22490,2,0,P|480:56|468:12,1,90,8|0,0:0|0:0,0:0:0:0:
224,136,22806,1,2,0:0:0:0:
180,147,22885,1,2,0:0:0:0:
137,136,22964,1,2,0:0:0:0:
105,105,23043,1,2,0:0:0:0:
92,63,23122,1,8,0:0:0:0:
284,56,23279,6,0,L|260:248,1,180,2|2,0:0|0:0,0:0:0:0:
188,332,23753,1,8,0:0:0:0:
372,280,23911,1,0,0:0:0:0:
160,228,24069,1,2,0:0:0:0:
388,260,24227,2,0,L|376:360,1,90,2|8,0:0|0:0,0:0:0:0:
316,176,24543,1,0,0:0:0:0:
428,84,24701,6,0,P|472:76|516:88,1,90,2|2,0:0|0:0,0:0:0:0:
316,176,25016,1,8,0:0:0:0:
252,88,25174,1,2,0:0:0:0:
256,70,25253,1,2,0:0:0:0:
260,53,25332,1,8,3:0:0:0:
416,176,25490,1,2,0:0:0:0:
164,212,25648,1,8,0:0:0:0:
248,336,25806,6,0,P|333:352|399:296,1,180,4|2,0:0|0:0,0:0:0:0:
360,76,26279,1,8,0:0:0:0:
480,252,26437,1,0,0:0:0:0:
284,160,26595,1,2,0:0:0:0:
460,72,26753,2,0,L|452:168,1,90,2|8,0:0|0:0,0:0:0:0:
480,252,27069,1,0,0:0:0:0:
204,220,27227,5,2,0:0:0:0:
400,308,27385,1,2,0:0:0:0:
320,148,27543,2,0,L|336:52,1,90,8|0,0:0|0:0,0:0:0:0:
140,132,27858,1,2,0:0:0:0:
99,112,27937,1,2,0:0:0:0:
55,116,28016,1,2,0:0:0:0:
19,141,28095,1,2,0:0:0:0:
0,182,28174,1,8,0:0:0:0:
76,372,28332,6,0,B|108:316|108:316|88:200,1,180,2|2,0:0|0:0,0:0:0:0:
224,64,28806,2,0,P|244:108|240:156,1,90,8|0,0:0|0:0,0:0:0:0:
172,220,29122,1,2,0:0:0:0:
360,268,29279,2,0,L|264:260,1,90,2|8,0:0|0:0,0:0:0:0:
172,220,29595,1,0,0:0:0:0:
104,312,29753,5,2,0:0:0:0:
128,112,29911,1,8,0:0:0:0:
276,224,30069,1,8,0:0:0:0:
104,312,30227,1,2,0:0:0:0:
232,120,30385,2,0,L|328:108,1,90,8|2,0:0|0:0,0:0:0:0:
392,24,30701,1,8,0:0:0:0:
103,184,30858,6,0,P|19:172|-4:90,1,180,4|2,0:0|0:0,0:0:0:0:
180,20,31332,2,0,L|160:112,1,90,8|0,0:0|0:0,0:0:0:0:
360,232,31648,2,0,L|340:144,1,90,8|0,0:0|0:0,0:0:0:0:
200,200,31964,1,8,0:0:0:0:
304,56,32122,1,0,0:0:0:0:
232,296,32279,6,0,L|140:284,1,90,8|0,0:0|0:0,0:0:0:0:
48,336,32595,1,8,0:0:0:0:
120,200,32753,2,0,P|128:152|120:112,1,90,0|8,0:0|0:0,0:0:0:0:
40,52,33069,1,0,0:0:0:0:
248,136,33227,1,8,0:0:0:0:
188,24,33385,1,2,0:0:0:0:
190,37,33464,1,2,0:0:0:0:
192,50,33542,5,8,0:0:0:0:
216,232,33701,1,0,0:0:0:0:
419,135,33858,2,0,P|377:121|332:121,1,90,8|0,0:0|0:0,0:0:0:0:
200,256,34174,1,8,0:0:0:0:
336,360,34332,2,0,L|348:256,1,90,0|8,0:0|0:0,0:0:0:0:
188,276,34648,5,2,0:0:0:0:
335,155,34806,2,0,P|293:142|248:138,1,90,8|0,0:0|0:0,0:0:0:0:
104,228,35122,1,8,0:0:0:0:
176,88,35279,1,2,0:0:0:0:
108,332,35437,2,0,L|12:312,1,90,8|2,0:0|0:0,0:0:0:0:
92,192,35753,1,8,0:0:0:0:
239,280,35911,6,0,P|327:273|393:330,1,180,4|2,0:0|0:0,0:0:0:0:
464,168,36385,2,0,L|476:72,1,90,8|0,0:0|0:0,0:0:0:0:
296,12,36701,1,2,0:0:0:0:
388,204,36858,1,2,0:0:0:0:
252,108,37016,2,0,L|152:92,1,90,8|2,0:0|0:0,0:0:0:0:
144,72,37253,1,2,0:0:0:0:
144,72,37332,6,0,L|152:124,1,45,8|2,0:0|0:0,0:0:0:0:
52,224,37490,2,0,L|64:168,1,45,2|2,0:0|0:0,0:0:0:0:
168,228,37648,1,8,0:0:0:0:
209,211,37726,1,2,0:0:0:0:
253,216,37805,1,2,0:0:0:0:
290,242,37884,1,2,0:0:0:0:
310,281,37964,5,8,3:0:0:0:
370,308,38042,1,2,0:0:0:0:
435,294,38121,1,2,0:0:0:0:
479,244,38200,1,2,0:0:0:0:
485,178,38279,1,8,0:0:0:0:
396,52,38437,6,0,B|356:8|356:8|380:148,1,180,4|2,0:0|0:0,0:0:0:0:
280,352,38911,2,0,P|232:348|184:336,1,90,8|0,0:0|0:0,0:0:0:0:
52,200,39227,2,0,P|100:196|148:184,1,90,8|0,0:0|0:0,0:0:0:0:
224,104,39543,1,8,0:0:0:0:
176,296,39701,1,0,0:0:0:0:
152,48,39858,5,2,0:0:0:0:
272,260,40016,1,8,0:0:0:0:
272,260,40095,1,2,0:0:0:0:
272,260,40174,1,8,0:0:0:0:
408,120,40332,2,0,L|304:108,1,90,2|0,0:0|0:0,0:0:0:0:
88,240,40648,2,0,L|192:228,1,90,2|0,0:0|0:0,0:0:0:0:
391,228,40964,6,0,P|476:224|513:301,1,180,4|2,0:0|0:0,0:0:0:0:
292,272,41437,2,0,P|280:229|290:185,1,90,8|0,0:0|0:0,0:0:0:0:
400,16,41753,2,0,P|410:59|398:102,1,90,2|2,0:0|0:0,0:0:0:0:
184,48,42069,2,0,L|280:56,1,90,8|0,0:0|0:0,0:0:0:0:
156,224,42385,6,0,P|68:228|16:156,1,180,2|8,0:0|0:0,0:0:0:0:
264,196,42858,2,0,L|248:288,1,90,0|2,0:0|0:0,0:0:0:0:
160,328,43174,1,2,0:0:0:0:
136,96,43332,2,0,P|180:92|221:109,1,90,8|0,0:0|0:0,0:0:0:0:
368,240,43648,6,0,L|388:60,1,180,2|8,0:0|0:0,0:0:0:0:
300,8,44122,1,0,0:0:0:0:
152,200,44279,2,0,L|48:188,1,90,2|2,0:0|0:0,0:0:0:0:
288,32,44595,1,8,0:0:0:0:
216,280,44753,1,0,0:0:0:0:
375,192,44911,6,0,P|461:182|512:252,1,180,2|8,0:0|0:0,0:0:0:0:
292,240,45385,2,0,P|280:196|288:152,1,90,0|2,0:0|0:0,0:0:0:0:
368,60,45701,1,2,0:0:0:0:
328,332,45858,1,8,0:0:0:0:
172,240,46016,6,0,B|104:284|48:228|48:228|96:208,1,180,4|2,0:0|0:0,0:0:0:0:
168,36,46490,2,0,L|156:132,1,90,8|0,0:0|0:0,0:0:0:0:
348,280,46806,2,0,L|336:190,1,90,2|2,0:0|0:0,0:0:0:0:
264,120,47122,1,8,0:0:0:0:
432,168,47279,1,0,0:0:0:0:
224,231,47437,6,0,P|138:242|81:177,1,180,2|8,0:0|0:0,0:0:0:0:
180,16,47911,2,0,P|188:60|179:104,1,90,0|2,0:0|0:0,0:0:0:0:
81,177,48227,1,2,0:0:0:0:
288,112,48385,1,8,0:0:0:0:
64,72,48543,1,0,0:0:0:0:
260,216,48701,6,0,L|400:204,1,135,2|0,0:0|0:0,0:0:0:0:
408,184,49016,2,0,L|396:280,1,90,12|0,0:0|0:0,0:0:0:0:
312,324,49332,1,2,0:0:0:0:
360,100,49490,1,2,0:0:0:0:
172,220,49648,2,0,L|72:204,1,90,8|0,0:0|0:0,0:0:0:0:
32,120,49964,5,2,0:0:0:0:
224,52,50122,1,8,0:0:0:0:
64,24,50279,1,2,0:0:0:0:
184,196,50437,2,0,L|172:296,1,90,2|8,0:0|0:0,0:0:0:0:
92,352,50753,1,2,0:0:0:0:
276,312,50911,1,8,3:0:0:0:
48,244,51069,1,4,3:0:0:0:
276,88,51227,6,0,L|300:228,1,135,6|8,0:0|0:0,0:0:0:0:
380,368,52174,2,0,B|428:375|468:359|468:359|496:324|492:272,1,180,2|2,0:0|0:0,0:3:0:0:
404,88,53122,1,8,0:0:0:0:
240,292,53437,1,0,0:0:0:0:
240,292,53753,6,0,B|200:272|156:288|156:288|144:336|88:348|88:348|36:312|36:312|80:256|52:196,1,360,2|0,0:0|0:0,0:0:0:0:
8,128,55174,5,8,0:0:0:0:
244,192,55332,1,8,0:0:0:0:
64,56,55648,5,8,0:0:0:0:
199,280,55806,1,8,0:0:0:0:
199,280,56122,6,0,P|285:263|354:316,1,180,4|0,0:0|0:0,0:0:0:0:
468,236,56595,2,0,L|476:136,1,90,8|0,0:0|0:0,0:0:0:0:
368,24,56911,1,2,0:0:0:0:
215,151,57069,2,0,P|260:160|304:151,1,90,2|8,0:0|0:0,0:0:0:0:
356,40,57385,1,0,0:0:0:0:
284,248,57543,5,2,0:0:0:0:
128,112,57701,2,0,L|116:16,1,90,2|8,0:0|0:0,0:0:0:0:
56,188,58016,1,0,0:0:0:0:
248,340,58174,1,2,0:0:0:0:
291,351,58252,1,2,0:0:0:0:
334,341,58331,1,2,0:0:0:0:
367,312,58410,1,2,0:0:0:0:
383,270,58489,1,8,0:0:0:0:
288,64,58648,6,0,B|280:120|280:120|296:184|296:184|288:248,1,180,2|2,0:0|0:0,0:0:0:0:
200,184,59122,1,8,0:0:0:0:
384,116,59279,1,0,0:0:0:0:
136,24,59437,2,0,L|148:120,1,90,2|2,0:0|0:0,0:0:0:0:
184,204,59753,1,8,0:0:0:0:
316,48,59911,1,0,0:0:0:0:
216,304,60069,6,0,L|120:292,1,90,2|2,0:0|0:0,0:0:0:0:
72,208,60385,1,8,0:0:0:0:
220,88,60543,1,0,0:0:0:0:
56,24,60701,2,0,L|64:116,1,90,2|2,0:0|0:0,0:0:0:0:
72,208,61016,1,8,0:0:0:0:
296,143,61174,6,0,P|382:132|448:190,1,180,4|2,0:0|0:0,0:0:0:0:
207,187,61648,2,0,P|196:144|203:100,1,90,8|0,0:0|0:0,0:0:0:0:
292,16,61964,1,2,0:0:0:0:
248,296,62122,2,0,L|144:280,1,90,2|8,0:0|0:0,0:0:0:0:
80,340,62437,1,0,0:0:0:0:
4,204,62595,6,0,P|-4:156|4:116,1,90,2|2,0:0|0:0,0:0:0:0:
88,24,62911,1,8,0:0:0:0:
224,168,63069,2,0,L|124:156,1,90,0|2,0:0|0:0,0:0:0:0:
96,40,63385,1,2,0:0:0:0:
120,256,63543,1,8,0:0:0:0:
315,116,63701,6,0,P|399:94|467:148,1,180,4|2,0:0|0:0,0:0:0:0:
380,272,64174,2,0,B|368:228|368:228|380:184,1,90,8|0,0:0|0:0,0:0:0:0:
416,8,64490,1,2,0:0:0:0:
484,228,64648,1,2,0:0:0:0:
264,184,64806,2,0,L|164:172,1,90,8|0,0:0|0:0,0:0:0:0:
52,44,65122,5,2,0:0:0:0:
120,244,65279,1,8,0:0:0:0:
12,140,65437,2,0,L|0:232,1,90,8|2,0:0|0:0,0:0:0:0:
168,336,65753,1,8,0:0:0:0:
207,356,65831,1,2,0:0:0:0:
252,355,65910,1,2,0:0:0:0:
290,334,65989,1,2,0:0:0:0:
314,296,66068,1,8,0:0:0:0:
236,92,66227,6,0,B|244:148|244:148|228:212|228:212|235:269,1,180,4|2,0:0|0:0,0:0:0:0:
148,152,66701,1,8,0:0:0:0:
320,208,66858,1,0,0:0:0:0:
88,232,67016,2,0,P|56:200|44:152,1,90,2|2,0:0|0:0,0:0:0:0:
200,60,67332,2,0,P|232:92|244:140,1,90,8|0,0:0|0:0,0:0:0:0:
160,296,67648,5,2,0:0:0:0:
348,200,67806,2,0,L|372:104,1,90,2|8,0:0|0:0,0:0:0:0:
336,24,68122,1,0,0:0:0:0:
156,168,68279,1,2,0:0:0:0:
115,186,68357,1,2,0:0:0:0:
71,183,68436,1,2,0:0:0:0:
35,157,68515,1,2,0:0:0:0:
16,117,68594,1,8,0:0:0:0:
216,88,68753,6,0,L|196:276,1,180,2|2,0:0|0:0,0:0:0:0:
336,356,69227,2,0,P|332:304|316:264,1,90,8|0,0:0|0:0,0:0:0:0:
120,336,69543,1,2,0:0:0:0:
260,200,69701,1,2,0:0:0:0:
40,244,69858,2,0,L|148:240,1,90,8|0,0:0|0:0,0:0:0:0:
280,180,70174,6,0,P|288:136|280:92,1,90,2|2,0:0|0:0,0:0:0:0:
200,28,70490,1,8,0:0:0:0:
32,136,70648,2,0,L|124:128,1,90,0|2,0:0|0:0,0:0:0:0:
188,40,70964,1,2,0:0:0:0:
208,256,71122,1,8,0:0:0:0:
384,124,71279,6,0,B|416:180|416:180|404:304,1,180,4|2,0:0|0:0,0:0:0:0:
184,224,71753,1,8,0:0:0:0:
328,360,71911,1,0,0:0:0:0:
256,144,72069,2,0,L|272:48,1,90,2|2,0:0|0:0,0:0:0:0:
160,240,72385,1,8,0:0:0:0:
356,188,72543,1,0,0:0:0:0:
144,128,72701,6,0,P|96:120|48:136,1,90,2|2,0:0|0:0,0:0:0:0:
24,220,73016,1,8,0:0:0:0:
240,168,73174,2,0,L|232:68,1,90,0|2,0:0|0:0,0:0:0:0:
384,272,73490,2,0,L|372:372,1,90,2|8,0:0|0:0,0:0:0:0:
155,308,73806,6,0,P|72:328|11:268,1,180,4|2,0:0|0:0,0:0:0:0:
252,264,74279,2,0,P|255:308|248:353,1,90,8|2,0:0|0:0,0:0:0:0:
144,192,74595,2,0,P|136:147|140:102,1,90,8|2,0:0|0:0,0:0:0:0:
344,128,74911,2,0,L|248:140,1,90,8|2,0:0|0:0,0:0:0:0:
423,47,75227,6,0,P|451:108|440:174,1,135,6|0,0:0|0:0,0:0:0:0:
272,348,75858,2,0,P|261:282|288:221,1,135,2|0,0:0|0:0,0:0:0:0:
356,296,76490,1,4,0:0:0:0:
256,192,76569,12,0,84701,0:0:0:0:
