osu file format v14

[General]
AudioFilename: audio.mp3
AudioLeadIn: 0
PreviewTime: 55095
Countdown: 0
SampleSet: Soft
StackLeniency: 0.7
Mode: 0
LetterboxInBreaks: 0
WidescreenStoryboard: 0

[Editor]
Bookmarks: 10648,30858,40964
DistanceSpacing: 1.1
BeatDivisor: 4
GridSize: 4
TimelineZoom: 2.2

[Metadata]
Title:Second Limit
TitleUnicode:Second Limit
Artist:MY FIRST STORY
ArtistUnicode:MY FIRST STORY
Creator:HabiHolic
Version:Easy
Source:
Tags:最終回STORY Kisses
BeatmapID:1215493
BeatmapSetID:566406

[Difficulty]
HPDrainRate:2
CircleSize:3
OverallDifficulty:3
ApproachRate:3
SliderMultiplier:0.9
SliderTickRate:1

[Events]
//Background and Video events
0,0,"BG.jpg",0,0
//Break Periods
//Storyboard Layer 0 (Background)
//Storyboard Layer 1 (Fail)
//Storyboard Layer 2 (Pass)
//Storyboard Layer 3 (Foreground)
//Storyboard Sound Samples

[TimingPoints]
701,315.789473684211,4,2,2,50,1,0
18701,-100,4,2,2,40,0,0
19016,-100,4,2,2,70,0,0
19490,-100,4,2,2,50,0,0
20279,-100,4,2,1,75,0,0
51227,-100,4,2,1,50,0,0
55016,-100,4,2,1,20,0,0
55174,-100,4,2,1,70,0,0
56122,-100,4,2,1,70,0,1
76490,-100,4,2,1,70,0,0
84701,-100,4,2,1,10,0,0

[Colours]
Combo1 : 70,83,242
Combo2 : 237,54,54
Combo3 : 145,150,172

[HitObjects]
40,160,543,6,0,P|78:108|141:120,1,135,2|10,0:0|0:0,0:0:0:0:
232,164,1332,2,0,L|328:152,1,90,8|8,0:0|0:0,0:0:0:0:
404,96,1964,2,0,P|420:140|412:184,1,90,8|8,0:0|0:0,0:0:0:0:
336,244,2595,1,8,0:0:0:0:
408,312,2911,1,8,0:0:0:0:
316,344,3227,6,0,L|224:336,1,90,8|8,0:0|0:0,0:0:0:0:
152,272,3858,2,0,P|144:227|152:183,1,90,8|8,0:0|0:0,0:0:0:0:
228,120,4490,2,0,P|236:75|227:31,2,90,8|8|8,0:0|0:0|0:0,0:0:0:0:
292,196,5437,1,8,0:0:0:0:
376,144,5753,6,0,L|472:132,2,90,10|8|8,0:0|0:0|0:0,0:0:0:0:
292,196,6701,1,8,0:0:0:0:
220,264,7016,2,0,L|124:276,1,90,8|8,0:0|0:0,0:0:0:0:
52,216,7648,2,0,P|44:172|52:124,1,90,8|8,0:0|0:0,0:0:0:0:
120,60,8279,6,0,L|216:72,1,90,8|8,0:0|0:0,0:0:0:0:
308,72,8911,2,0,L|397:60,1,90,8|8,0:0|0:0,0:0:0:0:
472,124,9543,2,0,P|482:167|474:211,1,90,8|8,0:0|0:0,0:0:0:0:
408,284,10174,2,0,L|312:272,1,90,8|8,0:0|0:0,0:0:0:0:
236,216,10806,6,0,L|140:224,1,90,8|8,0:0|0:0,0:0:0:0:
63,171,11437,2,0,P|51:129|62:86,1,90,8|8,0:0|0:0,0:0:0:0:
148,36,12069,2,0,P|158:79|146:121,1,90,8|8,0:0|0:0,0:0:0:0:
220,192,12701,2,0,L|316:184,1,90,8|8,0:0|0:0,0:0:0:0:
392,128,13332,6,0,P|408:176|400:216,1,90,8|8,0:0|0:0,0:0:0:0:
340,292,13964,2,0,L|244:280,1,90,8|8,0:0|0:0,0:0:0:0:
152,284,14595,2,0,L|62:295,1,90,8|8,0:0|0:0,0:0:0:0:
16,208,15227,2,0,P|5:164|17:122,1,90,8|8,0:0|0:0,0:0:0:0:
88,52,15858,6,0,L|176:68,1,90,8|10,0:0|0:0,0:0:0:0:
272,92,16490,2,0,L|360:108,1,90,8|8,0:0|0:0,0:0:0:0:
456,88,17122,2,0,P|464:40|452:0,2,90,8|8|8,0:0|0:0|0:0,0:0:0:0:
424,184,18069,1,8,0:0:0:0:
396,280,18385,6,0,P|356:259|330:223,1,90,0|4,0:0|0:0,0:0:0:0:
256,156,19016,2,0,L|232:296,1,135,8|0,0:0|0:0,0:0:0:0:
56,116,20279,6,0,L|80:252,2,135,8|4|8,0:0|0:0|0:0,0:0:0:0:
128,47,21543,2,0,P|172:47|211:67,1,90,2|8,0:0|0:0,0:0:0:0:
312,68,22174,2,0,P|351:47|395:48,1,90,2|8,0:0|0:0,0:0:0:0:
476,104,22806,2,0,L|464:248,1,135,2|2,0:0|0:0,0:0:0:0:
352,336,23753,6,0,P|308:336|264:308,1,90,8|2,0:0|0:0,0:0:0:0:
204,236,24385,1,8,0:0:0:0:
140,312,24701,2,0,P|101:334|57:334,1,90,2|8,0:0|0:0,0:0:0:0:
76,236,25332,2,0,L|52:92,1,135,8|4,3:0|0:0,0:0:0:0:
180,24,26279,5,8,0:0:0:0:
247,95,26595,2,0,P|292:103|336:95,1,90,2|8,0:0|0:0,0:0:0:0:
432,72,27227,2,0,L|424:164,1,90,2|8,0:0|0:0,0:0:0:0:
352,227,27858,6,0,P|416:216|468:256,2,135,2|2|8,0:0|0:0|0:0,0:0:0:0:
272,288,29122,2,0,P|228:288|188:264,1,90,2|8,0:0|0:0,0:0:0:0:
124,192,29753,2,0,L|140:100,1,90,2|8,0:0|0:0,0:0:0:0:
211,36,30385,2,0,P|275:19|331:53,1,135,8|4,0:0|0:0,0:0:0:0:
420,164,31332,6,0,L|408:260,1,90,8|8,0:0|0:0,0:0:0:0:
348,332,31964,1,8,0:0:0:0:
259,283,32279,2,0,P|217:272|173:282,1,90,8|8,0:0|0:0,0:0:0:0:
84,320,32911,2,0,L|68:232,1,90,8|8,0:0|0:0,0:0:0:0:
28,139,33543,6,0,P|71:131|113:146,1,90,8|8,0:0|0:0,0:0:0:0:
188,212,34174,2,0,L|288:200,1,90,8|8,0:0|0:0,0:0:0:0:
364,152,34806,2,0,P|375:195|369:239,1,90,8|8,0:0|0:0,0:0:0:0:
288,296,35437,6,0,P|353:287|404:328,2,135,8|4|8,0:0|0:0|0:0,0:0:0:0:
208,352,36701,2,0,L|116:340,1,90,2|8,0:0|0:0,0:0:0:0:
44,276,37332,2,0,P|32:232|44:188,1,90,8|8,0:0|0:0,0:0:0:0:
119,132,37964,6,0,P|135:67|107:7,2,135,8|4|8,3:0|0:0|0:0,0:0:0:0:
212,172,39227,2,0,L|304:172,1,90,8|8,0:0|0:0,0:0:0:0:
384,124,39858,2,0,P|368:59|396:0,1,135,2|2,0:0|0:0,0:0:0:0:
464,72,40648,1,2,0:0:0:0:
496,164,40964,5,4,0:0:0:0:
447,303,41437,2,0,P|403:299|362:281,1,90,8|2,0:0|0:0,0:0:0:0:
292,352,42069,1,8,0:0:0:0:
240,268,42385,2,0,L|100:288,2,135,2|2|8,0:0|0:0|0:0,0:0:0:0:
260,172,43648,6,0,L|400:192,2,135,2|2|8,0:0|0:0|0:0,0:0:0:0:
240,76,44911,2,0,P|181:106|159:168,1,135,2|2,0:0|0:0,0:0:0:0:
112,256,45701,2,0,L|20:236,1,90,2|4,0:0|0:0,0:0:0:0:
120,352,46490,6,0,P|162:340|196:301,1,90,8|2,0:0|0:0,0:0:0:0:
236,216,47122,1,8,0:0:0:0:
316,272,47437,2,0,L|456:260,2,135,2|2|8,0:0|0:0|0:0,0:0:0:0:
236,216,48701,6,0,P|221:175|231:132,1,90,2|12,0:0|0:0,0:0:0:0:
296,56,49332,2,0,L|388:72,1,90,2|8,0:0|0:0,0:0:0:0:
480,40,49964,2,0,P|468:112|488:172,2,135,2|2|8,0:0|0:0|3:0,0:0:0:0:
256,192,51227,12,2,53753,0:0:0:0:
24,64,55174,6,0,L|40:208,1,135,8|8,0:0|0:0,0:0:0:0:
124,320,56122,6,0,P|187:336|243:301,1,135,4|8,0:0|0:0,0:0:0:0:
284,212,56911,2,0,L|268:120,1,90,2|8,0:0|0:0,0:0:0:0:
352,72,57543,2,0,L|367:160,1,90,2|8,0:0|0:0,0:0:0:0:
387,256,58174,6,0,P|453:249|501:293,2,135,2|2|8,0:0|0:0|0:0,0:0:0:0:
311,316,59437,2,0,P|267:315|227:295,1,90,2|8,0:0|0:0,0:0:0:0:
164,220,60069,2,0,L|72:232,1,90,2|8,0:0|0:0,0:0:0:0:
3,163,60701,6,0,P|19:228|1:293,2,135,2|4|8,0:0|0:0|0:0,0:0:0:0:
56,80,61964,2,0,L|148:92,1,90,2|8,0:0|0:0,0:0:0:0:
236,140,62595,2,0,P|248:76|212:12,1,135,2|2,0:0|0:0,0:0:0:0:
145,91,63385,1,2,0:0:0:0:
151,191,63701,6,0,P|204:232|270:226,1,135,4|8,0:0|0:0,0:0:0:0:
328,148,64490,2,0,P|372:140|416:152,1,90,2|8,0:0|0:0,0:0:0:0:
492,212,65122,2,0,P|468:149|477:82,1,135,2|2,0:0|0:0,0:0:0:0:
396,24,65911,1,2,0:0:0:0:
312,76,66227,6,0,L|172:64,1,135,4|8,0:0|0:0,0:0:0:0:
84,28,67016,2,0,P|80:76|96:120,1,90,2|8,0:0|0:0,0:0:0:0:
176,168,67648,2,0,L|164:264,1,90,2|8,0:0|0:0,0:0:0:0:
200,348,68279,6,0,P|151:303|86:310,2,135,2|2|8,0:0|0:0|0:0,0:0:0:0:
284,292,69543,2,0,L|268:200,1,90,2|8,0:0|0:0,0:0:0:0:
332,128,70174,2,0,P|390:162|455:150,1,135,2|2,0:0|0:0,0:0:0:0:
408,64,70964,1,2,0:0:0:0:
454,149,71279,6,0,L|440:288,1,135,4|8,0:0|0:0,0:0:0:0:
368,352,72069,1,2,0:0:0:0:
288,292,72385,1,8,0:0:0:0:
204,344,72701,2,0,P|136:344|84:296,1,135,2|2,0:0|0:0,0:0:0:0:
40,216,73490,1,2,0:0:0:0:
128,172,73806,6,0,P|196:172|248:220,1,135,4|8,0:0|0:0,0:0:0:0:
308,292,74595,2,0,P|352:293|390:269,1,90,8|8,0:0|0:0,0:0:0:0:
432,180,75227,6,0,L|460:360,2,180,6|2|4,0:0|0:0|0:0,0:0:0:0:
256,192,76648,12,0,84701,0:0:0:0:
