osu file format v14

[General]
AudioFilename: audio.mp3
AudioLeadIn: 0
PreviewTime: 55095
Countdown: 0
SampleSet: Soft
StackLeniency: 0.7
Mode: 0
LetterboxInBreaks: 0
WidescreenStoryboard: 0

[Editor]
Bookmarks: 63622
DistanceSpacing: 0.8
BeatDivisor: 4
GridSize: 4
TimelineZoom: 2.2

[Metadata]
Title:Second Limit
TitleUnicode:Second Limit
Artist:MY FIRST STORY
ArtistUnicode:MY FIRST STORY
Creator:HabiHolic
Version:Insane
Source:
Tags:最終回STORY Kisses
BeatmapID:1200839
BeatmapSetID:566406

[Difficulty]
HPDrainRate:6.5
CircleSize:4
OverallDifficulty:7
ApproachRate:9
SliderMultiplier:1.65
SliderTickRate:1

[Events]
//Background and Video events
0,0,"BG.jpg",0,0
//Break Periods
//Storyboard Layer 0 (Background)
//Storyboard Layer 1 (Fail)
//Storyboard Layer 2 (Pass)
//Storyboard Layer 3 (Foreground)
//Storyboard Sound Samples

[TimingPoints]
701,315.789473684211,4,2,2,50,1,0
701,-133.333333333333,4,2,2,50,0,0
18701,-133.333333333333,4,2,2,40,0,0
19016,-133.333333333333,4,2,2,70,0,0
19490,-100,4,2,2,50,0,0
20279,-100,4,2,1,75,0,0
51227,-200,4,2,1,50,0,0
55016,-200,4,2,1,20,0,0
55174,-100,4,2,1,70,0,0
56122,-100,4,2,1,70,0,1
75227,-200,4,2,1,70,0,0
84701,-100,4,2,1,10,0,0

[Colours]
Combo1 : 70,83,242
Combo2 : 237,54,54
Combo3 : 145,150,172

[HitObjects]
52,124,543,5,2,0:0:0:0:
52,124,858,1,2,0:0:0:0:
140,141,1016,2,0,P|132:80|83:35,2,123.750004720688,8|8|8,0:0|0:0|0:0,0:0:0:0:
80,212,1806,1,0,0:0:0:0:
156,320,1964,6,0,L|220:312,1,61.875002360344,8|0,0:0|0:0,0:0:0:0:
299,248,2279,2,0,P|330:247|360:255,1,61.875002360344,8|0,0:0|0:0,0:0:0:0:
452,320,2595,2,0,L|476:184,1,123.750004720688,8|8,0:0|0:0,0:0:0:0:
400,40,3069,6,0,P|400:80|408:104,1,61.875002360344,2|8,0:0|0:0,0:0:0:0:
484,64,3385,1,2,0:0:0:0:
332,148,3543,2,0,L|204:132,1,123.750004720688,8|8,0:0|0:0,0:0:0:0:
136,68,4016,1,0,0:0:0:0:
63,135,4174,2,0,P|67:166|65:197,1,61.875002360344,8|0,0:0|0:0,0:0:0:0:
124,280,4490,6,0,L|248:268,1,123.750004720688,8|8,0:0|0:0,0:0:0:0:
320,332,4964,1,0,0:0:0:0:
408,284,5122,2,0,P|416:248|412:220,1,61.875002360344,8|0,0:0|0:0,0:0:0:0:
352,144,5437,1,8,0:0:0:0:
352,144,5595,6,0,L|276:160,1,61.875002360344,0|10,0:0|0:0,0:0:0:0:
204,216,5911,1,2,0:0:0:0:
204,216,6069,2,0,L|76:200,2,123.750004720688,8|8|8,0:0|0:0|0:0,0:0:0:0:
264,308,6858,1,0,0:0:0:0:
358,204,7016,6,0,P|358:168|350:140,1,61.875002360344,8|0,0:0|0:0,0:0:0:0:
456,48,7332,2,0,P|448:84|448:112,1,61.875002360344,8|0,0:0|0:0,0:0:0:0:
256,140,7648,2,0,L|128:124,1,123.750004720688,8|8,0:0|0:0,0:0:0:0:
76,56,8122,1,2,0:0:0:0:
12,220,8279,6,0,P|44:220|72:208,1,61.875002360344,8|2,0:0|0:0,0:0:0:0:
176,308,8595,2,0,L|112:300,1,61.875002360344,8|0,0:0|0:0,0:0:0:0:
243,243,8911,2,0,P|267:299|252:358,1,123.750004720688,8|8,0:0|0:0,0:0:0:0:
160,220,9385,1,0,0:0:0:0:
236,108,9543,6,0,L|296:120,1,61.875002360344,8|0,0:0|0:0,0:0:0:0:
448,72,9858,2,0,P|420:56|388:48,1,61.875002360344,8|0,0:0|0:0,0:0:0:0:
336,208,10174,1,8,0:0:0:0:
412,264,10332,2,0,P|424:232|428:200,1,61.875002360344,0|8,0:0|0:0,0:0:0:0:
304,120,10648,5,2,0:0:0:0:
260,300,10806,2,0,L|328:292,1,61.875002360344,8|2,0:0|0:0,0:0:0:0:
199,371,11122,2,0,P|164:323|173:263,1,123.750004720688,8|8,0:0|0:0,0:0:0:0:
280,144,11595,1,0,0:0:0:0:
156,96,11753,2,0,L|172:164,1,61.875002360344,8|0,0:0|0:0,0:0:0:0:
320,232,12069,6,0,P|376:200|436:216,2,123.750004720688,8|8|8,0:0|0:0|0:0,0:0:0:0:
240,344,12858,2,0,L|176:336,1,61.875002360344,0|8,0:0|0:0,0:0:0:0:
88,272,13174,1,2,0:0:0:0:
184,180,13332,6,0,P|188:212|184:244,1,61.875002360344,8|2,0:0|0:0,0:0:0:0:
344,364,13648,2,0,P|332:300|344:244,1,123.750004720688,8|8,0:0|0:0,0:0:0:0:
400,168,14122,1,0,0:0:0:0:
492,280,14279,2,0,P|456:276|432:264,1,61.875002360344,8|0,0:0|0:0,0:0:0:0:
328,96,14595,6,0,P|384:68|448:80,2,123.750004720688,8|8|8,0:0|0:0|0:0,0:0:0:0:
240,156,15385,2,0,P|208:152|176:136,1,61.875002360344,0|8,0:0|0:0,0:0:0:0:
128,48,15701,1,10,0:0:0:0:
44,195,15858,6,0,P|74:194|104:203,1,61.875002360344,0|8,0:0|0:0,0:0:0:0:
200,248,16174,2,0,L|180:372,2,123.750004720688,10|8|8,0:0|0:0|0:0,0:0:0:0:
176,140,16964,1,0,0:0:0:0:
304,276,17122,6,0,P|336:276|368:264,1,61.875002360344,8|0,0:0|0:0,0:0:0:0:
344,112,17437,2,0,P|332:144|328:176,1,61.875002360344,8|0,0:0|0:0,0:0:0:0:
424,184,17753,1,8,0:0:0:0:
436,80,17911,2,0,P|432:44|420:16,1,61.875002360344,0|8,0:0|0:0,0:0:0:0:
264,48,18227,1,2,0:0:0:0:
188,120,18385,6,0,L|200:180,1,61.875002360344,0|2,0:0|0:0,0:0:0:0:
292,240,18701,2,0,L|276:376,2,123.750004720688,4|8|8,0:0|0:0|0:0,0:0:0:0:
264,48,19490,1,0,0:0:0:0:
448,144,20279,5,8,0:0:0:0:
360,88,20437,1,2,0:0:0:0:
448,40,20595,1,8,0:0:0:0:
320,224,20753,6,0,B|264:212|264:212|224:176|224:176|172:164,1,165,4|2,0:0|0:0,0:0:0:0:
136,40,21227,2,0,P|177:46|209:71,1,82.5,8|0,0:0|0:0,0:0:0:0:
168,260,21543,1,2,0:0:0:0:
92,196,21701,1,2,0:0:0:0:
52,352,21858,2,0,L|136:344,1,82.5,8|0,0:0|0:0,0:0:0:0:
284,252,22174,6,0,L|200:244,1,82.5,2|2,0:0|0:0,0:0:0:0:
180,148,22490,1,8,0:0:0:0:
152,328,22648,1,0,0:0:0:0:
356,360,22806,1,2,0:0:0:0:
360,339,22884,1,2,0:0:0:0:
365,319,22963,1,2,0:0:0:0:
369,299,23042,1,2,0:0:0:0:
374,279,23121,1,8,0:0:0:0:
343,156,23279,6,0,P|423:147|483:201,1,165,2|2,0:0|0:0,0:0:0:0:
263,211,23753,2,0,P|244:175|243:134,1,82.5,8|0,0:0|0:0,0:0:0:0:
312,40,24069,1,2,0:0:0:0:
147,140,24227,2,0,P|154:99|172:62,1,82.5,2|8,0:0|0:0,0:0:0:0:
312,40,24543,1,0,0:0:0:0:
263,211,24701,5,2,0:0:0:0:
388,128,24858,1,2,0:0:0:0:
408,328,25016,2,0,P|368:320|328:288,1,82.5,8|2,0:0|0:0,0:0:0:0:
334,296,25253,1,2,0:0:0:0:
334,296,25332,1,8,3:0:0:0:
476,160,25490,2,0,L|468:248,1,82.5,2|8,0:0|0:0,0:0:0:0:
264,360,25806,6,0,P|200:308|120:316,1,165,4|2,0:0|0:0,0:0:0:0:
16,200,26279,2,0,L|100:212,1,82.5,8|0,0:0|0:0,0:0:0:0:
260,124,26595,2,0,P|224:100|184:96,1,82.5,2|2,0:0|0:0,0:0:0:0:
328,200,26911,2,0,P|352:164|360:124,1,82.5,8|0,0:0|0:0,0:0:0:0:
312,36,27227,5,2,0:0:0:0:
232,216,27385,2,0,L|252:300,1,82.5,2|8,0:0|0:0,0:0:0:0:
172,360,27701,1,0,0:0:0:0:
348,372,27858,1,2,0:0:0:0:
375,380,27936,1,2,0:0:0:0:
404,379,28015,1,2,0:0:0:0:
430,368,28094,1,2,0:0:0:0:
452,350,28173,1,8,0:0:0:0:
480,160,28332,6,0,B|424:176|424:176|392:224|392:224|340:240,1,165,2|2,0:0|0:0,0:0:0:0:
240,112,28806,2,0,P|280:110|319:125,1,82.5,8|0,0:0|0:0,0:0:0:0:
276,320,29122,1,2,0:0:0:0:
200,192,29279,1,2,0:0:0:0:
196,368,29437,2,0,L|112:352,1,82.5,8|0,0:0|0:0,0:0:0:0:
112,124,29753,5,2,0:0:0:0:
200,192,29911,1,8,0:0:0:0:
16,264,30069,2,0,L|100:252,1,82.5,8|2,0:0|0:0,0:0:0:0:
288,251,30385,2,0,P|302:213|304:172,1,82.5,8|2,0:0|0:0,0:0:0:0:
248,80,30701,1,8,3:0:0:0:
207,296,30858,6,0,P|287:289|346:343,1,165,4|2,0:0|0:0,0:0:0:0:
128,360,31332,2,0,P|80:344|56:312,1,82.5,8|0,0:0|0:0,0:0:0:0:
144,140,31648,2,0,L|132:228,1,82.5,8|0,0:0|0:0,0:0:0:0:
228,88,31964,2,0,L|216:6,1,82.5,8|0,0:0|0:0,0:0:0:0:
252,215,32279,6,0,P|316:168|394:186,1,165,8|8,0:0|0:0,0:0:0:0:
336,264,32753,1,0,0:0:0:0:
208,360,32911,2,0,L|128:344,1,82.5,8|0,0:0|0:0,0:0:0:0:
44,280,33227,1,8,0:0:0:0:
180,156,33385,1,2,0:0:0:0:
180,156,33464,1,2,0:0:0:0:
180,156,33543,6,0,L|168:240,1,82.5,8|0,0:0|0:0,0:0:0:0:
300,352,33858,2,0,L|288:270,1,82.5,8|0,0:0|0:0,0:0:0:0:
363,184,34174,2,0,P|441:164|505:211,1,165,8|8,0:0|0:0,0:0:0:0:
424,256,34648,1,2,0:0:0:0:
304,352,34806,6,0,P|260:348|224:332,1,82.5,8|0,0:0|0:0,0:0:0:0:
128,208,35122,2,0,P|165:191|206:188,1,82.5,8|2,0:0|0:0,0:0:0:0:
336,264,35437,1,8,0:0:0:0:
308,96,35595,2,0,L|292:184,1,82.5,2|8,0:0|0:0,0:0:0:0:
428,360,35911,6,0,B|408:308|408:308|428:200,1,165,4|2,0:0|0:0,0:0:0:0:
476,28,36385,2,0,L|488:112,1,82.5,8|0,0:0|0:0,0:0:0:0:
320,188,36701,2,0,P|276:192|240:180,1,82.5,2|2,0:0|0:0,0:0:0:0:
176,88,37016,1,8,0:0:0:0:
84,144,37174,1,2,0:0:0:0:
84,144,37253,1,2,0:0:0:0:
84,144,37332,6,0,L|92:192,3,41.25,8|2|2|2,0:0|0:0|0:0|0:0,0:0:0:0:
172,224,37648,2,0,L|160:276,3,41.25,8|2|2|2,0:0|0:0|0:0|0:0,0:0:0:0:
144,352,37964,1,8,3:0:0:0:
182,336,38042,1,2,0:0:0:0:
223,336,38121,1,2,0:0:0:0:
261,351,38200,1,2,0:0:0:0:
291,378,38279,1,8,0:0:0:0:
504,307,38437,6,0,P|427:328|364:279,1,165,4|2,0:0|0:0,0:0:0:0:
448,152,38911,2,0,P|456:200|448:236,1,82.5,8|0,0:0|0:0,0:0:0:0:
352,100,39227,2,0,P|345:59|353:19,1,82.5,8|0,0:0|0:0,0:0:0:0:
300,192,39543,2,0,L|216:176,1,82.5,8|0,0:0|0:0,0:0:0:0:
152,96,39858,5,2,0:0:0:0:
36,200,40016,1,8,0:0:0:0:
36,200,40095,1,2,0:0:0:0:
36,200,40174,1,8,0:0:0:0:
100,280,40332,2,0,P|128:248|136:208,1,82.5,2|0,0:0|0:0,0:0:0:0:
248,72,40648,2,0,L|260:160,1,82.5,2|0,0:0|0:0,0:0:0:0:
336,260,40964,6,0,P|400:200|480:216,1,165,4|2,0:0|0:0,0:0:0:0:
352,360,41437,2,0,L|268:344,1,82.5,8|0,0:0|0:0,0:0:0:0:
192,216,41753,1,2,0:0:0:0:
272,144,41911,1,2,0:0:0:0:
112,64,42069,2,0,L|120:152,1,82.5,8|0,0:0|0:0,0:0:0:0:
72,347,42385,6,0,P|137:302|215:323,1,165,2|8,0:0|0:0,0:0:0:0:
316,368,42858,1,0,0:0:0:0:
384,288,43016,1,2,0:0:0:0:
236,208,43174,1,2,0:0:0:0:
404,112,43332,2,0,L|392:200,1,82.5,8|0,0:0|0:0,0:0:0:0:
212,224,43648,6,0,B|160:212|160:212|120:172|120:172|64:156,1,165,2|8,0:0|0:0,0:0:0:0:
16,316,44122,2,0,P|56:316|93:298,1,82.5,0|2,0:0|0:0,0:0:0:0:
208,128,44437,1,2,0:0:0:0:
316,248,44595,1,8,0:0:0:0:
232,312,44753,1,0,0:0:0:0:
399,300,44911,6,0,P|414:221|359:163,1,165,2|8,0:0|0:0,0:0:0:0:
236,84,45385,2,0,L|220:164,1,82.5,0|2,0:0|0:0,0:0:0:0:
320,252,45701,1,2,0:0:0:0:
256,344,45858,1,8,0:0:0:0:
27,260,46016,6,0,P|105:243|164:296,1,165,4|2,0:0|0:0,0:0:0:0:
256,344,46490,2,0,L|340:336,1,82.5,8|0,0:0|0:0,0:0:0:0:
440,188,46806,1,2,0:0:0:0:
484,280,46964,1,2,0:0:0:0:
343,207,47122,2,0,P|342:167|358:129,1,82.5,8|0,0:0|0:0,0:0:0:0:
456,87,47437,6,0,P|375:94|313:43,1,165,2|8,0:0|0:0,0:0:0:0:
236,128,47911,2,0,L|252:212,1,82.5,0|2,0:0|0:0,0:0:0:0:
184,280,48227,1,2,0:0:0:0:
316,340,48385,2,0,L|331:258,1,82.5,8|0,0:0|0:0,0:0:0:0:
159,304,48701,6,0,P|99:295|40:311,1,123.75,2|0,0:0|0:0,0:0:0:0:
20,324,49016,2,0,L|4:240,1,82.5,12|0,0:0|0:0,0:0:0:0:
128,128,49332,1,2,0:0:0:0:
60,48,49490,1,2,0:0:0:0:
200,199,49648,2,0,P|222:165|228:125,1,82.5,8|0,0:0|0:0,0:0:0:0:
172,36,49964,5,2,0:0:0:0:
92,224,50122,2,0,L|108:304,1,82.5,8|2,0:0|0:0,0:0:0:0:
200,368,50437,1,2,0:0:0:0:
300,228,50595,1,8,0:0:0:0:
228,164,50753,1,2,0:0:0:0:
288,332,50911,2,0,L|380:316,1,82.5,8|4,3:0|3:0,0:0:0:0:
491,231,51227,6,0,P|447:191|388:199,1,123.75,6|8,0:0|0:0,0:0:0:0:
376,208,52174,2,0,L|396:36,1,165,2|2,0:0|0:0,0:0:0:0:
256,148,53122,1,8,0:0:0:0:
116,56,53437,1,0,0:0:0:0:
31,200,53753,6,0,P|73:343|219:311,1,330,2|0,0:0|0:0,0:0:0:0:
256,216,55174,5,8,0:0:0:0:
460,284,55332,1,8,0:0:0:0:
304,136,55648,5,8,0:0:0:0:
392,344,55806,1,8,0:0:0:0:
392,344,56122,6,0,B|336:332|336:332|296:292|296:292|236:280,1,165,4|0,0:0|0:0,0:0:0:0:
200,144,56595,1,8,0:0:0:0:
124,216,56753,1,0,0:0:0:0:
252,56,56911,2,0,P|283:82|299:120,1,82.5,2|2,0:0|0:0,0:0:0:0:
216,244,57227,1,8,0:0:0:0:
112,112,57385,1,0,0:0:0:0:
300,120,57543,6,0,L|288:204,1,82.5,2|2,0:0|0:0,0:0:0:0:
412,272,57858,2,0,L|400:190,1,82.5,8|0,0:0|0:0,0:0:0:0:
264,328,58174,1,2,0:0:0:0:
238,340,58252,1,2,0:0:0:0:
209,343,58331,1,2,0:0:0:0:
182,335,58410,1,2,0:0:0:0:
158,318,58489,1,8,0:0:0:0:
64,168,58648,6,0,P|144:152|204:208,1,165,2|2,0:0|0:0,0:0:0:0:
264,328,59122,1,8,0:0:0:0:
308,236,59279,1,0,0:0:0:0:
456,328,59437,2,0,L|364:316,1,82.5,2|2,0:0|0:0,0:0:0:0:
244,220,59753,2,0,L|336:208,1,82.5,8|0,0:0|0:0,0:0:0:0:
504,144,60069,6,0,P|445:89|365:96,1,165,2|8,0:0|0:0,0:0:0:0:
365,96,60543,1,0,0:0:0:0:
412,264,60701,2,0,P|424:216|424:168,1,82.5,2|2,0:0|0:0,0:0:0:0:
272,140,61016,1,8,0:0:0:0:
327,308,61174,6,0,P|406:296|462:353,1,165,4|2,0:0|0:0,0:0:0:0:
239,360,61648,2,0,P|198:357|160:342,1,82.5,8|0,0:0|0:0,0:0:0:0:
76,268,61964,2,0,L|92:188,1,82.5,2|2,0:0|0:0,0:0:0:0:
184,108,62279,2,0,L|200:188,1,82.5,8|0,0:0|0:0,0:0:0:0:
304,272,62595,5,2,0:0:0:0:
460,240,62753,1,2,0:0:0:0:
404,160,62911,1,8,0:0:0:0:
355,347,63069,2,0,P|278:363|220:309,1,165,0|2,0:0|0:0,0:0:0:0:
304,272,63543,1,8,0:0:0:0:
475,81,63701,6,0,B|464:136|464:136|472:192|472:192|464:244,1,165,4|2,0:0|0:0,0:0:0:0:
304,272,64174,2,0,P|260:268|224:244,1,82.5,8|0,0:0|0:0,0:0:0:0:
192,112,64490,1,2,0:0:0:0:
312,88,64648,2,0,L|296:172,1,82.5,2|8,0:0|0:0,0:0:0:0:
176,88,64964,1,0,0:0:0:0:
132,256,65122,5,2,0:0:0:0:
104,32,65279,1,8,0:0:0:0:
0,160,65437,2,0,L|88:152,1,82.5,8|2,0:0|0:0,0:0:0:0:
296,152,65753,1,8,0:0:0:0:
299,123,65831,1,2,0:0:0:0:
293,95,65910,1,2,0:0:0:0:
278,71,65989,1,2,0:0:0:0:
255,53,66068,1,8,0:0:0:0:
244,212,66227,6,0,B|300:204|300:204|336:168|336:168|396:156,1,165,4|2,0:0|0:0,0:0:0:0:
484,292,66701,2,0,P|440:284|404:260,1,82.5,8|0,0:0|0:0,0:0:0:0:
456,80,67016,2,0,P|480:120|484:160,1,82.5,2|2,0:0|0:0,0:0:0:0:
348,340,67332,2,0,L|224:328,1,123.75,8|0,0:0|0:0,0:0:0:0:
200,308,67648,6,0,P|156:312|120:328,1,82.5,2|2,0:0|0:0,0:0:0:0:
16,200,67964,2,0,L|104:212,1,82.5,8|0,0:0|0:0,0:0:0:0:
232,144,68279,1,2,0:0:0:0:
239,116,68357,1,2,0:0:0:0:
238,87,68436,1,2,0:0:0:0:
228,60,68515,1,2,0:0:0:0:
209,39,68594,1,8,0:0:0:0:
175,219,68753,6,0,P|254:235|314:183,1,165,2|2,0:0|0:0,0:0:0:0:
440,92,69227,2,0,L|428:224,1,123.75,8|0,0:0|0:0,0:0:0:0:
448,248,69543,1,2,0:0:0:0:
360,340,69701,2,0,P|316:340|272:320,1,82.5,2|8,0:0|0:0,0:0:0:0:
224,240,70016,1,0,0:0:0:0:
332,120,70174,6,0,L|324:208,1,82.5,2|2,0:0|0:0,0:0:0:0:
164,168,70490,1,8,0:0:0:0:
260,56,70648,1,0,0:0:0:0:
224,240,70806,1,2,0:0:0:0:
111,88,70964,2,0,P|83:117|72:156,1,82.5,2|8,0:0|0:0,0:0:0:0:
136,300,71279,6,0,P|212:280|276:340,1,165,4|2,0:0|0:0,0:0:0:0:
380,368,71753,2,0,L|392:280,1,82.5,8|0,0:0|0:0,0:0:0:0:
460,156,72069,2,0,L|471:237,1,82.5,2|2,0:0|0:0,0:0:0:0:
296,248,72385,1,8,0:0:0:0:
236,168,72543,1,0,0:0:0:0:
360,80,72701,2,0,L|344:172,1,82.5,2|2,0:0|0:0,0:0:0:0:
204,260,73016,1,8,0:0:0:0:
372,364,73174,6,0,P|384:324|384:280,1,82.5,0|2,0:0|0:0,0:0:0:0:
204,260,73490,1,2,0:0:0:0:
332,200,73648,1,8,0:0:0:0:
207,348,73806,2,0,P|134:318|119:240,1,165,4|2,0:0|0:0,0:0:0:0:
228,136,74279,6,0,L|212:216,1,82.5,8|2,0:0|0:0,0:0:0:0:
340,332,74595,2,0,L|324:252,1,82.5,8|2,0:0|0:0,0:0:0:0:
380,172,74911,1,8,0:0:0:0:
288,64,75069,1,2,0:0:0:0:
464,112,75227,6,0,B|492:168|468:220|468:220|488:272,2,165,6|2|4,0:0|0:0|0:0,0:0:0:0:
256,192,76569,12,0,84701,0:0:0:0:
