osu file format v14

[General]
AudioFilename: audio.mp3
AudioLeadIn: 0
PreviewTime: 58009
Countdown: 0
SampleSet: Normal
StackLeniency: 0.7
Mode: 0
LetterboxInBreaks: 0
WidescreenStoryboard: 1

[Editor]
DistanceSpacing: 0.6
BeatDivisor: 4
GridSize: 4
TimelineZoom: 1

[Metadata]
Title:Saishuukai STORY
TitleUnicode:最終回STORY
Artist:MY FIRST STORY
ArtistUnicode:MY FIRST STORY
Creator:HabiHolic
Version:Hard
Source:
Tags:Hiroki Moriuchi Nobuaki Katou Teruki Nishizawa Shouhei Sasaki 森内寛樹 加藤伸明 佐々木翔平 西澤照貴 Nob Teru Hiro Kid'z tutuhaha
BeatmapID:1139513
BeatmapSetID:535013

[Difficulty]
HPDrainRate:5.5
CircleSize:4
OverallDifficulty:6
ApproachRate:7.5
SliderMultiplier:1.3
SliderTickRate:1

[Events]
//Background and Video events
0,0,"BG.jpg",0,0
//Break Periods
//Storyboard Layer 0 (Background)
//Storyboard Layer 1 (Fail)
//Storyboard Layer 2 (Pass)
//Storyboard Layer 3 (Foreground)
//Storyboard Sound Samples

[TimingPoints]
591,279.06976744186,4,1,1,75,1,0
58497,-100,4,1,1,75,0,1
76358,-100,4,1,1,75,0,0
81800,-133.333333333333,4,1,1,75,0,0
82637,-100,4,1,1,75,0,0
95335,-100,4,2,1,5,0,0

[Colours]
Combo1 : 96,96,255
Combo2 : 128,128,192
Combo3 : 18,124,255

[HitObjects]
36,80,8823,6,0,L|28:112,2,32.5,0|0|8,0:0|0:0|0:0,0:0:0:0:
112,24,9102,2,0,L|128:96,1,65,8|8,0:0|0:0,0:0:0:0:
184,156,9381,6,0,P|244:172|298:138,1,130,4|0,0:0|0:0,0:0:0:0:
340,56,9800,1,8,0:0:0:0:
464,136,10079,2,0,L|460:204,1,65,0|0,0:0|0:0,0:0:0:0:
456,296,10358,1,8,0:0:0:0:
456,296,10637,6,0,P|400:312|344:268,1,130,0|8,0:0|0:0,0:0:0:0:
308,188,11056,1,0,0:0:0:0:
308,188,11195,2,0,L|320:116,1,65,0|0,0:0|0:0,0:0:0:0:
264,48,11474,1,8,0:0:0:0:
183,100,11614,6,0,P|121:110|73:70,1,130,4|0,0:0|0:0,0:0:0:0:
144,24,12032,1,8,0:0:0:0:
132,220,12311,2,0,L|120:288,1,65,0|0,0:0|0:0,0:0:0:0:
216,336,12590,2,0,L|208:268,1,65,8|0,0:0|0:0,0:0:0:0:
268,208,12870,5,0,0:0:0:0:
268,207,13009,2,0,P|328:191|379:227,1,130
440,308,13428,2,0,L|424:376,2,65,8|0|0,0:0|0:0|0:0,0:0:0:0:
508,248,13846,6,0,L|492:116,1,130,4|0,0:0|0:0,0:0:0:0:
416,32,14265,2,0,L|404:96,1,65,0|0,0:0|0:0,0:0:0:0:
335,160,14544,2,0,P|243:153|205:68,1,195,8|0,0:0|0:0,0:0:0:0:
116,16,15102,6,0,L|104:156,1,130,0|0,0:0|0:0,0:0:0:0:
40,200,15521,1,0,0:0:0:0:
40,200,15590,1,0,0:0:0:0:
39,200,15660,2,0,P|101:184|153:219,1,130,8|0,0:0|0:0,0:0:0:0:
216,292,16079,6,0,P|277:308|331:276,1,130,4|0,0:0|0:0,0:0:0:0:
392,200,16497,2,0,L|380:136,1,65,8|0,0:0|0:0,0:0:0:0:
304,68,16777,2,0,L|292:140,1,65,8|0,0:0|0:0,0:0:0:0:
216,183,17056,2,0,P|183:185|154:173,1,65,8|0,0:0|0:0,0:0:0:0:
96,100,17335,6,0,L|108:32,2,65,0|0|0,0:0|0:0|0:0,0:0:0:0:
16,156,17753,1,0,0:0:0:0:
16,156,17823,1,0,0:0:0:0:
16,156,17893,2,0,P|39:215|17:274,1,130,8|0,0:0|0:0,0:0:0:0:
64,352,18311,6,0,L|208:344,1,130,0|0,0:0|0:0,0:0:0:0:
272,296,18730,2,0,P|280:264|272:232,1,65,8|0,0:0|0:0,0:0:0:0:
204,168,19009,2,0,P|196:136|203:105,1,65,0|0,0:0|0:0,0:0:0:0:
272,44,19288,2,0,L|336:56,1,65,8|0,0:0|0:0,0:0:0:0:
404,120,19567,6,0,P|466:128|509:83,1,130,0|8,0:0|0:0,0:0:0:0:
440,52,19986,1,0,0:0:0:0:
404,120,20125,2,0,L|424:252,1,130,0|8,0:0|0:0,0:0:0:0:
492,296,20544,6,0,P|431:280|385:322,1,130,4|0,0:0|0:0,0:0:0:0:
308,364,20963,2,0,L|236:340,1,65,8|0,0:0|0:0,0:0:0:0:
156,336,21242,2,0,L|192:268,1,65,8|0,0:0|0:0,0:0:0:0:
252,196,21521,2,0,L|268:268,1,65,8|0,0:0|0:0,0:0:0:0:
168,156,21800,5,8,0:0:0:0:
102,220,21939,2,0,P|41:232|-9:195,1,130
72,84,22358,2,0,L|60:160,1,65,8|8,0:0|0:0,0:0:0:0:
104,220,22637,1,8,0:0:0:0:
168,155,22777,6,0,P|229:143|277:184,1,130
364,228,23195,2,0,L|376:164,1,65,0|0,0:0|0:0,0:0:0:0:
448,72,23474,2,0,L|464:204,1,130,8|0,0:0|0:0,0:0:0:0:
347,352,24032,6,0,P|285:363|236:324,1,130,0|0,0:0|0:0,0:0:0:0:
184,244,24451,1,0,0:0:0:0:
184,244,24521,1,0,0:0:0:0:
183,243,24590,2,0,P|124:223|69:254,1,130,8|0,0:0|0:0,0:0:0:0:
28,324,25009,6,0,L|16:192,1,130,4|0,0:0|0:0,0:0:0:0:
48,96,25428,2,0,P|80:112|100:140,1,65,8|0,0:0|0:0,0:0:0:0:
180,184,25707,2,0,L|196:116,1,65,8|0,0:0|0:0,0:0:0:0:
272,56,25986,2,0,L|288:124,1,65,8|0,0:0|0:0,0:0:0:0:
360,188,26265,6,0,L|376:116,1,65,8|0,0:0|0:0,0:0:0:0:
356,36,26544,2,0,L|428:48,1,65,8|0,0:0|0:0,0:0:0:0:
508,28,26823,2,0,L|493:91,1,65,8|8,3:0|3:0,0:0:0:0:
512,176,27102,2,0,L|440:164,1,65,8|0,0:0|0:0,0:0:0:0:
364,212,27381,6,0,L|372:276,1,65,0|0,0:0|0:0,0:0:0:0:
312,340,27660,1,8,0:0:0:0:
292,328,28218,1,8,0:0:0:0:
272,316,28777,1,8,0:0:0:0:
248,300,29335,1,8,0:0:0:0:
296,152,29614,6,0,L|288:216,1,65,0|0,0:0|0:0,0:0:0:0:
196,184,29893,1,8,0:0:0:0:
180,172,30451,1,8,0:0:0:0:
164,161,31009,1,8,0:0:0:0:
148,149,31567,1,8,0:0:0:0:
232,24,31846,6,0,L|224:96,1,65,0|0,0:0|0:0,0:0:0:0:
296,160,32125,1,8,0:0:0:0:
311,157,32684,1,8,0:0:0:0:
327,154,33242,1,8,0:0:0:0:
343,151,33800,1,8,0:0:0:0:
484,216,34079,6,0,L|492:152,1,65,0|0,0:0|0:0,0:0:0:0:
452,64,34358,1,8,0:0:0:0:
432,61,34916,1,8,0:0:0:0:
318,108,35195,6,0,P|256:112|212:66,1,130
284,40,35614,1,0,0:0:0:0:
320,108,35753,2,0,L|308:180,1,65,8|8,0:0|0:0,0:0:0:0:
232,224,36032,2,0,L|240:288,1,65,8|8,0:0|0:0,0:0:0:0:
312,356,36311,5,0,0:0:0:0:
384,303,36451,2,0,P|416:299|447:307,1,65,0|8,0:0|0:0,0:0:0:0:
488,372,36730,2,0,L|504:232,1,130,0|0,0:0|0:0,0:0:0:0:
456,152,37149,1,8,0:0:0:0:
376,203,37288,2,0,P|312:209|257:176,1,130,0|0,0:0|0:0,0:0:0:0:
188,112,37707,2,0,L|164:176,1,65,8|0,0:0|0:0,0:0:0:0:
72,192,37986,2,0,L|92:256,1,65,0|0,0:0|0:0,0:0:0:0:
40,336,38265,2,0,L|108:360,1,65,8|0,0:0|0:0,0:0:0:0:
196,371,38544,6,0,P|224:314|212:251,1,130,0|8,0:0|0:0,0:0:0:0:
276,176,38963,2,0,L|412:184,1,130,0|0,0:0|0:0,0:0:0:0:
492,223,39381,2,0,P|499:192|497:160,1,65,8|0,0:0|0:0,0:0:0:0:
428,36,39660,2,0,P|425:68|433:99,1,65,0|0,0:0|0:0,0:0:0:0:
336,96,39939,2,0,L|196:80,1,130,8|0,0:0|0:0,0:0:0:0:
136,24,40358,1,0,0:0:0:0:
64,88,40497,2,0,P|67:121|60:152,1,65,8|0,0:0|0:0,0:0:0:0:
8,223,40777,6,0,P|60:188|122:200,1,130,0|8,0:0|0:0,0:0:0:0:
184,260,41195,2,0,P|246:272|298:236,1,130,0|0,0:0|0:0,0:0:0:0:
352,160,41614,2,0,L|340:96,1,65,8|0,0:0|0:0,0:0:0:0:
444,40,41893,2,0,L|432:104,1,65,0|0,0:0|0:0,0:0:0:0:
351,159,42172,2,0,P|290:143|230:166,1,130,8|0,0:0|0:0,0:0:0:0:
156,224,42590,1,0,0:0:0:0:
76,176,42730,2,0,L|68:112,1,65,8|0,0:0|0:0,0:0:0:0:
124,31,43009,6,0,P|156:31|185:45,1,65,0|0,0:0|0:0,0:0:0:0:
185,45,43218,1,0,0:0:0:0:
185,45,43288,1,8,0:0:0:0:
256,112,43428,2,0,L|392:104,1,130,0|0,0:0|0:0,0:0:0:0:
480,72,43846,2,0,P|476:104|484:140,1,65,8|0,0:0|0:0,0:0:0:0:
432,216,44125,6,0,L|288:200,1,130,4|8,0:0|0:0,0:0:0:0:
224,256,44544,1,0,0:0:0:0:
151,195,44684,2,0,P|144:164|149:132,1,65,8|8,0:0|0:0,0:0:0:0:
232,24,44963,2,0,P|237:55|229:87,1,65,8|8,0:0|0:0,0:0:0:0:
292,152,45242,6,0,L|424:144,1,130,4|8,0:0|0:0,0:0:0:0:
483,88,45660,2,0,P|468:150|485:212,1,130,0|0,0:0|0:0,0:0:0:0:
504,232,46009,1,0,0:0:0:0:
504,232,46079,2,0,L|360:216,1,130,4|0,0:0|0:0,0:0:0:0:
292,172,46497,2,0,L|280:240,1,65,8|0,0:0|0:0,0:0:0:0:
312,328,46777,1,0,0:0:0:0:
224,363,46916,2,0,P|166:334|102:340,1,130,8|8,0:0|0:0,0:0:0:0:
24,380,47335,1,0,0:0:0:0:
24,380,47474,6,0,L|8:248,1,130,4|8,0:0|0:0,0:0:0:0:
60,172,47893,2,0,P|120:164|168:212,1,130,0|0,0:0|0:0,0:0:0:0:
180,232,48242,1,0,0:0:0:0:
180,232,48311,2,0,L|192:88,1,130,8|0,0:0|0:0,0:0:0:0:
256,28,48730,1,0,0:0:0:0:
316,108,48870,2,0,P|347:113|379:106,1,65,8|0,0:0|0:0,0:0:0:0:
456,52,49149,2,0,L|476:80,3,32.5,8|0|4|0,3:0|0:0|3:0|0:0,0:0:0:0:
496,96,49428,2,0,L|488:168,1,65,8|0,0:0|0:0,0:0:0:0:
440,232,49707,6,0,P|376:244|316:204,1,130,4|8,0:0|0:0,0:0:0:0:
288,140,50125,2,0,L|272:276,1,130
272,368,50544,2,0,L|335:352,1,65,8|0,0:0|0:0,0:0:0:0:
176,335,50823,6,0,P|114:350|59:317,1,130,0|8,0:0|0:0,0:0:0:0:
4,244,51242,2,0,L|16:172,1,65,0|8,0:0|0:0,0:0:0:0:
96,144,51521,2,0,L|84:72,1,65
156,12,51800,1,0,0:0:0:0:
228,80,51939,6,0,P|289:96|345:66,1,130,4|8,0:0|0:0,0:0:0:0:
432,16,52358,1,0,0:0:0:0:
488,92,52497,2,0,L|476:132,3,32.5
460,152,52777,2,0,L|468:224,1,65,8|0,0:0|0:0,0:0:0:0:
416,288,53056,5,4,0:0:0:0:
347,215,53195,2,0,P|285:203|226:229,1,130
160,296,53614,2,0,L|96:288,1,65,8|0,0:0|0:0,0:0:0:0:
16,192,53893,2,0,L|96:200,1,65,8|0,3:0|0:0,0:0:0:0:
152,136,54172,1,8,0:0:0:0:
48,64,57521,6,0,L|56:128,1,65,8|8,0:0|3:0,0:0:0:0:
36,220,57800,2,0,L|104:208,1,65,0|8,0:0|3:0,0:0:0:0:
196,232,58079,2,0,L|188:168,1,65,8|8,0:0|0:0,0:0:0:0:
280,24,58497,6,0,P|263:85|286:145,1,130,4|0,0:0|0:0,0:0:0:0:
360,196,58916,2,0,L|428:188,1,65,8|0,0:0|0:0,0:0:0:0:
292,264,59195,2,0,L|160:248,1,130,0|8,0:0|0:0,0:0:0:0:
104,311,59614,6,0,P|124:251|109:188,1,130,0|0,0:0|0:0,0:0:0:0:
39,131,60032,2,0,P|32:100|37:68,1,65,8|0,0:0|0:0,0:0:0:0:
112,16,60311,2,0,L|184:32,1,65,0|0,0:0|0:0,0:0:0:0:
244,96,60590,1,8,0:0:0:0:
324,35,60730,6,0,P|385:22|438:57,1,130,4|0,0:0|0:0,0:0:0:0:
488,136,61149,2,0,L|480:200,1,65,8|0,0:0|0:0,0:0:0:0:
400,244,61428,2,0,L|412:312,1,65,8|0,0:0|0:0,0:0:0:0:
343,368,61707,2,0,P|311:368|282:354,1,65,8|0,0:0|0:0,0:0:0:0:
220,296,61986,6,0,P|158:281|107:317,1,130,0|8,0:0|0:0,0:0:0:0:
176,364,62404,1,0,0:0:0:0:
220,296,62544,2,0,L|208:224,1,65,0|0,0:0|0:0,0:0:0:0:
260,156,62823,1,8,0:0:0:0:
328,212,62963,6,0,P|390:224|445:191,1,130,4|0,0:0|0:0,0:0:0:0:
480,112,63381,2,0,L|472:44,1,65,8|0,0:0|0:0,0:0:0:0:
376,16,63660,2,0,L|384:84,1,65,0|0,0:0|0:0,0:0:0:0:
311,128,63939,2,0,P|279:128|249:117,1,65,8|0,0:0|0:0,0:0:0:0:
196,40,64218,6,0,L|64:48,1,130,0|8,0:0|0:0,0:0:0:0:
16,124,64637,2,0,P|31:186|13:247,1,130,0|0,0:0|0:0,0:0:0:0:
64,328,65056,1,8,0:0:0:0:
144,268,65195,6,0,L|272:288,1,130,4|0,0:0|0:0,0:0:0:0:
344,360,65614,2,0,L|412:352,1,65,0|0,0:0|0:0,0:0:0:0:
476,288,65893,2,0,P|496:224|472:164,1,130,8|0,0:0|0:0,0:0:0:0:
412,100,66311,1,0,0:0:0:0:
332,160,66451,6,0,L|252:148,1,65,0|0,0:0|0:0,0:0:0:0:
196,92,66730,1,8,0:0:0:0:
196,92,67009,2,0,L|208:44,3,32.5,8|0|0|0,0:0|0:0|0:0|0:0,0:0:0:0:
216,24,67288,1,0,0:0:0:0:
292,80,67428,6,0,P|353:97|409:67,1,130,4|0,0:0|0:0,0:0:0:0:
488,20,67846,2,0,L|504:88,1,65,8|0,0:0|0:0,0:0:0:0:
432,212,68125,2,0,L|446:148,1,65,0|0,0:0|0:0,0:0:0:0:
344,196,68404,2,0,L|356:264,1,65,8|0,0:0|0:0,0:0:0:0:
295,324,68684,6,0,P|233:336|175:308,1,130,0|8,0:0|0:0,0:0:0:0:
108,236,69102,1,0,0:0:0:0:
176,168,69242,2,0,L|168:96,1,65,0|0,0:0|0:0,0:0:0:0:
224,24,69521,1,8,0:0:0:0:
296,88,69660,6,0,P|357:101|410:66,1,130,4|0,0:0|0:0,0:0:0:0:
492,28,70079,2,0,L|476:164,1,130,8|0,0:0|0:0,0:0:0:0:
416,228,70497,1,0,0:0:0:0:
343,171,70637,2,0,P|311:168|280:177,1,65,8|0,0:0|0:0,0:0:0:0:
216,240,70916,6,0,L|148:228,1,65,0|0,0:0|0:0,0:0:0:0:
84,284,71195,1,8,0:0:0:0:
24,220,71335,2,0,P|7:157|22:94,1,130,0|0,0:0|0:0,0:0:0:0:
88,32,71753,1,8,0:0:0:0:
156,96,71893,6,0,L|292:88,1,130,4|0,0:0|0:0,0:0:0:0:
376,56,72311,2,0,P|380:88|372:119,1,65,8|0,0:0|0:0,0:0:0:0:
311,188,72590,2,0,P|310:251|349:302,1,130,0|8,0:0|0:0,0:0:0:0:
392,220,73009,1,0,0:0:0:0:
312,188,73149,6,0,L|180:200,1,130,0|8,0:0|0:0,0:0:0:0:
112,148,73567,1,0,0:0:0:0:
112,148,73707,2,0,P|104:112|112:80,1,65,0|0,0:0|0:0,0:0:0:0:
176,20,73986,1,8,0:0:0:0:
244,84,74125,6,0,L|384:76,1,130,4|0,0:0|0:0,0:0:0:0:
463,40,74544,2,0,P|456:71|463:102,1,65,8|0,0:0|0:0,0:0:0:0:
504,184,74823,2,0,P|511:215|503:246,1,65,0|0,0:0|0:0,0:0:0:0:
432,296,75102,2,0,L|360:288,1,65,8|0,0:0|0:0,0:0:0:0:
299,223,75381,6,0,P|239:207|189:245,1,130,0|8,0:0|0:0,0:0:0:0:
136,320,75800,1,0,0:0:0:0:
60,276,75939,2,0,L|48:204,1,65,0|0,0:0|0:0,0:0:0:0:
36,120,76218,1,8,0:0:0:0:
120,152,76358,6,0,P|182:158|230:116,1,130,4|0,0:0|0:0,0:0:0:0:
304,48,76777,2,0,L|320:116,1,65,8|0,0:0|0:0,0:0:0:0:
372,196,77056,2,0,P|464:200|508:119,1,195,8|0,0:0|0:0,0:0:0:0:
416,3,77614,6,0,P|400:66|422:125,1,130,0|0,0:0|0:0,0:0:0:0:
312,120,78032,1,0,0:0:0:0:
312,120,78102,1,0,0:0:0:0:
312,120,78172,2,0,L|176:104,1,130,8|0,0:0|0:0,0:0:0:0:
68,56,78730,5,0,0:0:0:0:
0,160,79009,1,0,0:0:0:0:
64,264,79288,1,0,0:0:0:0:
176,224,79567,1,0,0:0:0:0:
188,111,79846,6,0,P|274:82|335:151,1,195
400,216,80404,2,0,L|480:208,1,65,0|0,0:0|0:0,0:0:0:0:
472,304,80684,2,0,L|392:312,1,65,8|4,3:0|3:0,0:0:0:0:
307,351,80963,6,0,P|283:293|303:232,1,130,4|8,0:0|0:0,0:0:0:0:
240,168,81381,2,0,L|110:183,1,130,0|0,0:0|0:0,0:0:0:0:
40,240,81800,6,0,B|4:188|36:132|36:132|8:52,1,195.00000743866,4|0,0:0|0:0,0:0:0:0:
212,20,82637,5,8,0:0:0:0:
168,96,82777,1,0,0:0:0:0:
256,100,82916,2,0,L|328:88,1,65,8|0,0:0|0:0,0:0:0:0:
411,32,83195,6,0,P|403:96|419:158,1,130,4|8,0:0|0:0,0:0:0:0:
360,228,83614,2,0,L|220:212,1,130,0|0,0:0|0:0,0:0:0:0:
152,264,84032,1,12,0:0:0:0:
256,192,84102,12,0,95335,0:0:0:0:
