osu file format v14

[General]
AudioFilename: audio.mp3
AudioLeadIn: 0
PreviewTime: 58009
Countdown: 0
SampleSet: Normal
StackLeniency: 0.7
Mode: 0
LetterboxInBreaks: 0
WidescreenStoryboard: 1

[Editor]
Bookmarks: 8823,18172,18311,27242,27381,36172,36311,45102,45242,54172,56404,67288,67428,76218,76358
DistanceSpacing: 1.3
BeatDivisor: 4
GridSize: 4
TimelineZoom: 3.099999

[Metadata]
Title:Saishuukai STORY
TitleUnicode:最終回STORY
Artist:MY FIRST STORY
ArtistUnicode:MY FIRST STORY
Creator:HabiHolic
Version:2habi's Insane
Source:
Tags:Hiroki Moriuchi Nobuaki Katou Teruki Nishizawa Shouhei Sasaki 森内寛樹 加藤伸明 佐々木翔平 西澤照貴 Nob Teru Hiro Kid'z tutuhaha
BeatmapID:1133289
BeatmapSetID:535013

[Difficulty]
HPDrainRate:6
CircleSize:4
OverallDifficulty:7
ApproachRate:9
SliderMultiplier:1.4
SliderTickRate:1

[Events]
//Background and Video events
0,0,"BG.jpg",0,0
//Break Periods
//Storyboard Layer 0 (Background)
//Storyboard Layer 1 (Fail)
//Storyboard Layer 2 (Pass)
//Storyboard Layer 3 (Foreground)
//Storyboard Sound Samples

[TimingPoints]
591,279.06976744186,4,1,1,75,1,0
58497,-90.9090909090909,4,1,1,75,0,1
76358,-100,4,1,1,75,0,0
83195,-90.9090909090909,4,1,1,75,0,0
95335,-100,4,2,1,5,0,0

[Colours]
Combo1 : 96,96,255
Combo2 : 128,128,192
Combo3 : 18,124,255

[HitObjects]
8,172,8823,5,0,0:0:0:0:
8,172,8893,1,0,0:0:0:0:
8,172,8963,1,8,0:0:0:0:
124,244,9102,1,8,0:0:0:0:
200,124,9242,1,8,0:0:0:0:
104,28,9381,6,0,L|92:172,1,140,4|0,0:0|0:0,0:0:0:0:
124,244,9800,1,8,0:0:0:0:
124,244,10079,2,0,P|160:248|196:236,1,70,0|0,0:0|0:0,0:0:0:0:
320,136,10358,2,0,L|248:128,1,70,8|0,0:0|0:0,0:0:0:0:
379,71,10637,6,0,P|408:133|380:195,1,140,0|8,0:0|0:0,0:0:0:0:
300,220,11056,1,0,0:0:0:0:
372,284,11195,2,0,L|448:272,1,70,0|0,0:0|0:0,0:0:0:0:
300,220,11474,1,8,0:0:0:0:
192,343,11614,6,0,P|124:352|74:306,1,140,4|0,0:0|0:0,0:0:0:0:
160,208,12032,2,0,L|148:288,1,70,8|0,0:0|0:0,0:0:0:0:
244,180,12311,2,0,P|228:148|199:129,1,70,0|0,0:0|0:0,0:0:0:0:
231,263,12590,2,0,P|266:262|295:242,1,70,8|0,0:0|0:0,0:0:0:0:
376,112,12870,1,0,0:0:0:0:
436,176,13009,2,0,L|424:328,1,140,0|0,0:0|0:0,0:0:0:0:
283,330,13428,1,8,0:0:0:0:
211,270,13567,1,0,0:0:0:0:
295,242,13707,1,0,0:0:0:0:
192,360,13846,6,0,L|48:344,1,140,4|0,0:0|0:0,0:0:0:0:
8,264,14265,2,0,P|0:228|8:192,1,70,0|0,0:0|0:0,0:0:0:0:
148,64,14544,2,0,P|168:129|142:193,1,140,8|0,0:0|0:0,0:0:0:0:
200,264,14963,1,0,0:0:0:0:
200,264,15032,1,0,0:0:0:0:
200,264,15102,6,0,B|272:256|272:256|328:292|328:292|408:280,1,210,0|0,0:0|0:0,0:0:0:0:
416,292,15590,1,0,0:0:0:0:
415,291,15660,2,0,P|395:225|414:159,1,140,8|0,0:0|0:0,0:0:0:0:
312,32,16079,6,0,P|330:98|310:164,1,140,4|0,0:0|0:0,0:0:0:0:
240,212,16497,2,0,L|168:200,1,70,8|0,0:0|0:0,0:0:0:0:
96,128,16777,2,0,L|76:204,1,70,8|0,0:0|0:0,0:0:0:0:
136,348,17056,2,0,L|120:272,1,70,8|0,0:0|0:0,0:0:0:0:
96,128,17335,5,0,0:0:0:0:
184,80,17474,1,0,0:0:0:0:
104,36,17614,1,0,0:0:0:0:
180,176,17753,1,0,0:0:0:0:
180,176,17823,1,0,0:0:0:0:
180,176,17893,2,0,P|246:185|295:138,1,140,8|0,0:0|0:0,0:0:0:0:
112,112,18311,6,0,P|84:184|132:248,1,140,0|0,0:0|0:0,0:0:0:0:
180,352,18730,2,0,L|96:328,1,70,8|0,0:0|0:0,0:0:0:0:
216,272,19009,2,0,P|236:236|236:200,1,70,0|0,0:0|0:0,0:0:0:0:
192,128,19288,1,8,0:0:0:0:
140,204,19428,1,0,0:0:0:0:
256,240,19567,6,0,L|328:264,1,70
448,180,19846,2,0,L|381:202,1,70,8|0,0:0|0:0,0:0:0:0:
322,262,20125,1,0,0:0:0:0:
408,288,20265,2,0,L|475:266,1,70,0|8,0:0|0:0,0:0:0:0:
372,120,20544,6,0,B|376:76|424:48|424:48|372:16,1,140,4|0,0:0|0:0,0:0:0:0:
296,136,20963,2,0,P|316:176|344:192,1,70,8|0,0:0|0:0,0:0:0:0:
364,312,21242,2,0,P|388:274|388:242,1,70,8|0,0:0|0:0,0:0:0:0:
488,168,21521,2,0,P|443:165|415:181,1,70,8|0,0:0|0:0,0:0:0:0:
288,264,21800,5,8,0:0:0:0:
228,332,21939,2,0,L|148:336,2,70,0|8|0,0:0|0:0|0:0,0:0:0:0:
288,264,22358,1,8,0:0:0:0:
368,152,22497,1,8,0:0:0:0:
260,68,22637,1,8,0:0:0:0:
172,172,22777,6,0,B|212:168|232:144|232:144|184:120|180:64,1,140,0|0,0:0|0:0,0:0:0:0:
156,4,23195,2,0,P|116:32|104:56,1,70,0|0,0:0|0:0,0:0:0:0:
260,68,23474,2,0,L|408:52,1,140,0|0,0:0|0:0,0:0:0:0:
464,288,24032,6,0,P|404:272|392:136,1,210,0|0,0:0|0:0,0:0:0:0:
386,142,24521,1,0,0:0:0:0:
386,142,24590,1,8,0:0:0:0:
340,352,24870,1,0,0:0:0:0:
248,356,25009,6,0,P|192:348|104:376,1,140,4|0,0:0|0:0,0:0:0:0:
48,304,25428,2,0,L|28:224,1,70,8|0,0:0|0:0,0:0:0:0:
120,224,25707,2,0,L|100:144,1,70,8|0,0:0|0:0,0:0:0:0:
220,240,25986,2,0,L|200:160,1,70,8|0,0:0|0:0,0:0:0:0:
216,76,26265,6,0,P|260:92|304:96,1,70,8|0,0:0|0:0,0:0:0:0:
476,76,26544,2,0,P|416:72|376:80,1,70,8|0,0:0|0:0,0:0:0:0:
344,236,26823,2,0,P|364:208|408:188,1,70,8|8,3:0|3:0,0:0:0:0:
504,256,27102,2,0,P|503:290|479:332,1,70,8|0,0:0|0:0,0:0:0:0:
316,364,27381,6,0,L|236:352,1,70,0|0,0:0|0:0,0:0:0:0:
156,372,27660,1,8,0:0:0:0:
144,352,28218,1,8,0:0:0:0:
128,328,28777,1,8,0:0:0:0:
112,300,29335,1,8,0:0:0:0:
200,172,29614,6,0,L|188:240,1,70,0|0,0:0|0:0,0:0:0:0:
136,104,29893,1,8,0:0:0:0:
144,80,30451,1,8,0:0:0:0:
152,56,31009,1,8,0:0:0:0:
160,28,31567,1,8,0:0:0:0:
240,92,31846,6,0,L|312:80,1,70,0|0,0:0|0:0,0:0:0:0:
388,136,32125,1,8,0:0:0:0:
380,156,32684,1,8,0:0:0:0:
372,176,33242,1,8,0:0:0:0:
360,200,33800,1,8,0:0:0:0:
268,248,34079,6,0,L|192:240,1,70,0|0,0:0|0:0,0:0:0:0:
128,184,34358,1,8,0:0:0:0:
112,172,34916,1,8,0:0:0:0:
220,24,35195,6,0,P|242:88|213:150,1,140,0|0,0:0|0:0,0:0:0:0:
160,84,35614,1,0,0:0:0:0:
304,168,35753,2,0,L|380:160,1,70,8|8,0:0|0:0,0:0:0:0:
492,36,36032,2,0,L|416:44,1,70,8|8,0:0|0:0,0:0:0:0:
472,144,36311,5,0,0:0:0:0:
436,236,36451,2,0,L|448:316,1,70,0|8,0:0|0:0,0:0:0:0:
368,356,36730,2,0,L|344:208,1,140
312,132,37149,1,8,0:0:0:0:
220,160,37288,6,0,P|172:144|120:44,1,140,0|0,0:0|0:0,0:0:0:0:
204,20,37707,2,0,P|236:48|252:96,1,70,8|0,0:0|0:0,0:0:0:0:
256,248,37986,2,0,L|244:328,1,70,0|0,0:0|0:0,0:0:0:0:
360,256,38265,1,8,0:0:0:0:
256,192,38404,1,0,0:0:0:0:
168,284,38544,6,0,P|132:292|88:280,1,70,0|0,0:0|0:0,0:0:0:0:
48,204,38823,1,8,0:0:0:0:
48,204,38963,2,0,L|64:344,1,140,0|0,0:0|0:0,0:0:0:0:
136,208,39381,2,0,L|144:136,1,70,8|0,0:0|0:0,0:0:0:0:
124,40,39660,5,0,0:0:0:0:
48,104,39800,1,0,0:0:0:0:
184,128,39939,2,0,P|232:108|344:116,1,140,8|0,0:0|0:0,0:0:0:0:
404,152,40358,1,0,0:0:0:0:
404,152,40497,2,0,L|420:72,1,70,8|0,0:0|0:0,0:0:0:0:
324,192,40777,5,0,0:0:0:0:
408,244,40916,1,0,0:0:0:0:
320,292,41056,1,8,0:0:0:0:
400,344,41195,2,0,P|412:300|476:224,1,140
404,152,41614,2,0,P|356:184|252:212,1,140,8|0,0:0|0:0,0:0:0:0:
224,132,42032,5,0,0:0:0:0:
180,292,42172,2,0,L|96:288,1,70,8|0,0:0|0:0,0:0:0:0:
80,196,42451,2,0,P|40:184|4:188,1,70,0|0,0:0|0:0,0:0:0:0:
51,320,42730,2,0,P|85:310|112:288,1,70,8|0,0:0|0:0,0:0:0:0:
220,192,43009,6,0,L|204:280,1,70,0|0,0:0|0:0,0:0:0:0:
204,284,43218,1,0,0:0:0:0:
200,304,43288,1,8,0:0:0:0:
304,216,43428,2,0,P|320:160|412:104,1,140,0|0,0:0|0:0,0:0:0:0:
460,168,43846,1,8,0:0:0:0:
452,40,43986,1,0,0:0:0:0:
360,92,44125,6,0,P|332:64|304:16,1,70,4|0,0:0|0:0,0:0:0:0:
220,20,44404,1,8,0:0:0:0:
220,20,44544,1,0,0:0:0:0:
156,136,44684,2,0,L|164:228,1,70,8|8,0:0|0:0,0:0:0:0:
44,92,44963,2,0,L|50:22,1,70,8|8,0:0|0:0,0:0:0:0:
240,107,45242,6,0,P|307:99|358:144,1,140,4|8,0:0|0:0,0:0:0:0:
460,180,45660,2,0,L|476:108,1,70,0|0,0:0|0:0,0:0:0:0:
372,240,45939,1,0,0:0:0:0:
372,240,46009,1,0,0:0:0:0:
372,239,46079,6,0,P|348:304|372:368,1,140,4|0,0:0|0:0,0:0:0:0:
500,312,46497,2,0,L|420:304,1,70,8|0,0:0|0:0,0:0:0:0:
292,140,46777,1,0,0:0:0:0:
292,140,46916,2,0,L|372:148,1,70,8|0,0:0|0:0,0:0:0:0:
448,112,47195,2,0,P|456:76|448:40,1,70,8|0,0:0|0:0,0:0:0:0:
231,76,47474,6,0,P|200:135|225:198,1,140,4|8,0:0|0:0,0:0:0:0:
168,280,47893,2,0,L|96:268,1,70,0|0,0:0|0:0,0:0:0:0:
232,348,48172,1,0,0:0:0:0:
232,348,48242,1,0,0:0:0:0:
232,347,48311,2,0,P|288:309|355:321,1,140,8|0,0:0|0:0,0:0:0:0:
448,364,48730,1,0,0:0:0:0:
436,184,48870,2,0,L|424:264,1,70,8|0,0:0|0:0,0:0:0:0:
380,104,49149,6,0,L|348:116,1,35,8|0,3:0|0:0,0:0:0:0:
288,188,49288,2,0,L|244:180,1,35,4|0,3:0|0:0,0:0:0:0:
160,168,49428,2,0,L|172:88,1,70,8|0,0:0|0:0,0:0:0:0:
88,36,49707,6,0,L|64:180,1,140,4|8,0:0|0:0,0:0:0:0:
4,244,50125,1,0,0:0:0:0:
56,320,50265,2,0,P|96:320|128:308,1,70,0|0,0:0|0:0,0:0:0:0:
276,232,50544,2,0,L|196:224,1,70,8|0,0:0|0:0,0:0:0:0:
139,167,50823,6,0,P|115:103|138:38,1,140,0|8,0:0|0:0,0:0:0:0:
164,16,51172,1,0,0:0:0:0:
164,16,51242,2,0,L|240:28,1,70,0|8,0:0|0:0,0:0:0:0:
320,104,51521,2,0,L|400:92,1,70,0|0,0:0|0:0,0:0:0:0:
460,28,51800,1,0,0:0:0:0:
508,196,51939,6,0,L|364:184,1,140,4|8,0:0|0:0,0:0:0:0:
320,104,52358,1,0,0:0:0:0:
208,192,52497,2,0,L|216:232,3,35,0|0|0|0,0:0|0:0|0:0|0:0,0:0:0:0:
224,256,52777,2,0,L|208:328,1,70,8|0,0:0|0:0,0:0:0:0:
124,272,53056,5,4,0:0:0:0:
292,364,53195,2,0,P|364:376|420:336,1,140,0|0,0:0|0:0,0:0:0:0:
480,212,53614,2,0,L|496:284,1,70,8|0,0:0|0:0,0:0:0:0:
380,196,53893,2,0,L|395:127,1,70,8|0,3:0|0:0,0:0:0:0:
340,52,54172,1,8,0:0:0:0:
256,192,56404,12,0,57242,2:0:0:0:
308,268,57521,5,8,0:0:0:0:
308,268,57660,2,0,P|256:320|172:320,1,140,8|8,3:0|3:0,0:0:0:0:
212,224,58079,1,8,0:0:0:0:
408,280,58218,1,8,0:0:0:0:
408,280,58497,6,0,B|416:200|416:200|464:112,1,154.000004699707,4|0,0:0|0:0,0:0:0:0:
352,24,58916,2,0,L|336:128,1,77.0000023498536,8|0,0:0|0:0,0:0:0:0:
263,244,59195,2,0,L|252:168,1,77.0000023498536,0|0,0:0|0:0,0:0:0:0:
152,24,59474,1,8,0:0:0:0:
164,124,59614,6,0,P|124:184|40:212,1,154.000004699707,0|0,0:0|0:0,0:0:0:0:
0,72,60032,2,0,P|44:80|80:100,1,77.0000023498536,8|0,0:0|0:0,0:0:0:0:
252,192,60311,2,0,L|280:96,1,77.0000023498536,0|0,0:0|0:0,0:0:0:0:
308,24,60590,1,8,0:0:0:0:
352,224,60730,6,0,B|360:336|360:336|404:392,1,154.000004699707,4|0,0:0|0:0,0:0:0:0:
496,216,61149,2,0,B|448:184|448:184|408:176,1,77.0000023498536,8|0,0:0|0:0,0:0:0:0:
272,288,61428,2,0,B|224:320|224:320|184:328,1,77.0000023498536,8|0,0:0|0:0,0:0:0:0:
32,236,61707,2,0,B|80:204|80:204|120:196,1,77.0000023498536,8|0,0:0|0:0,0:0:0:0:
211,361,61986,6,0,L|232:208,1,154.000004699707,0|8,0:0|0:0,0:0:0:0:
184,104,62404,1,0,0:0:0:0:
344,184,62544,2,0,L|356:100,1,77.0000023498536
316,24,62823,1,8,0:0:0:0:
196,152,62963,6,0,L|208:312,1,154.000004699707,4|0,0:0|0:0,0:0:0:0:
96,340,63381,2,0,P|52:364|8:368,1,77.0000023498536,8|0,0:0|0:0,0:0:0:0:
92,208,63660,2,0,P|136:224|176:256,1,77.0000023498536,0|0,0:0|0:0,0:0:0:0:
300,356,63939,2,0,P|284:316|288:264,1,77.0000023498536,8|0,0:0|0:0,0:0:0:0:
460,200,64218,6,0,P|456:280|400:356,1,154.000004699707,0|8,0:0|0:0,0:0:0:0:
340,188,64637,1,0,0:0:0:0:
388,100,64777,2,0,L|484:104,1,77.0000023498536,0|0,0:0|0:0,0:0:0:0:
320,28,65056,1,8,0:0:0:0:
320,28,65125,1,0,0:0:0:0:
320,28,65195,6,0,P|248:48|152:28,1,154.000004699707,4|0,0:0|0:0,0:0:0:0:
24,48,65614,2,0,P|84:80|100:96,1,77.0000023498536,0|0,0:0|0:0,0:0:0:0:
280,172,65893,2,0,P|208:160|116:192,1,154.000004699707,8|0,0:0|0:0,0:0:0:0:
68,260,66311,1,0,0:0:0:0:
136,332,66451,6,0,P|156:300|216:280,1,77.0000023498536,0|0,0:0|0:0,0:0:0:0:
204,168,66730,2,0,P|236:112|200:12,1,154.000004699707,8|8,0:0|0:0,0:0:0:0:
180,20,67079,1,0,0:0:0:0:
180,20,67149,1,0,0:0:0:0:
368,191,67428,6,0,P|442:192|483:253,1,154.000004699707,4|0,0:0|0:0,0:0:0:0:
280,232,67846,2,0,P|272:192|280:152,1,77.0000023498536,8|0,0:0|0:0,0:0:0:0:
400,24,68125,2,0,P|406:61|398:99,1,77.0000023498536,0|0,0:0|0:0,0:0:0:0:
200,112,68404,2,0,L|120:104,1,77.0000023498536,8|0,0:0|0:0,0:0:0:0:
24,20,68684,6,0,B|44:64|44:64|28:172,1,154.000004699707,0|8,0:0|0:0,0:0:0:0:
88,256,69102,1,0,0:0:0:0:
252,160,69242,1,0,0:0:0:0:
232,320,69381,2,0,L|148:312,1,77.0000023498536,0|8,0:0|0:0,0:0:0:0:
296,239,69660,6,0,P|369:227|424:277,1,154.000004699707,4|0,0:0|0:0,0:0:0:0:
492,196,70079,2,0,L|504:120,1,77.0000023498536,8|0,0:0|0:0,0:0:0:0:
392,32,70358,2,0,L|400:108,1,77.0000023498536,0|0,0:0|0:0,0:0:0:0:
312,176,70637,2,0,P|272:176|236:156,1,77.0000023498536,8|0,0:0|0:0,0:0:0:0:
140,40,70916,6,0,L|224:32,1,77.0000023498536,0|0,0:0|0:0,0:0:0:0:
328,96,71195,1,8,0:0:0:0:
159,212,71335,2,0,P|86:221|34:168,1,154.000004699707
56,80,71753,1,8,0:0:0:0:
232,136,71893,6,0,L|208:300,1,154.000004699707,4|0,0:0|0:0,0:0:0:0:
280,356,72311,1,8,0:0:0:0:
279,355,72590,2,0,P|317:364|354:355,1,77.0000023498536,0|0,0:0|0:0,0:0:0:0:
460,216,72870,2,0,P|422:207|385:216,1,77.0000023498536,8|0,0:0|0:0,0:0:0:0:
492,296,73149,6,0,L|516:132,1,154.000004699707,0|8,0:0|0:0,0:0:0:0:
456,44,73567,1,0,0:0:0:0:
327,119,73707,2,0,P|364:132|400:122,1,77.0000023498536,0|0,0:0|0:0,0:0:0:0:
456,44,73986,1,8,0:0:0:0:
272,48,74125,6,0,L|292:200,1,154.000004699707,4|0,0:0|0:0,0:0:0:0:
192,272,74544,2,0,L|208:188,1,77.0000023498536,8|0,0:0|0:0,0:0:0:0:
160,128,74823,1,0,0:0:0:0:
160,128,74963,1,0,0:0:0:0:
32,208,75102,2,0,P|68:220|108:208,1,77.0000023498536,8|0,0:0|0:0,0:0:0:0:
264,48,75381,6,0,L|108:32,1,154.000004699707,0|8,0:0|0:0,0:0:0:0:
48,100,75800,1,0,0:0:0:0:
232,203,75939,2,0,P|240:166|232:129,2,77.0000023498536,0|0|8,0:0|0:0|0:0,0:0:0:0:
296,352,76358,6,0,P|284:304|328:216,1,140,4|0,0:0|0:0,0:0:0:0:
456,292,76777,2,0,P|424:308|360:296,1,70,8|0,0:0|0:0,0:0:0:0:
200,276,77056,2,0,P|168:240|64:232,1,140,8|0,0:0|0:0,0:0:0:0:
28,300,77474,1,0,0:0:0:0:
196,368,77614,6,0,P|272:328|260:216,1,210
228,192,78102,1,0,0:0:0:0:
228,192,78172,2,0,P|200:140|252:64,1,140,8|0,0:0|0:0,0:0:0:0:
436,120,78730,5,0,0:0:0:0:
436,132,79009,1,0,0:0:0:0:
436,144,79288,1,0,0:0:0:0:
436,156,79567,1,0,0:0:0:0:
436,168,79846,1,0,0:0:0:0:
256,192,79916,12,8,80684,3:0:0:0:
28,284,80963,6,0,L|52:136,1,140,4|8,0:0|0:0,0:0:0:0:
172,20,81381,2,0,L|194:159,1,140,0|0,0:0|0:0,0:0:0:0:
324,268,81800,2,0,P|277:243|119:386,1,280,4|0,0:0|0:0,0:0:0:0:
432,324,82637,1,8,0:0:0:0:
432,324,82777,2,0,L|400:180,1,140
268,56,83195,6,0,P|192:68|148:128,1,154.000004699707,4|8,0:0|0:0,0:0:0:0:
236,320,83614,2,0,B|268:272|268:272|252:168,1,154.000004699707
164,236,84032,1,4,0:0:0:0:
256,192,84102,12,0,95335,0:0:0:0:
