osu file format v14

[General]
AudioFilename: audio.mp3
AudioLeadIn: 0
PreviewTime: 58009
Countdown: 0
SampleSet: Normal
StackLeniency: 0.7
Mode: 0
LetterboxInBreaks: 0
WidescreenStoryboard: 1

[Editor]
DistanceSpacing: 1
BeatDivisor: 4
GridSize: 4
TimelineZoom: 1

[Metadata]
Title:Saishuukai STORY
TitleUnicode:最終回STORY
Artist:MY FIRST STORY
ArtistUnicode:MY FIRST STORY
Creator:HabiHolic
Version:Normal
Source:
Tags:Hiroki Moriuchi Nobuaki Katou Teruki Nishizawa Shouhei Sasaki 森内寛樹 加藤伸明 佐々木翔平 西澤照貴 Nob Teru Hiro Kid'z tutuhaha
BeatmapID:1145628
BeatmapSetID:535013

[Difficulty]
HPDrainRate:3
CircleSize:3
OverallDifficulty:3
ApproachRate:4.5
SliderMultiplier:1.1
SliderTickRate:1

[Events]
//Background and Video events
0,0,"BG.jpg",0,0
//Break Periods
//Storyboard Layer 0 (Background)
//Storyboard Layer 1 (Fail)
//Storyboard Layer 2 (Pass)
//Storyboard Layer 3 (Foreground)
//Storyboard Sound Samples

[TimingPoints]
591,279.06976744186,4,1,1,75,1,0
58497,-100,4,1,1,75,0,1
76358,-100,4,1,1,75,0,0
86544,-100,4,2,1,5,0,0

[Colours]
Combo1 : 96,96,255
Combo2 : 128,128,192
Combo3 : 18,124,255

[HitObjects]
32,108,8963,6,0,L|24:48,2,55,8|8|8,0:0|0:0|0:0,0:0:0:0:
4,156,9381,2,0,P|54:140|102:165,1,110,4|0,0:0|0:0,0:0:0:0:
128,212,9800,1,0,0:0:0:0:
236,176,10079,2,0,L|252:64,1,110,0|8,0:0|0:0,0:0:0:0:
360,80,10637,6,0,L|344:192,1,110,0|8,0:0|0:0,0:0:0:0:
368,295,11195,2,0,P|313:296|267:268,1,110,0|8,0:0|0:0,0:0:0:0:
232,224,11614,6,0,L|212:336,1,110,4|0,0:0|0:0,0:0:0:0:
164,360,12032,1,8,0:0:0:0:
64,312,12311,2,0,L|84:200,1,110,0|8,0:0|0:0,0:0:0:0:
32,108,12870,1,0,0:0:0:0:
112,32,13149,1,0,0:0:0:0:
204,96,13428,6,0,P|260:96|304:64,1,110,8|0,0:0|0:0,0:0:0:0:
328,16,13846,2,0,L|344:128,1,110,4|0,0:0|0:0,0:0:0:0:
304,168,14265,1,0,0:0:0:0:
364,260,14544,2,0,P|467:259|499:161,2,220,8|0|8,0:0|0:0|0:0,0:0:0:0:
200,260,16079,6,0,P|147:247|99:271,1,110,4|0,0:0|0:0,0:0:0:0:
56,304,16497,2,0,L|44:192,2,110,8|8|8,0:0|0:0|0:0,0:0:0:0:
148,364,17335,1,0,0:0:0:0:
244,308,17614,1,0,0:0:0:0:
339,355,17893,2,0,P|393:358|436:325,1,110,8|0,0:0|0:0,0:0:0:0:
464,280,18311,6,0,L|448:168,1,110,0|0,0:0|0:0,0:0:0:0:
480,124,18730,1,8,0:0:0:0:
395,51,19009,2,0,P|343:38|296:63,1,110,0|8,0:0|0:0,0:0:0:0:
212,132,19567,6,0,P|164:157|112:143,1,110,0|8,0:0|0:0,0:0:0:0:
8,104,20125,2,0,L|24:220,1,110,0|8,0:0|0:0,0:0:0:0:
48,260,20544,2,0,P|127:248|176:310,1,165,4|8,0:0|0:0,0:0:0:0:
276,352,21242,2,0,L|388:344,1,110,8|8,0:0|0:0,0:0:0:0:
476,280,21800,6,0,P|488:220|476:172,1,110,8|8,0:0|0:0,0:0:0:0:
392,96,22358,2,0,L|408:40,2,55,8|8|8,0:0|0:0|0:0,0:0:0:0:
352,136,22777,2,0,B|296:128|296:128|244:152|244:152|184:140,1,165,0|0,0:0|0:0,0:0:0:0:
127,51,23474,6,0,P|147:156|78:237,2,220,8|0|8,0:0|0:0|0:0,0:0:0:0:
292,28,25009,2,0,L|404:44,1,110,4|0,0:0|0:0,0:0:0:0:
448,15,25428,2,0,P|436:68|453:120,1,110,8|8,0:0|0:0,0:0:0:0:
508,216,25986,1,8,0:0:0:0:
412,256,26265,6,0,L|300:240,1,110,8|8,0:0|0:0,0:0:0:0:
192,244,26823,2,0,L|83:259,1,110,8|8,3:0|0:0,0:0:0:0:
20,176,27381,6,0,L|12:120,2,55,0|0|8,0:0|0:0|0:0,0:0:0:0:
236,136,28218,2,0,B|312:136|312:136|372:104|372:104|456:104,2,220,8|8|8,0:0|0:0|0:0,0:0:0:0:
164,52,29614,2,0,L|104:52,2,55,0|0|8,0:0|0:0|0:0,0:0:0:0:
160,271,30451,2,0,P|54:266|3:174,2,220,8|8|8,0:0|0:0|0:0,0:0:0:0:
256,220,31846,6,0,L|256:152,2,55,0|0|8,0:0|0:0|0:0,0:0:0:0:
431,352,32684,2,0,P|481:258|435:162,2,220,8|8|8,0:0|0:0|0:0,0:0:0:0:
328,320,34079,2,0,L|264:328,1,55,0|0,0:0|0:0,0:0:0:0:
220,332,34358,1,8,0:0:0:0:
48,196,34916,1,8,0:0:0:0:
28,88,35195,6,0,P|88:88|132:128,1,110
220,172,35753,1,8,0:0:0:0:
296,92,36032,1,8,0:0:0:0:
375,20,36311,6,0,P|429:16|473:47,1,110,0|8,0:0|0:0,0:0:0:0:
500,92,36730,2,0,L|484:200,1,110,0|0,0:0|0:0,0:0:0:0:
508,248,37149,1,8,0:0:0:0:
440,336,37428,2,0,P|380:332|332:356,1,110,0|8,0:0|0:0,0:0:0:0:
228,360,37986,2,0,L|172:348,2,55,0|0|8,0:0|0:0|0:0,0:0:0:0:
280,264,38544,6,0,P|293:210|280:157,1,110,0|8,0:0|0:0,0:0:0:0:
244,116,38963,2,0,L|128:124,1,110,0|0,0:0|0:0,0:0:0:0:
100,80,39381,1,8,0:0:0:0:
28,164,39660,2,0,L|8:228,2,55,0|0|8,0:0|0:0|0:0,0:0:0:0:
104,240,40218,2,0,L|120:300,2,55,0|0|8,0:0|0:0|0:0,0:0:0:0:
204,196,40777,6,0,P|257:183|305:207,1,110,0|8,0:0|0:0,0:0:0:0:
352,236,41195,2,0,B|396:168|396:168|396:80,1,165,0|8,0:0|0:0,0:0:0:0:
304,24,41893,2,0,L|240:32,2,55,0|0|8,0:0|0:0|0:0,0:0:0:0:
260,124,42451,2,0,L|196:132,2,55,0|0|8,0:0|0:0|0:0,0:0:0:0:
240,232,43009,6,0,L|124:244,1,110,0|8,0:0|0:0,0:0:0:0:
84,276,43428,2,0,P|100:220|84:164,1,110,0|0,0:0|0:0,0:0:0:0:
56,128,43846,2,0,L|-4:136,2,55,8|0|4,0:0|0:0|0:0,0:0:0:0:
128,44,44404,6,0,L|196:56,1,55,8|0,0:0|0:0,0:0:0:0:
236,64,44684,2,0,P|296:72|348:52,1,110,8|8,0:0|0:0,0:0:0:0:
384,20,45102,1,8,0:0:0:0:
384,20,45242,6,0,L|372:140,1,110,4|8,0:0|0:0,0:0:0:0:
340,160,45660,2,0,P|396:156|440:188,1,110,0|0,0:0|0:0,0:0:0:0:
480,224,46079,2,0,L|504:56,2,165,4|8|8,0:0|0:0|0:0,0:0:0:0:
412,312,47195,2,0,L|352:304,1,55,8|0,0:0|0:0,0:0:0:0:
304,296,47474,6,0,P|224:284|160:340,2,165,4|0|8,0:0|0:0|0:0,0:0:0:0:
351,208,48590,2,0,P|367:155|355:102,1,110,0|8,0:0|0:0,0:0:0:0:
320,60,49009,1,0,0:0:0:0:
320,60,49149,2,0,L|200:68,1,110,8|8,3:0|0:0,0:0:0:0:
128,147,49707,6,0,P|48:142|4:76,2,165,4|0|8,0:0|0:0|0:0,0:0:0:0:
212,208,50823,2,0,P|224:256|208:316,1,110,0|8,0:0|0:0,0:0:0:0:
176,348,51242,2,0,L|288:360,2,110,0|0|0,0:0|0:0|0:0,0:0:0:0:
116,340,51939,1,4,0:0:0:0:
28,276,52218,1,8,0:0:0:0:
112,196,52497,2,0,P|128:136|112:80,1,110,0|8,0:0|0:0,0:0:0:0:
80,56,52916,1,0,0:0:0:0:
80,56,53056,6,0,L|200:72,1,110,4|0,0:0|0:0,0:0:0:0:
300,72,53614,2,0,L|360:60,2,55,8|0|8,0:0|0:0|3:0,0:0:0:0:
244,168,54172,1,8,0:0:0:0:
76,256,58497,6,0,P|132:268|184:240,1,110,4|0,0:0|0:0,0:0:0:0:
212,204,58916,1,8,0:0:0:0:
312,156,59195,2,0,P|392:148|448:212,2,165,0|0|8,0:0|0:0|0:0,0:0:0:0:
212,204,60311,2,0,P|200:144|216:96,1,110,0|8,0:0|0:0,0:0:0:0:
252,60,60730,6,0,L|140:48,1,110,4|0,0:0|0:0,0:0:0:0:
92,64,61149,1,8,0:0:0:0:
16,144,61428,1,8,0:0:0:0:
48,248,61707,1,8,0:0:0:0:
151,260,61986,2,0,P|205:252|251:281,1,110,0|8,0:0|0:0,0:0:0:0:
284,328,62404,2,0,L|276:384,2,55,0|0|0,0:0|0:0|0:0,0:0:0:0:
384,284,62963,6,0,L|368:168,1,110,4|0,0:0|0:0,0:0:0:0:
404,132,63381,1,8,0:0:0:0:
344,40,63660,2,0,P|288:40|240:68,1,110,0|8,0:0|0:0,0:0:0:0:
200,104,64079,1,0,0:0:0:0:
200,103,64218,2,0,P|119:112|54:64,1,165
12,168,64916,1,0,0:0:0:0:
36,276,65195,6,0,P|90:283|139:259,1,110,4|0,0:0|0:0,0:0:0:0:
172,216,65614,1,0,0:0:0:0:
272,168,65893,2,0,L|384:188,1,110,8|0,0:0|0:0,0:0:0:0:
472,244,66451,2,0,P|492:193|476:142,1,110,0|8,0:0|0:0,0:0:0:0:
392,68,67009,2,0,L|404:8,2,55,8|0|0,0:0|0:0|0:0,0:0:0:0:
344,96,67428,6,0,P|269:68|202:111,1,165,4|8,0:0|0:0,0:0:0:0:
144,204,68125,2,0,L|20:192,2,110,0|8|0,0:0|0:0|0:0,0:0:0:0:
200,300,68963,1,8,0:0:0:0:
276,220,69242,2,0,L|392:232,1,110,0|8,0:0|0:0,0:0:0:0:
428,199,69660,2,0,P|415:252|435:303,1,110,4|0,0:0|0:0,0:0:0:0:
480,336,70079,1,8,0:0:0:0:
380,372,70358,6,0,L|264:360,1,110,0|8,0:0|0:0,0:0:0:0:
171,303,70916,2,0,P|156:252|171:200,1,110,0|8,0:0|0:0,0:0:0:0:
208,159,71335,2,0,P|223:108|207:56,1,110,0|0,0:0|0:0,0:0:0:0:
176,28,71753,1,8,0:0:0:0:
176,28,71893,6,0,L|344:48,1,165,4|8,0:0|0:0,0:0:0:0:
428,116,72590,2,0,P|440:169|428:222,1,110,0|8,0:0|0:0,0:0:0:0:
360,316,73149,2,0,L|248:304,1,110,0|8,0:0|0:0,0:0:0:0:
204,336,73567,1,0,0:0:0:0:
204,336,73707,6,0,P|228:256|208:176,2,165,0|4|8,0:0|0:0|0:0,0:0:0:0:
88,316,74823,2,0,L|20:320,2,55,0|0|8,0:0|0:0|0:0,0:0:0:0:
48,212,75381,2,0,P|35:158|50:106,1,110,0|8,0:0|0:0,0:0:0:0:
88,76,75800,1,0,0:0:0:0:
88,76,75939,2,0,L|152:84,1,55,0|0,0:0|0:0,0:0:0:0:
243,36,76358,6,0,P|322:20|382:72,1,165,4|8,0:0|0:0,0:0:0:0:
472,140,77056,2,0,B|460:208|460:208|472:288|472:288|460:360,1,220,8|0,0:0|0:0,0:0:0:0:
252,268,78172,1,8,0:0:0:0:
160,328,78451,1,0,0:0:0:0:
160,220,78730,6,0,P|144:168|160:112,1,110,0|0,0:0|0:0,0:0:0:0:
248,52,79288,2,0,P|261:104|245:156,1,110,0|0,0:0|0:0,0:0:0:0:
304,248,79846,2,0,B|376:248|376:248|436:208|436:208|512:208,1,220,0|0,0:0|0:0,0:0:0:0:
472,104,80684,1,8,3:0:0:0:
380,40,80963,6,0,P|328:23|277:42,1,110,4|8,0:0|0:0,0:0:0:0:
236,88,81381,2,0,L|252:200,1,110,0|0,0:0|0:0,0:0:0:0:
303,211,81800,2,0,P|197:219|128:301,1,220,4|0,0:0|0:0,0:0:0:0:
20,276,82637,2,0,L|-8:220,2,55,8|0|8,0:0|0:0|0:0,0:0:0:0:
88,188,83195,6,0,B|60:108|60:108|83:31,2,165,4|0|12,0:0|0:0|0:0,0:0:0:0:
256,192,84311,12,0,86544,0:0:0:0:
