osu file format v14

[General]
AudioFilename: audio.mp3
AudioLeadIn: 0
PreviewTime: 58009
Countdown: 0
SampleSet: Normal
StackLeniency: 0.7
Mode: 0
LetterboxInBreaks: 0
WidescreenStoryboard: 1

[Editor]
DistanceSpacing: 1.1
BeatDivisor: 4
GridSize: 4
TimelineZoom: 1

[Metadata]
Title:Saishuukai STORY
TitleUnicode:最終回STORY
Artist:MY FIRST STORY
ArtistUnicode:MY FIRST STORY
Creator:HabiHolic
Version:Easy
Source:
Tags:Hiroki Moriuchi Nobuaki Katou Teruki Nishizawa Shouhei Sasaki 森内寛樹 加藤伸明 佐々木翔平 西澤照貴 Nob Teru Hiro Kid'z tutuhaha
BeatmapID:1145627
BeatmapSetID:535013

[Difficulty]
HPDrainRate:2
CircleSize:3
OverallDifficulty:2
ApproachRate:3
SliderMultiplier:0.8
SliderTickRate:1

[Events]
//Background and Video events
0,0,"BG.jpg",0,0
//Break Periods
//Storyboard Layer 0 (Background)
//Storyboard Layer 1 (Fail)
//Storyboard Layer 2 (Pass)
//Storyboard Layer 3 (Foreground)
//Storyboard Sound Samples

[TimingPoints]
591,279.06976744186,4,1,1,75,1,0
58497,-100,4,1,1,75,0,1
76358,-100,4,1,1,75,0,0
86544,-100,4,2,1,5,0,0

[Colours]
Combo1 : 96,96,255
Combo2 : 128,128,192
Combo3 : 18,124,255

[HitObjects]
28,168,8963,5,8,0:0:0:0:
144,108,9381,2,0,P|160:165|143:222,1,120,4|8,0:0|0:0,0:0:0:0:
160,308,10079,2,0,L|244:296,1,80,0|8,0:0|0:0,0:0:0:0:
328,296,10637,2,0,L|407:307,1,80,0|8,0:0|0:0,0:0:0:0:
480,255,11195,2,0,P|500:200|482:144,2,120,0|4|8,0:0|0:0|0:0,0:0:0:0:
412,200,12311,5,0,0:0:0:0:
336,152,12590,1,8,0:0:0:0:
255,192,12870,2,0,P|216:193|181:174,1,80
132,100,13428,2,0,L|112:224,1,120,8|4,0:0|0:0,0:0:0:0:
160,348,14265,5,0,0:0:0:0:
228,292,14544,2,0,P|306:291|364:343,2,160,8|0|8,0:0|0:0|0:0,0:0:0:0:
107,235,16079,2,0,P|91:178|107:121,1,120,4|8,0:0|0:0,0:0:0:0:
176,64,16777,2,0,B|220:76|220:76|260:64,1,80,8|8,0:0|0:0,0:0:0:0:
340,64,17335,2,0,B|384:76|384:76|420:64,1,80,0|0,0:0|0:0,0:0:0:0:
488,120,17893,2,0,L|472:248,1,120,8|0,0:0|0:0,0:0:0:0:
396,348,18730,5,8,0:0:0:0:
324,300,19009,2,0,P|280:300|248:320,1,80,0|8,0:0|0:0,0:0:0:0:
176,364,19567,2,0,L|92:356,1,80,0|8,0:0|0:0,0:0:0:0:
31,295,20125,2,0,P|15:238|27:180,1,120,0|4,0:0|0:0,0:0:0:0:
136,104,20963,6,0,L|216:116,1,80,8|8,0:0|0:0,0:0:0:0:
288,164,21521,1,8,0:0:0:0:
364,116,21800,2,0,P|376:72|364:32,2,80,8|8|8,0:0|0:0|0:0,0:0:0:0:
275,212,22777,6,0,P|259:268|278:324,1,120,0|0,0:0|0:0,0:0:0:0:
356,364,23474,1,8,0:0:0:0:
468,228,24032,2,0,B|480:172|480:172|468:120|468:120|480:72,1,160,0|8,0:0|0:0,0:0:0:0:
360,24,25009,2,0,P|296:24|248:64,1,120,4|8,0:0|0:0,0:0:0:0:
184,112,25707,2,0,L|92:100,1,80,8|8,0:0|0:0,0:0:0:0:
32,152,26265,6,0,P|24:192|36:232,1,80,8|8,0:0|0:0,0:0:0:0:
96,292,26823,2,0,L|184:284,1,80,8|8,3:0|0:0,0:0:0:0:
240,224,27381,5,0,0:0:0:0:
308,280,27660,2,0,P|383:292|434:234,2,160,8|8|8,0:0|0:0|0:0,0:0:0:0:
256,112,29335,5,8,0:0:0:0:
176,76,29614,2,0,P|168:120|184:164,1,80,0|8,0:0|0:0,0:0:0:0:
188,328,30451,2,0,L|16:304,2,160,8|8|8,0:0|0:0|0:0,0:0:0:0:
268,292,31846,6,0,P|280:252|272:216,1,80,0|8,0:0|0:0,0:0:0:0:
144,92,32684,2,0,P|120:164|152:244,2,160,8|8|8,0:0|0:0|0:0,0:0:0:0:
216,40,34079,6,0,L|304:56,1,80,0|8,0:0|0:0,0:0:0:0:
468,84,34916,1,8,0:0:0:0:
499,168,35195,2,0,P|423:165|380:101,1,160,0|8,0:0|0:0,0:0:0:0:
348,20,36032,1,8,0:0:0:0:
275,72,36311,6,0,P|217:77|169:44,2,120,0|0|8,0:0|0:0|0:0,0:0:0:0:
332,140,37428,2,0,L|320:228,1,80,0|8,0:0|0:0,0:0:0:0:
260,280,37986,2,0,P|221:288|182:277,1,80,0|8,0:0|0:0,0:0:0:0:
119,215,38544,6,0,P|61:211|19:251,2,120,0|0|8,0:0|0:0|0:0,0:0:0:0:
200,180,39660,2,0,L|212:96,1,80,0|8,0:0|0:0,0:0:0:0:
300,104,40218,2,0,L|311:183,1,80,0|8,0:0|0:0,0:0:0:0:
356,260,40777,6,0,P|413:272|466:246,2,120,0|0|8,0:0|0:0|0:0,0:0:0:0:
280,304,41893,2,0,L|196:304,1,80,0|8,0:0|0:0,0:0:0:0:
119,339,42451,2,0,P|108:302|117:263,1,80,0|8,0:0|0:0,0:0:0:0:
172,192,43009,6,0,P|192:136|172:76,2,120,0|0|8,0:0|0:0|0:0,0:0:0:0:
104,136,44125,1,4,0:0:0:0:
172,192,44404,2,0,L|256:192,1,80,8|8,0:0|0:0,0:0:0:0:
320,136,44963,1,8,0:0:0:0:
388,192,45242,6,0,P|408:247|388:302,2,120,4|0|4,0:0|0:0|0:0,0:0:0:0:
267,248,46497,2,0,P|209:251|165:212,1,120,8|8,0:0|0:0,0:0:0:0:
124,136,47195,1,8,0:0:0:0:
60,196,47474,2,0,L|76:320,2,120,4|0|8,0:0|0:0|0:0,0:0:0:0:
44,108,48590,6,0,L|64:28,1,80,0|8,0:0|0:0,0:0:0:0:
148,56,49149,2,0,L|128:136,1,80,8|8,3:0|0:0,0:0:0:0:
196,192,49707,2,0,P|252:207|304:179,1,120,4|0,0:0|0:0,0:0:0:0:
376,80,50544,1,8,0:0:0:0:
448,128,50823,6,0,L|432:248,2,120,0|0|0,0:0|0:0|0:0,0:0:0:0:
376,80,51939,2,0,P|320:66|268:94,2,120,4|0|8,0:0|0:0|0:0,0:0:0:0:
332,156,53056,2,0,L|320:244,1,80,4|0,0:0|0:0,0:0:0:0:
260,300,53614,2,0,P|216:300|184:280,1,80,8|8,0:0|3:0,0:0:0:0:
144,204,54172,5,8,0:0:0:0:
40,60,58497,6,0,B|56:120|56:120|36:184,1,120,4|8,0:0|0:0,0:0:0:0:
108,228,59195,2,0,L|144:112,2,120,0|0|8,0:0|0:0|0:0,0:0:0:0:
140,308,60311,2,0,P|196:323|246:293,1,120,0|4,0:0|0:0,0:0:0:0:
324,184,61149,6,0,L|312:100,2,80,8|8|8,0:0|0:0|0:0,0:0:0:0:
404,220,61986,2,0,L|392:299,1,80,0|8,0:0|0:0,0:0:0:0:
324,352,62544,1,0,0:0:0:0:
231,259,62963,6,0,P|174:248|128:283,1,120,4|8,0:0|0:0,0:0:0:0:
56,332,63660,2,0,L|44:252,1,80,0|8,0:0|0:0,0:0:0:0:
44,164,64218,2,0,L|56:84,1,80,0|8,0:0|0:0,0:0:0:0:
124,28,64777,1,0,0:0:0:0:
204,132,65195,6,0,P|261:144|315:120,1,120,4|0,0:0|0:0,0:0:0:0:
364,48,65893,2,0,L|448:56,1,80,8|0,0:0|0:0,0:0:0:0:
492,128,66451,2,0,P|472:204|499:278,1,160,0|8,0:0|0:0,0:0:0:0:
380,340,67428,6,0,B|340:340|340:340|304:320|304:320|264:320,1,120,4|8,0:0|0:0,0:0:0:0:
199,259,68125,2,0,P|188:222|197:183,1,80,0|8,0:0|0:0,0:0:0:0:
260,124,68684,2,0,P|269:85|260:44,1,80,0|8,0:0|0:0,0:0:0:0:
180,84,69242,6,0,L|56:68,2,120,0|4|8,0:0|0:0|0:0,0:0:0:0:
260,124,70358,2,0,L|344:116,1,80,0|8,0:0|0:0,0:0:0:0:
415,72,70916,2,0,P|399:128|420:183,1,120,0|0,0:0|0:0,0:0:0:0:
488,244,71614,1,0,0:0:0:0:
416,300,71893,6,0,L|292:280,1,120,4|8,0:0|0:0,0:0:0:0:
236,220,72590,2,0,L|156:232,1,80,0|8,0:0|0:0,0:0:0:0:
79,187,73149,2,0,P|72:149|77:109,1,80,0|8,0:0|0:0,0:0:0:0:
140,40,73707,2,0,L|268:60,1,120,0|4,0:0|0:0,0:0:0:0:
380,108,74544,6,0,L|468:96,2,80,8|0|8,0:0|0:0|0:0,0:0:0:0:
315,168,75381,2,0,P|315:246|361:310,1,160,0|0,0:0|0:0,0:0:0:0:
232,344,76358,2,0,L|113:328,1,120,4|8,0:0|0:0,0:0:0:0:
44,276,77056,2,0,P|71:202|50:126,1,160,8|0,0:0|0:0,0:0:0:0:
204,36,78172,1,8,0:0:0:0:
268,96,78451,1,0,0:0:0:0:
332,31,78730,6,0,P|371:30|408:45,1,80,0|0,0:0|0:0,0:0:0:0:
464,116,79288,2,0,B|464:160|464:160|488:196,1,80,0|0,0:0|0:0,0:0:0:0:
424,256,79846,2,0,B|392:216|392:216|272:216,1,160,0|0,0:0|0:0,0:0:0:0:
212,268,80684,1,8,3:0:0:0:
147,207,80963,6,0,P|127:153|149:98,2,120,4|0|4,0:0|0:0|0:0,0:0:0:0:
316,152,82358,1,0,0:0:0:0:
352,72,82637,2,0,P|384:95|402:130,1,80,8|8,0:0|0:0,0:0:0:0:
476,180,83195,6,0,L|500:52,2,120,4|0|12,0:0|0:0|0:0,0:0:0:0:
256,192,84311,12,0,86544,0:0:0:0:
