osu file format v14

[General]
AudioFilename: audio.mp3
AudioLeadIn: 0
PreviewTime: 49819
Countdown: 0
SampleSet: Soft
StackLeniency: 0.7
Mode: 0
LetterboxInBreaks: 0
WidescreenStoryboard: 0

[Editor]
Bookmarks: 238257
DistanceSpacing: 1.6
BeatDivisor: 4
GridSize: 4
TimelineZoom: 3.599998

[Metadata]
Title:REVIVER
TitleUnicode:REVIVER
Artist:MY FIRST STORY
ArtistUnicode:MY FIRST STORY
Creator:Moway
Version:Rebirth
Source:
Tags:
BeatmapID:1931971
BeatmapSetID:924858

[Difficulty]
HPDrainRate:7
CircleSize:4.1
OverallDifficulty:9
ApproachRate:9.3
SliderMultiplier:1.8
SliderTickRate:1

[Events]
//Background and Video events
0,0,"sayakabg.png",0,0
//Break Periods
2,89057,97903
2,165882,172303
2,222257,231103
//Storyboard Layer 0 (Background)
//Storyboard Layer 1 (Fail)
//Storyboard Layer 2 (Pass)
//Storyboard Layer 3 (Foreground)
//Storyboard Layer 4 (Overlay)
//Storyboard Sound Samples

[TimingPoints]
807.317633847283,300,4,2,1,100,1,0
2607,300,4,2,1,100,1,0
2607,-111.111111111111,4,2,1,80,0,0
11007,-100,4,2,1,95,0,0
12057,-100,4,2,1,95,0,1
12132,-100,4,2,1,95,0,0
21657,-111.111111111111,4,2,1,80,0,0
41007,-133.333333333333,4,2,1,60,0,0
45657,-117.647058823529,4,2,1,60,0,0
48207,-100,4,2,1,95,0,0
49407,-250,4,2,1,5,0,0
50457,-100,4,2,1,95,0,1
68607,-250,4,2,1,95,0,0
69357,-100,4,2,1,95,0,0
69657,-100,4,2,1,95,0,1
88782,-100,4,2,1,95,0,0
88857,-100,4,2,1,95,0,1
88932,-100,4,2,1,95,0,0
98457,-133.333333333333,4,2,1,70,0,0
107007,-111.111111111111,4,2,1,80,0,0
117807,-133.333333333333,4,2,1,60,0,0
122607,-117.647058823529,4,2,1,60,0,0
125007,-100,4,2,1,95,0,0
127257,-100,4,2,1,95,0,1
145407,-250,4,2,1,95,0,0
146457,-100,4,2,1,95,0,1
163407,-100,4,2,1,95,0,0
172857,-133.333333333333,4,2,1,80,0,0
189807,-111.111111111111,4,2,1,90,0,0
192057,-100,4,2,1,95,0,1
192132,-100,4,2,1,95,0,0
222057,-250,4,2,1,50,0,0
231657,-250,4,2,1,50,0,0
236457,-100,4,2,1,60,0,0
237807,-100,4,2,1,70,0,0
239007,-100,4,2,1,80,0,0
240207,-100,4,2,1,90,0,0
242457,-95.2380952380952,4,2,1,100,0,1
261582,-95.2380952380952,4,2,1,100,0,0
261657,-95.2380952380952,4,2,1,100,0,1
283257,-95.2380952380952,4,2,1,100,0,0
283857,-95.2380952380952,4,2,1,90,0,0
284457,-95.2380952380952,4,2,1,80,0,0
285057,-95.2380952380952,4,2,1,70,0,0
285657,-95.2380952380952,4,2,1,60,0,0
286257,-95.2380952380952,4,2,1,50,0,0
286857,-95.2380952380952,4,2,1,40,0,0
287457,-95.2380952380952,4,2,1,30,0,0
288057,-95.2380952380952,4,2,1,20,0,0
288657,-95.2380952380952,4,2,1,10,0,0
289257,-95.2380952380952,4,2,1,5,0,0

[Colours]
Combo1 : 157,206,255
Combo2 : 0,64,128
Combo3 : 192,192,192
Combo4 : 128,128,192

[HitObjects]
256,192,807,12,0,2007,0:0:0:0:
417,217,2157,5,2,0:0:0:0:
417,217,2232,1,2,0:0:0:0:
417,217,2307,1,8,0:0:0:0:
95,167,2607,6,0,L|184:179,1,80.9999975280763,4|2,0:0|0:0,0:0:0:0:
341,112,2907,1,8,0:0:0:0:
417,217,3057,2,0,L|231:244,1,161.999995056153,2|2,0:0|0:0,0:0:0:0:
341,112,3507,1,8,0:0:0:0:
266,315,3657,6,0,P|233:244|258:169,1,161.999995056153,2|2,0:0|0:0,0:0:0:0:
82,210,4107,1,8,0:0:0:0:
158,18,4557,1,2,0:0:0:0:
82,210,4707,1,8,0:0:0:0:
82,210,5007,6,0,L|-18:232,1,80.9999975280763,2|2,0:0|0:0,0:0:0:0:
186,126,5307,1,8,0:0:0:0:
203,302,5457,2,0,P|252:278|371:277,1,161.999995056153,2|2,0:0|0:0,0:0:0:0:
351,125,5907,1,8,0:0:0:0:
198,205,6057,6,0,B|167:163|177:123|177:123|197:50,1,161.999995056153,2|2,0:0|0:0,0:0:0:0:
383,153,6507,2,0,L|295:180,1,80.9999975280763,8|2,0:0|0:0,0:0:0:0:
124,283,6807,1,2,0:0:0:0:
162,294,6882,1,0,0:0:0:0:
200,306,6957,1,2,0:0:0:0:
239,316,7032,1,0,0:0:0:0:
278,326,7107,2,0,L|355:302,1,80.9999975280763,8|0,0:0|0:0,0:0:0:0:
468,114,7407,6,0,P|476:153|466:192,1,80.9999975280763,4|2,0:0|0:0,0:0:0:0:
296,316,7707,1,8,0:0:0:0:
228,229,7857,2,0,P|215:161|223:68,1,161.999995056153,2|2,0:0|0:0,0:0:0:0:
417,31,8307,1,8,0:0:0:0:
465,192,8457,6,0,P|421:209|311:192,1,161.999995056153,2|2,0:0|0:0,0:0:0:0:
168,79,8907,1,8,0:0:0:0:
327,312,9357,1,2,0:0:0:0:
168,79,9507,1,8,0:0:0:0:
168,79,9807,6,0,B|153:121|166:171,1,80.9999975280763,2|2,0:0|0:0,0:0:0:0:
261,25,10107,1,8,0:0:0:0:
89,193,10257,2,0,P|142:241|241:252,1,161.999995056153,2|2,0:0|0:0,0:0:0:0:
446,175,10707,1,8,0:0:0:0:
285,136,10857,2,0,L|240:126,1,40.4999987640381,2|2,0:0|0:0,0:0:0:0:
440,81,11007,5,8,0:0:0:0:
371,288,11157,1,8,0:0:0:0:
349,316,11232,1,8,0:0:0:0:
321,339,11307,1,8,0:0:0:0:
288,354,11382,1,8,0:0:0:0:
252,361,11457,1,8,0:0:0:0:
216,355,11532,1,8,0:0:0:0:
185,336,11607,2,0,L|169:293,1,45,8|0,0:0|0:0,0:0:0:0:
237,91,11757,2,0,L|221:133,1,45,8|0,0:0|0:0,0:0:0:0:
81,301,11907,2,0,L|97:259,1,45,8|0,0:0|0:0,0:0:0:0:
364,137,12057,6,0,P|336:188|219:228,1,180,4|2,0:0|0:0,0:0:0:0:
375,35,12507,1,8,0:0:0:0:
237,91,12657,1,2,0:0:0:0:
492,180,12807,2,0,L|482:271,1,90,0|2,0:0|0:0,0:0:0:0:
417,131,13107,1,8,0:0:0:0:
325,287,13257,6,0,B|309:159|309:159|327:111,1,180,2|2,0:0|0:0,0:0:0:0:
459,67,13707,1,8,0:0:0:0:
313,200,13857,2,0,B|225:227|225:227|130:213,1,180,2|2,0:0|0:0,0:0:0:0:
182,62,14307,1,8,0:0:0:0:
364,290,14457,6,0,P|392:247|373:118,1,180,4|2,0:0|0:0,0:0:0:0:
55,72,14907,2,0,L|77:170,1,90,8|2,0:0|0:0,0:0:0:0:
256,105,15207,1,0,0:0:0:0:
222,227,15357,2,0,L|200:325,1,90,2|8,0:0|0:0,0:0:0:0:
156,77,15657,5,2,0:0:0:0:
28,191,15807,2,0,P|79:189|124:176,1,90,0|2,0:0|0:0,0:0:0:0:
319,15,16107,2,0,P|268:17|223:30,1,90,8|2,0:0|0:0,0:0:0:0:
28,191,16407,1,8,0:3:0:0:
33,221,16482,1,8,0:3:0:0:
38,251,16557,1,4,0:3:0:0:
43,282,16632,1,4,0:3:0:0:
48,313,16707,2,0,L|111:305,1,45,8|0,0:0|0:0,0:0:0:0:
265,312,16857,6,0,P|177:331|92:307,1,180,4|2,0:0|0:0,0:0:0:0:
198,39,17307,2,0,P|204:87|199:138,1,90,8|2,0:0|0:0,0:0:0:0:
92,307,17607,1,0,0:0:0:0:
3,206,17757,2,0,P|-3:158|2:107,1,90,2|8,0:0|0:0,0:0:0:0:
198,233,18057,6,0,B|269:213|269:213|314:246|374:242,1,180,2|2,0:0|0:0,0:0:0:0:
357,96,18507,1,8,0:0:0:0:
176,331,18657,2,0,P|128:307|104:187,1,180,2|2,0:0|0:0,0:0:0:0:
249,45,19107,1,8,0:0:0:0:
319,176,19257,6,0,B|348:214|348:214|217:179,1,180,4|2,0:0|0:0,0:0:0:0:
28,156,19707,1,8,0:0:0:0:
75,37,19857,1,2,0:0:0:0:
28,156,20007,2,0,P|20:201|30:245,1,90,0|2,0:0|0:0,0:0:0:0:
223,326,20307,1,8,0:0:0:0:
251,231,20457,2,0,L|201:237,1,45,2|0,0:0|0:0,0:0:0:0:
36,339,20607,6,0,L|130:329,1,90,0|2,0:0|0:0,0:0:0:0:
159,69,20907,1,8,0:0:0:0:
57,134,21057,1,8,0:3:0:0:
63,155,21132,1,8,0:3:0:0:
69,176,21207,1,4,0:3:0:0:
206,166,21357,1,2,0:0:0:0:
30,33,21507,1,8,0:0:0:0:
108,263,21657,6,0,P|183:274|270:266,1,161.999995056153,4|2,0:0|0:0,0:0:0:0:
358,230,22107,2,0,L|371:148,1,80.9999975280763,8|0,0:0|0:0,0:0:0:0:
149,46,22407,1,2,0:0:0:0:
149,46,22557,1,2,0:0:0:0:
73,106,22707,2,0,L|86:188,1,80.9999975280763,8|0,0:0|0:0,0:0:0:0:
247,340,23007,6,0,P|267:305|268:265,1,80.9999975280763,2|0,0:0|0:0,0:0:0:0:
212,154,23307,1,8,0:0:0:0:
53,300,23457,2,0,L|135:287,1,80.9999975280763,0|2,0:0|0:0,0:0:0:0:
293,184,23757,1,2,0:0:0:0:
121,93,23907,1,8,0:0:0:0:
133,287,24057,6,0,P|193:250|184:157,1,161.999995056153,4|2,0:0|0:0,0:0:0:0:
16,70,24507,2,0,L|26:159,1,80.9999975280763,8|0,0:0|0:0,0:0:0:0:
298,230,24807,2,0,L|288:141,1,80.9999975280763,2|2,0:0|0:0,0:0:0:0:
45,254,25107,2,0,P|93:254|140:237,1,80.9999975280763,8|0,0:0|0:0,0:0:0:0:
269,46,25407,6,0,P|221:46|174:63,1,80.9999975280763,2|0,0:0|0:0,0:0:0:0:
45,254,25707,1,8,0:0:0:0:
237,220,25857,2,0,L|278:213,2,40.4999987640381,0|0|2,0:0|0:0|0:0,0:0:0:0:
39,160,26157,1,2,0:0:0:0:
197,310,26307,1,8,0:0:0:0:
41,312,26457,6,0,P|15:236|38:160,1,161.999995056153,4|2,0:0|0:0,0:0:0:0:
166,144,26907,2,0,L|267:135,1,80.9999975280763,8|0,0:0|0:0,0:0:0:0:
343,50,27207,1,2,0:0:0:0:
343,50,27357,1,2,0:0:0:0:
325,206,27507,2,0,L|244:213,1,80.9999975280763,8|0,0:0|0:0,0:0:0:0:
41,312,27807,6,0,B|96:292|96:292|210:315,1,161.999995056153,2|8,0:0|0:0,0:0:0:0:
39,201,28257,1,0,0:0:0:0:
108,74,28407,1,2,0:0:0:0:
115,158,28557,1,2,0:0:0:0:
31,41,28707,1,8,0:0:0:0:
39,201,28857,6,0,P|121:239|184:208,1,161.999995056153,4|2,0:0|0:0,0:0:0:0:
299,155,29307,2,0,P|355:151|392:158,1,80.9999975280763,8|0,0:0|0:0,0:0:0:0:
442,292,29607,2,0,P|386:296|349:289,1,80.9999975280763,2|2,0:0|0:0,0:0:0:0:
340,112,29907,1,8,0:0:0:0:
222,278,30057,6,0,B|178:231|187:201|187:201|218:118,1,161.999995056153,4|2,0:0|0:0,0:0:0:0:
366,203,30507,1,8,0:0:0:0:
253,54,30657,1,0,0:0:0:0:
181,225,30807,1,2,0:0:0:0:
327,328,30957,1,8,0:0:0:0:
359,326,31032,1,8,0:0:0:0:
391,325,31107,1,8,0:0:0:0:
423,325,31182,1,0,0:0:0:0:
455,325,31257,6,0,P|482:279|462:166,1,161.999995056153,4|2,0:0|0:0,0:0:0:0:
198,145,31707,2,0,L|181:225,1,80.9999975280763,8|0,0:0|0:0,0:0:0:0:
348,237,32007,1,2,0:0:0:0:
299,144,32157,1,2,0:0:0:0:
139,288,32307,2,0,P|185:299|221:288,1,80.9999975280763,8|0,0:0|0:0,0:0:0:0:
382,118,32607,6,0,P|428:107|464:118,1,80.9999975280763,2|0,0:0|0:0,0:0:0:0:
320,295,32907,1,8,0:0:0:0:
214,210,33057,2,0,P|212:171|217:123,1,80.9999975280763,0|2,0:0|0:0,0:0:0:0:
305,75,33357,1,2,0:0:0:0:
318,291,33507,1,8,0:0:0:0:
150,255,33657,6,0,P|95:240|-23:264,1,161.999995056153,4|2,0:0|0:0,0:0:0:0:
298,221,34107,2,0,L|315:136,1,80.9999975280763,8|0,0:0|0:0,0:0:0:0:
398,326,34407,1,2,0:0:0:0:
398,326,34557,1,2,0:0:0:0:
491,311,34707,2,0,L|475:231,1,80.9999975280763,8|0,0:0|0:0,0:0:0:0:
493,79,35007,6,0,P|447:107|410:109,1,80.9999975280763,2|0,0:0|0:0,0:0:0:0:
206,33,35307,2,0,P|245:40|278:63,1,80.9999975280763,8|0,0:0|0:0,0:0:0:0:
409,184,35607,1,2,0:0:0:0:
239,237,35757,1,2,0:0:0:0:
331,126,35907,1,8,0:0:0:0:
328,295,36057,6,0,P|296:326|179:322,1,161.999995056153,4|2,0:0|0:0,0:0:0:0:
38,335,36507,2,0,L|47:254,1,80.9999975280763,8|0,0:0|0:0,0:0:0:0:
69,57,36807,1,2,0:0:0:0:
69,57,36957,1,2,0:0:0:0:
137,164,37107,2,0,P|182:175|227:170,1,80.9999975280763,8|0,0:0|0:0,0:0:0:0:
331,21,37407,6,0,L|306:191,1,161.999995056153,2|8,0:0|0:0,0:0:0:0:
198,266,37857,1,0,0:0:0:0:
165,21,38007,2,0,L|179:109,1,80.9999975280763,2|2,0:0|0:0,0:0:0:0:
280,259,38307,1,8,0:0:0:0:
114,148,38457,1,0,0:0:0:0:
42,292,38607,6,0,P|111:281|205:295,1,161.999995056153,4|8,0:0|0:0,0:0:0:0:
342,335,39057,1,0,0:0:0:0:
138,365,39207,1,2,0:0:0:0:
280,259,39357,1,2,0:0:0:0:
120,266,39507,2,0,P|109:224|115:183,1,80.9999975280763,8|0,0:0|0:0,0:0:0:0:
386,115,39807,6,0,L|299:123,1,80.9999975280763,4|0,0:0|0:0,0:0:0:0:
66,39,40107,1,8,0:0:0:0:
274,199,40257,2,0,L|309:228,2,40.4999987640381,8|0|8,0:0|0:0|0:0,0:0:0:0:
189,30,40557,1,10,0:3:0:0:
50,129,40707,1,6,0:3:0:0:
266,70,40857,1,4,0:3:0:0:
39,147,41007,6,0,P|102:138|197:133,1,135.000005149842,4|2,0:0|0:3,0:0:0:0:
253,145,41457,2,0,P|319:153|387:158,1,135.000005149842
464,154,42057,1,0,0:0:0:0:
318,182,42207,6,0,P|250:186|183:195,1,135.000005149842,4|0,0:0|0:0,0:0:0:0:
41,165,42657,1,0,0:0:0:0:
152,192,42807,2,0,P|210:203|234:214,1,67.5000025749208,2|0,0:3|0:0,0:0:0:0:
80,237,43107,1,2,0:3:0:0:
112,118,43257,1,0,0:0:0:0:
199,332,43407,6,0,P|220:298|213:197,1,135.000005149842,4|0,0:0|0:0,0:0:0:0:
54,42,43857,2,0,P|33:76|40:177,1,135.000005149842
54,42,44457,1,0,0:0:0:0:
162,179,44607,6,0,B|234:189|234:189|300:183,1,135.000005149842,4|0,0:0|0:0,0:0:0:0:
153,35,45057,1,8,0:3:0:0:
363,243,45357,5,8,0:3:0:0:
358,121,45507,1,8,0:3:0:0:
165,286,45657,5,4,0:3:0:0:
159,289,45732,1,4,0:3:0:0:
152,292,45807,2,0,B|117:299|117:299|69:298,1,76.5000014591217,2|0,0:0|0:0,0:0:0:0:
259,133,46107,1,2,0:0:0:0:
259,133,46257,2,0,B|224:126|224:126|178:125,1,76.5000014591217,0|2,0:0|0:0,0:0:0:0:
421,102,46557,2,0,L|434:192,1,76.5000014591217,0|2,0:0|0:0,0:0:0:0:
323,246,46857,6,0,L|313:322,1,76.5000014591217,0|2,0:0|0:0,0:0:0:0:
80,177,47157,2,0,L|91:102,1,76.5000014591217,0|2,0:0|0:0,0:0:0:0:
314,129,47457,2,0,P|283:143|238:151,1,76.5000014591217,0|2,0:0|0:0,0:0:0:0:
18,78,47757,1,0,0:0:0:0:
121,254,47907,2,0,P|152:240|197:232,1,76.5000014591217,2|0,0:0|0:0,0:0:0:0:
444,143,48207,5,4,0:0:0:0:
416,244,48357,5,8,0:0:0:0:
393,240,48432,1,0,0:0:0:0:
371,234,48507,1,8,0:0:0:0:
350,225,48582,1,0,0:0:0:0:
329,215,48657,1,8,0:0:0:0:
308,204,48732,1,0,0:0:0:0:
288,191,48807,1,8,0:0:0:0:
292,231,48882,5,0,0:0:0:0:
296,271,48957,1,8,0:0:0:0:
301,311,49032,1,0,0:0:0:0:
306,351,49107,1,8,0:0:0:0:
342,333,49182,1,0,0:0:0:0:
376,311,49257,1,8,0:0:0:0:
409,288,49332,1,0,0:0:0:0:
441,263,49407,6,0,P|426:204|374:217,1,126
474,334,50007,5,0,0:0:0:0:
341,103,50157,1,0,0:0:0:0:
232,320,50457,6,0,P|163:335|35:316,1,180,4|2,0:0|0:0,0:0:0:0:
206,111,50907,2,0,L|216:204,1,90,8|0,0:0|0:0,0:0:0:0:
55,162,51207,1,2,0:0:0:0:
129,33,51357,1,2,0:0:0:0:
301,195,51507,2,0,P|345:193|400:184,1,90,8|0,0:0|0:0,0:0:0:0:
237,40,51807,6,0,L|219:134,1,90,2|0,0:0|0:0,0:0:0:0:
124,339,52107,2,0,L|106:245,1,90,8|0,0:0|0:0,0:0:0:0:
80,89,52407,1,2,0:0:0:0:
201,221,52557,1,2,0:0:0:0:
151,34,52707,1,8,0:0:0:0:
214,296,52857,6,0,P|280:306|408:294,1,180,4|2,0:0|0:0,0:0:0:0:
512,122,53307,2,0,P|468:117|423:122,1,90,8|0,0:0|0:0,0:0:0:0:
334,6,53607,2,0,P|299:33|271:68,1,90,2|2,0:0|0:0,0:0:0:0:
129,37,53907,2,0,P|124:80|129:126,1,90,8|0,0:0|0:0,0:0:0:0:
282,320,54207,6,0,P|287:277|282:231,1,90,2|0,0:0|0:0,0:0:0:0:
115,61,54507,1,8,0:0:0:0:
121,237,54657,1,0,0:0:0:0:
228,175,54807,1,2,0:0:0:0:
11,113,54957,1,2,0:0:0:0:
205,80,55107,1,8,0:0:0:0:
89,322,55257,6,0,P|119:272|103:150,1,180,4|2,0:0|0:0,0:0:0:0:
272,185,55707,2,0,L|372:208,1,90,8|0,0:0|0:0,0:0:0:0:
501,242,56007,1,2,0:0:0:0:
371,115,56157,1,2,0:0:0:0:
258,261,56307,2,0,P|255:310|266:360,1,90,8|0,0:0|0:0,0:0:0:0:
288,132,56607,6,0,P|374:113|458:143,1,180,2|8,0:0|0:0,0:0:0:0:
302,28,57057,1,0,0:0:0:0:
149,196,57207,1,2,0:0:0:0:
149,196,57357,1,2,0:0:0:0:
230,246,57507,2,0,P|245:203|233:149,1,90,8|0,0:0|0:0,0:0:0:0:
99,44,57807,6,0,P|84:87|96:141,1,90,4|0,0:0|0:0,0:0:0:0:
242,79,58107,1,8,0:0:0:0:
67,206,58257,1,0,0:0:0:0:
143,303,58407,1,2,0:0:0:0:
175,39,58557,1,2,0:0:0:0:
257,279,58707,1,8,0:0:0:0:
90,130,58857,6,0,L|0:136,1,90,4|0,0:0|0:0,0:0:0:0:
176,188,59157,1,8,0:0:0:0:
206,168,59232,1,8,0:0:0:0:
241,159,59307,1,8,0:0:0:0:
276,154,59382,1,8,0:0:0:0:
311,155,59457,1,8,0:0:0:0:
346,162,59532,1,0,0:0:0:0:
377,180,59607,6,0,L|397:237,1,45,8|8,0:0|0:0,0:0:0:0:
483,328,59757,2,0,L|503:271,1,45,8|8,0:3|0:3,0:0:0:0:
483,102,59907,2,0,L|426:82,1,45,4|4,0:3|0:3,0:0:0:0:
154,68,60057,6,0,P|218:82|334:57,1,180,4|2,0:0|0:0,0:0:0:0:
105,151,60507,2,0,L|4:170,1,90,8|0,0:0|0:0,0:0:0:0:
240,68,60807,1,2,0:0:0:0:
289,198,60957,1,2,0:0:0:0:
196,316,61107,2,0,P|182:268|189:228,1,90,8|0,0:0|0:0,0:0:0:0:
349,18,61407,6,0,P|363:66|356:106,1,90,2|0,0:0|0:0,0:0:0:0:
115,185,61707,2,0,L|26:168,1,90,8|0,0:0|0:0,0:0:0:0:
240,68,62007,1,2,0:0:0:0:
279,234,62157,1,2,0:0:0:0:
120,81,62307,1,8,0:0:0:0:
329,127,62457,6,0,P|373:161|384:285,1,180,6|2,0:0|0:0,0:0:0:0:
225,311,62907,2,0,L|130:323,1,90,8|0,0:0|0:0,0:0:0:0:
239,138,63207,2,0,L|334:126,1,90,2|0,0:0|0:0,0:0:0:0:
476,266,63507,2,0,L|381:278,1,90,8|0,0:0|0:0,0:0:0:0:
56,330,63807,6,0,P|43:286|54:239,1,90,2|0,0:0|0:0,0:0:0:0:
221,125,64107,1,8,0:0:0:0:
53,90,64257,1,0,0:0:0:0:
184,229,64407,1,8,0:0:0:0:
216,243,64482,1,8,0:3:0:0:
248,257,64557,1,4,0:3:0:0:
280,271,64632,1,4,0:3:0:0:
313,283,64707,2,0,L|378:274,1,45,8|0,0:0|0:0,0:0:0:0:
491,144,64857,6,0,P|434:174|322:163,1,180,4|2,0:0|0:0,0:0:0:0:
395,63,65307,1,8,0:0:0:0:
491,242,65457,1,2,0:0:0:0:
480,64,65607,1,0,0:0:0:0:
313,37,65757,1,2,0:0:0:0:
313,37,65832,1,2,0:0:0:0:
313,37,65907,2,0,L|247:44,1,45,8|0,0:0|0:0,0:0:0:0:
51,67,66057,6,0,P|107:56|201:147,1,180,4|2,0:0|0:0,0:0:0:0:
155,301,66507,1,8,0:0:0:0:
104,143,66657,1,2,0:0:0:0:
248,285,66807,1,0,0:0:0:0:
53,340,66957,1,2,0:0:0:0:
53,340,67032,1,2,0:0:0:0:
53,340,67107,2,0,L|47:286,1,45,8|0,0:0|0:0,0:0:0:0:
97,94,67257,2,0,L|112:200,1,90,4|0,0:0|0:0,0:0:0:0:
210,332,67557,5,8,0:0:0:0:
254,323,67632,1,8,0:0:0:0:
298,313,67707,1,8,0:0:0:0:
342,305,67782,1,8,0:0:0:0:
386,297,67857,5,0,0:0:0:0:
365,288,67932,1,0,0:0:0:0:
343,280,68007,1,0,0:0:0:0:
321,271,68082,1,0,0:0:0:0:
299,263,68157,1,0,0:0:0:0:
277,255,68232,1,0,0:0:0:0:
256,246,68307,5,0,0:0:0:0:
251,223,68382,1,0,0:0:0:0:
271,212,68457,1,0,0:0:0:0:
291,222,68532,1,0,0:0:0:0:
295,234,68607,6,0,B|260:224|221:232|221:232|236:192|225:143,1,162
150,148,69357,6,0,L|154:200,1,45,2|2,0:0|0:0,0:0:0:0:
281,80,69507,2,0,L|277:28,1,45,8|0,0:0|0:0,0:0:0:0:
83,304,69657,6,0,P|132:320|277:304,1,180,4|2,0:0|0:0,0:0:0:0:
486,152,70107,2,0,L|382:166,1,90,8|0,0:0|0:0,0:0:0:0:
83,183,70407,1,2,0:0:0:0:
239,240,70557,1,2,0:0:0:0:
192,32,70707,2,0,P|181:75|189:119,1,90,8|0,0:0|0:0,0:0:0:0:
348,250,71007,5,2,0:0:0:0:
275,77,71157,1,0,0:0:0:0:
148,267,71307,2,0,L|237:260,1,90,8|0,0:0|0:0,0:0:0:0:
362,165,71607,1,2,0:0:0:0:
131,135,71757,1,2,0:0:0:0:
367,88,71907,1,8,0:0:0:0:
142,46,72057,6,0,B|118:91|118:91|153:235,1,180,4|2,0:0|0:0,0:0:0:0:
362,338,72507,2,0,L|339:241,1,90,8|0,0:0|0:0,0:0:0:0:
223,41,72807,1,2,0:0:0:0:
362,168,72957,1,2,0:0:0:0:
237,217,73107,2,0,P|186:225|147:215,1,90,8|0,0:0|0:0,0:0:0:0:
320,99,73407,6,0,P|371:91|410:101,1,90,2|0,0:0|0:0,0:0:0:0:
486,233,73707,2,0,L|472:327,1,90,8|0,0:0|0:0,0:0:0:0:
481,53,74007,1,2,0:0:0:0:
362,240,74157,1,2,0:0:0:0:
337,17,74307,1,8,0:0:0:0:
274,234,74457,6,0,B|257:283|257:283|217:261|162:251|120:270,1,180,4|2,0:0|0:0,0:0:0:0:
6,147,74907,2,0,P|48:156|99:148,1,90,8|0,0:0|0:0,0:0:0:0:
230,61,75207,1,2,0:0:0:0:
352,166,75357,1,2,0:0:0:0:
181,268,75507,2,0,P|170:225|180:182,1,90,8|0,0:0|0:0,0:0:0:0:
302,15,75807,6,0,P|312:58|303:101,1,90,2|0,0:0|0:0,0:0:0:0:
131,217,76107,1,8,0:0:0:0:
104,49,76257,1,0,0:0:0:0:
219,151,76407,1,2,0:0:0:0:
26,77,76557,1,2,0:0:0:0:
213,230,76707,1,8,0:0:0:0:
104,49,76857,6,0,P|160:82|287:82,1,180,4|0,0:0|0:0,0:0:0:0:
461,38,77307,2,0,L|444:132,1,90,8|0,0:0|0:0,0:0:0:0:
360,314,77607,2,0,L|343:220,1,90,2|2,0:0|0:0,0:0:0:0:
280,30,77907,2,0,L|263:124,1,90,8|0,0:0|0:0,0:0:0:0:
156,238,78207,5,2,0:0:0:0:
353,140,78357,1,2,0:0:0:0:
145,172,78507,1,8,0:0:0:0:
363,205,78657,1,2,0:0:0:0:
100,279,78807,1,8,0:3:0:0:
77,240,78882,1,8,0:3:0:0:
64,196,78957,1,4,0:3:0:0:
73,151,79032,1,4,0:3:0:0:
94,111,79107,2,0,L|146:100,1,45,8|0,0:0|0:0,0:0:0:0:
297,77,79257,6,0,P|352:93|399:99,1,90,4|0,0:0|0:0,0:0:0:0:
231,184,79557,1,2,0:0:0:0:
231,184,79632,1,2,0:0:0:0:
231,184,79707,2,0,P|176:200|129:206,1,90,8|0,0:0|0:0,0:0:0:0:
350,223,80007,1,2,0:0:0:0:
216,104,80157,1,2,0:0:0:0:
350,223,80307,2,0,L|359:317,1,90,8|0,0:0|0:0,0:0:0:0:
135,122,80607,6,0,L|126:28,1,90,2|0,0:0|0:0,0:0:0:0:
385,32,80907,2,0,L|377:122,1,90,8|0,0:0|0:0,0:0:0:0:
162,223,81207,1,2,0:0:0:0:
256,88,81357,1,2,0:0:0:0:
215,305,81507,1,8,0:0:0:0:
95,322,81657,6,0,B|58:238|58:238|96:153,1,180,4|2,0:0|0:0,0:0:0:0:
311,205,82107,2,0,L|216:215,1,90,8|0,0:0|0:0,0:0:0:0:
346,92,82407,1,2,0:0:0:0:
346,92,82557,1,2,0:0:0:0:
423,253,82707,2,0,L|518:243,1,90,8|0,0:0|0:0,0:0:0:0:
245,117,83007,5,2,0:0:0:0:
415,167,83157,1,0,0:0:0:0:
310,33,83307,1,8,0:0:0:0:
310,33,83457,1,0,0:0:0:0:
373,96,83607,1,2,0:0:0:0:
266,272,83757,1,2,0:0:0:0:
166,91,83907,1,8,0:0:0:0:
307,183,84057,6,0,B|376:195|404:160|488:179,1,180,4|2,0:0|0:0,0:0:0:0:
266,272,84507,2,0,L|171:272,1,90,8|0,0:0|0:0,0:0:0:0:
29,113,84807,1,2,0:0:0:0:
29,113,84957,1,2,0:0:0:0:
120,187,85107,2,0,P|161:166|190:132,1,90,8|0,0:0|0:0,0:0:0:0:
120,33,85407,5,2,0:0:0:0:
68,262,85557,1,2,0:0:0:0:
202,43,85707,1,8,0:0:0:0:
211,277,85857,1,2,0:0:0:0:
284,157,86007,1,8,0:0:0:0:
321,142,86082,1,8,0:3:0:0:
361,144,86157,1,4,0:3:0:0:
399,157,86232,1,4,0:3:0:0:
422,189,86307,2,0,L|436:240,1,45,8|0,0:0|0:0,0:0:0:0:
211,277,86457,6,0,P|181:206|210:110,1,180,4|2,0:0|0:0,0:0:0:0:
408,57,86907,6,0,L|421:152,1,90,8|0,0:0|0:0,0:0:0:0:
104,327,87207,2,0,L|91:232,1,90,8|0,0:0|0:0,0:0:0:0:
394,63,87507,2,0,L|407:158,1,90,8|0,0:0|0:0,0:0:0:0:
118,321,87807,5,8,0:0:0:0:
115,83,87957,1,2,0:0:0:0:
365,248,88107,1,8,0:0:0:0:
92,213,88257,1,2,0:0:0:0:
342,118,88407,1,2,0:0:0:0:
296,308,88557,1,8,0:0:0:0:
296,308,88632,1,8,0:0:0:0:
296,308,88707,2,0,L|283:364,1,45,8|0,0:0|0:0,0:0:0:0:
437,114,88857,5,4,0:0:0:0:
370,342,98457,6,0,B|310:359|310:359|237:337,1,135.000005149842,4|2,0:0|0:0,0:0:0:0:
92,360,98907,2,0,L|155:338,1,67.5000025749208,2|0,0:0|0:0,0:0:0:0:
35,248,99207,2,0,L|106:268,1,67.5000025749208,8|0,0:0|0:0,0:0:0:0:
55,123,99507,2,0,L|101:180,1,67.5000025749208
114,28,99807,5,2,0:0:0:0:
114,28,99957,1,8,0:0:0:0:
166,134,100107,1,0,0:0:0:0:
212,45,100257,2,0,P|246:72|263:108,1,67.5000025749208,2|8,0:0|0:0,0:0:0:0:
166,134,100557,1,0,0:0:0:0:
311,32,100707,1,2,0:0:0:0:
166,134,100857,6,0,B|218:133|218:133|251:142|251:142|318:142,1,135.000005149842,4|2,0:0|0:0,0:0:0:0:
378,32,101307,2,0,L|290:32,1,67.5000025749208,2|0,0:0|0:0,0:0:0:0:
166,134,101607,2,0,L|166:222,1,67.5000025749208,8|0,0:0|0:0,0:0:0:0:
166,210,101832,1,0,0:0:0:0:
166,222,101907,1,2,0:0:0:0:
220,59,102057,1,2,0:0:0:0:
247,223,102207,6,0,P|281:221|315:226,1,67.5000025749208,2|0,0:0|0:0,0:0:0:0:
317,147,102507,1,0,0:0:0:0:
217,299,102657,1,2,0:0:0:0:
157,221,102807,1,8,0:0:0:0:
309,321,102957,1,0,0:0:0:0:
157,221,103107,1,2,0:0:0:0:
309,321,103257,6,0,B|359:350|359:350|388:342|404:321|410:286,1,135.000005149842,4|0,0:0|0:0,0:0:0:0:
332,212,103707,2,0,L|320:136,1,67.5000025749208,2|0,0:0|0:0,0:0:0:0:
232,188,104007,2,0,L|220:112,1,67.5000025749208,8|0,0:0|0:0,0:0:0:0:
128,160,104307,2,0,L|116:84,1,67.5000025749208,2|0,0:0|0:0,0:0:0:0:
332,212,104607,6,0,L|192:176,1,135.000005149842
117,93,105057,1,2,0:0:0:0:
78,236,105207,2,0,P|116:233|152:242,1,67.5000025749208,8|0,0:0|0:0,0:0:0:0:
198,99,105507,1,0,0:0:0:0:
91,30,105657,6,0,P|106:77|87:167,1,135.000005149842,4|2,0:0|0:0,0:0:0:0:
225,299,106107,2,0,L|250:228,1,67.5000025749208,2|0,0:0|0:0,0:0:0:0:
329,100,106407,2,0,P|272:113|182:91,1,135.000005149842,8|0,0:0|0:0,0:0:0:0:
379,204,106857,5,8,0:0:0:0:
391,209,106932,1,8,0:0:0:0:
407,216,107007,1,8,0:3:0:0:
344,67,107157,1,8,0:0:0:0:
300,222,107307,1,2,0:0:0:0:
411,132,107457,5,8,0:0:0:0:
423,98,107532,1,8,0:0:0:0:
435,64,107607,1,8,0:0:0:0:
361,280,107757,1,2,0:0:0:0:
302,95,107907,1,8,0:0:0:0:
174,231,108057,6,0,B|140:267|140:267|90:246|19:248,1,161.999995056153,4|2,0:0|0:0,0:0:0:0:
239,311,108507,2,0,P|277:316|320:312,1,80.9999975280763,8|0,0:0|0:0,0:0:0:0:
439,129,108807,1,2,0:0:0:0:
439,129,108957,1,2,0:0:0:0:
336,22,109107,2,0,L|331:106,1,80.9999975280763,8|0,0:0|0:0,0:0:0:0:
285,252,109407,6,0,P|250:225|239:187,1,80.9999975280763,2|0,0:0|0:0,0:0:0:0:
320,180,109707,1,8,0:0:0:0:
167,228,109857,2,0,P|153:185|166:148,1,80.9999975280763,0|2,0:0|0:0,0:0:0:0:
255,97,110157,1,2,0:0:0:0:
181,312,110307,1,8,0:0:0:0:
312,291,110457,6,0,B|395:275|395:275|482:303,1,161.999995056153,4|2,0:0|0:0,0:0:0:0:
181,312,110907,2,0,L|94:287,1,80.9999975280763,8|0,0:0|0:0,0:0:0:0:
300,214,111207,1,2,0:0:0:0:
300,214,111357,1,2,0:0:0:0:
188,212,111507,2,0,P|180:170|188:132,1,80.9999975280763,8|0,0:0|0:0,0:0:0:0:
361,54,111807,6,0,P|369:96|361:134,1,80.9999975280763,2|0,0:0|0:0,0:0:0:0:
300,214,112107,1,8,0:0:0:0:
140,168,112257,1,0,0:0:0:0:
291,94,112407,1,2,0:0:0:0:
300,214,112557,1,2,0:0:0:0:
290,61,112707,1,8,0:0:0:0:
301,243,112857,6,0,P|260:260|146:244,1,161.999995056153,4|2,0:0|0:0,0:0:0:0:
49,301,113307,2,0,L|28:214,1,80.9999975280763,8|0,0:0|0:0,0:0:0:0:
139,42,113607,1,2,0:0:0:0:
166,146,113757,1,2,0:0:0:0:
0,133,113907,2,0,L|87:112,1,80.9999975280763,8|0,0:0|0:0,0:0:0:0:
377,76,114207,6,0,P|327:49|224:78,1,161.999995056153,2|8,0:0|0:0,0:0:0:0:
131,20,114657,1,0,0:0:0:0:
186,183,114807,2,0,B|195:224|195:224|184:266,1,80.9999975280763,2|2,0:0|0:0,0:0:0:0:
40,356,115107,2,0,B|31:315|31:315|42:273,1,80.9999975280763,8|0,0:0|0:0,0:0:0:0:
247,327,115407,6,0,P|320:288|419:300,1,161.999995056153,4|8,0:0|0:0,0:0:0:0:
261,174,115857,1,0,0:0:0:0:
181,274,116007,1,2,0:0:0:0:
186,119,116157,1,2,0:0:0:0:
121,333,116307,2,0,P|97:290|102:243,1,80.9999975280763,8|0,0:0|0:0,0:0:0:0:
310,198,116607,6,0,L|222:211,1,80.9999975280763,4|8,0:0|0:0,0:0:0:0:
9,246,116907,1,2,0:0:0:0:
226,134,117057,2,0,P|222:104|213:85,2,40.4999987640381,0|8|8,0:0|0:0|0:0,0:0:0:0:
130,269,117357,1,8,0:3:0:0:
84,88,117507,1,4,0:3:0:0:
218,226,117657,1,4,0:3:0:0:
44,197,117807,6,0,P|52:147|46:54,1,135.000005149842,4|0,0:0|0:0,0:0:0:0:
75,136,118257,2,0,P|67:186|73:279,1,135.000005149842
75,136,118857,1,0,0:0:0:0:
170,325,119007,6,0,P|127:272|96:213,1,135.000005149842,4|0,0:0|0:0,0:0:0:0:
96,103,119457,1,0,0:0:0:0:
158,255,119607,2,0,P|193:262|247:265,1,67.5000025749208,2|0,0:3|0:0,0:0:0:0:
335,219,119907,1,2,0:3:0:0:
225,178,120057,1,2,0:0:0:0:
359,306,120207,6,0,P|346:260|364:164,1,135.000005149842,4|0,0:0|0:0,0:0:0:0:
491,56,120657,2,0,P|504:102|486:198,1,135.000005149842
368,152,121257,1,0,0:0:0:0:
467,254,121407,6,0,P|432:248|389:248,1,67.5000025749208,4|0,0:0|0:0,0:0:0:0:
306,253,121707,1,8,0:3:0:0:
384,125,121857,1,4,0:3:0:0:
334,343,122157,1,0,0:3:0:0:
222,286,122307,1,8,0:3:0:0:
117,333,122457,1,4,0:3:0:0:
107,330,122532,1,4,0:3:0:0:
97,326,122607,6,0,B|83:288|83:288|91:253,1,76.5000014591217,4|0,0:0|0:0,0:0:0:0:
250,74,122907,1,2,0:0:0:0:
250,74,123057,2,0,B|263:111|263:111|256:147,1,76.5000014591217,0|2,0:0|0:0,0:0:0:0:
100,172,123357,2,0,L|21:165,1,76.5000014591217,0|2,0:0|0:0,0:0:0:0:
276,236,123657,6,0,L|197:243,1,76.5000014591217,0|2,0:0|0:0,0:0:0:0:
441,145,123957,2,0,P|475:162|493:197,1,76.5000014591217,0|2,0:0|0:0,0:0:0:0:
271,150,124257,1,0,0:0:0:0:
259,134,124332,1,0,0:0:0:0:
251,116,124407,1,2,0:0:0:0:
247,97,124482,1,0,0:0:0:0:
249,78,124557,1,0,0:0:0:0:
383,18,124707,2,0,L|376:107,1,76.5000014591217
352,237,125007,6,0,L|298:244,1,45,4|0,0:0|0:0,0:0:0:0:
136,264,125157,1,8,0:0:0:0:
120,248,125232,1,8,0:0:0:0:
109,228,125307,1,8,0:0:0:0:
103,206,125382,1,8,0:0:0:0:
101,183,125457,1,2,0:0:0:0:
103,160,125532,1,2,0:0:0:0:
110,138,125607,5,8,0:3:0:0:
130,114,125682,1,8,0:3:0:0:
160,105,125757,1,8,0:3:0:0:
190,111,125832,1,8,0:3:0:0:
216,127,125907,1,8,0:0:0:0:
240,146,125982,1,8,0:3:0:0:
268,160,126057,1,8,0:3:0:0:
298,167,126132,1,0,0:3:0:0:
329,167,126207,5,8,0:0:0:0:
359,134,126282,1,8,0:0:0:0:
335,95,126357,1,8,0:3:0:0:
290,98,126432,1,8,0:3:0:0:
273,140,126507,1,4,0:3:0:0:
278,184,126582,1,4,0:3:0:0:
276,228,126657,1,4,0:3:0:0:
246,262,126732,1,4,0:3:0:0:
202,274,126807,5,8,0:0:0:0:
478,169,126957,1,8,0:0:0:0:
92,256,127257,6,0,P|69:205|96:83,1,180,4|2,0:0|0:0,0:0:0:0:
321,302,127707,2,0,P|289:336|237:352,1,90,8|0,0:0|0:0,0:0:0:0:
229,150,128007,1,2,0:0:0:0:
316,60,128157,1,2,0:0:0:0:
460,220,128307,2,0,L|357:215,1,90,8|0,0:0|0:0,0:0:0:0:
69,97,128607,6,0,L|172:92,1,90,2|0,0:0|0:0,0:0:0:0:
415,37,128907,2,0,L|410:140,1,90,8|0,0:0|0:0,0:0:0:0:
279,293,129207,1,2,0:0:0:0:
251,107,129357,1,2,0:0:0:0:
279,293,129507,1,8,0:0:0:0:
326,73,129657,6,0,P|285:34|174:76,1,180,4|2,0:0|0:0,0:0:0:0:
382,170,130107,2,0,P|425:157|470:156,1,90,8|0,0:0|0:0,0:0:0:0:
206,164,130407,2,0,P|161:162|117:150,1,90,2|2,0:0|0:0,0:0:0:0:
400,259,130707,2,0,P|406:301|401:353,1,90,8|0,0:0|0:0,0:0:0:0:
110,328,131007,6,0,P|103:285|109:234,1,90,2|0,0:0|0:0,0:0:0:0:
256,44,131307,1,8,0:0:0:0:
287,172,131457,1,0,3:0:0:0:
287,172,131532,1,0,0:0:0:0:
287,172,131607,1,0,0:0:0:0:
143,125,131757,1,2,0:0:0:0:
343,67,131907,1,8,0:0:0:0:
35,251,132057,6,0,P|108:219|204:245,1,180,4|2,0:0|0:0,0:0:0:0:
489,172,132507,2,0,P|432:182|390:174,1,90,8|0,0:0|0:0,0:0:0:0:
176,109,132807,1,2,0:0:0:0:
306,23,132957,1,2,0:0:0:0:
291,181,133107,2,0,P|289:228|294:273,1,90,8|0,0:0|0:0,0:0:0:0:
452,346,133407,6,0,P|467:260|467:160,1,180,2|8,0:0|0:0,0:0:0:0:
373,54,133857,1,0,0:0:0:0:
357,263,134007,1,2,0:0:0:0:
357,263,134157,1,2,0:0:0:0:
215,222,134307,2,0,P|163:209|107:206,1,90,8|0,0:0|0:0,0:0:0:0:
339,142,134607,5,4,0:0:0:0:
289,307,134757,1,0,0:0:0:0:
229,51,134907,1,8,0:0:0:0:
279,216,135057,1,0,0:0:0:0:
398,89,135207,1,2,0:0:0:0:
169,122,135357,1,2,0:0:0:0:
393,230,135507,1,8,0:0:0:0:
154,242,135657,6,0,L|49:230,1,90,4|0,0:0|0:0,0:0:0:0:
254,41,135957,1,8,0:0:0:0:
278,78,136032,1,8,0:0:0:0:
294,119,136107,1,8,0:0:0:0:
296,163,136182,1,8,0:0:0:0:
285,206,136257,1,2,0:0:0:0:
262,245,136332,1,2,0:0:0:0:
246,287,136407,6,0,L|306:281,1,45,8|8,0:0|0:3,0:0:0:0:
495,213,136557,2,0,L|435:207,1,45,4|4,0:3|0:3,0:0:0:0:
260,125,136707,2,0,L|320:119,1,45,2|2,0:0|0:0,0:0:0:0:
469,303,136857,6,0,L|284:281,1,180,4|0,0:0|0:0,0:0:0:0:
35,173,137307,2,0,L|135:155,1,90,8|0,0:0|0:0,0:0:0:0:
325,39,137607,1,2,0:0:0:0:
352,146,137757,1,2,0:0:0:0:
204,309,137907,2,0,P|182:262|194:217,1,90,8|0,0:0|0:0,0:0:0:0:
352,146,138207,6,0,L|452:136,1,90,2|0,0:0|0:0,0:0:0:0:
160,146,138507,2,0,L|60:136,1,90,8|0,0:0|0:0,0:0:0:0:
352,146,138807,1,2,0:0:0:0:
153,62,138957,1,2,0:0:0:0:
364,230,139107,1,8,0:0:0:0:
224,7,139257,6,0,B|260:70|260:70|235:181,1,180,4|2,0:0|0:0,0:0:0:0:
83,287,139707,2,0,P|126:280|180:281,1,90,8|0,0:0|0:0,0:0:0:0:
479,162,140007,2,0,P|439:181|396:212,1,90,2|2,0:0|0:0,0:0:0:0:
121,44,140307,2,0,P|142:82|159:133,1,90,8|0,0:0|0:0,0:0:0:0:
351,34,140607,6,0,P|346:77|331:129,1,90,2|0,0:0|0:0,0:0:0:0:
212,26,140907,1,8,0:0:0:0:
328,215,141057,1,0,0:0:0:0:
194,285,141207,1,8,0:0:0:0:
158,291,141282,1,8,0:3:0:0:
122,291,141357,1,0,0:0:0:0:
87,281,141432,1,2,0:0:0:0:
54,266,141507,2,0,L|36:222,1,45,8|0,0:0|0:0,0:0:0:0:
56,55,141657,6,0,P|136:54|202:137,1,180,4|2,0:0|0:0,0:0:0:0:
317,36,142107,1,8,0:0:0:0:
283,243,142257,1,2,0:0:0:0:
229,25,142407,1,8,0:0:0:0:
159,214,142557,1,2,0:0:0:0:
159,214,142632,1,2,0:0:0:0:
159,214,142707,2,0,L|207:206,1,45,8|0,0:0|0:0,0:0:0:0:
473,187,142857,6,0,P|423:152|304:169,1,180,4|2,0:0|0:0,0:0:0:0:
477,79,143307,1,8,0:0:0:0:
380,260,143457,1,2,0:0:0:0:
354,26,143607,1,8,0:0:0:0:
203,123,143757,1,2,0:0:0:0:
203,123,143832,1,2,0:0:0:0:
203,123,143907,2,0,L|147:138,1,45,8|0,0:0|0:0,0:0:0:0:
14,204,144057,2,0,L|114:233,1,90,4|0,0:0|0:0,0:0:0:0:
275,282,144357,5,8,0:0:0:0:
305,291,144432,1,8,0:0:0:0:
336,288,144507,1,8,0:0:0:0:
363,273,144582,1,8,0:0:0:0:
383,249,144657,5,2,0:0:0:0:
398,221,144732,1,2,0:0:0:0:
400,189,144807,1,8,0:2:0:0:
374,157,144882,1,8,0:2:0:0:
347,126,144957,5,4,0:0:0:0:
323,77,145032,1,2,0:0:0:0:
352,31,145107,1,8,0:0:0:0:
405,34,145182,1,8,0:3:0:0:
429,83,145257,1,4,0:3:0:0:
400,129,145332,1,4,0:3:0:0:
347,126,145407,6,0,B|317:123|294:132|294:132|276:124|276:124|250:131|218:124,1,126
135,27,146007,5,8,0:0:0:0:
201,269,146157,1,2,0:0:0:0:
135,27,146307,1,8,0:0:0:0:
20,204,146457,6,0,B|99:169|99:169|126:187|154:196|192:195,1,180,4|0,0:0|0:0,0:0:0:0:
416,173,146907,2,0,P|428:122|422:79,1,90,8|0,0:0|0:0,0:0:0:0:
176,86,147207,1,2,0:0:0:0:
255,247,147357,1,2,0:0:0:0:
423,85,147507,2,0,L|326:75,1,90,8|0,0:0|0:0,0:0:0:0:
89,39,147807,5,2,0:0:0:0:
142,183,147957,1,0,0:0:0:0:
264,85,148107,2,0,L|361:75,1,90,8|0,0:0|0:0,0:0:0:0:
461,66,148407,1,2,0:0:0:0:
175,113,148557,1,2,0:0:0:0:
322,17,148707,1,8,0:0:0:0:
243,168,148857,6,0,B|220:209|219:250|260:271|264:308|232:351,1,180,4|2,0:0|0:0,0:0:0:0:
468,198,149307,2,0,P|483:147|473:101,1,90,8|0,0:0|0:0,0:0:0:0:
236,51,149607,1,2,0:0:0:0:
236,51,149757,1,2,0:0:0:0:
326,108,149907,2,0,L|440:97,1,90,8|0,0:0|0:0,0:0:0:0:
493,37,150207,5,2,0:0:0:0:
374,205,150357,1,0,0:0:0:0:
236,51,150507,1,8,0:0:0:0:
374,205,150657,1,0,0:0:0:0:
493,37,150807,2,0,P|506:99|495:131,1,90,2|2,0:0|0:0,0:0:0:0:
377,297,151107,1,8,0:0:0:0:
296,175,151257,6,0,P|346:155|472:191,1,180,4|2,0:0|0:0,0:0:0:0:
233,313,151707,2,0,L|141:308,1,90,8|0,0:0|0:0,0:0:0:0:
22,242,152007,1,2,0:0:0:0:
36,61,152157,1,2,0:0:0:0:
162,66,152307,2,0,P|169:117|161:162,1,90,8|0,0:0|0:0,0:0:0:0:
23,330,152607,6,0,P|16:279|24:234,1,90,2|0,0:0|0:0,0:0:0:0:
243,98,152907,1,8,0:0:0:0:
122,251,153057,1,0,0:0:0:0:
196,31,153207,1,2,0:0:0:0:
246,180,153357,1,2,0:0:0:0:
115,15,153507,1,8,0:0:0:0:
199,244,153657,6,0,B|286:225|286:225|391:252,1,180,4|2,0:0|0:0,0:0:0:0:
435,47,154107,2,0,L|414:141,1,90,8|0,0:0|0:0,0:0:0:0:
101,107,154407,2,2,L|122:201,1,90
433,324,154707,2,0,L|454:230,1,90,8|0,0:0|0:0,0:0:0:0:
257,38,155007,5,2,0:0:0:0:
236,217,155157,1,2,0:0:0:0:
341,58,155307,1,8,0:0:0:0:
153,280,155457,1,0,0:0:0:0:
396,131,155607,1,2,0:0:0:0:
236,217,155757,1,8,0:0:0:0:
236,217,155832,1,8,0:0:0:0:
236,217,155907,2,0,L|181:204,1,45,8|0,0:0|0:0,0:0:0:0:
33,29,156057,6,0,P|5:83|12:129,1,90,4|0,0:0|0:0,0:0:0:0:
64,276,156357,1,2,0:0:0:0:
64,276,156432,1,2,0:0:0:0:
64,276,156507,2,0,L|81:186,1,90,8|0,0:0|0:0,0:0:0:0:
229,93,156807,1,2,0:0:0:0:
109,46,156957,1,2,0:0:0:0:
187,208,157107,2,0,P|234:217|277:207,1,90,8|0,0:0|0:0,0:0:0:0:
473,92,157407,6,0,P|426:83|383:93,1,90,2|0,0:0|0:0,0:0:0:0:
231,245,157707,2,0,L|217:337,1,90,8|0,0:0|0:0,0:0:0:0:
259,101,158007,1,2,0:0:0:0:
343,260,158157,1,2,0:0:0:0:
163,135,158307,1,8,0:0:0:0:
307,323,158457,6,0,L|485:296,1,180,4|2,0:0|0:0,0:0:0:0:
110,308,158907,2,0,P|93:260|98:214,1,90,8|0,0:0|0:0,0:0:0:0:
214,34,159207,1,2,0:0:0:0:
214,34,159357,1,2,0:0:0:0:
263,111,159507,2,0,P|280:159|275:205,1,90,8|0,0:0|0:0,0:0:0:0:
78,220,159807,6,0,L|-18:210,1,90,2|0,0:0|0:0,0:0:0:0:
151,112,160107,1,8,0:0:0:0:
214,303,160257,1,0,0:0:0:0:
307,266,160407,1,2,0:0:0:0:
69,143,160557,1,10,0:0:0:0:
307,266,160707,1,8,0:0:0:0:
69,143,160857,6,0,P|122:154|253:139,1,180,4|2,0:0|0:0,0:0:0:0:
443,202,161307,2,0,P|450:155|446:111,1,90,8|0,0:0|0:0,0:0:0:0:
263,35,161607,1,2,0:0:0:0:
187,224,161757,1,2,0:0:0:0:
377,36,161907,1,8,0:0:0:0:
375,195,162057,5,8,0:0:0:0:
375,195,162132,1,8,0:0:0:0:
375,195,162207,1,8,0:0:0:0:
306,267,162357,1,8,0:0:0:0:
206,267,162507,1,8,0:3:0:0:
137,195,162657,1,4,0:3:0:0:
432,321,162807,5,8,0:0:0:0:
80,63,163257,5,4,0:0:0:0:
256,192,163332,12,4,165657,0:0:0:0:
450,154,172857,6,0,B|389:142|389:142|308:155,1,135.000005149842,4|2,0:0|0:0,0:0:0:0:
227,69,173307,2,0,L|210:147,1,67.5000025749208,2|0,0:0|0:0,0:0:0:0:
243,340,173607,2,0,P|265:300|255:204,1,135.000005149842,8|0,0:0|0:0,0:0:0:0:
132,113,174057,6,0,L|67:99,1,67.5000025749208,0|2,0:0|0:0,0:0:0:0:
226,38,174357,1,2,0:3:0:0:
116,222,174507,2,0,L|181:207,1,67.5000025749208,2|2,0:0|0:0,0:0:0:0:
286,129,174807,1,8,0:0:0:0:
125,32,174957,1,0,0:0:0:0:
345,76,175107,1,0,0:0:0:0:
66,85,175257,6,0,P|116:77|201:93,1,135.000005149842,4|2,0:0|0:0,0:0:0:0:
424,144,175707,2,0,P|378:149|348:145,1,67.5000025749208,2|0,0:0|0:0,0:0:0:0:
145,172,176007,2,0,B|138:210|138:210|150:312,1,135.000005149842,8|0,0:0|0:0,0:0:0:0:
300,343,176457,6,0,L|291:262,1,67.5000025749208,0|2,0:0|0:0,0:0:0:0:
359,95,176757,1,2,0:3:0:0:
289,170,176907,1,0,0:0:0:0:
366,237,177057,1,2,0:0:0:0:
507,152,177207,2,0,L|439:158,1,67.5000025749208,8|0,0:0|0:0,0:0:0:0:
162,127,177507,1,0,0:0:0:0:
138,263,177657,2,0,P|169:239|202:235,1,67.5000025749208,4|0,0:0|0:0,0:0:0:0:
256,99,177957,5,0,0:0:0:0:
262,166,178107,2,0,L|256:99,1,67.5000025749208,2|0,0:0|0:0,0:0:0:0:
370,26,178407,1,8,0:0:0:0:
360,127,178557,2,0,L|366:59,1,67.5000025749208
142,26,178857,1,0,0:0:0:0:
158,167,179007,2,0,L|151:99,1,67.5000025749208,2|0,0:0|0:0,0:0:0:0:
479,43,179307,1,2,0:0:0:0:
454,238,179457,2,0,L|460:170,1,67.5000025749208,2|0,0:0|0:0,0:0:0:0:
141,113,179757,5,8,0:0:0:0:
259,80,179907,1,2,0:0:0:0:
113,33,180057,1,4,0:0:0:0:
170,194,180207,6,0,L|243:194,1,67.5000025749208,0|2,0:0|0:0,0:0:0:0:
429,111,180507,2,0,L|356:111,1,67.5000025749208,2|0,0:0|0:0,0:0:0:0:
308,266,180807,2,0,P|332:225|334:200,1,67.5000025749208,8|0,0:0|0:0,0:0:0:0:
193,33,181107,1,0,0:0:0:0:
193,33,181257,1,0,0:0:0:0:
93,111,181407,6,0,L|166:103,1,67.5000025749208,2|0,0:0|0:0,0:0:0:0:
352,44,181707,2,0,L|279:36,1,67.5000025749208,0|8,0:0|0:0,0:0:0:0:
284,36,181932,1,8,0:0:0:0:
284,36,182007,1,8,0:0:0:0:
277,184,182157,1,8,0:0:0:0:
172,22,182307,1,8,0:0:0:0:
68,158,182457,6,0,B|41:192|37:241|37:241|95:217,1,135.000005149842,4|0,0:0|0:0,0:0:0:0:
199,142,182907,1,2,0:0:0:0:
126,85,183057,1,0,0:0:0:0:
192,228,183207,2,0,P|250:222|283:229,2,67.5000025749208,8|0|0,0:0|0:0|0:0,0:0:0:0:
325,292,183657,6,0,P|383:298|416:291,1,67.5000025749208,0|2,0:0|0:0,0:0:0:0:
215,205,183957,2,0,P|181:211|148:209,1,67.5000025749208
339,147,184257,1,2,0:0:0:0:
221,285,184407,2,0,L|221:353,1,67.5000025749208,8|2,0:0|0:0,0:0:0:0:
219,116,184707,1,0,0:0:0:0:
336,76,184857,6,0,P|346:144|343:228,1,135.000005149842,4|2,0:0|0:0,0:0:0:0:
166,192,185307,2,0,L|90:186,1,67.5000025749208,2|0,0:0|0:0,0:0:0:0:
219,116,185607,1,8,0:0:0:0:
254,277,185757,1,0,0:0:0:0:
344,222,185907,1,0,0:0:0:0:
450,251,186057,5,8,0:0:0:0:
450,251,186132,1,8,0:0:0:0:
450,251,186207,1,2,0:0:0:0:
306,132,186357,1,8,0:3:0:0:
411,151,186507,1,8,0:3:0:0:
228,198,186657,2,0,P|203:196|185:191,2,33.7500012874604,4|0|8,0:3|0:0|0:0,0:0:0:0:
381,54,186957,1,8,0:0:0:0:
291,255,187107,1,8,0:0:0:0:
289,4,187257,6,0,P|298:44|280:138,1,135.000005149842,4|2,0:0|0:0,0:0:0:0:
126,107,187707,2,0,P|120:143|125:175,1,67.5000025749208,2|0,0:0|0:0,0:0:0:0:
56,304,188007,2,0,B|112:304|112:304|124:312|124:312|196:312,1,135.000005149842,8|2,0:0|0:0,0:0:0:0:
395,224,188457,6,0,P|398:202|396:180,2,33.7500012874604,2|10|0,0:0|0:0|0:0,0:0:0:0:
322,315,188757,1,8,0:0:0:0:
228,148,188907,1,0,0:0:0:0:
301,217,189057,1,2,0:0:0:0:
301,217,189132,1,0,0:0:0:0:
301,217,189207,1,8,0:0:0:0:
88,236,189357,1,2,0:0:0:0:
306,140,189507,1,0,0:0:0:0:
73,89,189657,1,4,0:0:0:0:
186,173,189807,6,0,P|201:217|203:251,1,80.9999975280763,0|8,0:0|0:0,0:0:0:0:
69,131,190107,2,0,P|72:90|85:52,1,80.9999975280763,0|2,0:0|0:0,0:0:0:0:
361,279,190407,2,0,L|275:297,1,80.9999975280763,8|2,0:0|0:0,0:0:0:0:
197,74,190707,1,8,0:0:0:0:
356,186,190857,2,0,L|442:168,1,80.9999975280763,0|2,0:0|0:0,0:0:0:0:
276,97,191157,5,8,0:0:0:0:
272,116,191232,1,8,0:0:0:0:
268,135,191307,1,8,0:0:0:0:
264,154,191382,1,8,0:0:0:0:
260,173,191457,1,8,0:0:0:0:
256,192,191532,1,8,0:0:0:0:
252,211,191607,5,8,0:0:0:0:
244,250,191682,1,8,0:0:0:0:
217,280,191757,1,8,0:0:0:0:
177,290,191832,1,8,0:0:0:0:
136,285,191907,1,8,0:0:0:0:
104,259,191982,1,8,0:0:0:0:
77,228,192057,6,0,B|61:212|61:212|72:191|72:191|59:169|59:169|74:155|74:155|56:117|76:58,1,180,4|0,0:0|0:0,0:0:0:0:
284,126,192507,1,8,0:0:0:0:
162,29,192657,1,0,0:0:0:0:
221,189,192807,1,2,0:0:0:0:
331,58,192957,1,2,0:0:0:0:
142,124,193107,1,8,0:0:0:0:
292,253,193257,1,2,0:0:0:0:
451,178,193407,6,0,L|351:172,1,90,0|2,0:0|0:0,0:0:0:0:
165,52,193707,1,8,0:0:0:0:
58,116,193857,2,0,P|54:163|65:210,1,90,2|0,0:0|0:0,0:0:0:0:
267,333,194157,1,2,0:0:0:0:
318,237,194307,1,8,0:0:0:0:
203,123,194457,6,0,B|243:155|243:155|288:128|339:133|379:149,1,180,4|2,0:0|0:0,0:0:0:0:
436,68,194907,1,8,0:0:0:0:
393,260,195057,1,2,0:0:0:0:
305,103,195207,1,0,0:0:0:0:
468,167,195357,1,2,0:0:0:0:
202,123,195507,1,8,0:0:0:0:
344,30,195657,1,2,0:0:0:0:
300,220,195807,6,0,B|293:265|293:265|302:309,1,90,0|2,0:0|0:0,0:0:0:0:
253,48,196107,1,8,0:0:0:0:
166,208,196257,1,2,0:0:0:0:
320,128,196407,1,8,0:3:0:0:
357,113,196482,1,8,0:3:0:0:
397,113,196557,1,4,0:3:0:0:
435,123,196632,1,4,0:3:0:0:
468,145,196707,2,0,L|452:205,1,45,8|0,0:0|0:0,0:0:0:0:
235,297,196857,6,0,P|215:253|240:109,1,180,4|2,0:0|0:0,0:0:0:0:
346,31,197307,1,8,0:0:0:0:
371,182,197457,1,2,0:0:0:0:
192,59,197607,1,0,0:0:0:0:
388,103,197757,1,2,0:0:0:0:
201,160,197907,1,8,0:0:0:0:
423,35,198057,1,2,0:0:0:0:
286,222,198207,6,0,P|278:269|288:317,1,90,0|2,0:0|0:0,0:0:0:0:
440,339,198507,1,8,0:0:0:0:
443,165,198657,1,2,0:0:0:0:
356,271,198807,1,0,0:0:0:0:
508,238,198957,1,2,0:0:0:0:
281,215,199107,1,8,0:0:0:0:
475,86,199257,1,4,0:0:0:0:
281,215,199407,6,0,P|227:218|182:216,1,90,0|2,0:0|0:0,0:0:0:0:
27,114,199707,1,8,0:0:0:0:
76,311,199857,2,0,P|142:302|259:316,1,180,2|2,0:0|0:0,0:0:0:0:
442,352,200307,1,8,0:0:0:0:
322,265,200457,6,0,B|307:218|307:218|311:174,1,90,2|0,0:0|0:0,0:0:0:0:
342,65,200757,1,2,0:0:0:0:
216,251,200907,1,8,0:0:0:0:
165,22,201057,1,2,0:0:0:0:
67,201,201207,1,8,0:0:0:0:
111,193,201282,1,8,0:0:0:0:
155,185,201357,1,2,0:0:0:0:
199,177,201432,1,2,0:0:0:0:
243,170,201507,1,8,0:0:0:0:
477,128,201657,6,0,P|418:136|318:54,1,180,4|2,0:0|0:0,0:0:0:0:
80,106,202107,2,0,L|180:91,1,90,8|0,0:0|0:0,0:0:0:0:
324,69,202407,1,2,0:0:0:0:
124,60,202557,1,2,0:0:0:0:
266,9,202707,1,8,0:0:0:0:
159,185,202857,6,0,P|147:228|160:280,1,90,2|0,0:0|0:0,0:0:0:0:
344,325,203157,1,2,0:0:0:0:
396,259,203307,2,0,P|408:216|395:164,1,90,8|0,0:0|0:0,0:0:0:0:
230,152,203607,1,2,0:0:0:0:
381,63,203757,1,2,0:0:0:0:
230,152,203907,1,8,0:0:0:0:
381,63,204057,6,0,P|328:80|198:56,1,180,4|2,0:0|0:0,0:0:0:0:
62,49,204507,2,0,L|79:142,1,90,8|0,0:0|0:0,0:0:0:0:
136,226,204807,1,2,0:0:0:0:
141,32,204957,1,2,0:0:0:0:
1,142,205107,1,8,0:0:0:0:
199,170,205257,6,0,B|284:160|284:160|395:176,1,180,2|2,0:0|0:0,0:0:0:0:
482,46,205707,2,0,L|470:139,1,90,8|0,0:0|0:0,0:0:0:0:
396,268,206007,1,2,0:0:0:0:
386,70,206157,1,2,0:0:0:0:
476,222,206307,1,8,0:0:0:0:
279,263,206457,6,0,P|250:214|283:95,1,180,4|2,0:0|0:0,0:0:0:0:
386,70,206907,2,0,L|481:79,1,90,8|0,0:0|0:0,0:0:0:0:
343,184,207207,1,2,0:0:0:0:
256,24,207357,1,2,0:0:0:0:
169,184,207507,1,8,0:0:0:0:
404,231,207657,6,0,P|419:187|408:145,1,90,2|0,0:0|0:0,0:0:0:0:
451,29,207957,1,2,0:0:0:0:
296,120,208107,2,0,L|202:111,1,90,8|0,0:0|0:0,0:0:0:0:
491,99,208407,1,2,0:0:0:0:
304,45,208557,1,2,0:0:0:0:
487,181,208707,1,8,0:0:0:0:
379,30,208857,6,0,P|385:85|381:138,1,90,4|0,0:0|0:0,0:0:0:0:
264,281,209157,1,2,0:0:0:0:
342,228,209307,2,0,P|386:227|436:234,1,90,8|0,0:0|0:0,0:0:0:0:
236,127,209607,1,2,0:0:0:0:
236,127,209757,1,2,0:0:0:0:
376,72,209907,1,8,0:0:0:0:
219,216,210057,6,0,P|175:216|125:210,1,90,2|0,0:0|0:0,0:0:0:0:
56,116,210357,1,2,0:0:0:0:
288,273,210507,2,0,P|306:229|299:185,1,90,8|0,0:0|0:0,0:0:0:0:
117,121,210807,2,0,L|130:216,1,90,2|2,0:0|0:0,0:0:0:0:
132,232,211032,1,8,0:3:0:0:
134,254,211107,1,8,0:3:0:0:
24,68,211257,6,0,P|95:17|181:36,1,180,4|2,0:0|0:0,0:0:0:0:
329,38,211707,2,0,L|309:128,1,90,8|0,0:0|0:0,0:0:0:0:
159,281,212007,1,2,0:0:0:0:
121,157,212157,1,2,0:0:0:0:
340,206,212307,1,8,0:0:0:0:
204,326,212457,6,0,P|160:320|104:328,1,90,2|0,0:0|0:0,0:0:0:0:
29,195,212757,1,2,0:0:0:0:
247,251,212907,2,0,L|251:159,1,90,8|0,0:0|0:0,0:0:0:0:
283,30,213207,1,2,0:0:0:0:
92,106,213357,1,2,0:0:0:0:
283,30,213507,1,8,0:0:0:0:
92,106,213657,6,0,P|137:103|189:112,1,90,4|0,0:0|0:0,0:0:0:0:
410,66,213957,1,2,0:0:0:0:
302,226,214107,2,0,P|291:176|301:134,1,90,8|0,0:0|0:0,0:0:0:0:
410,66,214407,1,2,0:0:0:0:
400,237,214557,1,2,0:0:0:0:
296,55,214707,1,8,0:0:0:0:
480,198,214857,6,0,P|489:252|396:327,1,180,2|2,0:0|0:0,0:0:0:0:
291,348,215307,2,0,L|188:345,1,90,8|0,0:0|0:0,0:0:0:0:
73,284,215607,1,8,0:0:0:0:
58,256,215682,1,8,0:3:0:0:
43,227,215757,1,4,0:3:0:0:
29,198,215832,1,4,0:3:0:0:
14,169,215907,5,4,0:3:0:0:
56,183,215982,1,4,0:3:0:0:
97,200,216057,1,4,0:3:0:0:
137,218,216132,1,4,0:3:0:0:
177,237,216207,6,0,L|290:226,1,90,4|0,0:0|0:0,0:0:0:0:
420,63,216507,1,8,0:0:0:0:
371,269,216657,1,2,0:0:0:0:
299,35,216807,1,8,0:0:0:0:
425,182,216957,1,2,0:0:0:0:
160,47,217107,1,8,0:0:0:0:
256,184,217257,2,0,L|266:228,1,45,2|2,0:0|0:0,0:0:0:0:
228,26,217407,5,8,0:0:0:0:
171,222,217557,1,2,0:0:0:0:
80,47,217707,1,8,0:0:0:0:
281,123,217857,1,2,0:0:0:0:
87,274,218007,1,8,0:0:0:0:
289,199,218157,1,2,0:0:0:0:
32,117,218307,1,8,0:0:0:0:
201,63,218457,2,0,L|252:53,1,45,2|2,0:0|0:0,0:0:0:0:
396,63,218607,5,4,0:0:0:0:
366,274,218757,1,2,0:0:0:0:
113,63,218907,1,8,0:0:0:0:
143,274,219057,1,2,0:0:0:0:
288,192,219207,5,8,0:0:0:0:
322,145,219307,5,8,0:0:0:0:
308,88,219407,5,8,0:0:0:0:
256,64,219507,5,8,0:3:0:0:
203,88,219607,5,8,0:3:0:0:
189,144,219707,5,8,0:3:0:0:
223,191,219807,5,4,0:0:0:0:
256,192,219882,12,4,222057,0:0:0:0:
81,265,231657,6,0,B|120:248|170:272|170:272|143:222|157:186,1,180,4|2,0:0|0:3,0:0:0:0:
388,204,233007,6,0,B|355:214|328:204|328:204|299:211|299:211|274:202|244:209,1,144,4|2,0:0|0:3,0:0:0:0:
96,144,234057,6,0,B|92:117|66:101|66:101|102:90|125:60|125:60|131:89|154:102,1,180,4|2,0:0|0:3,0:0:0:0:
379,167,235407,6,0,P|331:195|315:143,1,126,4|0,0:0|0:0,0:0:0:0:
365,97,236007,5,8,0:3:0:0:
187,191,236157,1,8,0:3:0:0:
313,27,236307,1,4,0:3:0:0:
260,287,236457,6,0,B|330:293|330:293|357:278|357:278|451:287,1,180,4|0,0:0|0:0,0:0:0:0:
93,158,236907,1,8,0:0:0:0:
169,282,237057,2,8,L|172:332,2,45
155,99,237357,1,8,0:0:0:0:
155,99,237432,1,8,0:0:0:0:
155,99,237507,1,0,0:0:0:0:
79,250,237657,6,8,L|29:253,2,45
234,152,237957,1,8,0:0:0:0:
256,150,238032,1,8,0:0:0:0:
278,148,238107,1,8,0:0:0:0:
327,235,238257,2,8,L|378:246,2,45
188,84,238557,1,8,0:0:0:0:
190,62,238632,1,8,0:0:0:0:
192,40,238707,1,8,0:0:0:0:
234,275,238857,5,8,0:0:0:0:
230,306,238932,1,8,0:0:0:0:
226,337,239007,1,8,0:0:0:0:
134,185,239157,1,8,0:0:0:0:
161,200,239232,1,8,0:0:0:0:
191,205,239307,1,8,0:0:0:0:
379,74,239457,1,8,0:0:0:0:
349,79,239532,1,8,0:0:0:0:
322,94,239607,1,8,0:0:0:0:
361,281,239757,1,8,0:0:0:0:
376,264,239832,1,8,0:0:0:0:
390,246,239907,1,8,0:0:0:0:
397,224,239982,1,8,0:0:0:0:
403,202,240057,1,8,0:0:0:0:
402,179,240132,1,8,0:0:0:0:
396,157,240207,5,2,0:0:0:0:
136,79,240357,2,8,L|90:76,2,45
336,173,240657,1,8,0:0:0:0:
186,14,240807,1,8,0:0:0:0:
156,300,240957,1,8,0:0:0:0:
364,248,241107,1,4,0:3:0:0:
59,140,241257,5,8,0:0:0:0:
261,306,241407,1,2,0:0:0:0:
113,5,241557,1,8,0:0:0:0:
96,322,241707,1,2,0:0:0:0:
380,178,241857,1,8,0:0:0:0:
255,32,242457,6,0,B|267:74|251:106|251:106|274:113|274:113|247:153|255:206,1,188.999994232178,4|2,0:0|0:0,0:0:0:0:
393,331,242907,2,0,P|400:280|395:233,1,94.499997116089,8|0,0:0|0:0,0:0:0:0:
119,53,243207,2,0,P|112:104|117:151,1,94.499997116089,2|2,0:0|0:0,0:0:0:0:
47,329,243507,2,0,L|163:314,1,94.499997116089,8|0,0:0|0:0,0:0:0:0:
465,55,243807,6,0,L|349:70,1,94.499997116089,2|0,0:0|0:0,0:0:0:0:
22,158,244107,2,0,L|115:145,1,94.499997116089,8|0,0:0|0:0,0:0:0:0:
267,30,244407,1,2,0:0:0:0:
80,58,244557,1,2,0:0:0:0:
345,156,244707,1,8,0:0:0:0:
174,13,244857,6,0,P|154:65|173:200,1,188.999994232178,4|2,0:0|0:0,0:0:0:0:
447,334,245307,2,0,L|458:239,1,94.499997116089,8|0,0:0|0:0,0:0:0:0:
369,13,245607,2,0,L|358:108,1,94.499997116089,2|2,0:0|0:0,0:0:0:0:
307,331,245907,2,0,P|261:342|213:325,1,94.499997116089,8|0,0:0|0:0,0:0:0:0:
111,152,246207,6,0,P|66:137|21:149,1,94.499997116089,2|0,0:0|0:0,0:0:0:0:
263,268,246507,1,8,0:0:0:0:
287,74,246657,1,0,0:0:0:0:
167,227,246807,1,2,0:0:0:0:
359,255,246957,1,2,0:0:0:0:
144,77,247107,1,8,0:0:0:0:
438,217,247257,6,0,P|476:128|443:46,1,188.999994232178,4|2,0:0|0:0,0:0:0:0:
288,22,247707,2,0,L|269:118,1,94.499997116089,8|0,0:0|0:0,0:0:0:0:
347,250,248007,1,2,0:0:0:0:
171,126,248157,1,2,0:0:0:0:
368,36,248307,1,8,0:0:0:0:
243,221,248457,1,0,0:0:0:0:
96,169,248607,6,0,P|85:120|96:75,1,94.499997116089,2|0,0:0|0:0,0:0:0:0:
368,36,248907,2,0,P|379:85|368:130,1,94.499997116089,8|0,0:0|0:0,0:0:0:0:
146,253,249207,1,2,0:0:0:0:
353,200,249357,1,2,0:0:0:0:
167,124,249507,1,8,0:0:0:0:
349,311,249657,6,0,P|397:311|461:301,1,94.499997116089,4|0,0:0|0:0,0:0:0:0:
512,146,249957,1,2,0:0:0:0:
267,139,250107,5,8,0:0:0:0:
227,122,250182,1,8,0:0:0:0:
206,84,250257,1,8,0:0:0:0:
223,45,250332,1,8,0:0:0:0:
260,25,250407,2,2,L|325:19,1,47.2499985580445
461,20,250557,5,8,0:0:0:0:
456,71,250632,1,8,0:0:0:0:
452,122,250707,1,8,0:0:0:0:
446,174,250782,1,8,0:0:0:0:
441,225,250857,1,2,0:0:0:0:
434,276,250932,1,2,0:0:0:0:
427,327,251007,1,8,0:0:0:0:
294,285,251157,5,8,0:0:0:0:
256,263,251232,1,8,0:0:0:0:
214,257,251307,1,8,0:0:0:0:
173,268,251382,1,8,0:0:0:0:
134,287,251457,1,2,0:0:0:0:
148,247,251532,1,8,0:0:0:0:
143,204,251607,1,8,0:0:0:0:
119,168,251682,1,0,0:0:0:0:
77,155,251757,6,0,L|29:180,1,47.2499985580445,8|8,0:3|0:3,0:0:0:0:
294,285,251907,2,0,L|342:260,1,47.2499985580445,4|4,0:3|0:3,0:0:0:0:
197,61,252057,6,0,P|146:42|28:97,1,188.999994232178,4|2,0:0|0:0,0:0:0:0:
29,94,252432,1,2,0:0:0:0:
29,94,252507,2,0,P|37:152|25:190,1,94.499997116089,8|0,0:0|0:0,0:0:0:0:
207,347,252807,2,0,P|199:289|211:251,1,94.499997116089,2|2,0:0|0:0,0:0:0:0:
226,57,253107,1,8,0:0:0:0:
286,214,253257,1,0,0:0:0:0:
124,255,253407,6,0,L|29:274,1,94.499997116089,2|0,0:0|0:0,0:0:0:0:
318,75,253707,2,0,L|225:56,1,94.499997116089,8|0,0:0|0:0,0:0:0:0:
77,31,254007,1,2,0:0:0:0:
338,198,254157,1,2,0:0:0:0:
276,23,254307,1,8,0:0:0:0:
132,194,254457,6,0,B|93:231|93:231|233:211,1,188.999994232178,4|2,0:0|0:0,0:0:0:0:
500,86,254907,2,0,L|401:102,1,94.499997116089,8|0,0:0|0:0,0:0:0:0:
138,333,255207,2,0,L|236:316,1,94.499997116089,2|2,0:0|0:0,0:0:0:0:
511,269,255507,2,0,P|520:214|512:176,1,94.499997116089,8|0,0:0|0:0,0:0:0:0:
345,16,255807,5,2,0:0:0:0:
207,21,255957,1,8,0:0:0:0:
189,54,256032,1,8,0:0:0:0:
183,91,256107,1,8,0:0:0:0:
186,128,256182,1,8,0:0:0:0:
200,162,256257,1,2,0:0:0:0:
226,188,256332,1,2,0:0:0:0:
259,205,256407,6,0,L|315:205,1,47.2499985580445,8|8,0:3|0:3,0:0:0:0:
436,83,256557,2,0,L|380:83,1,47.2499985580445,4|4,0:3|0:3,0:0:0:0:
61,176,256707,1,8,0:0:0:0:
260,278,256857,6,0,P|299:218|258:101,1,188.999994232178,4|2,0:0|0:0,0:0:0:0:
133,27,257307,1,8,0:0:0:0:
96,278,257457,1,2,0:0:0:0:
225,24,257607,1,8,0:0:0:0:
275,281,257757,1,2,0:0:0:0:
275,281,257832,1,2,0:0:0:0:
275,281,257907,2,0,L|332:279,1,47.2499985580445,8|0,0:0|0:0,0:0:0:0:
496,146,258057,6,0,P|424:130|340:206,1,188.999994232178,4|2,0:0|0:0,0:0:0:0:
225,24,258507,1,8,0:0:0:0:
189,255,258657,1,2,0:0:0:0:
358,49,258807,1,8,0:0:0:0:
84,232,258957,1,2,0:0:0:0:
84,232,259032,1,2,0:0:0:0:
84,232,259107,2,0,L|72:177,1,47.2499985580445,8|0,0:0|0:0,0:0:0:0:
63,56,259257,2,0,P|111:40|160:51,1,94.499997116089,4|0,0:0|0:0,0:0:0:0:
334,23,259557,5,8,0:0:0:0:
361,55,259632,1,8,0:0:0:0:
374,95,259707,1,8,0:0:0:0:
371,137,259782,1,8,0:0:0:0:
355,176,259857,5,2,2:0:0:0:
371,219,259932,1,2,2:0:0:0:
413,238,260007,1,8,2:3:0:0:
456,220,260082,1,8,2:3:0:0:
473,178,260157,1,8,2:0:0:0:
454,136,260232,1,8,2:3:0:0:
411,120,260307,1,8,2:0:0:0:
369,140,260382,1,8,2:0:0:0:
323,150,260457,2,0,P|291:151|253:140,1,47.2499985580445,8|8,2:3|2:3,2:0:0:0:
117,94,260607,5,4,0:0:0:0:
66,77,260682,1,8,0:0:0:0:
16,94,260757,1,8,0:0:0:0:
0,138,260832,1,8,0:0:0:0:
0,191,260907,1,8,0:0:0:0:
25,231,260982,1,8,0:0:0:0:
77,241,261057,1,8,0:0:0:0:
124,218,261132,1,8,0:0:0:0:
155,170,261207,5,8,0:0:0:0:
206,114,261282,1,8,0:0:0:0:
280,101,261357,1,8,0:3:0:0:
348,133,261432,1,8,0:3:0:0:
381,200,261507,1,4,0:3:0:0:
377,275,261582,1,4,0:3:0:0:
318,322,261657,6,0,P|354:262|459:284,1,188.999994232178,4|2,0:0|0:0,0:0:0:0:
457,282,262032,1,2,0:0:0:0:
457,282,262107,2,0,L|489:165,1,94.499997116089,8|0,0:0|0:0,0:0:0:0:
265,112,262407,1,2,0:0:0:0:
451,38,262557,1,2,0:0:0:0:
309,221,262707,2,0,P|258:227|208:212,1,94.499997116089,8|0,0:0|0:0,0:0:0:0:
42,49,263007,6,0,P|93:43|143:58,1,94.499997116089,2|0,0:0|0:0,0:0:0:0:
381,191,263307,1,8,0:0:0:0:
221,92,263457,1,0,0:0:0:0:
388,15,263607,2,0,P|393:61|391:113,1,94.499997116089,2|2,0:0|0:0,0:0:0:0:
256,293,263907,1,8,0:0:0:0:
0,155,264057,6,0,B|88:126|88:126|181:180,1,188.999994232178,4|2,0:0|0:0,0:0:0:0:
294,46,264507,2,0,L|300:147,1,94.499997116089,8|0,0:0|0:0,0:0:0:0:
159,272,264807,1,2,0:0:0:0:
188,62,264957,1,2,0:0:0:0:
391,115,265107,2,0,L|385:216,1,94.499997116089,8|0,0:0|0:0,0:0:0:0:
102,322,265407,6,0,L|96:221,1,94.499997116089,2|0,0:0|0:0,0:0:0:0:
294,46,265707,1,8,0:0:0:0:
294,46,265857,1,0,0:0:0:0:
396,138,266007,1,2,0:0:0:0:
154,140,266157,1,2,0:0:0:0:
394,51,266307,1,8,0:0:0:0:
444,273,266457,6,0,B|455:327|455:327|385:298|316:323,1,188.999994232178,4|2,0:0|0:0,0:0:0:0:
131,335,266907,2,0,P|116:290|118:243,1,94.499997116089,8|0,0:0|0:0,0:0:0:0:
213,69,267207,1,2,0:0:0:0:
258,181,267357,1,2,0:0:0:0:
0,149,267507,2,0,P|21:107|55:75,1,94.499997116089,8|0,0:0|0:0,0:0:0:0:
276,272,267807,6,0,L|174:266,1,94.499997116089,2|0,0:0|0:0,0:0:0:0:
277,98,268107,1,8,0:0:0:0:
354,280,268257,1,0,0:0:0:0:
177,159,268407,1,2,0:0:0:0:
370,67,268557,1,2,0:0:0:0:
218,292,268707,1,8,0:0:0:0:
89,127,268857,6,0,P|126:86|249:104,1,188.999994232178,4|2,0:0|0:0,0:0:0:0:
398,61,269307,1,8,0:0:0:0:
364,276,269457,1,2,0:0:0:0:
114,61,269607,1,8,0:0:0:0:
386,163,269757,1,2,0:0:0:0:
129,267,269907,1,8,0:0:0:0:
327,17,270057,1,2,0:0:0:0:
112,50,270207,5,8,0:0:0:0:
103,96,270282,1,8,0:3:0:0:
91,141,270357,1,8,0:3:0:0:
78,186,270432,1,4,0:3:0:0:
65,231,270507,2,0,L|129:220,1,47.2499985580445,2|0,0:0|0:0,0:0:0:0:
343,206,270657,5,8,0:0:0:0:
377,173,270732,1,8,0:3:0:0:
387,126,270807,1,8,0:3:0:0:
360,87,270882,1,4,0:3:0:0:
319,61,270957,2,0,L|255:72,1,47.2499985580445,2|2,0:0|0:0,0:0:0:0:
142,305,271107,2,0,L|206:294,1,47.2499985580445,8|8,0:0|0:0,0:0:0:0:
418,246,271257,6,0,P|457:190|453:66,1,188.999994232178,4|2,0:0|0:0,0:0:0:0:
270,268,271707,2,0,L|299:364,1,94.499997116089,8|0,0:0|0:0,0:0:0:0:
319,61,272007,1,2,0:0:0:0:
319,61,272157,1,2,0:0:0:0:
206,143,272307,2,0,P|150:150|106:142,1,94.499997116089,8|0,0:0|0:0,0:0:0:0:
422,63,272607,5,2,0:0:0:0:
201,33,272757,1,2,0:0:0:0:
356,183,272907,2,0,P|361:232|356:278,1,94.499997116089,8|0,0:0|0:0,0:0:0:0:
253,314,273207,1,2,0:0:0:0:
444,235,273357,1,2,0:0:0:0:
283,112,273507,1,8,0:0:0:0:
185,231,273657,6,0,P|128:247|-13:236,1,188.999994232178,4|2,0:0|0:0,0:0:0:0:
302,264,274107,2,0,L|410:278,1,94.499997116089,8|0,0:0|0:0,0:0:0:0:
199,116,274407,1,2,0:0:0:0:
161,311,274557,1,2,0:0:0:0:
295,175,274707,2,0,P|312:131|307:83,1,94.499997116089,8|0,0:0|0:0,0:0:0:0:
98,14,275007,6,0,P|81:58|86:106,1,94.499997116089,2|2,0:0|0:0,0:0:0:0:
300,252,275307,1,8,0:0:0:0:
210,17,275457,1,2,0:0:0:0:
42,200,275607,1,8,0:3:0:0:
89,197,275682,1,8,0:3:0:0:
135,191,275757,1,4,0:3:0:0:
182,186,275832,1,4,0:3:0:0:
228,181,275907,2,0,L|292:172,1,47.2499985580445,8|0,0:0|0:0,0:0:0:0:
413,83,276057,6,0,P|442:135|411:258,1,188.999994232178,4|2,0:0|0:0,0:0:0:0:
281,301,276507,2,0,L|180:317,1,94.499997116089,8|0,0:0|0:0,0:0:0:0:
76,233,276807,1,2,0:0:0:0:
76,233,276957,1,2,0:0:0:0:
242,211,277107,2,0,L|343:195,1,94.499997116089,8|0,0:0|0:0,0:0:0:0:
420,88,277407,5,0,0:0:0:0:
281,301,277557,1,2,0:0:0:0:
146,82,277707,2,0,P|108:118|92:166,1,94.499997116089,8|0,0:0|0:0,0:0:0:0:
203,342,278007,2,0,L|177:244,1,94.499997116089,2|2,0:0|0:0,0:0:0:0:
178,250,278232,1,8,0:0:0:0:
178,250,278307,1,8,0:0:0:0:
340,40,278457,6,0,B|321:109|321:109|334:154|334:154|315:223,1,188.999994232178,4|2,0:0|0:0,0:0:0:0:
71,115,278907,1,8,0:0:0:0:
252,160,279057,1,2,0:0:0:0:
111,34,279207,1,8,0:0:0:0:
72,219,279357,1,2,0:0:0:0:
226,48,279507,1,8,0:0:0:0:
256,263,279657,1,2,0:0:0:0:
345,24,279807,5,8,0:0:0:0:
122,141,279957,1,2,0:0:0:0:
430,103,280107,1,8,0:0:0:0:
130,255,280257,1,2,0:0:0:0:
429,21,280407,1,8,0:0:0:0:
499,166,280557,1,8,0:0:0:0:
512,211,280632,1,8,0:0:0:0:
502,257,280707,1,8,0:0:0:0:
370,327,280857,6,0,B|278:303|278:303|172:328,1,188.999994232178,4|2,0:0|0:0,0:0:0:0:
186,324,281232,1,2,0:0:0:0:
186,324,281307,1,8,0:0:0:0:
415,257,281457,1,2,0:0:0:0:
194,154,281607,1,8,0:0:0:0:
87,341,281757,1,2,0:0:0:0:
92,87,281907,1,8,0:0:0:0:
254,250,282057,1,2,0:0:0:0:
20,169,282207,5,8,0:0:0:0:
56,199,282282,1,0,0:0:0:0:
101,213,282357,1,8,0:3:0:0:
148,211,282432,1,4,0:3:0:0:
191,193,282507,2,0,L|232:152,1,47.2499985580445,2|2,0:0|0:0,0:0:0:0:
328,46,282657,5,8,0:0:0:0:
374,42,282732,1,8,0:3:0:0:
419,56,282807,1,8,0:3:0:0:
456,85,282882,1,4,0:3:0:0:
481,123,282957,2,0,L|489:169,1,47.2499985580445,2|2,0:0|0:0,0:0:0:0:
393,300,283107,5,8,0:0:0:0:
150,51,283257,1,4,0:0:0:0:
256,192,283332,12,0,289257,0:0:0:0:
