osu file format v14

[General]
AudioFilename: audio.mp3
AudioLeadIn: 0
PreviewTime: 49819
Countdown: 0
SampleSet: Soft
StackLeniency: 0.7
Mode: 0
LetterboxInBreaks: 0
WidescreenStoryboard: 1

[Editor]
Bookmarks: 64632,238257
DistanceSpacing: 0.5
BeatDivisor: 4
GridSize: 4
TimelineZoom: 2.699999

[Metadata]
Title:REVIVER
TitleUnicode:REVIVER
Artist:MY FIRST STORY
ArtistUnicode:MY FIRST STORY
Creator:Moway
Version:Insane
Source:
Tags:
BeatmapID:1955953
BeatmapSetID:924858

[Difficulty]
HPDrainRate:6
CircleSize:3.7
OverallDifficulty:7
ApproachRate:8.6
SliderMultiplier:1.6
SliderTickRate:1

[Events]
//Background and Video events
0,0,"sayakabg.png",0,0
//Break Periods
//Storyboard Layer 0 (Background)
//Storyboard Layer 1 (Fail)
//Storyboard Layer 2 (Pass)
//Storyboard Layer 3 (Foreground)
//Storyboard Layer 4 (Overlay)
//Storyboard Sound Samples

[TimingPoints]
807.317633847283,300,4,2,1,100,1,0
2607,300,4,2,1,100,1,0
2607,-111.111111111111,4,2,1,80,0,0
11007,-100,4,2,1,95,0,0
12057,-100,4,2,1,95,0,1
12132,-100,4,2,1,95,0,0
21657,-111.111111111111,4,2,1,80,0,0
41007,-133.333333333333,4,2,1,60,0,0
45657,-117.647058823529,4,2,1,60,0,0
48207,-100,4,2,1,95,0,0
49407,-250,4,2,1,5,0,0
50457,-100,4,2,1,95,0,1
68607,-250,4,2,1,95,0,0
69357,-100,4,2,1,95,0,0
69657,-100,4,2,1,95,0,1
88782,-100,4,2,1,95,0,0
88857,-100,4,2,1,95,0,1
88932,-100,4,2,1,95,0,0
98457,-133.333333333333,4,2,1,70,0,0
107007,-111.111111111111,4,2,1,80,0,0
117807,-133.333333333333,4,2,1,60,0,0
122607,-117.647058823529,4,2,1,60,0,0
125007,-100,4,2,1,95,0,0
127257,-100,4,2,1,95,0,1
145407,-250,4,2,1,95,0,0
146457,-100,4,2,1,95,0,1
163407,-100,4,2,1,95,0,0
172857,-133.333333333333,4,2,1,80,0,0
189807,-111.111111111111,4,2,1,90,0,0
192057,-100,4,2,1,95,0,1
192132,-100,4,2,1,95,0,0
222057,-250,4,2,1,50,0,0
231657,-250,4,2,1,50,0,0
236457,-100,4,2,1,60,0,0
237807,-100,4,2,1,70,0,0
239007,-100,4,2,1,80,0,0
240207,-100,4,2,1,90,0,0
242457,-95.2380952380952,4,2,1,100,0,1
261582,-95.2380952380952,4,2,1,100,0,0
261657,-95.2380952380952,4,2,1,100,0,1
283257,-95.2380952380952,4,2,1,100,0,0
283857,-95.2380952380952,4,2,1,90,0,0
284457,-95.2380952380952,4,2,1,80,0,0
285057,-95.2380952380952,4,2,1,70,0,0
285657,-95.2380952380952,4,2,1,60,0,0
286257,-95.2380952380952,4,2,1,50,0,0
286857,-95.2380952380952,4,2,1,40,0,0
287457,-95.2380952380952,4,2,1,30,0,0
288057,-95.2380952380952,4,2,1,20,0,0
288657,-95.2380952380952,4,2,1,10,0,0
289257,-95.2380952380952,4,2,1,5,0,0

[Colours]
Combo1 : 157,206,255
Combo2 : 0,64,128
Combo3 : 192,192,192
Combo4 : 128,128,192

[HitObjects]
256,192,807,12,0,2007,0:0:0:0:
256,192,2157,6,0,P|247:170|251:151,2,40
256,192,2607,6,0,P|294:188|338:188,1,71.9999978027344
437,184,2907,1,0,0:0:0:0:
351,253,3057,2,0,P|330:190|355:108,1,143.999995605469
451,71,3507,1,0,0:0:0:0:
327,187,3657,6,0,P|258:178|178:161,1,143.999995605469
185,162,4107,1,0,0:0:0:0:
204,279,4557,1,0,0:0:0:0:
185,162,4707,1,0,0:0:0:0:
204,279,5007,6,0,L|199:354,1,71.9999978027344
257,211,5307,1,0,0:0:0:0:
136,232,5457,2,0,P|108:196|124:102,1,143.999995605469
202,31,5907,1,0,0:0:0:0:
293,88,6057,6,0,P|321:124|305:218,1,143.999995605469
228,291,6507,2,0,L|149:292,1,71.9999978027344
88,229,6807,2,0,L|89:190,1,35.9999989013672
146,93,6957,2,0,L|145:132,1,35.9999989013672
88,229,7107,6,0,P|123:208|200:217,1,107.999996704102
188,211,7407,6,0,P|231:227|265:229,1,71.9999978027344
329,149,7707,1,0,0:0:0:0:
256,229,7857,2,0,P|310:211|400:229,1,143.999995605469
460,149,8307,1,0,0:0:0:0:
324,208,8457,6,0,L|315:57,1,143.999995605469
315,64,8907,1,0,0:0:0:0:
233,161,9357,1,0,0:0:0:0:
315,64,9507,1,0,0:0:0:0:
233,161,9807,6,0,P|194:162|158:157,1,71.9999978027344
66,105,10107,1,0,0:0:0:0:
46,244,10257,2,0,P|109:237|201:250,1,143.999995605469
275,181,10707,1,0,0:0:0:0:
229,323,10857,2,0,L|219:367,2,35.9999989013672
275,181,11157,5,0,0:0:0:0:
275,181,11232,1,0,0:0:0:0:
275,181,11307,2,0,L|260:135,3,40
194,38,11607,6,0,L|179:84,3,40
137,193,11907,6,0,L|122:147,1,40
281,23,12057,6,0,P|290:73|269:193,1,160
208,280,12507,2,0,P|165:274|106:268,1,80
83,158,12807,1,0,0:0:0:0:
234,188,12957,2,0,P|277:182|336:176,1,80
164,128,13257,6,0,B|132:159|139:204|139:204|174:283,1,160
268,330,13707,1,0,0:0:0:0:
377,303,13857,2,0,B|409:272|402:227|402:227|367:148,1,160
286,93,14307,1,0,0:0:0:0:
227,180,14457,6,0,P|181:185|58:173,1,160
222,261,14907,2,0,L|321:275,1,80
232,100,15207,1,0,0:0:0:0:
232,100,15357,1,0,0:0:0:0:
130,52,15507,1,0,0:0:0:0:
140,163,15657,1,0,0:0:0:0:
232,100,15807,6,0,B|238:58|238:58|232:20,1,80
57,119,16107,2,0,B|51:161|51:161|57:199,1,80
196,247,16407,2,0,L|237:233,1,40
307,165,16557,2,0,L|266:151,1,40
140,163,16707,1,0,0:0:0:0:
233,234,16857,6,0,P|257:173|222:82,1,160
46,35,17307,2,0,L|72:117,1,80
96,247,17607,1,0,0:0:0:0:
219,183,17757,2,0,P|257:173|296:179,1,80
427,73,18057,6,0,L|398:249,1,160
320,91,18507,1,0,0:0:0:0:
419,29,18657,2,0,L|448:205,1,160
334,9,19107,1,0,0:0:0:0:
300,174,19257,6,0,P|260:189|145:170,1,160
41,170,19707,2,0,P|32:123|40:88,1,80
187,25,20007,2,0,P|196:72|188:107,1,80
93,228,20307,2,0,P|84:275|92:310,1,80
233,315,20607,6,0,L|314:304,1,80
426,185,20907,1,0,0:0:0:0:
414,291,21057,2,0,L|408:339,2,40
426,185,21357,1,0,0:0:0:0:
343,119,21507,1,0,0:0:0:0:
254,182,21657,6,0,P|208:189|92:175,1,143.999995605469
346,223,22107,2,0,L|354:301,1,71.9999978027344
420,149,22407,2,0,L|428:71,1,71.9999978027344
298,72,22707,2,0,P|264:109|227:120,1,71.9999978027344
78,163,23007,5,0,0:0:0:0:
99,81,23157,2,0,P|130:97|152:126,1,71.9999978027344
240,209,23457,2,0,L|238:293,2,71.9999978027344
244,117,23907,1,0,0:0:0:0:
174,220,24057,6,0,P|221:204|316:226,1,143.999995605469
405,180,24507,2,0,P|415:220|411:254,1,71.9999978027344
361,83,24807,2,0,P|346:121|323:147,1,71.9999978027344
505,75,25107,2,0,P|470:98|437:105,1,71.9999978027344
265,67,25407,6,0,B|205:61|205:61|176:68|176:68|120:60,1,143.999995605469
226,147,25857,1,0,0:0:0:0:
226,147,26007,2,0,L|304:156,1,71.9999978027344
358,80,26307,1,0,0:0:0:0:
136,148,26457,6,0,B|122:196|138:242|138:242|88:208,1,143.999995605469
68,92,26907,2,0,P|97:69|137:61,1,71.9999978027344
220,134,27207,2,0,L|295:129,1,71.9999978027344
346,26,27507,2,0,L|271:31,1,71.9999978027344
171,195,27807,6,0,P|197:163|317:132,1,143.999995605469
411,74,28257,1,0,0:0:0:0:
452,157,28407,2,0,P|408:166|362:150,1,71.9999978027344
411,74,28707,1,0,0:0:0:0:
428,198,28857,6,0,P|377:175|277:174,1,143.999995605469
150,205,29307,2,0,P|112:214|75:210,1,71.9999978027344
157,48,29607,2,0,P|195:39|232:43,1,71.9999978027344
329,24,29907,1,0,0:0:0:0:
271,125,30057,6,0,B|255:174|255:174|262:284,1,143.999995605469
356,226,30507,2,0,L|360:313,1,71.9999978027344
452,220,30807,2,0,L|491:220,4,35.9999989013672
340,159,31257,6,0,P|300:137|198:162,1,143.999995605469
235,313,31707,2,0,P|244:268|237:239,1,71.9999978027344
132,111,32007,2,0,P|123:156|130:185,1,71.9999978027344
238,243,32307,2,0,L|336:238,1,71.9999978027344
467,157,32607,6,0,L|369:162,1,71.9999978027344
237,45,32907,1,0,0:0:0:0:
210,149,33057,2,0,L|308:144,1,71.9999978027344
401,56,33357,1,0,0:0:0:0:
401,56,33507,1,0,0:0:0:0:
311,65,33657,6,0,P|285:120|291:213,1,143.999995605469
156,120,34107,2,0,P|170:170|185:192,1,71.9999978027344
141,271,34407,2,0,L|222:265,1,71.9999978027344
358,196,34707,2,0,L|277:202,1,71.9999978027344
92,118,35007,6,0,B|84:156|84:156|88:196,1,71.9999978027344
243,46,35307,2,0,B|251:84|251:84|247:124,1,71.9999978027344
188,197,35607,1,0,0:0:0:0:
153,37,35757,1,0,0:0:0:0:
153,37,35907,1,0,0:0:0:0:
188,197,36057,6,0,B|256:172|261:217|330:196,1,143.999995605469
413,143,36507,2,0,L|426:69,1,71.9999978027344
424,237,36807,2,0,L|411:163,1,71.9999978027344
414,331,37107,2,0,L|427:257,1,71.9999978027344
317,297,37407,6,0,P|276:261|189:244,1,143.999995605469
99,183,37857,1,0,0:0:0:0:
285,155,38007,2,0,L|198:168,1,71.9999978027344
27,172,38307,2,0,L|114:185,1,71.9999978027344
248,228,38607,6,0,P|220:189|230:93,1,143.999995605469
320,40,39057,1,0,0:0:0:0:
344,202,39207,2,0,L|350:278,1,71.9999978027344
220,163,39507,2,0,P|187:167|144:169,1,71.9999978027344
350,117,39807,6,0,P|383:113|426:111,1,71.9999978027344
223,73,40107,1,0,0:0:0:0:
305,187,40257,2,0,L|305:236,2,35.9999989013672
309,42,40557,1,0,0:0:0:0:
451,64,40707,2,0,L|451:150,1,71.9999978027344
366,267,41007,6,0,P|319:250|235:236,1,120.000004577637
191,247,41457,2,0,P|133:278|55:281,1,120.000004577637
79,284,42057,1,0,0:0:0:0:
79,284,42207,6,0,L|68:151,1,120.000004577637
169,69,42657,2,0,L|158:188,2,120.000004577637
158,188,43407,6,0,P|204:206|279:202,1,120.000004577637
323,169,43857,2,0,P|368:151|443:155,1,120.000004577637
438,154,44457,1,0,0:0:0:0:
438,154,44607,6,0,B|432:200|432:200|380:282,1,120.000004577637
334,277,45057,2,0,P|264:268|210:277,1,120.000004577637
215,275,45507,1,0,0:0:0:0:
108,298,45657,5,0,0:0:0:0:
108,298,45732,1,0,0:0:0:0:
108,298,45807,2,0,L|96:223,1,68.0000012969971
167,162,46107,1,0,0:0:0:0:
167,162,46257,2,0,L|179:87,1,68.0000012969971
259,28,46557,2,0,L|269:95,1,68.0000012969971
289,222,46857,6,0,P|253:236|221:232,1,68.0000012969971
29,120,47157,2,0,P|65:106|97:110,1,68.0000012969971
187,317,47457,2,0,P|135:253|141:195,1,136.000002593994
196,57,47907,2,0,L|212:129,2,68.0000012969971
277,184,48357,5,0,0:0:0:0:
277,184,48432,1,0,0:0:0:0:
277,184,48507,2,0,L|317:175,3,40
401,154,48807,2,0,L|392:114,3,40
302,38,49107,2,0,L|310:77,3,40
226,33,49407,6,0,P|212:68|162:96,1,96
46,49,50007,5,0,0:0:0:0:
46,49,50157,1,0,0:0:0:0:
43,223,50457,6,0,P|90:196|211:204,1,160
298,144,50907,2,0,P|311:185|307:223,1,80
202,273,51207,2,0,P|189:232|193:194,1,80
298,144,51507,2,0,L|402:132,1,80
433,291,51807,6,0,P|393:316|284:299,1,160
107,268,52257,1,0,0:0:0:0:
107,268,52407,2,0,L|208:246,1,80
311,149,52707,1,0,0:0:0:0:
185,250,52857,6,0,P|165:209|156:92,1,160
266,37,53307,2,0,L|348:20,1,80
236,141,53607,2,0,L|312:174,1,80
150,179,53907,2,0,L|194:250,1,80
51,168,54207,6,0,P|37:245|62:321,1,160
168,286,54657,1,0,0:0:0:0:
255,355,54807,2,0,L|356:347,1,80
420,275,55107,1,0,0:0:0:0:
268,253,55257,6,0,B|245:190|245:190|261:94,1,160
377,149,55707,2,0,P|420:146|462:142,1,80
328,14,56007,2,0,P|285:16|243:21,1,80
102,15,56307,2,0,L|113:108,1,80
134,238,56607,6,0,P|188:253|261:179,1,160
80,176,57057,1,0,0:0:0:0:
80,304,57207,1,0,0:0:0:0:
80,304,57357,1,0,0:0:0:0:
208,304,57507,2,0,P|215:259|209:220,1,80
171,17,57807,6,0,P|164:62|170:101,1,80
368,177,58107,2,0,L|455:173,1,80
144,177,58407,2,0,L|57:173,1,80
256,60,58707,1,0,0:0:0:0:
344,20,58857,6,0,P|356:72|344:188,1,160
277,224,59232,1,0,0:0:0:0:
277,224,59307,2,0,L|227:220,3,40
112,148,59607,2,0,L|162:144,3,40
147,247,59907,2,0,L|143:297,1,40
256,136,60057,6,0,P|301:104|414:94,1,160
476,228,60507,2,0,L|396:228,1,80
256,344,60807,2,0,L|256:264,1,80
328,60,61107,2,0,L|328:140,1,80
134,272,61407,6,0,P|123:194|135:114,1,160
222,44,61857,1,0,0:0:0:0:
91,184,62007,2,0,P|49:183|6:165,2,80
222,44,62457,6,0,B|310:31|310:31|394:55,1,160
512,4,62907,2,0,L|497:98,1,80
438,307,63207,2,0,L|425:228,1,80
302,121,63507,2,0,L|289:199,1,80
113,285,63807,6,0,P|49:252|50:331,1,160
307,339,64257,1,0,0:0:0:0:
343,245,64407,1,0,0:0:0:0:
349,225,64482,1,0,0:0:0:0:
355,205,64557,2,0,L|370:165,2,40
307,339,64857,6,0,P|371:340|453:289,1,160
461,166,65307,2,0,L|434:73,1,80
236,128,65607,2,0,L|263:221,2,80
