osu file format v14

[General]
AudioFilename: audio.mp3
AudioLeadIn: 0
PreviewTime: 50004
Countdown: 1
SampleSet: Normal
StackLeniency: 0.7
Mode: 0
LetterboxInBreaks: 0
WidescreenStoryboard: 0

[Editor]
Bookmarks: 2604,7404,12054,21654,31404,41004,45804,48204,49404,50454,65304,68604,69654,77304,79254,86904,91254,97254
DistanceSpacing: 1.2
BeatDivisor: 4
GridSize: 32
TimelineZoom: 1.7

[Metadata]
Title:REVIVER
TitleUnicode:REVIVER
Artist:MY FIRST STORY
ArtistUnicode:MY FIRST STORY
Creator:Mokobe
Version:EVERLASTING FAITH
Source:
Tags:
BeatmapID:2130067
BeatmapSetID:1017755

[Difficulty]
HPDrainRate:5
CircleSize:3.8
OverallDifficulty:9
ApproachRate:9.7
SliderMultiplier:1.84
SliderTickRate:1

[Events]
//Background and Video events
0,0,"300852.jpg",0,0
//Break Periods
//Storyboard Layer 0 (Background)
//Storyboard Layer 1 (Fail)
//Storyboard Layer 2 (Pass)
//Storyboard Layer 3 (Foreground)
//Storyboard Layer 4 (Overlay)
//Storyboard Sound Samples

[TimingPoints]
1404,300,4,1,1,75,1,0
2604,-119.047619047619,4,1,1,75,0,0
7404,-106.382978723404,4,1,1,75,0,0
21654,-116.279069767442,4,1,1,75,0,0
41004,-294.117647058824,4,1,1,75,0,0
45804,-135.135135135135,4,1,1,75,0,0
48504,-119.047619047619,4,1,1,75,0,0
50454,-96.1538461538461,4,1,1,75,0,0
58704,-96.1538461538461,4,1,1,75,0,0
69654,-87.719298245614,4,1,1,75,0,1
86904,-87.719298245614,4,1,1,75,0,0

[HitObjects]
137,68,2604,6,0,L|51:52,2,77.2799976416016,4|0|2,0:0|0:0|0:0,0:0:0:0:
199,245,3054,2,0,B|237:207|237:207|223:85,1,154.559995283203,0|8,0:0|0:0,0:0:0:0:
306,258,3504,1,2,0:0:0:0:
370,85,3654,2,0,B|359:186|359:186|397:224,1,154.559995283203,0|0,0:0|0:0,0:0:0:0:
480,23,4104,1,2,0:0:0:0:
397,224,4554,5,8,0:0:0:0:
480,23,4704,1,2,0:0:0:0:
487,267,5004,6,0,L|500:354,2,77.2799976416016,12|0|2,0:0|0:0|0:0,0:0:0:0:
384,122,5454,2,0,B|399:227|399:227|357:279,1,154.559995283203,0|8,0:0|0:0,0:0:0:0:
291,87,5904,1,2,0:0:0:0:
224,265,6054,2,0,B|194:228|194:228|209:123,1,154.559995283203,0|0,0:0|0:0,0:0:0:0:
42,5,6504,1,2,0:0:0:0:
48,171,6654,1,0,0:0:0:0:
149,78,6804,5,0,0:0:0:0:
176,51,6879,1,0,0:0:0:0:
213,41,6954,1,8,0:0:0:0:
250,50,7029,1,0,0:0:0:0:
278,76,7104,2,0,P|328:93|388:71,1,115.919996462402,2|0,0:0|0:0,0:0:0:0:
471,1,7404,6,0,L|467:122,1,86.47999868042,4|0,0:0|0:0,0:0:0:0:
403,236,7704,1,2,0:0:0:0:
278,76,7854,2,0,B|245:124|245:124|268:258,1,172.95999736084,0|8,0:0|0:0,0:0:0:0:
181,58,8304,1,2,0:0:0:0:
94,247,8454,2,0,B|113:133|113:133|80:85,1,172.95999736084,0|0,0:0|0:0,0:0:0:0:
52,336,8904,1,2,0:0:0:0:
80,85,9354,5,8,0:0:0:0:
52,336,9504,1,2,0:0:0:0:
270,276,9804,6,0,B|303:306|303:306|320:362,2,86.47999868042,12|0|2,0:0|0:0|0:0,0:0:0:0:
182,150,10254,2,0,B|205:197|205:197|185:341,1,172.95999736084,0|8,0:0|0:0,0:0:0:0:
69,112,10704,1,2,0:0:0:0:
236,70,10854,1,0,0:0:0:0:
278,61,10929,1,0,0:0:0:0:
320,53,11004,1,10,0:0:0:0:
449,83,11154,2,0,L|445:152,1,43.23999934021,8|0,0:0|0:0,0:0:0:0:
373,193,11304,2,0,L|377:262,1,43.23999934021,2|0,0:0|0:0,0:0:0:0:
479,311,11454,5,8,0:0:0:0:
445,285,11529,1,0,0:0:0:0:
403,276,11604,1,10,0:0:0:0:
361,287,11679,1,0,0:0:0:0:
329,315,11754,1,8,0:0:0:0:
297,344,11829,1,0,0:0:0:0:
255,353,11904,1,2,0:0:0:0:
214,342,11979,1,0,0:0:0:0:
181,314,12054,6,0,L|188:128,1,172.95999736084,4|2,0:0|0:0,0:0:0:0:
319,34,12504,2,0,P|387:14|420:28,1,86.47999868042,10|2,0:0|0:0,0:0:0:0:
361,187,12804,2,0,P|318:189|280:170,1,86.47999868042,2|2,0:0|0:0,0:0:0:0:
455,86,13104,1,8,0:0:0:0:
382,353,13254,6,0,B|357:309|357:309|361:181,1,172.95999736084,4|2,0:0|0:0,0:0:0:0:
500,238,13704,1,2,0:0:0:0:
275,296,13854,1,4,0:0:0:0:
491,222,14004,1,0,0:0:0:0:
286,53,14154,1,2,0:0:0:0:
276,297,14304,1,8,0:0:0:0:
128,52,14454,6,0,B|147:92|147:92|123:239,1,172.95999736084,4|2,0:0|0:0,0:0:0:0:
236,362,14904,2,0,P|303:370|336:352,1,86.47999868042,10|2,0:0|0:0,0:0:0:0:
209,217,15204,2,0,P|167:207|126:218,1,86.47999868042,2|2,0:0|0:0,0:0:0:0:
277,301,15504,1,8,0:0:0:0:
340,46,15654,6,0,B|305:84|305:84|322:217,1,172.95999736084,4|2,0:0|0:0,0:0:0:0:
464,302,16104,1,2,0:0:0:0:
180,281,16254,1,4,0:0:0:0:
462,129,16404,5,0,0:0:0:0:
462,172,16479,1,0,0:0:0:0:
462,215,16554,1,2,0:0:0:0:
463,258,16629,1,0,0:0:0:0:
463,301,16704,1,8,0:0:0:0:
298,278,16854,6,0,B|394:254|376:326|470:300,1,172.95999736084,4|2,0:0|0:0,0:0:0:0:
467,68,17304,2,0,B|482:111|482:111|465:168,1,86.47999868042,10|2,0:0|0:0,0:0:0:0:
298,278,17604,2,0,B|286:238|286:238|301:195,1,86.47999868042,2|2,0:0|0:0,0:0:0:0:
467,68,17904,1,8,0:0:0:0:
233,12,18054,6,0,B|254:56|254:56|259:110|196:187,1,172.95999736084,4|2,0:0|0:0,0:0:0:0:
45,336,18504,2,0,P|43:293|65:223,1,86.47999868042,2|4,0:0|0:0,0:0:0:0:
202,84,18804,2,0,P|211:126|209:169,1,86.47999868042,0|2,0:0|0:0,0:0:0:0:
307,349,19104,1,8,0:0:0:0:
394,50,19254,6,0,B|363:86|363:86|379:223,1,172.95999736084,4|2,0:0|0:0,0:0:0:0:
307,349,19704,2,0,P|252:365|213:342,1,86.47999868042,10|2,0:0|0:0,0:0:0:0:
55,228,20004,2,0,P|96:217|135:233,1,86.47999868042,2|2,0:0|0:0,0:0:0:0:
307,349,20304,1,8,0:0:0:0:
240,102,20454,6,0,B|211:139|211:139|224:297,1,172.95999736084,4|2,0:0|0:0,0:0:0:0:
387,253,20904,1,2,0:0:0:0:
80,178,21054,1,4,0:0:0:0:
80,178,21129,1,0,0:0:0:0:
80,178,21204,1,0,0:0:0:0:
438,138,21354,1,2,0:0:0:0:
80,277,21504,1,10,0:0:0:0:
297,32,21654,6,0,B|326:69|326:69|313:216,1,158.240002414551,4|2,0:0|0:0,0:0:0:0:
281,312,22104,2,0,P|245:274|208:262,1,79.1200012072754,8|0,0:0|0:0,0:0:0:0:
119,384,22404,2,0,P|154:366|179:336,1,79.1200012072754,2|2,0:0|0:0,0:0:0:0:
107,217,22704,2,0,L|109:315,1,79.1200012072754,10|0,0:0|0:0,0:0:0:0:
27,130,23004,6,0,L|29:302,1,158.240002414551,2|8,0:0|0:0,0:0:0:0:
256,184,23454,2,0,B|159:169|196:226|94:216,1,158.240002414551,0|2,0:0|0:0,0:0:0:0:
298,104,23904,1,10,0:0:0:0:
137,0,24054,6,0,B|103:36|103:36|90:83|121:173,1,158.240002414551,4|2,0:0|0:0,0:0:0:0:
234,244,24504,2,0,P|194:223|148:230,1,79.1200012072754,8|0,0:0|0:0,0:0:0:0:
85,345,24804,2,0,P|124:345|157:325,1,79.1200012072754,2|2,0:0|0:0,0:0:0:0:
20,195,25104,2,0,L|21:311,1,79.1200012072754,10|0,0:0|0:0,0:0:0:0:
294,326,25404,6,0,B|246:327|223:292|223:292|194:327|143:326,1,158.240002414551,2|8,0:0|0:0,0:0:0:0:
370,137,25854,2,0,B|393:175|393:175|406:243|372:317,1,158.240002414551,0|2,0:0|0:0,0:0:0:0:
204,213,26304,1,10,0:0:0:0:
487,27,26454,6,0,B|464:65|464:65|451:133|485:207,1,158.240002414551,4|2,0:0|0:0,0:0:0:0:
444,305,26904,2,0,P|428:255|394:223,1,79.1200012072754,8|0,0:0|0:0,0:0:0:0:
294,349,27204,2,0,P|341:337|367:309,1,79.1200012072754,2|2,0:0|0:0,0:0:0:0:
296,179,27504,2,0,L|299:283,1,79.1200012072754,10|0,0:0|0:0,0:0:0:0:
218,113,27804,6,0,P|294:143|375:105,1,158.240002414551,2|8,0:0|0:0,0:0:0:0:
232,0,28254,1,0,0:0:0:0:
78,128,28404,2,0,P|75:83|85:49,1,79.1200012072754,2|2,0:0|0:0,0:0:0:0:
362,117,28704,1,10,0:0:0:0:
61,206,28854,6,0,B|107:181|107:181|248:207,1,158.240002414551,4|2,0:0|0:0,0:0:0:0:
375,269,29304,1,8,0:0:0:0:
171,318,29454,1,0,0:0:0:0:
360,276,29604,1,2,0:0:0:0:
256,374,29754,1,2,0:0:0:0:
324,135,29904,1,10,0:0:0:0:
451,360,30054,6,0,B|482:323|482:323|469:181,1,158.240002414551,4|2,0:0|0:0,0:0:0:0:
248,99,30504,1,8,0:0:0:0:
483,35,30654,1,0,0:0:0:0:
343,224,30804,1,6,0:0:0:0:
308,243,30879,1,0,0:0:0:0:
269,248,30954,1,2,0:0:0:0:
232,237,31029,1,0,0:0:0:0:
201,212,31104,1,10,0:0:0:0:
152,79,31254,6,0,P|171:128|136:242,1,158.240002414551,4|2,0:0|0:0,0:0:0:0:
153,384,31704,1,8,0:0:0:0:
63,179,31854,1,0,0:0:0:0:
151,367,32004,1,2,0:0:0:0:
288,191,32154,1,2,0:0:0:0:
31,316,32304,1,10,0:0:0:0:
329,346,32454,1,0,0:0:0:0:
203,112,32604,6,0,B|186:153|186:153|203:296,1,158.240002414551,2|8,0:0|0:0,0:0:0:0:
390,24,33054,2,0,B|323:23|323:23|298:36|298:36|206:38,1,158.240002414551,0|2,0:0|0:0,0:0:0:0:
73,138,33504,1,10,0:0:0:0:
413,120,33654,6,0,B|456:105|456:105|331:109,1,158.240002414551,4|2,0:0|0:0,0:0:0:0:
194,169,34104,1,8,0:0:0:0:
444,233,34254,1,0,0:0:0:0:
211,307,34404,1,2,0:0:0:0:
465,228,34554,1,2,0:0:0:0:
176,163,34704,1,10,0:0:0:0:
417,102,34854,1,0,0:0:0:0:
323,355,35004,6,0,B|350:321|350:321|330:184,1,158.240002414551,2|8,0:0|0:0,0:0:0:0:
140,112,35454,2,0,B|213:99|213:99|236:109|236:109|324:96,1,158.240002414551,0|2,0:0|0:0,0:0:0:0:
149,261,35904,1,10,0:0:0:0:
487,195,36054,6,0,B|428:203|428:203|405:193|405:193|332:206,1,158.240002414551,4|2,0:0|0:0,0:0:0:0:
441,65,36504,1,8,0:0:0:0:
500,307,36654,1,0,0:0:0:0:
438,40,36804,1,2,0:0:0:0:
339,289,36954,1,2,0:0:0:0:
512,147,37104,1,10,0:0:0:0:
269,112,37254,1,0,0:0:0:0:
402,365,37404,6,0,B|436:325|436:325|415:192,1,158.240002414551,2|8,0:0|0:0,0:0:0:0:
297,80,37854,1,0,0:0:0:0:
204,239,38004,2,0,P|138:251|98:235,1,79.1200012072754,2|2,0:0|0:0,0:0:0:0:
174,102,38304,1,10,0:0:0:0:
174,102,38454,1,0,0:0:0:0:
288,359,38604,6,0,B|318:315|318:315|290:192,1,158.240002414551,4|8,0:0|0:0,0:0:0:0:
380,74,39054,1,0,0:0:0:0:
507,203,39204,2,0,P|472:192|415:206,1,79.1200012072754,2|2,0:0|0:0,0:0:0:0:
241,313,39504,2,0,P|279:319|317:307,1,79.1200012072754,10|0,0:0|0:0,0:0:0:0:
116,124,39804,6,0,L|115:227,1,79.1200012072754,6|2,0:0|0:0,0:0:0:0:
463,268,40104,1,8,0:0:0:0:
204,120,40254,1,2,0:0:0:0:
204,120,40329,1,8,0:0:0:0:
204,120,40404,1,6,0:0:0:0:
352,326,40554,1,2,0:0:0:0:
279,44,40704,1,10,0:0:0:0:
230,331,40854,1,2,0:0:0:0:
279,27,41004,6,0,P|289:138|277:280,1,250.240001527344,12|8,0:0|0:0,0:0:0:0:
48,242,43404,2,0,B|103:226|180:251|130:330|193:356|267:340,1,250.240001527344,4|10,0:0|0:0,0:0:0:0:
418,250,45054,2,0,L|417:268,1,15.640000095459,0|0,0:0|0:0,0:0:0:0:
276,148,45354,2,0,L|275:166,1,15.640000095459,0|0,0:0|0:0,0:0:0:0:
417,61,45504,2,0,L|416:43,1,15.640000095459,0|0,0:0|0:0,0:0:0:0:
295,182,45654,2,0,L|294:164,1,15.640000095459,0|0,0:0|0:0,0:0:0:0:
189,16,45804,6,0,B|205:64|194:110,1,68.0800016621094,2|2,0:0|0:0,0:0:0:0:
121,128,46104,2,0,B|105:176|111:195,1,68.0800016621094,10|0,0:0|0:0,0:0:0:0:
179,254,46404,6,0,B|227:270|273:259,1,68.0800016621094,2|2,0:0|0:0,0:0:0:0:
291,186,46704,2,0,B|339:170|358:176,1,68.0800016621094,10|0,0:0|0:0,0:0:0:0:
440,213,47004,2,0,L|439:130,1,68.0800016621094,2|2,0:0|0:0,0:0:0:0:
399,62,47304,2,0,B|364:54|364:54|319:64,1,68.0800016621094,10|0,0:0|0:0,0:0:0:0:
275,120,47604,2,0,B|243:126|243:126|208:118,1,68.0800016621094,2|2,0:0|0:0,0:0:0:0:
58,96,47904,1,10,0:0:0:0:
136,30,48054,1,2,0:0:0:0:
208,118,48204,6,0,L|204:227,1,102.120002493164,12|0,0:0|0:0,0:0:0:0:
248,285,48504,2,0,P|291:286|312:278,3,38.6399988208008,8|0|2|8,0:0|0:0|0:0|0:0,0:0:0:0:
164,320,48804,2,0,P|121:319|100:327,3,38.6399988208008,2|0|8|0,0:0|0:0|0:0|0:0,0:0:0:0:
244,364,49104,1,2,0:0:0:0:
281,372,49179,1,2,0:0:0:0:
320,375,49254,1,8,0:0:0:0:
358,371,49329,1,0,0:0:0:0:
396,362,49404,1,6,0:0:0:0:
469,191,50004,5,0,0:0:0:0:
343,246,50154,2,0,B|381:228|409:235|409:235|434:264|481:266,1,115.919996462402,0|0,0:0|0:0,0:0:0:0:
474,0,50454,6,0,L|469:201,1,191.359998832031,4|2,0:0|0:0,0:0:0:0:
307,356,50904,1,8,0:0:0:0:
453,210,51054,1,0,0:0:0:0:
219,208,51204,1,2,0:0:0:0:
434,202,51354,1,2,0:0:0:0:
278,32,51504,1,8,0:0:0:0:
512,95,51654,1,0,0:0:0:0:
112,105,51804,6,0,B|199:103|199:103|226:120|226:120|339:118,1,191.359998832031,2|8,0:0|0:0,0:0:0:0:
78,204,52254,1,0,0:0:0:0:
339,265,52404,1,2,0:0:0:0:
44,383,52554,1,2,0:0:0:0:
198,150,52704,1,8,0:0:0:0:
343,342,52854,6,0,P|429:374|527:305,1,191.359998832031,4|2,0:0|0:0,0:0:0:0:
405,144,53304,1,8,0:0:0:0:
509,330,53454,1,0,0:0:0:0:
294,243,53604,1,2,0:0:0:0:
497,77,53754,1,2,0:0:0:0:
409,319,53904,1,8,0:0:0:0:
496,55,54054,1,0,0:0:0:0:
399,331,54204,6,0,B|289:312|343:384|199:364,1,191.359998832031,2|8,0:0|0:0,0:0:0:0:
45,256,54654,1,0,0:0:0:0:
249,157,54804,1,2,0:0:0:0:
117,328,54954,1,2,0:0:0:0:
221,83,55104,1,8,0:0:0:0:
314,252,55254,6,0,P|423:291|505:236,1,191.359998832031,4|2,0:0|0:0,0:0:0:0:
347,18,55704,1,8,0:0:0:0:
307,258,55854,1,0,0:0:0:0:
506,140,56004,1,2,0:0:0:0:
245,51,56154,1,2,0:0:0:0:
492,129,56304,1,8,0:0:0:0:
207,204,56454,1,0,0:0:0:0:
347,18,56604,6,0,B|386:61|386:61|367:217,1,191.359998832031,2|8,0:0|0:0,0:0:0:0:
197,322,57054,1,0,0:0:0:0:
369,193,57204,2,0,P|435:178|478:204,1,95.6799994160156,2|2,0:0|0:0,0:0:0:0:
197,322,57504,2,0,P|151:333|107:316,1,95.6799994160156,8|0,0:0|0:0,0:0:0:0:
363,1,57804,2,0,L|370:228,1,191.359998832031
197,322,58254,2,0,L|202:130,1,191.359998832031
63,23,58704,2,0,L|53:118,1,95.6799994160156,8|4,0:0|0:0,0:0:0:0:
196,344,59004,1,0,0:0:0:0:
340,161,59154,2,0,P|342:194|338:251,3,47.8399997080078,8|8|8|8,0:0|0:0|0:0|0:0,0:0:0:0:
238,255,59454,2,0,P|235:288|240:345,3,47.8399997080078,8|8|10|10,0:0|0:0|0:0|0:0,0:0:0:0:
308,349,59754,1,10,0:0:0:0:
350,370,59829,1,10,0:0:0:0:
397,376,59904,1,10,0:0:0:0:
444,367,59979,1,10,0:0:0:0:
484,342,60054,6,0,B|506:300|506:300|486:131,1,191.359998832031,10|2,0:0|0:0,0:0:0:0:
304,39,60504,1,8,0:0:0:0:
310,253,60654,1,0,0:0:0:0:
476,70,60804,1,2,0:0:0:0:
228,152,60954,1,2,0:0:0:0:
423,253,61104,1,8,0:0:0:0:
276,38,61254,1,0,0:0:0:0:
145,226,61404,6,0,P|91:251|-20:189,1,191.359998832031,2|8,0:0|0:0,0:0:0:0:
153,75,61854,1,0,0:0:0:0:
261,324,62004,2,0,L|267:221,1,95.6799994160156,2|2,0:0|0:0,0:0:0:0:
355,42,62304,1,8,0:0:0:0:
512,160,62454,6,0,B|462:138|420:170|420:170|380:199|319:171,1,191.359998832031,4|2,0:0|0:0,0:0:0:0:
45,152,62904,1,8,0:0:0:0:
321,83,63054,1,0,0:0:0:0:
53,130,63204,1,2,0:0:0:0:
366,99,63354,1,2,0:0:0:0:
119,36,63504,1,8,0:0:0:0:
200,259,63654,1,0,0:0:0:0:
326,41,63804,6,0,P|390:21|518:57,1,191.359998832031,2|8,0:0|0:0,0:0:0:0:
314,266,64254,1,0,0:0:0:0:
183,40,64404,2,0,L|189:145,1,95.6799994160156,2|2,0:0|0:0,0:0:0:0:
147,346,64704,1,8,0:0:0:0:
512,160,64854,2,0,B|462:138|420:170|420:170|380:199|319:171,1,191.359998832031,4|8,0:0|0:0,0:0:0:0:
147,346,65304,5,8,0:0:0:0:
218,32,65454,1,2,0:0:0:0:
286,363,65604,5,8,0:0:0:0:
215,49,65754,1,2,0:0:0:0:
21,268,65904,1,8,0:0:0:0:
409,140,66054,2,0,B|359:118|317:150|317:150|277:179|216:151,1,191.359998832031,4|8,0:0|0:0,0:0:0:0:
64,159,66504,5,8,0:0:0:0:
442,209,66654,1,2,0:0:0:0:
41,272,66804,5,8,0:0:0:0:
419,222,66954,1,2,0:0:0:0:
39,154,67104,1,8,0:0:0:0:
386,8,67254,6,0,B|416:41|416:41|405:177,1,143.519999124023,4|0,0:0|0:0,0:0:0:0:
432,222,67554,2,0,P|394:216|347:217,3,47.8399997080078,8|2|2|2,0:0|0:0|0:0|0:0,0:0:0:0:
325,266,67854,2,0,P|287:272|240:271,3,47.8399997080078,8|2|2|2,0:0|0:0|0:0|0:0,0:0:0:0:
52,187,68154,1,8,0:0:0:0:
81,178,68229,1,8,0:0:0:0:
120,178,68304,1,8,0:0:0:0:
169,188,68379,1,8,0:0:0:0:
224,218,68454,1,8,0:0:0:0:
277,272,68529,1,8,0:0:0:0:
312,346,68604,1,4,0:0:0:0:
268,60,69354,6,0,P|263:105|266:134,1,47.8399997080078,0|0,0:0|0:0,0:0:0:0:
379,217,69504,1,0,0:0:0:0:
468,59,69654,6,0,B|412:32|374:55|374:55|312:92|237:43,1,209.759997439453,4|2,0:0|0:0,0:0:0:0:
39,189,70104,2,0,P|101:200|162:177,1,104.879998719727,8|0,0:0|0:0,0:0:0:0:
101,11,70404,2,0,B|81:41|81:41|82:118,1,104.879998719727,2|2,0:0|0:0,0:0:0:0:
245,256,70704,2,0,B|245:187|245:187|225:157,1,104.879998719727,8|0,0:0|0:0,0:0:0:0:
53,318,71004,6,0,B|109:347|109:347|270:337,1,209.759997439453,2|8,0:0|0:0,0:0:0:0:
318,122,71454,1,0,0:0:0:0:
447,354,71604,2,0,P|466:305|458:233,1,104.879998719727,2|2,0:0|0:0,0:0:0:0:
351,59,71904,1,8,0:0:0:0:
227,226,72054,6,0,B|159:244|159:244|7:219,1,209.759997439453,4|2,0:0|0:0,0:0:0:0:
158,56,72504,1,8,0:0:0:0:
252,336,72654,1,0,0:0:0:0:
157,42,72804,1,2,0:0:0:0:
79,338,72954,1,2,0:0:0:0:
344,161,73104,1,8,0:0:0:0:
15,106,73254,1,0,0:0:0:0:
348,282,73404,6,0,P|422:297|477:269,1,104.879998719727,2|0,0:0|0:0,0:0:0:0:
173,176,73704,2,0,P|121:166|72:182,1,104.879998719727,8|0,0:0|0:0,0:0:0:0:
309,337,74004,1,2,0:0:0:0:
241,34,74154,1,2,0:0:0:0:
160,332,74304,1,8,0:0:0:0:
472,150,74454,6,0,B|352:121|400:205|255:175,1,209.759997439453,4|2,0:0|0:0,0:0:0:0:
348,36,74904,1,8,0:0:0:0:
439,267,75054,1,0,0:0:0:0:
346,12,75204,1,2,0:0:0:0:
291,288,75354,1,2,0:0:0:0:
464,65,75504,1,8,0:0:0:0:
160,57,75654,1,0,0:0:0:0:
436,254,75804,6,0,B|481:214|481:214|464:62,1,209.759997439453,2|8,0:0|0:0,0:0:0:0:
102,154,76254,1,0,0:0:0:0:
269,328,76404,2,0,B|311:352|311:352|502:346,1,209.759997439453,2|8,0:0|0:0,0:0:0:0:
202,43,76854,2,0,L|212:296,1,209.759997439453,4|8,0:0|0:0,0:0:0:0:
410,129,77304,5,8,0:0:0:0:
94,237,77454,1,2,0:0:0:0:
440,267,77604,5,8,0:0:0:0:
61,138,77754,1,2,0:0:0:0:
477,101,77904,5,8,0:0:0:0:
22,256,78054,1,2,0:0:0:0:
336,43,78204,2,0,L|342:117,1,52.4399993598633,8|2,0:0|0:0,0:0:0:0:
284,201,78354,2,0,L|278:126,2,52.4399993598633,2|2|8,0:0|0:0|0:0,0:0:0:0:
362,177,78579,2,0,L|368:251,1,52.4399993598633,2|2,0:0|0:0,0:0:0:0:
310,335,78729,2,0,L|304:260,2,52.4399993598633,2|8|8,0:0|0:0|0:0,0:0:0:0:
397,332,78954,2,0,L|392:384,3,52.4399993598633,8|8|8|8,0:0|0:0|0:0|0:0,0:0:0:0:
399,265,79254,6,0,B|456:282|456:282|272:282,1,209.759997439453,4|2,0:0|0:0,0:0:0:0:
73,202,79704,1,8,0:0:0:0:
331,170,79854,1,0,0:0:0:0:
55,198,80004,1,2,0:0:0:0:
347,161,80154,1,2,0:0:0:0:
143,305,80304,1,8,0:0:0:0:
190,51,80454,1,0,0:0:0:0:
294,292,80604,6,0,B|316:343|316:343|319:161,1,209.759997439453,2|8,0:0|0:0,0:0:0:0:
188,29,81054,1,0,0:0:0:0:
0,163,81204,2,0,B|59:134|107:167|107:167|158:200|218:161,1,209.759997439453,2|8,0:0|0:0,0:0:0:0:
332,1,81654,2,0,B|312:35|295:50|295:50|280:103|325:212,1,209.759997439453,4|2,0:0|0:0,0:0:0:0:
478,308,82104,1,8,0:0:0:0:
383,83,82254,1,0,0:0:0:0:
273,322,82404,1,2,0:0:0:0:
475,197,82554,1,2,0:0:0:0:
200,116,82704,1,8,0:0:0:0:
380,329,82854,1,0,0:0:0:0:
287,52,83004,6,0,P|313:120|306:173,1,104.879998719727,2|0,0:0|0:0,0:0:0:0:
143,317,83304,2,0,P|145:264|167:218,1,104.879998719727,8|0,0:0|0:0,0:0:0:0:
429,298,83604,1,2,0:0:0:0:
377,307,83679,1,0,0:0:0:0:
325,308,83754,1,2,0:0:0:0:
273,301,83829,1,0,0:0:0:0:
222,286,83904,1,8,0:0:0:0:
413,94,84054,6,0,B|439:150|439:150|428:298,1,209.759997439453,4|2,0:0|0:0,0:0:0:0:
132,212,84504,1,8,0:0:0:0:
354,162,84654,1,0,0:0:0:0:
161,344,84804,1,2,0:0:0:0:
234,100,84954,1,2,0:0:0:0:
305,358,85104,1,8,0:0:0:0:
234,70,85254,1,0,0:0:0:0:
68,254,85404,6,0,B|25:272|25:272|230:267,1,209.759997439453,2|8,0:0|0:0,0:0:0:0:
268,46,85854,1,0,0:0:0:0:
428,190,86004,1,2,0:0:0:0:
375,185,86079,1,0,0:0:0:0:
323,180,86154,1,2,0:0:0:0:
271,176,86229,1,0,0:0:0:0:
219,171,86304,1,8,0:0:0:0:
421,0,86454,2,0,B|449:31|449:31|434:205,1,209.759997439453,4|10,0:0|0:0,0:0:0:0:
17,345,86904,5,8,0:0:0:0:
372,265,87054,1,2,0:0:0:0:
33,227,87204,5,8,0:0:0:0:
445,341,87354,1,2,0:0:0:0:
194,35,87504,5,8,0:0:0:0:
301,366,87654,1,2,0:0:0:0:
302,11,87804,5,8,0:0:0:0:
192,350,87954,1,2,0:0:0:0:
499,170,88104,6,0,B|452:135|452:135|281:159,1,209.759997439453,8|8,0:0|0:0,0:0:0:0:
65,220,88554,1,2,0:0:0:0:
65,220,88629,1,2,0:0:0:0:
65,220,88704,1,8,0:0:0:0:
499,170,88854,2,0,B|452:135|452:135|281:159,1,209.759997439453,4|2,0:0|0:0,0:0:0:0:
438,326,89304,5,8,0:0:0:0:
87,205,89454,1,2,0:0:0:0:
471,173,89604,5,8,0:0:0:0:
51,315,89754,1,2,0:0:0:0:
511,356,89904,5,8,0:0:0:0:
7,184,90054,1,2,0:0:0:0:
242,28,90204,2,0,P|257:90|257:109,3,52.4399993598633,6|0|2|0,0:0|0:0|0:0|0:0,0:0:0:0:
319,148,90504,2,0,P|324:122|332:97,1,52.4399993598633,8|0,0:0|0:0,0:0:0:0:
226,163,90654,2,0,P|241:225|241:244,3,52.4399993598633,2|8|6|0,0:0|0:0|0:0|0:0,0:0:0:0:
303,283,90954,2,0,P|308:257|316:232,1,52.4399993598633,2|0,0:0|0:0,0:0:0:0:
424,152,91104,1,10,0:0:0:0:
511,249,91254,1,14,0:0:0:0:
256,192,91404,12,0,97254,0:0:0:0:
