osu file format v14

[General]
AudioFilename: audio.mp3
AudioLeadIn: 0
PreviewTime: 49988
Countdown: 0
SampleSet: Soft
StackLeniency: 0.4
Mode: 0
LetterboxInBreaks: 0
WidescreenStoryboard: 1

[Editor]
Bookmarks: 1742,157142,256442
DistanceSpacing: 0.9
BeatDivisor: 4
GridSize: 8
TimelineZoom: 2.1

[Metadata]
Title:REVIVER
TitleUnicode:REVIVER
Artist:MY FIRST STORY
ArtistUnicode:MY FIRST STORY
Creator:HabiHolic
Version:Battle's Extra
Source:
Tags:ALL LEAD TRACKS Japanese English J-Rock jrock rock Hiroki Moriuchi Nobuaki Katou Teruki Nishizawa Shouhei Sasaki 森内寛樹 加藤伸明 佐々木翔平 西澤照貴 Nob Teru Hiro Kid'z Enerugi Battle Asphyre
BeatmapID:2523522
BeatmapSetID:1205497

[Difficulty]
HPDrainRate:6
CircleSize:3
OverallDifficulty:8.7
ApproachRate:9.1
SliderMultiplier:1.8
SliderTickRate:1

[Events]
//Background and Video events
0,0,"BG.jpg",0,0
Video,0,"Video.mp4"
//Break Periods
2,89038,97704
2,165838,172254
2,222237,230604
//Storyboard Layer 0 (Background)
//Storyboard Layer 1 (Fail)
//Storyboard Layer 2 (Pass)
//Storyboard Layer 3 (Foreground)
//Storyboard Layer 4 (Overlay)
//Storyboard Sound Samples

[TimingPoints]
188,300,4,2,1,40,1,0
638,-285.714285714284,4,2,1,20,0,0
938,-222.222222222221,4,2,1,30,0,0
1238,-222.222222222221,4,2,1,40,0,0
1538,-153.846153846153,4,2,1,50,0,0
2138,-105.263157894737,4,2,1,75,0,0
7313,-133.333333333333,4,2,1,25,0,0
7388,-105.263157894737,4,2,1,75,0,0
10838,-83.3333333333333,4,2,1,75,0,0
12038,-76.9230769230769,4,2,1,75,0,0
21638,-111.111111111111,4,2,1,60,0,0
45788,-153.846153846153,4,2,1,60,0,0
48188,-100,4,2,1,40,0,0
48488,-100,4,2,1,50,0,0
48788,-100,4,2,1,60,0,0
49088,-100,4,2,1,70,0,0
49388,-500,4,2,1,70,0,0
49988,-333.333333333333,4,2,1,70,0,0
50438,-83.3333333333333,4,2,1,80,0,1
59888,-100,4,2,1,80,0,0
60038,-83.3333333333333,4,2,1,80,0,1
68588,-100,4,2,1,80,0,0
69188,-200,4,2,1,80,0,0
69638,-83.3333333333333,4,2,1,80,0,0
88838,-100,4,2,1,75,0,0
98438,-142.857142857143,4,2,1,60,0,0
108038,-111.111111111111,4,2,1,70,0,0
117788,-111.111111111111,4,2,1,70,0,0
124988,-100,4,2,1,40,0,0
125588,-100,4,2,1,50,0,0
126188,-100,4,2,1,60,0,0
126788,-100,4,2,1,70,0,0
126938,-333.333333333333,4,2,1,70,0,0
127238,-83.3333333333333,4,2,1,80,0,1
136388,-100,4,2,1,80,0,0
136838,-83.3333333333333,4,2,1,80,0,1
145388,-83.3333333333333,4,2,1,80,0,0
163238,-166.666666666667,4,2,1,70,0,0
172838,-125,4,2,1,60,0,0
178388,-117.647058823529,4,2,1,60,0,0
178838,-111.111111111111,4,2,1,60,0,0
179288,-100,4,2,1,60,0,0
182438,-125,4,2,1,60,0,0
189788,-100,4,2,1,75,0,0
192038,-71.4285714285714,4,2,1,75,0,0
192338,-76.9230769230769,4,2,1,75,0,0
201638,-105.263157894737,4,2,1,60,0,0
215588,-95.238095238095,4,2,1,75,0,0
219788,-153.846153846153,4,2,1,75,0,0
222038,-117.647058823529,4,2,1,35,0,0
231188,-100,4,2,1,75,0,0
231338,-222.222222222221,4,2,1,75,0,0
235988,-105.263157894737,4,2,1,75,0,0
236888,-100,4,2,1,40,0,0
237788,-100,4,2,1,50,0,0
238388,-100,4,2,1,60,0,0
238988,-100,4,2,1,70,0,0
241988,-250,4,2,1,40,0,0
242438,-83.3333333333333,4,2,1,80,0,1
251588,-100,4,2,1,80,0,0
252038,-83.3333333333333,4,2,1,80,0,1
261638,-83.3333333333333,4,2,1,80,0,0
283313,-200,4,2,1,30,0,0
289238,-100,4,2,1,50,0,0

[Colours]
Combo1 : 133,160,211
Combo2 : 171,22,22
Combo3 : 63,129,177
Combo4 : 191,26,26

[HitObjects]
35,61,638,6,0,B|149:86|105:26|220:42,1,188.999994232178
193,134,1688,6,0,L|199:163,1,29.2499986610413
282,225,1838,2,0,L|276:253,1,29.2499986610413
217,330,1988,2,0,L|223:359,1,29.2499986610413
292,129,2138,1,0,3:0:0:0:
292,129,2213,1,0,3:0:0:0:
292,129,2288,2,0,P|355:154|373:194,1,85.4999977169037,8|0,0:0|0:0,0:0:0:0:
374,382,2588,5,4,0:0:0:0:
314,260,2738,1,2,3:2:0:0:
443,290,2888,1,8,0:0:0:0:
259,357,3038,2,0,B|145:376|203:309|76:330,1,170.999995433807,2|2,3:2|3:2,0:0:0:0:
248,176,3488,1,8,0:0:0:0:
103,234,3638,6,0,B|217:215|159:282|286:261,1,170.999995433807,2|2,3:2|3:2,0:0:0:0:
248,176,4088,1,8,0:0:0:0:
248,176,4538,1,0,3:0:0:0:
355,302,4688,2,0,P|369:254|350:217,1,85.4999977169037,8|0,0:0|0:0,0:0:0:0:
348,10,4988,5,2,3:2:0:0:
326,128,5138,1,0,3:0:0:0:
425,83,5288,1,10,0:0:0:0:
254,63,5438,2,0,P|222:114|274:214,1,170.999995433807,2|2,3:2|3:2,0:0:0:0:
103,315,5888,1,8,0:0:0:0:
162,384,6038,6,0,P|194:333|142:233,1,170.999995433807,2|2,3:2|3:2,0:0:0:0:
47,84,6488,1,8,0:0:0:0:
0,160,6638,2,0,P|53:176|85:163,1,85.4999977169037,2|2,0:0|3:2,0:0:0:0:
157,81,6863,1,0,3:0:0:0:
157,81,6938,2,0,P|210:56|222:61,1,42.7499988584519,2|0,3:2|3:0,0:0:0:0:
467,128,7088,6,0,B|415:123|415:123|386:132|386:132|341:124,1,128.249996575356,10|0,0:0|0:0,0:0:0:0:
296,117,7388,1,4,0:0:0:0:
397,21,7538,1,0,3:0:0:0:
360,311,7688,1,10,0:0:0:0:
274,265,7838,2,0,P|314:221|367:225,1,85.4999977169037,2|0,3:2|0:0,0:0:0:0:
453,367,8138,1,2,3:2:0:0:
455,104,8288,1,8,0:0:0:0:
455,104,8438,6,0,B|426:207|487:158|460:279,1,170.999995433807,2|2,3:2|3:2,0:0:0:0:
369,35,8888,2,0,P|425:-1|453:2,1,85.4999977169037,8|0,0:0|0:0,0:0:0:0:
280,87,9338,1,0,3:0:0:0:
280,87,9488,2,0,P|270:9|290:-15,1,85.4999977169037,8|0,0:0|0:0,0:0:0:0:
359,284,9788,5,2,3:2:0:0:
331,178,9938,1,2,3:2:0:0:
230,243,10088,1,10,0:0:0:0:
54,128,10238,2,0,B|104:135|104:135|151:121|151:121|222:139,1,170.999995433807,2|2,3:2|3:2,0:0:0:0:
230,243,10688,1,10,0:0:0:0:
338,17,10838,5,0,3:0:0:0:
358,19,10913,1,0,3:0:0:0:
380,21,10988,1,8,0:0:0:0:
504,190,11138,6,0,L|433:180,1,53.9999983520508,0|0,3:0|3:0,0:0:0:0:
277,365,11288,2,0,L|348:355,1,53.9999983520508,8|0,0:0|3:0,0:0:0:0:
430,270,11438,2,0,L|359:260,1,53.9999983520508,0|0,3:0|3:0,0:0:0:0:
243,155,11588,1,0,3:0:0:0:
210,113,11663,1,0,3:0:0:0:
215,61,11738,1,8,0:0:0:0:
256,28,11813,1,0,3:0:0:0:
308,33,11888,1,0,3:0:0:0:
257,270,12038,6,0,B|147:254|188:317|82:293,1,175.499991966248,4|0,0:0|0:0,0:0:0:0:
128,208,12338,1,0,3:0:0:0:
226,359,12488,1,10,0:0:0:0:
35,207,12638,2,0,P|59:136|142:126,1,116.999994644165,0|2,0:0|3:2,0:0:0:0:
208,97,12938,1,0,3:0:0:0:
265,197,13088,1,10,0:0:0:0:
396,22,13238,6,0,B|380:73|380:73|394:116|394:116|375:202,1,175.499991966248,2|0,3:2|0:0,0:0:0:0:
298,115,13538,1,2,3:2:0:0:
477,65,13688,1,8,0:0:0:0:
208,97,13838,1,2,3:2:0:0:
204,68,13913,1,2,3:2:0:0:
201,41,13988,1,2,0:0:0:0:
297,235,14138,1,2,3:2:0:0:
51,237,14288,1,8,0:0:0:0:
51,237,14438,6,0,B|99:243|125:276|125:276|147:243|207:213,1,175.499991966248,4|0,0:0|0:0,0:0:0:0:
116,148,14738,1,2,3:2:0:0:
43,336,14888,1,8,0:0:0:0:
299,373,15038,5,0,0:0:0:0:
217,309,15188,1,2,3:2:0:0:
318,250,15338,1,0,3:0:0:0:
224,183,15488,1,10,0:0:0:0:
451,156,15638,1,2,3:2:0:0:
451,156,15713,1,2,3:2:0:0:
451,156,15788,6,0,B|388:168|388:168|335:131,1,116.999994644165,2|2,3:2|3:2,0:0:0:0:
261,69,16088,1,10,0:0:0:0:
367,11,16238,1,0,0:0:0:0:
161,140,16388,1,8,3:0:0:0:
156,111,16463,1,0,3:0:0:0:
151,82,16538,1,4,3:3:0:0:
146,53,16613,1,0,3:0:0:0:
141,24,16688,1,8,0:0:0:0:
308,208,16838,6,0,B|201:201|252:265|122:251,1,175.499991966248,4|0,0:0|0:0,0:0:0:0:
161,140,17138,1,0,3:0:0:0:
258,68,17288,1,10,0:0:0:0:
59,115,17438,2,0,P|83:55|136:37,1,116.999994644165,0|2,0:0|3:2,0:0:0:0:
48,327,17738,1,0,0:3:0:0:
5,224,17888,1,8,0:0:0:0:
161,262,18038,6,0,B|146:303|146:303|152:336|152:336|142:379,1,116.999994644165,2|0,3:2|0:0,0:0:0:0:
372,266,18338,1,2,3:2:0:0:
262,150,18488,1,8,0:0:0:0:
262,150,18638,2,0,B|277:191|277:191|271:224|271:224|281:267,1,116.999994644165,2|0,3:2|0:0,0:0:0:0:
153,152,18938,1,2,3:2:0:0:
242,50,19088,1,8,0:0:0:0:
68,44,19238,6,0,P|2:127|40:164,1,175.499991966248,4|0,0:0|0:0,0:0:0:0:
126,216,19538,1,2,3:2:0:0:
314,133,19688,1,10,0:0:0:0:
220,31,19838,2,0,P|213:98|208:157,1,116.999994644165,2|0,0:0|3:0,0:0:0:0:
289,233,20138,1,2,3:2:0:0:
195,299,20288,1,10,0:0:0:0:
384,224,20438,5,2,3:2:0:0:
375,167,20513,1,2,3:2:0:0:
331,130,20588,1,2,3:2:0:0:
289,233,20738,1,2,3:2:0:0:
476,170,20888,1,10,0:0:0:0:
391,42,21038,5,2,3:2:0:0:
337,19,21113,1,2,3:2:0:0:
280,26,21188,1,10,0:0:0:0:
131,125,21338,1,0,3:0:0:0:
166,17,21488,1,10,0:0:0:0:
247,136,21638,6,0,B|232:179|232:179|245:231|245:231|209:308,1,161.999995056153,4|0,0:0|3:0,0:0:0:0:
37,362,22088,2,0,B|73:372|73:372|118:348,1,80.9999975280763,10|0,0:0|0:0,0:0:0:0:
218,287,22388,2,0,B|254:277|254:277|299:301,1,80.9999975280763,2|0,3:2|3:0,0:0:0:0:
122,235,22688,1,10,0:0:0:0:
122,235,22838,1,0,0:0:0:0:
425,205,22988,5,2,3:2:0:0:
345,135,23138,2,0,L|325:225,1,80.9999975280763,0|8,0:3|0:0,0:0:0:0:
275,65,23438,2,0,P|312:25|402:47,1,121.499996292114,2|0,3:2|0:0,0:0:0:0:
441,97,23738,1,0,3:0:0:0:
345,135,23888,1,8,0:0:0:0:
504,269,24038,6,0,B|414:252|414:252|355:273|342:323,1,161.999995056153,4|0,0:0|3:0,0:0:0:0:
269,112,24488,2,0,P|305:153|337:157,1,80.9999975280763,10|0,0:0|0:0,0:0:0:0:
230,347,24788,2,0,P|245:277|230:251,1,80.9999975280763,2|0,3:2|3:0,0:0:0:0:
153,225,25088,1,10,0:0:0:0:
62,278,25238,1,0,0:0:0:0:
201,145,25388,6,0,P|160:126|121:137,2,80.9999975280763,2|0|8,3:2|0:0|0:0,0:0:0:0:
0,16,25838,2,0,P|48:44|121:25,1,121.499996292114,2|0,0:0|0:0,0:0:0:0:
146,16,26138,1,0,3:0:0:0:
126,133,26288,1,8,0:0:0:0:
36,309,26438,6,0,B|24:261|24:261|35:224|35:224|17:147,1,161.999995056153,4|0,0:0|3:0,0:0:0:0:
207,285,26888,2,0,L|127:270,1,80.9999975280763,10|0,0:0|0:0,0:0:0:0:
307,204,27188,2,0,L|387:189,1,80.9999975280763,2|0,3:2|3:0,0:0:0:0:
210,135,27488,1,10,0:0:0:0:
210,135,27638,1,0,0:0:0:0:
343,1,27788,6,0,P|401:-2|432:89,1,161.999995056153,2|8,3:2|0:0,0:0:0:0:
494,253,28238,1,0,0:0:0:0:
386,189,28388,2,0,L|370:281,2,80.9999975280763,2|0|8,3:2|3:0|0:0,0:0:0:0:
137,152,28838,6,0,B|236:160|187:111|303:123,1,161.999995056153,4|0,0:0|3:0,0:0:0:0:
386,189,29288,2,0,P|419:266|377:338,1,161.999995056153,10|0,0:0|3:0,0:0:0:0:
293,268,29738,1,0,3:0:0:0:
232,353,29888,1,10,0:0:0:0:
269,168,30038,6,0,B|226:185|226:185|156:162,1,80.9999975280763,4|0,0:0|0:0,0:0:0:0:
231,82,30338,1,2,3:2:0:0:
40,284,30488,2,0,B|83:267|83:267|153:290,1,80.9999975280763,10|0,0:0|3:0,0:0:0:0:
226,381,30788,1,0,3:0:0:0:
237,342,30863,1,0,3:0:0:0:
266,315,30938,1,0,3:0:0:0:
305,306,31013,1,0,3:0:0:0:
343,318,31088,1,8,0:0:0:0:
502,229,31238,6,0,P|441:220|411:175,1,80.9999975280763,4|0,0:0|0:0,0:0:0:0:
475,116,31538,1,0,3:0:0:0:
318,206,31688,2,0,P|299:140|313:110,1,80.9999975280763,10|0,0:0|0:0,0:0:0:0:
440,16,31988,2,0,B|385:12|385:12|343:31|343:31|267:25,1,161.999995056153,2|10,3:2|0:0,0:0:0:0:
89,141,32438,1,0,0:0:0:0:
149,31,32588,6,0,P|179:74|170:122,1,80.9999975280763,2|2,3:2|3:2,0:0:0:0:
348,233,32888,1,8,0:0:0:0:
264,296,33038,2,0,P|246:228|283:154,1,121.499996292114,2|0,0:0|0:0,0:0:0:0:
297,138,33338,1,0,3:0:0:0:
405,145,33488,1,8,0:0:0:0:
257,384,33638,6,0,P|241:317|169:368,1,161.999995056153,4|0,0:0|3:0,0:0:0:0:
20,241,34088,2,0,B|45:272|45:272|65:233,1,80.9999975280763,10|0,0:0|0:0,0:0:0:0:
165,61,34388,1,2,3:2:0:0:
93,127,34538,1,0,3:0:0:0:
172,192,34688,2,0,P|221:191|256:160,1,80.9999975280763,10|0,0:0|0:0,0:0:0:0:
443,77,34988,5,2,3:2:0:0:
358,18,35138,2,0,P|342:92|342:127,1,80.9999975280763,0|8,0:0|0:0,0:0:0:0:
302,262,35438,2,0,P|380:219|435:228,1,121.499996292114,2|0,0:0|0:0,0:0:0:0:
450,229,35738,1,0,3:0:0:0:
427,343,35888,1,8,0:0:0:0:
486,120,36038,6,0,B|450:114|450:114|434:118|434:118|391:106,1,80.9999975280763,4|0,0:0|0:0,0:0:0:0:
199,152,36338,1,0,3:0:0:0:
301,52,36488,2,0,B|265:58|265:58|249:54|249:54|206:66,1,80.9999975280763,10|0,0:0|0:0,0:0:0:0:
46,137,36788,2,0,P|26:67|102:23,1,161.999995056153,2|10,3:2|0:0,0:0:0:0:
166,146,37238,1,0,0:0:0:0:
40,345,37388,6,0,B|97:323|97:323|119:288|119:288|190:259,1,161.999995056153,2|10,3:2|0:0,0:0:0:0:
199,369,37838,1,0,0:0:0:0:
203,177,37988,2,0,P|260:237|257:255,1,80.9999975280763,2|0,3:2|3:0,0:0:0:0:
324,365,38288,2,0,P|333:302|355:285,1,80.9999975280763,10|0,0:0|0:0,0:0:0:0:
512,206,38588,6,0,P|444:195|369:191,1,121.499996292114,4|0,0:0|0:0,0:0:0:0:
337,186,38888,2,0,P|345:131|354:102,1,80.9999975280763,8|0,0:0|0:0,0:0:0:0:
79,57,39188,1,2,3:2:0:0:
182,12,39338,1,0,3:0:0:0:
251,105,39488,1,8,0:0:0:0:
199,197,39638,1,0,0:0:0:0:
0,167,39788,6,0,P|62:159|99:156,1,80.9999975280763,6|0,3:2|3:0,0:0:0:0:
151,292,40088,2,0,P|213:300|250:303,1,80.9999975280763,10|0,0:0|3:0,0:0:0:0:
231,301,40313,1,0,3:0:0:0:
231,301,40388,1,10,0:0:0:0:
338,229,40538,1,8,3:0:0:0:
374,116,40688,1,4,3:0:0:0:
329,10,40838,1,0,3:0:0:0:
273,123,40988,5,4,0:0:0:0:
492,252,42188,5,4,3:2:0:0:
245,382,43088,5,0,0:0:0:0:
223,246,43238,1,0,3:0:0:0:
346,306,43388,1,4,3:2:0:0:
77,260,44588,5,4,3:2:0:0:
285,99,45038,6,0,P|291:63|261:0,1,80.9999975280763,0|0,3:0|0:0,0:0:0:0:
90,188,45338,1,0,3:0:0:0:
191,140,45488,2,0,P|185:176|215:239,1,80.9999975280763,0|0,3:0|3:0,0:0:0:0:
197,217,45713,1,0,3:0:0:0:
197,217,45788,5,4,3:2:0:0:
313,284,45938,1,0,0:0:0:0:
241,383,46088,2,0,L|220:320,1,58.4999973220826,0|0,3:0|0:0,0:0:0:0:
329,182,46388,2,0,L|310:237,1,58.4999973220826,0|0,3:0|0:0,0:0:0:0:
414,290,46688,1,0,3:0:0:0:
414,290,46838,1,0,0:0:0:0:
504,191,46988,6,0,P|477:168|439:166,1,58.4999973220826,0|0,3:0|0:0,0:0:0:0:
371,60,47288,2,0,P|398:37|436:35,1,58.4999973220826,0|0,3:0|0:0,0:0:0:0:
343,183,47588,2,0,L|266:173,1,58.4999973220826,0|0,3:0|0:0,0:0:0:0:
198,61,47888,2,0,L|121:71,1,58.4999973220826,0|0,3:0|0:0,0:0:0:0:
37,148,48188,5,8,0:0:0:0:
37,148,48263,1,0,3:0:0:0:
37,148,48338,2,0,L|16:82,1,45,0|0,3:0|3:0,0:0:0:0:
178,331,48488,5,8,3:0:0:0:
178,331,48563,1,0,3:0:0:0:
178,331,48638,2,0,L|157:397,1,45,0|0,3:0|3:0,0:0:0:0:
68,263,48788,5,8,0:0:0:0:
96,235,48863,1,8,0:0:0:0:
133,220,48938,1,8,0:0:0:0:
172,218,49013,1,8,0:0:0:0:
209,231,49088,5,8,0:0:0:0:
237,259,49163,1,8,0:0:0:0:
274,274,49238,1,8,0:0:0:0:
313,276,49313,1,8,0:0:0:0:
350,263,49388,6,0,P|383:234|392:204,1,72,12|2,0:0|0:0,0:0:0:0:
240,79,50438,6,0,B|256:117|256:117|279:131|279:131|308:212,1,107.999996704102,4|0,0:0|0:0,0:0:0:0:
72,295,50738,1,0,3:0:0:0:
152,364,50888,2,0,B|168:326|168:326|191:312|191:312|220:231,1,107.999996704102,10|0,0:0|0:0,0:0:0:0:
31,127,51188,2,0,P|68:182|144:175,1,107.999996704102,2|0,3:2|3:0,0:0:0:0:
214,20,51488,1,10,0:0:0:0:
94,5,51638,1,0,0:0:0:0:
244,141,51788,6,0,B|330:163|290:97|439:118,1,161.999995056153,2|0,3:2|0:0,0:0:0:0:
495,117,52088,2,0,P|525:65|498:7,1,107.999996704102,8|0,0:0|0:0,0:0:0:0:
441,377,52388,1,2,3:2:0:0:
397,284,52538,1,2,3:2:0:0:
469,217,52688,1,8,0:0:0:0:
301,365,52838,6,0,B|312:311|259:268|259:268|310:257|331:188,1,215.999993408203,4|0,0:0|3:0,0:0:0:0:
211,64,53288,2,0,P|215:145|246:165,1,107.999996704102,10|0,0:0|0:0,0:0:0:0:
194,382,53588,1,2,3:2:0:0:
213,261,53738,1,0,3:0:0:0:
107,303,53888,2,0,P|52:297|-15:290,1,107.999996704102,10|0,0:0|0:0,0:0:0:0:
230,158,54188,6,0,P|302:144|265:19,1,215.999993408203,2|8,3:2|0:0,0:0:0:0:
165,57,54638,1,0,0:0:0:0:
508,263,54788,1,2,3:2:0:0:
433,170,54938,2,0,P|392:228|392:265,1,107.999996704102,2|8,3:2|0:0,0:0:0:0:
243,384,55238,6,0,B|302:326|302:326|233:250,1,161.999995056153,4|0,0:0|0:0,0:0:0:0:
176,323,55538,1,0,3:0:0:0:
342,155,55688,2,0,B|300:145|300:145|275:154|275:154|221:149,1,107.999996704102,10|0,0:0|0:0,0:0:0:0:
126,22,55988,2,0,P|91:83|120:120,1,107.999996704102,2|0,3:2|3:0,0:0:0:0:
148,320,56288,2,0,B|167:267|167:267|137:210,1,107.999996704102,10|0,0:0|0:0,0:0:0:0:
10,137,56513,1,2,0:2:0:0:
10,137,56588,6,0,B|143:168|78:78|234:111,1,215.999993408203,2|8,3:2|0:0,0:0:0:0:
443,99,57038,1,0,0:0:0:0:
388,2,57188,2,0,P|332:66|349:120,1,107.999996704102,2|0,3:2|3:0,0:0:0:0:
492,223,57488,2,0,B|439:199|439:199|378:238,1,107.999996704102,10|0,0:0|0:0,0:0:0:0:
215,378,57788,6,0,P|230:282|296:360,1,215.999993408203,4|8,0:0|0:0,0:0:0:0:
144,304,58238,1,0,3:0:0:0:
247,152,58388,2,0,P|261:232|210:244,1,107.999996704102,0|0,3:0|0:0,0:0:0:0:
51,41,58688,1,10,0:0:0:0:
0,146,58838,2,0,B|63:161|63:161|179:124,1,161.999995056153,4|0,0:0|3:0,0:0:0:0:
259,70,59138,1,0,3:0:0:0:
259,70,59213,1,0,3:0:0:0:
259,70,59288,2,0,L|244:0,1,53.9999983520508,8|0,0:0|3:0,0:0:0:0:
358,124,59438,2,0,L|343:194,1,53.9999983520508,0|0,3:0|3:0,0:0:0:0:
62,384,59588,5,8,0:0:0:0:
36,338,59663,1,0,3:0:0:0:
50,287,59738,1,0,3:0:0:0:
96,262,59813,1,0,3:0:0:0:
147,276,59888,1,0,3:0:0:0:
150,289,59963,1,0,3:0:0:0:
154,303,60038,6,0,L|321:280,1,161.999995056153,4|0,0:0|0:0,0:0:0:0:
251,382,60338,1,0,3:0:0:0:
475,191,60488,2,0,B|467:236|467:236|474:259|474:259|464:306,1,107.999996704102,10|0,0:0|0:0,0:0:0:0:
382,94,60788,2,0,P|410:43|457:35,1,107.999996704102,2|0,3:2|3:0,0:0:0:0:
312,183,61088,2,0,L|193:163,1,107.999996704102,10|0,0:0|0:0,0:0:0:0:
75,23,61313,1,2,0:0:0:0:
75,23,61388,6,0,B|49:130|122:81|86:215,1,161.999995056153,2|0,3:2|0:0,0:0:0:0:
0,361,61688,2,0,P|-5:288|31:258,1,107.999996704102,8|0,0:0|0:0,0:0:0:0:
263,327,61988,1,2,3:2:0:0:
169,382,62138,1,2,3:2:0:0:
124,285,62288,1,8,0:0:0:0:
337,208,62438,6,0,L|220:233,1,107.999996704102,4|0,0:0|0:0,0:0:0:0:
266,127,62738,1,0,3:0:0:0:
415,374,62888,2,0,P|417:298|456:279,1,107.999996704102,10|0,0:0|0:0,0:0:0:0:
466,52,63188,2,0,P|453:122|423:148,1,107.999996704102,2|0,3:2|0:0,0:0:0:0:
314,6,63488,2,0,P|289:65|302:112,1,107.999996704102,10|0,0:0|0:0,0:0:0:0:
304,325,63788,5,2,3:2:0:0:
337,208,63938,1,0,3:0:0:0:
209,239,64088,1,8,0:0:0:0:
172,121,64238,1,0,0:0:0:0:
334,320,64388,1,8,0:0:0:0:
363,312,64463,1,0,3:0:0:0:
393,304,64538,1,0,3:0:0:0:
423,296,64613,1,0,3:0:0:0:
452,288,64688,1,8,0:0:0:0:
223,383,64838,6,0,P|195:313|93:370,1,215.999993408203,4|0,0:0|3:0,0:0:0:0:
260,193,65288,1,8,0:0:0:0:
177,274,65438,1,0,3:0:0:0:
127,49,65588,2,0,L|160:159,1,107.999996704102,10|0,0:0|3:0,0:0:0:0:
57,136,65813,1,0,3:0:0:0:
57,136,65888,1,10,0:0:0:0:
426,102,66038,6,0,B|358:88|358:88|317:103|317:103|251:90,1,161.999995056153,4|0,0:0|0:0,0:0:0:0:
326,0,66338,1,0,3:0:0:0:
317,324,66488,1,8,0:0:0:0:
370,195,66638,1,0,3:0:0:0:
183,383,66788,1,10,0:0:0:0:
228,250,66938,1,0,3:0:0:0:
209,256,67013,1,0,3:0:0:0:
188,262,67088,1,10,0:0:0:0:
95,63,67238,6,0,B|54:110|54:110|41:172|98:236,1,161.999995056153,4|0,0:0|0:0,0:0:0:0:
229,144,67538,1,0,3:0:0:0:
229,144,67613,1,0,3:0:0:0:
229,144,67688,2,0,L|140:131,1,53.9999983520508,8|0,0:0|3:0,0:0:0:0:
96,314,67838,2,0,L|185:301,1,53.9999983520508,0|0,3:0|3:0,0:0:0:0:
288,384,67988,5,8,3:0:0:0:
270,351,68063,1,8,3:0:0:0:
272,314,68138,1,8,3:0:0:0:
294,284,68213,1,8,3:0:0:0:
330,269,68288,5,4,3:0:0:0:
381,254,68363,1,4,3:0:0:0:
415,213,68438,1,4,3:0:0:0:
421,160,68513,1,4,3:0:0:0:
396,113,68588,5,12,0:0:0:0:
377,364,68888,1,0,0:0:0:0:
222,195,69188,2,0,L|280:183,1,45,0|0,0:0|3:0,0:0:0:0:
279,182,69413,1,0,3:0:0:0:
292,179,69488,1,8,0:0:0:0:
50,50,69638,6,0,B|53:89|93:114|93:114|63:148|78:217,1,161.999995056153,4|0,0:0|0:0,0:0:0:0:
176,371,69938,1,0,3:0:0:0:
182,271,70088,2,0,P|103:302|86:342,1,107.999996704102,10|0,0:0|0:0,0:0:0:0:
263,76,70388,1,2,3:2:0:0:
217,167,70538,1,0,3:0:0:0:
287,270,70688,1,10,0:0:0:0:
269,384,70838,5,0,0:0:0:0:
269,384,70913,1,0,3:0:0:0:
269,384,70988,2,0,P|309:335|356:341,1,107.999996704102,2|0,3:2|3:0,0:0:0:0:
490,247,71288,2,0,P|438:244|409:200,1,107.999996704102,8|0,0:0|0:0,0:0:0:0:
211,144,71588,1,2,3:2:0:0:
311,230,71738,1,0,3:0:0:0:
310,93,71888,1,10,0:0:0:0:
194,241,72038,6,0,B|95:249|156:299|20:285,1,161.999995056153,4|0,0:0|0:0,0:0:0:0:
60,189,72338,1,0,3:0:0:0:
199,341,72488,1,8,0:0:0:0:
199,341,72638,1,0,3:0:0:0:
181,112,72788,1,0,3:0:0:0:
181,112,72938,1,0,3:0:0:0:
393,198,73088,2,0,L|272:179,1,107.999996704102,8|0,0:0|0:0,0:0:0:0:
119,177,73388,5,0,3:0:0:0:
151,21,73538,1,0,0:0:0:0:
275,107,73688,1,8,0:0:0:0:
230,286,73838,5,0,0:0:0:0:
181,112,73988,1,0,3:0:0:0:
34,209,74138,1,0,3:0:0:0:
325,153,74288,1,8,0:0:0:0:
172,222,74438,6,0,B|126:311|202:280|141:398,1,161.999995056153,4|0,0:0|0:0,0:0:0:0:
58,324,74738,1,0,3:0:0:0:
356,296,74888,2,0,P|286:288|268:245,1,107.999996704102,10|0,0:0|0:0,0:0:0:0:
82,155,75188,2,0,P|174:102|216:118,1,107.999996704102,2|0,3:2|3:0,0:0:0:0:
311,0,75488,2,0,B|275:60|275:60|305:161,1,161.999995056153,10|0,0:0|0:0,0:0:0:0:
405,194,75788,6,0,L|512:181,1,107.999996704102,2|0,3:2|3:0,0:0:0:0:
351,310,76088,2,0,L|244:297,1,107.999996704102,8|0,0:0|0:0,0:0:0:0:
118,375,76388,1,2,3:2:0:0:
129,273,76538,1,0,3:0:0:0:
37,92,76688,1,10,0:0:0:0:
30,198,76838,2,0,B|75:195|75:195|102:176|102:176|153:173,1,107.999996704102,4|0,0:0|0:0,0:0:0:0:
281,118,77138,5,0,3:0:0:0:
169,31,77288,1,8,0:0:0:0:
220,208,77438,1,0,0:0:0:0:
347,54,77588,5,0,3:0:0:0:
196,114,77738,1,0,3:0:0:0:
445,137,77888,1,8,0:0:0:0:
317,189,78038,1,0,0:0:0:0:
489,360,78188,5,0,3:0:0:0:
401,274,78338,1,2,3:2:0:0:
401,274,78413,1,0,3:0:0:0:
401,274,78488,2,0,P|364:323|385:388,1,107.999996704102,8|0,0:0|3:0,0:0:0:0:
175,191,78788,1,0,3:0:0:0:
184,242,78863,1,0,3:0:0:0:
230,265,78938,1,0,3:0:0:0:
277,241,79013,1,0,3:0:0:0:
285,190,79088,1,8,0:0:0:0:
12,383,79238,6,0,P|76:322|134:335,1,107.999996704102,4|0,0:0|0:0,0:0:0:0:
175,49,79538,1,0,3:0:0:0:
175,49,79613,1,0,3:0:0:0:
175,49,79688,2,0,B|210:105|210:105|217:157|149:216,1,161.999995056153,12|0,0:0|0:0,0:0:0:0:
23,238,79988,2,0,P|48:167|91:156,1,107.999996704102,2|0,3:2|3:0,0:0:0:0:
255,316,80288,2,0,L|139:302,1,107.999996704102,10|0,0:0|0:0,0:0:0:0:
3,42,80588,6,0,P|57:155|119:140,1,161.999995056153,2|0,3:2|0:0,0:0:0:0:
270,46,80888,2,0,P|202:35|158:76,1,107.999996704102,8|0,0:0|0:0,0:0:0:0:
277,261,81188,1,2,3:2:0:0:
247,158,81338,1,0,3:0:0:0:
157,224,81488,1,10,0:0:0:0:
419,186,81638,6,0,B|451:100|389:125|430:14,1,161.999995056153,4|0,0:0|0:0,0:0:0:0:
333,142,81938,1,0,3:0:0:0:
507,355,82088,2,0,P|434:314|394:335,1,107.999996704102,10|0,0:0|0:0,0:0:0:0:
313,247,82388,2,0,P|240:288|200:267,1,107.999996704102,2|0,3:2|3:0,0:0:0:0:
52,384,82688,1,10,0:0:0:0:
107,288,82838,1,0,0:0:0:0:
6,242,82988,6,0,P|-12:169|8:133,1,107.999996704102,2|0,3:2|3:0,0:0:0:0:
178,38,83288,1,10,0:0:0:0:
90,185,83438,1,8,0:0:0:0:
48,59,83588,1,0,3:0:0:0:
221,176,83738,1,2,3:2:0:0:
213,201,83813,1,2,3:2:0:0:
206,227,83888,1,8,0:0:0:0:
35,368,84038,6,0,B|119:369|119:369|170:340|170:340|253:344,1,215.999993408203,4|0,0:0|3:0,0:0:0:0:
462,328,84488,2,0,P|421:271|360:284,1,107.999996704102,10|0,0:0|0:0,0:0:0:0:
226,183,84788,1,2,3:2:0:0:
293,263,84938,1,0,3:0:0:0:
320,45,85088,2,0,P|338:124|313:149,1,107.999996704102,10|0,0:0|0:0,0:0:0:0:
77,69,85388,6,0,B|121:62|121:62|145:43|145:43|201:32,1,107.999996704102,2|0,3:2|0:0,0:0:0:0:
370,280,85688,2,0,B|337:273|337:273|313:254|313:254|269:247,1,107.999996704102,10|0,0:0|3:0,0:0:0:0:
64,302,85988,1,2,3:2:0:0:
38,255,86063,1,0,3:0:0:0:
46,203,86138,1,0,3:0:0:0:
85,168,86213,1,0,3:0:0:0:
138,165,86288,1,10,0:0:0:0:
184,285,86438,6,0,B|154:336|154:336|168:383,1,107.999996704102,4|0,0:0|0:0,0:0:0:0:
286,340,86738,1,0,3:0:0:0:
60,93,86888,6,0,L|74:162,1,53.9999983520508,10|0,0:0|0:0,0:0:0:0:
92,228,87038,1,0,3:0:0:0:
173,20,87188,6,0,L|187:89,1,53.9999983520508,10|0,0:0|0:0,0:0:0:0:
205,155,87338,1,0,3:0:0:0:
363,234,87488,6,0,L|283:225,2,53.9999983520508,10|0|0,0:0|0:0|3:0,0:0:0:0:
311,1,87788,5,10,0:0:0:0:
357,116,87938,1,0,3:0:0:0:
442,22,88088,1,10,0:0:0:0:
262,144,88238,1,2,3:2:0:0:
262,144,88313,1,2,3:2:0:0:
262,144,88388,2,0,L|272:196,1,53.9999983520508,10|0,0:0|3:0,0:0:0:0:
407,249,88538,2,0,L|396:301,1,53.9999983520508,0|0,3:0|3:0,0:0:0:0:
291,380,88688,1,8,0:0:0:0:
497,167,88838,5,4,0:0:0:0:
400,376,98288,5,4,3:0:0:0:
475,320,98438,2,0,P|426:279|359:296,1,125.999996154785,4|0,0:0|3:0,0:0:0:0:
268,322,98888,2,0,B|259:354|259:354|271:388,1,62.9999980773926,2|0,3:2|0:0,0:0:0:0:
182,168,99188,2,0,B|199:226|199:226|172:293,1,125.999996154785,2|2,1:2|0:0,0:0:0:0:
101,223,99638,1,0,0:0:0:0:
245,83,99788,6,0,L|307:101,2,62.9999980773926,2|2|0,3:2|1:2|0:0,0:0:0:0:
37,66,100238,1,2,3:2:0:0:
124,14,100388,2,0,P|140:56|126:99,1,62.9999980773926,0|0,1:0|0:0,0:0:0:0:
110,172,100688,1,2,0:0:0:0:
8,273,100838,6,0,P|-11:214|11:156,1,125.999996154785,4|0,0:0|3:0,0:0:0:0:
109,314,101288,2,0,B|103:340|103:340|106:360|106:360|99:384,1,62.9999980773926,2|0,3:2|0:0,0:0:0:0:
220,258,101588,2,0,B|214:232|214:232|217:212|217:212|210:188,1,62.9999980773926,2|0,1:2|0:0,0:0:0:0:
212,196,101813,1,2,0:0:0:0:
212,196,101888,1,2,0:0:0:0:
131,123,102038,1,0,0:0:0:0:
192,32,102188,6,0,P|237:13|260:20,2,62.9999980773926,2|0|0,3:2|0:0|0:0,0:0:0:0:
378,7,102638,1,2,3:2:0:0:
325,90,102788,2,0,P|353:105|393:102,1,62.9999980773926,0|0,1:0|0:0,0:0:0:0:
501,29,103088,1,0,0:0:0:0:
501,29,103238,6,0,B|476:98|537:73|497:173,1,125.999996154785,4|0,0:0|3:0,0:0:0:0:
430,283,103688,2,0,P|411:235|415:211,1,62.9999980773926,2|0,3:2|0:0,0:0:0:0:
301,206,103988,2,0,P|314:163|333:145,1,62.9999980773926,2|0,1:2|0:0,0:0:0:0:
325,150,104213,1,2,0:0:0:0:
325,150,104288,1,2,0:0:0:0:
377,54,104438,1,0,0:0:0:0:
273,12,104588,6,0,B|231:12|231:12|207:25|207:25|150:23,1,125.999996154785,2|2,3:2|0:0,0:0:0:0:
138,225,105038,1,0,3:0:0:0:
45,136,105188,2,0,B|87:136|87:136|111:123|111:123|168:125,1,125.999996154785,2|0,1:2|0:0,0:0:0:0:
294,265,105638,6,0,B|294:222|316:205|316:205|291:182|291:143,1,125.999996154785,4|0,0:0|3:0,0:0:0:0:
178,235,106088,2,0,B|177:277|155:294|155:294|180:317|180:356,1,125.999996154785,2|0,3:2|1:0,0:0:0:0:
273,384,106538,1,0,0:0:0:0:
370,339,106688,1,2,0:0:0:0:
496,384,106838,5,0,3:0:0:0:
496,384,106913,1,0,1:0:0:0:
496,384,106988,2,0,P|502:337|488:310,1,62.9999980773926,2|2,3:2|1:2,0:0:0:0:
394,237,107288,1,2,3:2:0:0:
484,160,107438,1,0,1:0:0:0:
484,160,107513,1,0,1:0:0:0:
484,160,107588,1,0,1:0:0:0:
382,73,107738,1,0,3:0:0:0:
483,17,107888,1,0,1:0:0:0:
297,10,108038,6,0,B|275:60|275:60|291:114|291:114|270:171,1,161.999995056153,4|0,0:0|0:0,0:0:0:0:
185,251,108488,2,0,P|128:265|83:278,1,80.9999975280763,10|0,0:0|0:0,0:0:0:0:
311,355,108788,2,0,P|315:302|281:266,1,80.9999975280763,2|0,3:2|3:0,0:0:0:0:
161,137,109088,1,10,0:0:0:0:
185,251,109238,1,0,0:0:0:0:
273,161,109388,6,0,L|377:190,1,80.9999975280763,2|0,3:2|3:0,0:0:0:0:
336,81,109688,1,10,0:0:0:0:
400,367,109838,1,2,3:2:0:0:
512,248,109988,2,0,L|425:263,1,80.9999975280763,0|0,0:0|3:0,0:0:0:0:
209,314,110288,1,8,0:0:0:0:
306,359,110438,6,0,B|338:248|261:286|306:173,1,161.999995056153,4|0,0:0|3:0,0:0:0:0:
409,56,110888,2,0,P|389:111|359:122,1,80.9999975280763,10|0,0:0|0:0,0:0:0:0:
210,18,111188,1,2,3:2:0:0:
276,103,111338,1,0,3:0:0:0:
322,10,111488,1,10,0:0:0:0:
167,111,111638,1,0,3:0:0:0:
167,111,111713,1,0,3:0:0:0:
167,111,111788,6,0,P|146:84|84:86,1,80.9999975280763,2|0,3:2|0:0,0:0:0:0:
32,187,112088,1,8,0:0:0:0:
108,275,112238,1,2,0:0:0:0:
31,348,112388,5,0,3:0:0:0:
125,189,112538,1,0,3:0:0:0:
170,375,112688,1,8,0:0:0:0:
6,154,112838,6,0,B|60:172|60:172|157:142,1,121.499996292114,4|0,0:0|0:0,0:0:0:0:
162,138,113138,1,0,3:0:0:0:
294,0,113288,2,0,P|247:39|245:68,1,80.9999975280763,10|0,0:0|0:0,0:0:0:0:
254,243,113588,2,0,P|285:171|348:218,1,161.999995056153,2|10,3:2|0:0,0:0:0:0:
404,3,114038,1,0,0:0:0:0:
481,65,114188,6,0,P|430:103|384:101,1,80.9999975280763,2|0,3:2|0:0,0:0:0:0:
344,200,114488,2,0,P|276:185|250:155,1,80.9999975280763,10|0,0:0|0:0,0:0:0:0:
114,10,114788,5,2,3:2:0:0:
55,100,114938,1,0,3:0:0:0:
138,207,115088,1,10,0:0:0:0:
197,120,115238,1,0,0:0:0:0:
6,247,115388,6,0,P|68:211|136:239,1,121.499996292114,4|0,0:0|0:0,0:0:0:0:
144,248,115688,2,0,P|130:308|125:342,1,80.9999975280763,10|0,0:0|0:0,0:0:0:0:
278,370,115988,1,2,3:2:0:0:
236,286,116138,1,0,3:0:0:0:
383,364,116288,2,0,P|373:324|361:286,1,80.9999975280763,8|0,0:0|0:0,0:0:0:0:
303,201,116513,1,0,0:0:0:0:
303,201,116588,6,0,B|281:163|281:163|296:117,1,80.9999975280763,4|8,0:0|0:0,0:0:0:0:
383,0,116888,2,0,B|405:38|405:38|390:84,1,80.9999975280763,2|0,3:2|3:0,0:0:0:0:
300,34,117113,1,0,3:0:0:0:
300,34,117188,1,8,0:0:0:0:
398,165,117338,1,8,3:0:0:0:
241,193,117488,1,4,3:0:0:0:
345,318,117638,1,0,3:0:0:0:
210,78,117788,5,4,0:0:0:0:
17,358,118988,5,4,0:0:0:0:
287,217,119888,5,0,0:0:0:0:
141,160,120038,1,0,3:0:0:0:
178,309,120188,1,4,3:2:0:0:
303,39,121388,6,0,P|290:88|313:123,1,80.9999975280763,4|0,0:0|0:0,0:0:0:0:
485,200,121688,1,0,3:2:0:0:
411,150,121838,2,0,P|440:212|406:320,1,161.999995056153,0|8,0:0|3:0,0:0:0:0:
269,205,122288,2,0,P|312:202|312:247,1,80.9999975280763,4|0,3:0|3:0,0:0:0:0:
326,346,122513,1,0,3:0:0:0:
326,346,122588,6,0,B|284:331|284:331|240:341,1,80.9999975280763,0|0,3:0|0:0,0:0:0:0:
166,265,122888,2,0,B|124:280|124:280|80:270,1,80.9999975280763,0|0,3:0|0:0,0:0:0:0:
50,138,123188,2,0,B|7:126|7:126|16:162,1,80.9999975280763,0|0,3:0|0:0,0:0:0:0:
163,84,123488,2,0,P|146:35|165:0,1,80.9999975280763,0|0,3:0|0:0,0:0:0:0:
284,135,123788,5,0,3:0:0:0:
284,135,123938,1,0,0:0:0:0:
187,229,124088,1,0,3:0:0:0:
187,229,124238,1,0,0:0:0:0:
293,368,124388,2,0,P|283:323|308:281,1,80.9999975280763,0|0,3:0|0:0,0:0:0:0:
401,220,124688,2,0,P|440:213|475:231,1,80.9999975280763,0|0,3:0|0:0,0:0:0:0:
303,189,124988,5,0,3:0:0:0:
303,189,125063,1,0,3:0:0:0:
303,189,125138,2,0,L|283:115,1,45,0|0,3:0|3:0,0:0:0:0:
143,28,125288,5,8,0:0:0:0:
100,0,125363,1,0,3:0:0:0:
50,7,125438,1,0,3:0:0:0:
21,48,125513,1,0,3:0:0:0:
28,98,125588,6,0,P|67:143|81:143,1,45,8|8,3:0|3:0,0:0:0:0:
179,176,125738,2,0,P|144:204|106:199,1,45,8|8,3:0|3:0,0:0:0:0:
18,304,125888,6,0,P|53:332|91:327,1,45,8|8,0:0|0:0,0:0:0:0:
188,384,126038,1,8,0:0:0:0:
183,366,126113,1,8,0:0:0:0:
178,349,126188,5,8,0:0:0:0:
197,308,126263,1,0,3:0:0:0:
234,285,126338,1,8,3:0:0:0:
279,285,126413,1,0,3:0:0:0:
316,309,126488,5,8,0:0:0:0:
347,338,126563,1,4,3:0:0:0:
390,346,126638,1,4,3:0:0:0:
432,331,126713,1,4,3:0:0:0:
457,295,126788,6,0,L|465:222,1,45,4|0,3:0|0:0,0:0:0:0:
393,76,126938,6,0,L|386:128,1,40.4999987640381,8|0,0:0|0:0,0:0:0:0:
200,212,127238,6,0,B|252:216|288:157|288:157|307:225|385:225,1,215.999993408203,4|0,0:0|0:0,0:0:0:0:
215,91,127688,2,0,P|283:46|331:66,1,107.999996704102,10|0,0:0|0:0,0:0:0:0:
64,119,127988,2,0,B|29:79|29:79|85:34,1,107.999996704102,2|0,3:2|3:0,0:0:0:0:
193,262,128288,1,10,0:0:0:0:
292,250,128438,1,0,0:0:0:0:
98,224,128588,6,0,B|71:308|123:283|95:398,1,161.999995056153,2|0,3:2|0:0,0:0:0:0:
18,172,128888,2,0,P|76:124|137:137,1,107.999996704102,8|0,0:0|0:0,0:0:0:0:
280,19,129188,1,2,3:2:0:0:
203,144,129338,1,0,3:0:0:0:
195,1,129488,1,10,0:0:0:0:
391,201,129638,6,0,P|398:105|310:164,1,215.999993408203,4|0,0:0|3:0,0:0:0:0:
116,266,130088,2,0,B|165:253|165:253|187:233|187:233|241:219,1,107.999996704102,10|0,0:0|0:0,0:0:0:0:
379,375,130388,2,0,B|352:368|352:368|330:348|330:348|281:335,1,107.999996704102,2|0,3:2|3:0,0:0:0:0:
282,140,130688,1,10,0:0:0:0:
356,217,130838,1,0,0:0:0:0:
196,95,130988,6,0,P|237:46|290:41,1,107.999996704102,2|0,3:2|3:0,0:0:0:0:
117,183,131288,1,8,0:0:0:0:
89,57,131438,1,8,0:0:0:0:
260,310,131588,1,2,3:2:0:0:
336,216,131738,2,0,L|216:200,1,107.999996704102,2|8,3:2|0:0,0:0:0:0:
3,341,132038,6,0,B|93:293|93:293|163:291|181:350,1,215.999993408203,4|0,0:0|3:0,0:0:0:0:
23,118,132488,2,0,P|1:181|28:220,1,107.999996704102,10|0,0:0|0:0,0:0:0:0:
162,128,132788,1,2,3:2:0:0:
81,31,132938,1,0,3:0:0:0:
307,214,133088,2,0,B|261:188|261:188|226:239,1,107.999996704102,10|0,0:0|0:0,0:0:0:0:
403,114,133388,6,0,P|359:36|422:-1,1,161.999995056153,2|0,3:2|0:0,0:0:0:0:
512,55,133688,2,0,B|502:94|502:94|508:119|508:119|494:171,1,107.999996704102,8|2,0:0|3:2,0:0:0:0:
388,364,133988,1,2,3:2:0:0:
356,239,134138,1,0,3:0:0:0:
448,283,134288,2,0,B|391:277|391:277|333:295|333:295|266:282,1,161.999995056153,10|0,0:0|0:0,0:0:0:0:
210,206,134588,6,0,P|214:128|303:134,1,161.999995056153,4|0,0:0|0:0,0:0:0:0:
307,126,134888,1,10,0:0:0:0:
202,76,135038,1,0,0:0:0:0:
110,163,135188,1,0,3:0:0:0:
172,284,135338,1,0,3:0:0:0:
212,166,135488,1,10,0:0:0:0:
5,342,135638,6,0,P|34:271|96:280,1,107.999996704102,4|0,0:0|0:0,0:0:0:0:
186,380,135938,1,0,3:0:0:0:
186,380,136013,1,0,3:0:0:0:
186,380,136088,2,0,L|165:301,1,53.9999983520508,8|0,0:0|3:0,0:0:0:0:
312,219,136238,2,0,L|291:298,1,53.9999983520508,0|0,3:0|3:0,0:0:0:0:
69,85,136388,5,0,3:0:0:0:
105,109,136463,1,0,3:0:0:0:
150,108,136538,1,0,3:0:0:0:
185,81,136613,1,0,3:0:0:0:
211,46,136688,1,0,3:0:0:0:
236,23,136763,1,0,3:0:0:0:
275,24,136838,6,0,P|350:69|342:145,1,161.999995056153,4|0,0:0|0:0,0:0:0:0:
256,188,137138,1,0,3:0:0:0:
468,119,137288,2,0,P|455:200|425:221,1,107.999996704102,10|0,0:0|0:0,0:0:0:0:
274,384,137588,1,2,3:2:0:0:
340,294,137738,1,0,3:0:0:0:
348,107,137888,2,0,P|355:171|324:197,1,107.999996704102,10|0,0:0|0:0,0:0:0:0:
211,212,138113,1,0,3:0:0:0:
211,212,138188,6,0,B|132:239|132:239|39:204,1,161.999995056153,2|0,3:2|0:0,0:0:0:0:
46,40,138488,2,0,P|6:79|14:135,1,107.999996704102,8|0,0:0|0:0,0:0:0:0:
120,328,138788,1,2,3:2:0:0:
136,142,138938,1,0,3:0:0:0:
10,267,139088,1,10,0:0:0:0:
246,369,139238,6,0,B|258:327|258:327|228:253,1,107.999996704102,4|0,0:0|0:0,0:0:0:0:
154,327,139538,1,0,3:0:0:0:
326,247,139688,2,0,B|314:205|314:205|340:143,1,107.999996704102,10|0,0:0|0:0,0:0:0:0:
512,55,139988,2,0,B|471:62|471:62|449:78|449:78|404:86,1,107.999996704102,2|0,3:2|3:0,0:0:0:0:
238,0,140288,2,0,B|276:1|276:1|299:13|299:13|342:15,1,107.999996704102,10|0,0:0|0:0,0:0:0:0:
200,204,140588,5,2,3:2:0:0:
255,106,140738,1,0,0:0:0:0:
395,284,140888,1,10,0:0:0:0:
302,213,141038,1,0,0:0:0:0:
453,204,141188,1,10,0:0:0:0:
484,235,141263,1,0,3:0:0:0:
496,278,141338,1,8,3:0:0:0:
486,321,141413,1,8,3:0:0:0:
456,354,141488,1,4,3:0:0:0:
330,79,141638,6,0,B|354:144|354:144|394:-6,1,215.999993408203,4|2,0:0|3:2,0:0:0:0:
230,140,142088,1,8,0:0:0:0:
185,46,142238,1,0,3:0:0:0:
308,264,142388,1,10,0:0:0:0:
422,165,142538,1,0,3:0:0:0:
378,155,142613,1,0,3:0:0:0:
334,146,142688,1,10,0:0:0:0:
89,319,142838,6,0,B|217:323|160:244|286:247,1,215.999993408203,4|0,0:0|3:2,0:0:0:0:
266,354,143288,1,8,0:0:0:0:
185,167,143438,1,0,3:0:0:0:
426,312,143588,1,10,0:0:0:0:
346,135,143738,1,0,3:0:0:0:
313,164,143813,1,0,3:0:0:0:
305,207,143888,1,10,0:0:0:0:
512,50,144038,6,0,B|426:78|426:78|362:19,1,161.999995056153,4|0,0:0|3:0,0:0:0:0:
272,19,144338,1,0,3:0:0:0:
272,19,144413,1,0,3:0:0:0:
272,19,144488,2,0,P|239:57|248:85,1,53.9999983520508,8|0,0:0|3:0,0:0:0:0:
147,177,144638,2,0,P|129:119|134:107,1,53.9999983520508,0|0,3:0|3:0,0:0:0:0:
398,210,144788,5,0,3:0:0:0:
367,167,144863,1,0,3:0:0:0:
315,161,144938,1,0,3:0:0:0:
275,195,145013,1,0,3:0:0:0:
274,248,145088,2,0,P|277:303|257:321,1,53.9999983520508,8|8,3:0|3:0,0:0:0:0:
128,376,145238,2,0,P|125:321|145:303,1,53.9999983520508,8|8,3:0|3:0,0:0:0:0:
180,217,145388,5,12,0:0:0:0:
5,99,145688,1,0,0:0:0:0:
65,220,145988,5,10,0:0:0:0:
118,102,146138,1,0,3:0:0:0:
236,35,146288,1,10,0:0:0:0:
374,41,146438,6,0,P|337:88|400:173,1,161.999995056153,4|0,0:0|0:0,0:0:0:0:
458,94,146738,1,0,3:0:0:0:
370,284,146888,2,0,B|410:278|410:278|436:286|436:286|486:279,1,107.999996704102,10|0,0:0|0:0,0:0:0:0:
249,384,147188,2,0,P|266:315|235:272,1,107.999996704102,2|0,3:2|3:0,0:0:0:0:
165,192,147488,1,8,0:0:0:0:
239,99,147638,1,0,0:0:0:0:
61,30,147788,6,0,B|124:83|124:83|176:-30,1,161.999995056153,2|0,3:2|0:0,0:0:0:0:
332,88,148088,2,0,P|306:27|255:10,1,107.999996704102,8|0,0:0|0:0,0:0:0:0:
155,195,148388,1,2,3:2:0:0:
239,99,148538,1,0,3:0:0:0:
276,223,148688,1,10,0:0:0:0:
0,268,148838,6,0,B|52:260|52:260|94:228|94:228|155:222,1,161.999995056153,4|0,0:0|0:0,0:0:0:0:
128,337,149138,1,0,3:0:0:0:
229,131,149288,2,0,P|164:95|121:109,1,107.999996704102,8|0,0:0|0:0,0:0:0:0:
254,246,149588,1,0,3:0:0:0:
254,246,149738,1,0,3:0:0:0:
348,338,149888,1,8,0:0:0:0:
348,338,150038,1,0,0:0:0:0:
375,99,150188,5,0,3:0:0:0:
377,233,150338,1,0,0:0:0:0:
486,166,150488,1,8,0:0:0:0:
296,161,150638,5,0,0:0:0:0:
443,44,150788,1,0,3:0:0:0:
369,268,150938,1,0,3:0:0:0:
500,191,151088,1,8,0:0:0:0:
297,38,151238,6,0,P|218:37|257:127,1,161.999995056153,4|0,0:0|0:0,0:0:0:0:
313,139,151538,1,0,3:0:0:0:
123,230,151688,2,0,P|119:153|85:134,1,107.999996704102,10|0,0:0|0:0,0:0:0:0:
17,373,151988,2,0,B|55:331|55:331|126:373,1,107.999996704102,2|0,3:2|3:0,0:0:0:0:
336,317,152288,1,10,0:0:0:0:
227,363,152438,1,0,0:0:0:0:
161,227,152588,6,0,B|199:269|199:269|270:227,1,107.999996704102,2|0,3:2|0:0,0:0:0:0:
439,238,152888,2,0,P|389:182|337:186,1,107.999996704102,8|0,0:0|0:0,0:0:0:0:
227,14,153188,1,2,3:2:0:0:
268,125,153338,1,0,3:0:0:0:
330,19,153488,1,10,0:0:0:0:
29,119,153638,6,0,P|59:51|133:66,1,161.999995056153,4|0,0:0|0:0,0:0:0:0:
150,86,153938,1,0,3:0:0:0:
125,181,154088,1,8,0:0:0:0:
233,270,154238,1,0,0:0:0:0:
204,384,154388,5,0,3:0:0:0:
137,280,154538,1,0,3:0:0:0:
227,179,154688,1,8,0:0:0:0:
336,225,154838,1,0,0:0:0:0:
254,50,154988,5,0,3:0:0:0:
320,120,155138,2,0,P|346:28|325:1,1,107.999996704102,0|8,3:0|0:0,0:0:0:0:
454,136,155438,2,0,P|423:179|429:231,1,107.999996704102,0|0,0:0|3:0,0:0:0:0:
512,384,155738,1,8,0:0:0:0:
475,346,155813,1,8,0:0:0:0:
423,345,155888,1,0,3:0:0:0:
276,202,156038,6,0,B|234:299|234:299|249:360|339:401,1,215.999993408203,2|0,3:2|3:0,0:0:0:0:
391,206,156413,1,0,3:0:0:0:
391,206,156488,2,0,P|371:128|310:110,1,107.999996704102,12|0,0:0|0:0,0:0:0:0:
181,102,156788,2,0,B|227:73|227:73|173:16,1,107.999996704102,2|0,3:2|3:0,0:0:0:0:
55,206,157088,2,0,B|9:177|9:177|63:120,1,107.999996704102,10|0,0:0|0:0,0:0:0:0:
297,301,157388,6,0,P|242:236|170:254,1,161.999995056153,2|0,3:2|0:0,0:0:0:0:
111,341,157688,2,0,P|34:335|-5:335,1,107.999996704102,10|0,0:0|0:0,0:0:0:0:
189,86,157988,1,2,3:2:0:0:
118,158,158138,1,0,3:0:0:0:
174,250,158288,1,10,0:0:0:0:
107,38,158438,6,0,P|185:-10|259:28,1,161.999995056153,4|0,0:0|0:0,0:0:0:0:
306,89,158738,1,0,3:0:0:0:
182,217,158888,2,0,B|163:166|163:166|187:114,1,107.999996704102,8|0,0:0|3:0,0:0:0:0:
308,281,159188,2,0,B|327:332|327:332|303:384,1,107.999996704102,0|0,3:0|3:0,0:0:0:0:
368,173,159488,2,0,P|424:218|422:253,1,107.999996704102,8|0,0:0|0:0,0:0:0:0:
186,314,159788,5,0,3:0:0:0:
218,212,159938,1,0,3:0:0:0:
141,126,160088,1,8,0:0:0:0:
38,170,160238,1,0,0:0:0:0:
114,246,160388,5,0,3:0:0:0:
245,77,160538,1,8,0:0:0:0:
43,36,160688,1,8,0:0:0:0:
221,234,160838,6,0,B|329:282|316:186|446:232,1,215.999993408203,2|0,3:2|3:0,0:0:0:0:
382,383,161288,2,0,P|397:318|434:358,1,107.999996704102,10|0,0:0|0:0,0:0:0:0:
285,154,161588,2,0,P|331:167|318:215,1,107.999996704102,2|0,3:2|3:0,0:0:0:0:
499,103,161888,2,0,P|426:99|403:64,1,107.999996704102,10|0,0:0|3:0,0:0:0:0:
486,0,162113,1,0,3:0:0:0:
486,0,162188,5,8,3:0:0:0:
436,184,162338,1,8,3:0:0:0:
293,17,162488,1,4,3:0:0:0:
407,75,162638,1,4,3:0:0:0:
209,201,162788,1,8,0:0:0:0:
305,116,162938,2,0,B|294:159|294:159|317:216|317:216|301:269,1,161.999995056153,8|0,0:0|0:0,0:0:0:0:
274,364,163238,5,4,0:0:0:0:
256,192,163313,12,4,165638,1:2:0:0:
258,28,172838,5,4,0:0:0:0:
252,206,173138,1,2,0:0:0:0:
258,28,173288,2,0,B|255:53|255:53|260:74|260:74|252:126,1,72,2|0,3:2|0:0,0:0:0:0:
64,228,173588,2,0,P|107:153|181:158,1,144,2|2,1:2|0:0,0:0:0:0:
193,337,174038,6,0,L|169:249,1,72,2|0,3:2|0:0,0:0:0:0:
349,212,174338,1,0,3:0:0:0:
248,177,174488,1,2,3:2:0:0:
382,325,174638,1,0,0:0:0:0:
280,287,174788,1,2,3:2:0:0:
450,242,174938,1,0,0:0:0:0:
323,126,175088,1,2,3:2:0:0:
511,39,175238,6,0,B|449:77|449:77|394:1,1,144,4|0,0:0|0:0,0:0:0:0:
236,99,175688,2,0,P|271:48|302:44,1,72,0|0,3:0|0:0,0:0:0:0:
447,221,175988,2,0,L|298:200,1,144,2|2,1:2|0:0,0:0:0:0:
174,190,176438,2,0,L|200:268,1,72,2|0,3:2|0:0,0:0:0:0:
23,356,176738,5,0,0:0:0:0:
127,376,176888,2,0,L|101:298,1,72,2|0,3:2|0:0,0:0:0:0:
17,242,177188,1,2,1:2:0:0:
86,154,177338,1,0,0:0:0:0:
0,95,177488,1,2,3:2:0:0:
0,95,177638,2,0,P|-7:47|22:27,1,72,4|0,0:0|0:0,0:0:0:0:
177,17,177938,5,2,3:2:0:0:
115,117,178088,2,0,L|187:103,1,72,2|0,0:0|0:0,0:0:0:0:
312,110,178388,5,2,1:2:0:0:
225,191,178538,2,0,L|306:200,1,76.5000014591217,2|0,0:0|0:0,0:0:0:0:
416,250,178838,5,2,0:0:0:0:
308,300,178988,2,0,L|382:334,1,80.9999975280763,2|0,3:2|0:0,0:0:0:0:
506,183,179288,5,2,3:2:0:0:
428,81,179438,2,0,P|370:154|421:238,1,180,2|2,0:0|0:0,0:0:0:0:
236,153,179888,1,2,0:0:0:0:
332,118,180038,1,2,3:2:0:0:
63,26,180188,5,2,0:0:0:0:
157,59,180338,1,0,0:0:0:0:
62,127,180488,2,0,B|42:205|90:165|67:277,1,135,2|0,3:2|0:0,0:0:0:0:
175,373,180788,2,0,B|195:295|147:335|170:223,1,135,2|0,1:2|0:0,0:0:0:0:
181,188,181088,2,0,P|223:161|265:171,1,90,2|0,3:2|0:0,0:0:0:0:
373,209,181388,5,2,3:2:0:0:
324,96,181538,1,0,0:0:0:0:
373,229,181688,1,2,3:2:0:0:
455,118,181838,1,0,3:0:0:0:
455,118,181913,1,0,3:0:0:0:
455,118,181988,1,10,0:0:0:0:
375,245,182138,1,2,3:2:0:0:
299,93,182288,1,10,0:0:0:0:
108,237,182438,6,0,B|152:235|152:235|192:215|192:215|247:218,1,144,4|0,1:2|0:0,0:0:0:0:
58,144,182888,2,0,P|14:181|13:211,1,72,2|0,3:2|0:0,0:0:0:0:
162,74,183188,2,0,L|152:0,2,72,0|0|0,1:2|0:0|0:0,0:0:0:0:
281,243,183638,6,0,B|249:179|249:179|299:93,2,144,2|2|0,3:2|0:0|3:0,0:0:0:0:
150,384,184388,1,2,1:2:0:0:
171,251,184538,1,0,0:0:0:0:
269,350,184688,1,2,3:2:0:0:
24,244,184838,6,0,P|29:318|85:280,1,144,4|0,0:0|3:0,0:0:0:0:
114,106,185288,2,0,B|101:141|101:141|135:189,1,72,2|0,3:2|0:0,0:0:0:0:
223,132,185588,1,2,1:2:0:0:
300,216,185738,1,0,0:0:0:0:
252,316,185888,1,0,0:0:0:0:
340,115,186038,6,0,L|436:100,1,72,0|2,3:0|3:2,0:0:0:0:
512,222,186338,2,0,L|416:237,1,72,8|8,3:0|3:0,0:0:0:0:
245,101,186638,1,4,3:0:0:0:
251,66,186713,1,0,3:0:0:0:
277,42,186788,1,2,1:2:0:0:
340,115,186938,1,0,3:0:0:0:
234,219,187088,1,2,1:2:0:0:
344,236,187238,6,0,B|303:297|303:297|332:383,1,144,4|2,0:0|3:2,0:0:0:0:
141,244,187688,2,0,P|150:178|178:157,1,72,0|0,3:2|0:0,0:0:0:0:
338,67,187988,2,0,B|290:57|275:32|275:32|268:58|219:89,1,144,2|0,1:2|0:0,0:0:0:0:
29,86,188438,6,0,B|59:82|59:82|68:75|68:75|124:70,1,72,2|0,3:2|0:0,0:0:0:0:
174,174,188738,2,0,B|204:178|204:178|213:185|213:185|269:190,1,72,2|0,0:0|0:0,0:0:0:0:
67,269,189038,1,2,3:2:0:0:
59,233,189113,1,0,3:0:0:0:
52,198,189188,1,2,1:2:0:0:
229,384,189338,1,0,0:0:0:0:
163,314,189488,2,0,L|241:290,1,72,2|0,0:0|3:0,0:0:0:0:
316,215,189788,5,2,3:2:0:0:
207,199,189938,1,0,3:0:0:0:
330,237,190088,1,10,0:0:0:0:
267,74,190238,1,0,0:0:0:0:
345,262,190388,1,8,0:0:0:0:
388,52,190538,1,0,3:0:0:0:
365,290,190688,1,0,3:0:0:0:
512,191,190838,6,0,P|482:129|415:195,1,180,2|0,0:0|3:0,0:0:0:0:
455,305,191213,1,0,3:0:0:0:
455,305,191288,2,0,L|438:371,1,45,0|0,3:0|3:0,0:0:0:0:
325,257,191438,2,0,L|308:191,1,45,0|0,3:0|3:0,0:0:0:0:
331,19,191588,1,8,0:0:0:0:
331,63,191663,1,8,0:0:0:0:
309,102,191738,1,8,0:0:0:0:
271,125,191813,1,8,0:0:0:0:
226,125,191888,1,8,0:0:0:0:
44,26,192038,6,0,B|83:37|83:37|131:21|131:21|118:87|118:87|151:117|131:188,1,251.999992309571,4|0,1:2|3:0,0:0:0:0:
104,310,192488,1,8,0:0:0:0:
18,196,192638,1,2,0:0:0:0:
191,338,192788,5,2,3:2:0:0:
12,287,192938,1,0,3:0:0:0:
285,362,193088,5,10,0:0:0:0:
159,218,193238,1,0,0:0:0:0:
318,262,193388,6,0,L|259:257,1,58.4999973220826,2|0,3:2|0:0,0:0:0:0:
121,118,193538,2,0,L|209:125,1,58.4999973220826,2|0,3:2|0:0,0:0:0:0:
266,0,193688,1,10,0:0:0:0:
266,0,193838,2,0,B|236:95|303:59|267:191,1,175.499991966248,2|0,3:2|0:0,0:0:0:0:
179,122,194138,1,0,3:0:0:0:
512,123,194288,1,10,0:0:0:0:
370,29,194438,6,0,B|418:61|418:61|462:7,1,116.999994644165,4|0,0:0|0:0,0:0:0:0:
350,215,194738,1,2,3:2:0:0:
271,155,194888,1,10,0:0:0:0:
491,199,195038,5,0,3:0:0:0:
467,182,195113,1,0,3:0:0:0:
443,165,195188,1,2,3:2:0:0:
394,375,195338,1,2,3:2:0:0:
275,169,195488,1,10,0:0:0:0:
281,346,195638,1,0,3:0:0:0:
281,346,195713,1,0,3:0:0:0:
281,346,195788,6,0,P|343:268|391:274,1,116.999994644165,2|2,3:2|3:2,0:0:0:0:
180,218,196088,1,10,0:0:0:0:
49,313,196238,1,2,3:2:0:0:
49,313,196313,1,0,3:0:0:0:
49,313,196388,2,0,P|91:338|136:328,1,58.4999973220826,2|0,3:2|3:0,0:0:0:0:
251,142,196538,2,0,P|208:116|163:126,1,58.4999973220826,2|0,3:2|3:0,0:0:0:0:
74,198,196688,1,10,0:0:0:0:
51,8,196838,6,0,B|11:58|11:58|55:133,1,116.999994644165,4|0,0:0|0:0,0:0:0:0:
220,297,197138,1,2,3:2:0:0:
99,339,197288,1,10,0:0:0:0:
140,148,197438,2,0,B|180:198|180:198|136:273,1,116.999994644165,0|2,0:0|3:2,0:0:0:0:
62,206,197738,5,0,3:0:0:0:
123,58,197888,1,10,0:0:0:0:
261,123,198038,1,2,3:2:0:0:
261,123,198113,1,0,3:0:0:0:
261,123,198188,6,0,P|286:162|371:154,1,116.999994644165,2|0,3:2|3:0,0:0:0:0:
440,111,198488,1,10,0:0:0:0:
408,12,198638,1,0,0:0:0:0:
339,76,198788,5,2,3:2:0:0:
468,213,198938,1,0,3:2:0:0:
505,34,199088,1,10,0:0:0:0:
360,199,199238,1,0,0:0:0:0:
437,338,199388,5,2,3:2:0:0:
416,334,199463,1,2,0:0:0:0:
396,332,199538,1,2,3:2:0:0:
378,328,199613,1,2,0:0:0:0:
359,327,199688,2,0,L|373:392,1,58.4999973220826,8|2,0:0|0:0,0:0:0:0:
184,199,199838,5,2,3:2:0:0:
205,195,199913,1,2,0:0:0:0:
225,193,199988,1,2,3:2:0:0:
243,189,200063,1,2,0:0:0:0:
262,188,200138,2,0,L|248:253,1,58.4999973220826,2|2,0:0|0:0,0:0:0:0:
162,364,200288,6,0,L|95:353,1,58.4999973220826,10|2,0:0|0:0,0:0:0:0:
0,238,200438,2,0,L|67:227,1,58.4999973220826,2|2,0:0|0:0,0:0:0:0:
151,111,200588,2,0,B|83:65|83:65|164:43|223:106|223:106|262:87|262:87|297:112|328:98,1,350.999983932496,2|2,3:2|3:2,0:0:0:0:
452,8,201113,1,0,0:0:0:0:
452,8,201188,1,10,0:0:0:0:
452,8,201263,1,0,3:0:0:0:
452,8,201338,2,0,P|426:64|437:84,1,58.4999973220826,0|0,3:0|3:0,0:0:0:0:
416,160,201488,1,10,0:0:0:0:
263,292,201638,6,0,P|238:215|317:222,1,170.999995433807,4|0,0:0|3:0,0:0:0:0:
408,303,202088,2,0,B|385:336|385:336|403:383,1,85.4999977169037,10|0,0:0|0:0,0:0:0:0:
434,99,202388,1,2,3:2:0:0:
402,197,202538,1,0,3:0:0:0:
506,182,202688,1,10,0:0:0:0:
312,89,202838,6,0,B|289:133|289:133|250:15,1,170.999995433807,0|0,3:2|3:0,0:0:0:0:
77,44,203288,2,0,P|114:5|155:7,1,85.4999977169037,8|0,0:0|0:0,0:0:0:0:
193,125,203588,1,2,3:2:0:0:
43,153,203738,2,0,B|68:189|68:189|55:240,1,85.4999977169037,2|8,3:2|0:0,0:0:0:0:
130,383,204038,6,0,P|133:310|193:275,1,128.249996575356,4|0,0:0|0:0,0:0:0:0:
224,359,204338,1,0,3:0:0:0:
227,172,204488,2,0,P|276:188|317:164,1,85.4999977169037,10|0,0:0|3:0,0:0:0:0:
88,96,204788,2,0,P|112:158|122:188,2,85.4999977169037,2|0|10,3:2|3:0|0:0,0:0:0:0:
374,31,205238,6,0,B|315:23|289:51|289:51|271:10|205:3,1,170.999995433807,0|0,0:0|3:0,0:0:0:0:
251,229,205688,2,0,L|208:132,1,85.4999977169037,8|0,0:0|0:0,0:0:0:0:
485,199,205988,1,2,3:2:0:0:
395,140,206138,2,0,P|342:131|334:163,1,85.4999977169037,2|8,3:2|0:0,0:0:0:0:
292,337,206438,6,0,B|349:279|349:279|431:317,1,170.999995433807,4|0,0:0|3:0,0:0:0:0:
202,373,206888,2,0,P|197:306|215:287,1,85.4999977169037,10|0,0:0|0:0,0:0:0:0:
264,39,207188,1,2,3:2:0:0:
300,124,207338,1,0,3:0:0:0:
253,213,207488,1,10,0:0:0:0:
92,105,207638,6,0,P|119:166|184:113,1,170.999995433807,2|0,3:2|3:0,0:0:0:0:
9,75,208088,2,0,P|-8:134|9:165,1,85.4999977169037,8|0,0:0|0:0,0:0:0:0:
120,320,208388,1,2,3:2:0:0:
130,189,208538,1,0,3:0:0:0:
23,264,208688,1,10,0:0:0:0:
216,248,208838,1,0,0:0:0:0:
216,248,208988,6,0,B|329:222|253:177|373:156,1,170.999995433807,4|10,0:0|0:0,0:0:0:0:
375,263,209438,1,0,0:0:0:0:
375,263,209588,2,0,L|357:355,1,85.4999977169037,0|0,3:0|0:0,0:0:0:0:
219,159,209888,1,10,0:0:0:0:
511,145,210038,6,0,B|398:119|474:74|354:53,1,170.999995433807,2|2,0:0|3:2,0:0:0:0:
188,80,210488,2,0,P|230:32|279:37,1,85.4999977169037,8|0,0:0|0:0,0:0:0:0:
306,171,210788,1,2,3:2:0:0:
300,200,210863,1,0,3:0:0:0:
295,229,210938,1,2,3:2:0:0:
290,259,211013,1,0,3:0:0:0:
285,288,211088,1,8,0:0:0:0:
114,221,211238,6,0,B|159:226|159:226|214:193,1,85.4999977169037,4|0,0:0|0:0,0:0:0:0:
131,121,211538,1,0,3:0:0:0:
27,282,211688,2,0,L|-7:180,1,85.4999977169037,10|0,0:0|0:0,0:0:0:0:
236,367,211988,1,2,3:2:0:0:
151,281,212138,2,0,L|131:380,1,85.4999977169037,0|8,3:0|0:0,0:0:0:0:
126,172,212438,6,0,P|212:159|246:236,1,170.999995433807,2|0,3:2|3:0,0:0:0:0:
367,25,212888,2,0,P|334:82|309:86,1,85.4999977169037,8|0,0:0|0:0,0:0:0:0:
335,290,213188,2,0,P|356:230|391:209,2,85.4999977169037,2|2|8,3:2|3:2|0:0,0:0:0:0:
508,65,213638,6,0,B|497:110|461:132|461:132|490:168|491:252,1,170.999995433807,4|0,0:0|3:0,0:0:0:0:
288,236,214088,2,0,L|383:215,1,85.4999977169037,10|0,0:0|0:0,0:0:0:0:
212,146,214388,1,2,3:2:0:0:
204,277,214538,1,2,3:2:0:0:
310,139,214688,1,8,0:0:0:0:
59,45,214838,6,0,B|63:154|123:96|119:213,1,170.999995433807,4|0,0:0|3:0,0:0:0:0:
23,195,215288,1,8,0:0:0:0:
149,51,215438,1,0,0:0:0:0:
13,372,215588,1,10,0:0:0:0:
20,334,215663,1,0,3:0:0:0:
45,306,215738,1,0,3:0:0:0:
81,294,215813,1,0,3:0:0:0:
118,302,215888,2,0,P|182:344|251:291,1,141.749995674133,0|0,3:0|3:0,0:0:0:0:
266,239,216188,5,12,0:0:0:0:
157,192,216338,1,0,3:0:0:0:
376,257,216488,5,10,0:0:0:0:
243,114,216638,1,0,3:0:0:0:
462,246,216788,5,10,0:0:0:0:
344,44,216938,1,0,3:0:0:0:
512,5,217088,5,10,0:0:0:0:
468,152,217238,1,0,3:0:0:0:
289,73,217388,5,10,0:0:0:0:
418,23,217538,1,0,3:0:0:0:
195,126,217688,5,10,0:0:0:0:
365,198,217838,1,0,3:0:0:0:
79,89,217988,5,10,0:0:0:0:
233,245,218138,1,0,3:0:0:0:
89,382,218288,5,10,0:0:0:0:
122,196,218438,1,0,3:0:0:0:
0,310,218588,6,0,P|63:296|118:286,1,94.499997116089,10|0,0:0|3:0,0:0:0:0:
197,183,218888,2,0,P|260:197|315:207,1,94.499997116089,8|0,0:0|3:0,0:0:0:0:
405,314,219188,5,8,0:0:0:0:
405,314,219288,2,0,P|390:366|405:397,1,62.9999980773926,0|0,3:0|3:0,0:0:0:0:
499,225,219488,5,8,3:0:0:0:
499,225,219588,2,0,P|514:173|499:142,1,62.9999980773926,4|0,3:0|3:0,0:0:0:0:
425,71,219788,6,0,B|343:49|362:5|362:5|404:30|356:76|302:101|312:185|312:185|317:136|283:22|146:7|56:112|56:112|137:82|190:120|203:197|154:236,1,877.49995983124,12|4,0:0|0:0,0:0:0:0:
68,350,231188,6,0,L|117:337,1,45
246,199,231338,6,0,L|174:218,1,60.7499981460572
55,165,231638,5,4,3:2:0:0:
333,39,232388,5,0,0:0:0:0:
229,148,232688,1,0,0:0:0:0:
192,7,232988,1,4,3:2:0:0:
407,338,233588,5,0,0:0:0:0:
338,219,233738,2,0,L|328:263,1,40.4999987640381
239,330,234038,1,4,3:2:0:0:
8,143,234788,5,0,0:0:0:0:
97,192,235088,1,0,0:0:0:0:
184,131,235388,1,4,3:2:0:0:
0,294,235688,5,0,0:0:0:0:
124,62,235988,6,0,P|144:41|215:41,1,85.4999977169037,8|0,3:0|3:0,0:0:0:0:
178,171,236288,1,4,3:0:0:0:
314,197,236438,2,0,B|304:139|274:117|274:117|303:82|316:10,1,170.999995433807,4|0,0:0|0:0,0:0:0:0:
413,34,236813,1,0,3:0:0:0:
413,34,236888,6,0,L|398:87,3,45,0|0|0|0,3:0|3:0|3:0|3:0,0:0:0:0:
511,193,237188,2,0,L|495:129,1,45,0|0,3:0|3:0,0:0:0:0:
378,227,237338,2,0,L|394:291,1,45,0|0,3:0|3:0,0:0:0:0:
506,384,237488,1,0,3:0:0:0:
506,384,237563,1,0,3:0:0:0:
506,384,237638,2,0,L|435:366,1,45,0|0,3:0|3:0,0:0:0:0:
305,360,237788,6,0,P|280:321|254:307,3,45,0|0|0|0,3:0|3:0|3:0|3:0,0:0:0:0:
265,215,238088,2,0,P|220:199|193:205,3,45,0|0|0|0,3:0|3:0|3:0|3:0,0:0:0:0:
129,368,238388,5,0,3:0:0:0:
135,324,238463,1,0,3:0:0:0:
110,288,238538,1,0,3:0:0:0:
67,277,238613,1,0,3:0:0:0:
29,298,238688,2,0,P|1:236|5:229,1,45,0|0,3:0|3:0,0:0:0:0:
66,155,238838,2,0,P|60:108|71:92,1,45,0|0,3:0|3:0,0:0:0:0:
173,22,238988,5,0,3:0:0:0:
173,22,239063,1,0,3:0:0:0:
173,22,239138,2,0,L|255:8,1,45,0|0,3:0|3:0,0:0:0:0:
321,107,239288,5,0,3:0:0:0:
321,107,239363,1,0,3:0:0:0:
321,107,239438,2,0,L|403:93,1,45,0|0,3:0|3:0,0:0:0:0:
495,305,239588,5,0,3:0:0:0:
512,269,239663,1,0,3:0:0:0:
498,231,239738,1,0,3:0:0:0:
456,219,239813,1,0,3:0:0:0:
418,240,239888,2,0,L|402:306,1,45,0|0,3:0|3:0,0:0:0:0:
276,160,240038,2,0,L|292:225,1,45,0|0,3:0|3:0,0:0:0:0:
186,323,240188,5,2,3:0:0:0:
0,208,240338,1,0,3:0:0:0:
22,203,240413,1,0,3:0:0:0:
46,200,240488,1,10,0:0:0:0:
187,54,240638,1,0,3:0:0:0:
76,57,240788,5,10,0:0:0:0:
229,197,240938,1,8,3:0:0:0:
74,340,241088,1,2,3:2:0:0:
100,177,241238,5,8,0:0:0:0:
259,265,241388,1,0,3:0:0:0:
77,177,241538,5,10,0:0:0:0:
367,102,241688,1,0,3:0:0:0:
44,179,241838,5,10,0:0:0:0:
162,13,241988,1,0,0:0:0:0:
162,13,242138,2,0,L|171:61,1,36
262,184,242438,6,0,B|243:244|243:244|253:280|253:280|230:348,1,161.999995056153,4|0,0:0|0:0,0:0:0:0:
140,260,242738,1,0,3:0:0:0:
348,117,242888,2,0,P|308:69|248:76,1,107.999996704102,10|0,0:0|0:0,0:0:0:0:
414,232,243188,2,0,B|460:252|460:252|517:222,1,107.999996704102,2|0,3:2|3:0,0:0:0:0:
318,316,243488,1,10,0:0:0:0:
269,216,243638,1,0,0:0:0:0:
390,382,243788,6,0,B|318:349|318:349|228:374,1,161.999995056153,2|0,3:2|0:0,0:0:0:0:
73,277,244088,2,0,B|118:300|118:300|200:271,1,107.999996704102,8|0,0:0|0:0,0:0:0:0:
274,107,244388,1,2,3:2:0:0:
168,142,244538,2,0,B|126:105|126:105|183:56,1,107.999996704102,0|10,3:0|0:0,0:0:0:0:
473,164,244838,6,0,B|335:144|410:237|250:212,1,215.999993408203,4|0,0:0|3:0,0:0:0:0:
163,384,245288,2,0,P|188:302|223:289,1,107.999996704102,10|0,0:0|0:0,0:0:0:0:
0,183,245588,1,2,3:2:0:0:
86,262,245738,1,0,3:0:0:0:
103,59,245888,1,10,0:0:0:0:
115,163,246038,1,0,0:0:0:0:
215,84,246188,6,0,B|282:97|282:97|350:79|354:20,1,161.999995056153,2|0,3:2|0:0,0:0:0:0:
512,85,246488,2,0,P|443:90|425:142,1,107.999996704102,10|0,0:0|0:0,0:0:0:0:
305,377,246788,1,2,3:2:0:0:
254,278,246938,1,0,3:0:0:0:
309,143,247088,1,10,0:0:0:0:
345,264,247238,6,0,P|262:308|181:205,1,215.999993408203,4|0,0:0|3:0,0:0:0:0:
188,6,247688,2,0,P|234:52|232:101,1,107.999996704102,10|0,0:0|0:0,0:0:0:0:
16,132,247988,2,0,B|67:121|67:121|88:103|88:103|139:91,1,107.999996704102,2|0,3:2|3:0,0:0:0:0:
239,333,248288,2,0,B|211:326|211:326|190:308|190:308|139:297,1,107.999996704102,10|0,0:0|0:0,0:0:0:0:
35,335,248588,6,0,P|37:247|107:214,1,161.999995056153,2|0,3:2|0:0,0:0:0:0:
273,170,248888,2,0,B|226:204|226:204|188:172,1,107.999996704102,8|0,0:0|0:0,0:0:0:0:
188,10,249188,1,2,3:2:0:0:
113,88,249338,1,0,3:0:0:0:
177,296,249488,2,0,B|205:292|228:310|228:310|250:287|315:287,1,107.999996704102,10|0,0:0|0:0,0:0:0:0:
408,372,249713,1,2,0:0:0:0:
408,372,249788,6,0,P|389:305|423:259,1,107.999996704102,4|0,0:0|3:0,0:0:0:0:
495,65,250088,1,8,0:0:0:0:
501,117,250163,1,8,0:0:0:0:
466,155,250238,1,8,0:0:0:0:
413,155,250313,1,8,0:0:0:0:
379,115,250388,2,0,L|301:132,1,53.9999983520508,0|0,3:0|3:0,0:0:0:0:
180,58,250538,2,0,L|258:41,1,53.9999983520508,0|0,3:0|3:0,0:0:0:0:
339,225,250688,2,0,L|261:242,1,53.9999983520508,8|8,0:0|0:0,0:0:0:0:
64,225,250838,1,8,0:0:0:0:
184,161,250988,6,0,B|162:213|162:213|183:265,1,107.999996704102,0|0,3:0|3:0,0:0:0:0:
256,333,251213,1,0,3:0:0:0:
256,333,251288,2,0,L|238:391,1,53.9999983520508,8|8,0:0|0:0,0:0:0:0:
117,384,251438,2,0,L|99:326,1,53.9999983520508,8|8,0:0|0:0,0:0:0:0:
298,154,251588,5,8,0:0:0:0:
341,147,251663,1,8,3:0:0:0:
380,168,251738,1,8,3:0:0:0:
397,209,251813,1,8,3:0:0:0:
386,251,251888,1,8,3:0:0:0:
370,269,251963,1,8,3:0:0:0:
357,285,252038,6,0,B|322:250|322:250|396:193|493:290,1,215.999993408203,0|0,3:2|3:0,0:0:0:0:
501,38,252488,2,0,P|469:96|424:103,1,107.999996704102,12|0,0:0|0:0,0:0:0:0:
314,152,252788,2,0,B|286:96|286:96|307:48,1,107.999996704102,2|0,3:2|3:0,0:0:0:0:
215,265,253088,2,0,B|243:321|243:321|222:369,1,107.999996704102,10|0,0:0|0:0,0:0:0:0:
52,256,253313,1,2,0:0:0:0:
52,256,253388,6,0,B|165:232|76:183|224:151,1,161.999995056153,2|0,3:2|0:0,0:0:0:0:
233,59,253688,2,0,P|171:40|125:69,1,107.999996704102,8|0,0:0|0:0,0:0:0:0:
253,255,253988,1,2,3:2:0:0:
314,152,254138,2,0,B|362:164|362:164|440:117,1,107.999996704102,0|10,3:0|0:0,0:0:0:0:
496,333,254438,6,0,P|475:254|412:279,1,161.999995056153,4|0,0:0|0:0,0:0:0:0:
392,384,254738,1,0,3:0:0:0:
292,183,254888,2,0,B|289:222|289:222|301:244|301:244|292:290,1,107.999996704102,10|0,0:0|0:0,0:0:0:0:
112,364,255188,1,2,3:2:0:0:
206,268,255338,1,0,3:0:0:0:
23,204,255488,1,10,0:0:0:0:
110,276,255638,1,0,0:0:0:0:
135,148,255788,6,0,P|134:78|163:52,1,107.999996704102,8|0,0:0|3:0,0:0:0:0:
260,16,256013,1,8,0:0:0:0:
260,16,256088,2,0,L|323:18,1,53.9999983520508,8|0,0:0|3:0,0:0:0:0:
435,123,256238,2,0,L|372:121,1,53.9999983520508,0|0,3:0|3:0,0:0:0:0:
226,299,256388,1,10,0:0:0:0:
208,250,256463,1,0,3:0:0:0:
240,209,256538,1,0,3:0:0:0:
291,214,256613,1,0,3:0:0:0:
314,260,256688,1,10,0:0:0:0:
138,344,256838,6,0,P|108:257|144:178,1,161.999995056153,4|0,0:0|0:0,0:0:0:0:
187,119,257138,1,0,3:0:0:0:
13,36,257288,2,0,P|38:100|17:146,1,107.999996704102,8|0,0:0|3:0,0:0:0:0:
238,34,257588,2,0,B|189:25|189:25|163:32|163:32|117:27,1,107.999996704102,10|0,0:0|3:0,0:0:0:0:
213,134,257813,1,0,3:0:0:0:
213,134,257888,1,10,0:0:0:0:
18,264,258038,6,0,B|73:252|73:252|112:270|112:270|194:253,1,161.999995056153,4|0,0:0|0:0,0:0:0:0:
127,159,258338,1,0,3:0:0:0:
269,384,258488,2,0,P|265:320|299:295,1,107.999996704102,8|0,0:0|3:0,0:0:0:0:
356,88,258788,1,10,0:0:0:0:
349,140,258863,1,0,3:0:0:0:
306,170,258938,1,0,3:0:0:0:
254,57,259088,1,10,0:0:0:0:
438,375,259238,6,0,B|463:270|396:311|437:187,1,161.999995056153,4|0,0:0|3:0,0:0:0:0:
433,110,259538,1,8,0:0:0:0:
433,110,259613,1,8,0:0:0:0:
433,110,259688,2,0,L|504:92,1,53.9999983520508,8|0,0:0|3:0,0:0:0:0:
281,20,259838,2,0,L|352:38,1,53.9999983520508,0|0,3:0|3:0,0:0:0:0:
309,273,259988,5,8,3:0:0:0:
314,221,260063,1,8,3:0:0:0:
285,177,260138,1,8,3:0:0:0:
233,166,260213,1,8,3:0:0:0:
181,192,260288,2,0,P|119:167|110:140,1,53.9999983520508,4|4,3:0|3:0,0:0:0:0:
58,29,260438,2,0,P|83:82|70:103,1,53.9999983520508,4|4,3:0|3:0,0:0:0:0:
8,181,260588,5,8,0:0:0:0:
197,17,260738,1,8,0:0:0:0:
197,17,260813,1,8,0:0:0:0:
197,17,260888,2,0,L|179:86,1,53.9999983520508,8|8,0:0|0:0,0:0:0:0:
106,350,261038,2,0,L|88:281,1,53.9999983520508,8|8,0:0|0:0,0:0:0:0:
179,210,261188,5,8,0:0:0:0:
222,180,261263,1,8,0:0:0:0:
277,186,261338,1,8,0:0:0:0:
319,219,261413,1,8,0:0:0:0:
364,246,261488,1,8,0:0:0:0:
417,242,261563,1,8,0:0:0:0:
459,209,261638,6,0,P|477:131|395:86,1,161.999995056153,4|0,0:0|0:0,0:0:0:0:
315,82,261938,1,0,3:0:0:0:
315,82,262013,1,0,3:0:0:0:
315,82,262088,2,0,P|300:19|365:8,1,107.999996704102,12|0,0:0|0:0,0:0:0:0:
319,326,262388,2,0,P|306:241|260:224,1,107.999996704102,2|0,3:2|3:0,0:0:0:0:
135,134,262688,2,0,B|175:167|175:167|216:125,1,107.999996704102,10|0,0:0|0:0,0:0:0:0:
36,23,262988,6,0,B|37:67|0:89|0:89|48:117|28:179,1,161.999995056153,2|0,3:2|0:0,0:0:0:0:
18,367,263288,2,0,P|8:283|29:262,1,107.999996704102,8|0,0:0|0:0,0:0:0:0:
234,266,263588,1,2,3:2:0:0:
145,330,263738,1,0,3:0:0:0:
129,218,263888,1,10,0:0:0:0:
268,115,264038,6,0,B|243:125|222:157|222:157|204:-1,1,215.999993408203,4|0,0:0|3:0,0:0:0:0:
373,47,264488,2,0,B|414:51|414:51|436:46|436:46|489:59,1,107.999996704102,8|0,0:0|0:0,0:0:0:0:
441,166,264788,1,0,3:0:0:0:
441,166,264938,1,0,3:0:0:0:
350,247,265088,1,8,0:0:0:0:
350,247,265238,1,0,0:0:0:0:
441,311,265388,5,0,3:2:0:0:
319,147,265538,1,0,0:0:0:0:
289,346,265688,1,8,0:0:0:0:
289,346,265838,1,0,0:0:0:0:
473,179,265988,5,0,3:0:0:0:
350,275,266138,1,0,3:0:0:0:
377,47,266288,1,8,0:0:0:0:
263,176,266438,6,0,B|198:160|198:160|152:176|152:176|79:164,1,161.999995056153,4|0,0:0|0:0,0:0:0:0:
147,72,266738,1,0,3:0:0:0:
11,207,266888,2,0,P|1:137|39:106,1,107.999996704102,10|0,0:0|0:0,0:0:0:0:
127,283,267188,2,0,B|94:324|94:324|136:388,1,107.999996704102,2|0,3:2|3:0,0:0:0:0:
252,162,267488,2,0,B|285:203|285:203|243:267,1,107.999996704102,10|0,0:0|0:0,0:0:0:0:
153,27,267788,5,2,3:2:0:0:
148,154,267938,1,0,3:0:0:0:
265,60,268088,2,0,L|375:38,1,107.999996704102,10|0,0:0|0:0,0:0:0:0:
401,277,268388,1,2,3:2:0:0:
461,166,268538,1,0,3:0:0:0:
360,124,268688,1,10,0:0:0:0:
292,234,268838,2,0,B|282:276|282:276|288:298|288:298|267:365,1,107.999996704102,4|0,0:0|0:0,0:0:0:0:
102,212,269138,5,2,3:2:0:0:
102,212,269213,1,0,3:0:0:0:
102,212,269288,2,0,L|183:188,1,53.9999983520508,8|0,0:0|0:0,0:0:0:0:
291,92,269438,5,2,3:2:0:0:
291,92,269513,1,0,3:0:0:0:
291,92,269588,2,0,L|210:68,1,53.9999983520508,10|0,0:0|0:0,0:0:0:0:
166,289,269738,6,0,L|231:274,1,53.9999983520508,0|0,3:2|3:2,0:0:0:0:
367,198,269888,2,0,L|286:174,1,53.9999983520508,8|0,0:0|0:0,0:0:0:0:
236,375,270038,2,0,L|308:362,1,53.9999983520508,0|0,3:0|0:0,0:0:0:0:
419,370,270188,5,8,0:0:0:0:
396,322,270263,1,0,3:0:0:0:
417,274,270338,1,0,3:0:0:0:
467,259,270413,1,0,3:0:0:0:
511,288,270488,1,0,3:0:0:0:
454,28,270638,5,8,0:0:0:0:
471,77,270713,1,0,3:0:0:0:
448,124,270788,1,0,3:0:0:0:
398,140,270863,1,0,3:0:0:0:
352,115,270938,2,0,L|276:112,1,53.9999983520508,0|0,3:0|0:0,0:0:0:0:
174,9,271088,2,0,L|250:12,1,53.9999983520508,8|0,0:0|3:0,0:0:0:0:
195,203,271238,6,0,B|142:196|105:150|105:150|103:222|52:269,1,215.999993408203,4|0,0:0|3:0,0:0:0:0:
285,384,271688,2,0,B|264:335|264:335|296:275,1,107.999996704102,10|0,0:0|0:0,0:0:0:0:
404,110,271988,1,2,3:2:0:0:
336,193,272138,1,0,3:0:0:0:
418,275,272288,2,0,P|481:283|507:242,1,107.999996704102,10|0,0:0|0:0,0:0:0:0:
300,76,272588,6,0,B|322:30|322:30|394:69,1,107.999996704102,2|0,3:2|0:0,0:0:0:0:
159,214,272888,2,0,B|209:241|209:241|231:195,1,107.999996704102,8|0,0:0|0:0,0:0:0:0:
38,31,273188,1,2,3:2:0:0:
122,94,273338,1,0,3:0:0:0:
29,181,273488,1,10,0:0:0:0:
148,369,273638,6,0,B|165:277|105:308|138:192,1,161.999995056153,4|0,0:0|0:0,0:0:0:0:
56,347,273938,1,0,3:0:0:0:
228,154,274088,2,0,P|174:104|134:107,1,107.999996704102,8|0,0:0|0:0,0:0:0:0:
249,302,274388,2,0,B|297:295|297:295|314:283|314:283|367:274,1,107.999996704102,0|0,3:0|3:0,0:0:0:0:
483,355,274688,2,0,B|435:362|435:362|418:374|418:374|365:383,1,107.999996704102,8|0,0:0|0:0,0:0:0:0:
321,146,274988,5,0,3:0:0:0:
440,118,275138,1,0,3:0:0:0:
466,257,275288,1,8,0:0:0:0:
344,43,275438,1,0,3:0:0:0:
347,278,275588,1,0,3:0:0:0:
309,271,275663,1,0,3:0:0:0:
272,264,275738,1,0,3:0:0:0:
234,257,275813,1,0,3:0:0:0:
198,250,275888,1,0,3:0:0:0:
130,55,276038,6,0,P|208:66|222:149,1,161.999995056153,4|0,0:0|0:0,0:0:0:0:
124,169,276338,1,0,3:0:0:0:
426,19,276488,2,0,P|367:12|332:56,1,107.999996704102,10|0,0:0|0:0,0:0:0:0:
412,227,276788,1,2,3:2:0:0:
362,140,276938,1,0,3:0:0:0:
511,119,277088,2,0,B|468:203|544:179|490:309,1,161.999995056153,10|0,0:0|0:0,0:0:0:0:
334,383,277388,6,0,P|364:327|414:324,1,107.999996704102,2|0,3:2|3:0,0:0:0:0:
213,154,277688,1,10,0:0:0:0:
318,225,277838,1,0,0:0:0:0:
198,373,277988,2,0,B|194:334|211:318|211:318|195:293|187:261,1,107.999996704102,8|0,3:0|3:0,0:0:0:0:
90,206,278213,1,0,3:0:0:0:
90,206,278288,2,0,L|13:220,1,53.9999983520508,10|0,0:0|0:0,0:0:0:0:
144,37,278438,6,0,P|165:102|226:108,1,107.999996704102,4|0,0:0|0:0,0:0:0:0:
255,8,278738,1,0,3:0:0:0:
325,152,278888,6,0,L|306:74,1,53.9999983520508,10|0,0:0|0:0,0:0:0:0:
381,24,279038,1,0,3:0:0:0:
490,265,279188,6,0,L|509:187,1,53.9999983520508,10|0,0:0|0:0,0:0:0:0:
434,137,279338,1,0,3:0:0:0:
376,384,279488,6,0,L|355:304,2,53.9999983520508,10|0|0,0:0|0:0|3:0,0:0:0:0:
238,276,279788,6,0,B|200:293|200:293|181:308|181:308|130:328,1,107.999996704102,10|0,0:0|3:0,0:0:0:0:
71,222,280088,2,0,B|109:205|109:205|128:190|128:190|179:170,1,107.999996704102,10|0,0:0|3:0,0:0:0:0:
326,103,280388,2,0,P|343:47|310:8,1,107.999996704102,10|0,0:0|3:0,0:0:0:0:
220,59,280613,1,0,3:0:0:0:
220,59,280688,1,10,0:0:0:0:
414,218,280838,2,0,B|459:236|459:236|528:194,1,107.999996704102,4|0,0:0|0:0,0:0:0:0:
283,98,281138,6,0,L|295:161,1,53.9999983520508,0|0,3:0|3:0,0:0:0:0:
312,249,281288,1,10,0:0:0:0:
156,52,281438,6,0,L|168:115,1,53.9999983520508,0|0,3:0|0:0,0:0:0:0:
185,203,281588,1,10,0:0:0:0:
46,19,281738,6,0,L|57:92,2,53.9999983520508,0|0|10,3:0|0:0|0:0,0:0:0:0:
185,203,282038,1,0,3:0:0:0:
16,293,282188,5,8,0:0:0:0:
4,252,282263,1,0,3:0:0:0:
25,209,282338,1,0,3:0:0:0:
73,202,282413,1,0,3:0:0:0:
112,228,282488,2,0,P|135:268|109:297,1,53.9999983520508,10|0,0:0|0:0,0:0:0:0:
152,382,282638,5,0,3:2:0:0:
189,374,282713,1,0,3:0:0:0:
226,367,282788,1,2,3:2:0:0:
263,360,282863,1,0,3:0:0:0:
300,352,282938,2,0,L|319:285,1,53.9999983520508,2|0,3:2|3:0,0:0:0:0:
213,119,283088,2,0,L|229:194,1,53.9999983520508,10|0,0:0|3:0,0:0:0:0:
324,22,283238,5,12,0:0:0:0:
256,192,283313,12,0,289238,0:0:0:0:
